osu file format v14

[General]
AudioFilename: audio.mp3
AudioLeadIn: 0
PreviewTime: 76696
Countdown: 0
SampleSet: Soft
StackLeniency: 0.7
Mode: 3
LetterboxInBreaks: 0
SpecialStyle: 0
WidescreenStoryboard: 1

[Editor]
DistanceSpacing: 0.8
BeatDivisor: 4
GridSize: 16
TimelineZoom: 1.7

[Metadata]
Title:Versus! (Cut Ver.)
TitleUnicode:ばーさす!(Cut Ver.)
Artist:Camellia feat. Nanahira
ArtistUnicode:Camellia feat. Nanahira
Creator:Rhezie
Version:Yukarin's Easy!
Source:
Tags:japanese denpa edm electronic 4orce! featured artist fa cametek kamelcamellia 大箭将也 masaya oya rip46 yukari_sama atian540 dubstek angki vocal VS! V.S. KCCD-001
BeatmapID:3046128
BeatmapSetID:1479680

[Difficulty]
HPDrainRate:7
CircleSize:4
OverallDifficulty:6.7
ApproachRate:5
SliderMultiplier:1.4
SliderTickRate:1

[Events]
//Background and Video events
0,0,"BG.jpg",0,0
//Break Periods
//Storyboard Layer 0 (Background)
//Storyboard Layer 1 (Fail)
//Storyboard Layer 2 (Pass)
//Storyboard Layer 3 (Foreground)
//Storyboard Layer 4 (Overlay)
//Storyboard Sound Samples
Sample,93032,0,"drum-hitfinish.wav",70
Sample,93332,0,"drum-hitclap.wav",70
Sample,129932,0,"drum-hitclap.wav",70

[TimingPoints]
32,300,4,2,1,70,1,0
76682,-100,4,2,1,70,0,1
103232,-100,4,2,1,70,0,0
103832,300,4,2,1,70,1,0

[HitObjects]
64,192,1682,5,2,0:1:0:0:
320,192,1832,128,8,2132:0:1:0:0:
192,192,2132,128,8,2432:0:3:0:0:
448,192,2432,1,6,0:0:0:0:
64,192,2582,1,6,0:0:0:0:
320,192,2882,1,0,0:0:0:0:
192,192,3182,1,0,0:0:0:0:
448,192,3482,1,0,0:0:0:0:
64,192,3782,1,0,0:0:0:0:
320,192,4082,1,0,0:0:0:0:
192,192,4382,1,2,0:1:0:0:
320,192,4532,128,8,4832:0:1:0:0:
64,192,4832,1,6,0:0:0:0:
448,192,4982,1,6,0:0:0:0:
192,192,5282,1,0,0:0:0:0:
320,192,5582,1,0,0:0:0:0:
448,192,5882,1,2,0:1:0:0:
64,192,6032,128,8,6332:0:1:0:0:
192,192,6332,128,8,6632:0:3:0:0:
320,192,6632,128,8,6932:0:3:0:0:
448,192,6932,128,8,7232:0:1:0:0:
64,192,7232,1,6,0:0:0:0:
320,192,7382,1,6,0:0:0:0:
192,192,7682,1,0,0:0:0:0:
448,192,7982,1,0,0:0:0:0:
64,192,8282,1,0,0:0:0:0:
448,192,8582,1,2,0:1:0:0:
192,192,8732,1,8,0:1:0:0:
320,192,8882,128,2,9182:0:1:0:0:
64,192,9182,128,0,9632:0:0:0:0:
320,192,9632,1,6,0:0:0:0:
192,192,9782,1,6,0:0:0:0:
448,192,10082,1,6,0:0:0:0:
64,192,10232,1,6,0:0:0:0:
192,192,10532,1,6,0:0:0:0:
320,192,10682,128,4,11132:0:0:0:0:
448,192,10682,1,2,0:0:0:0:
192,192,11132,128,0,11432:0:0:0:0:
448,192,11432,128,0,11732:0:0:0:0:
64,192,11732,1,4,0:1:0:0:
320,192,12032,1,2,0:0:0:0:
448,192,12032,1,4,0:0:0:0:
192,192,12332,1,8,0:0:0:0:
448,192,12782,1,2,0:0:0:0:
64,192,12932,1,8,0:0:0:0:
320,192,13232,1,2,0:0:0:0:
192,192,13532,1,8,0:0:0:0:
64,192,13982,1,2,0:0:0:0:
448,192,14132,1,8,0:0:0:0:
192,192,14432,1,2,0:0:0:0:
320,192,14732,1,8,0:0:0:0:
64,192,15182,1,2,0:0:0:0:
320,192,15332,1,8,0:0:0:0:
448,192,15632,1,2,0:0:0:0:
192,192,15932,128,8,16232:0:0:0:0:
448,192,16232,128,0,16532:0:0:0:0:
64,192,16532,1,8,0:0:0:0:
192,192,16832,1,2,0:0:0:0:
320,192,17132,1,8,0:0:0:0:
448,192,17582,1,2,0:0:0:0:
192,192,17732,1,8,0:0:0:0:
320,192,18032,1,2,0:0:0:0:
64,192,18332,1,8,0:0:0:0:
192,192,18782,1,2,0:0:0:0:
448,192,18932,1,8,0:0:0:0:
320,192,19232,1,2,0:0:0:0:
64,192,19532,1,8,0:0:0:0:
192,192,19982,1,2,0:0:0:0:
320,192,20132,1,8,0:0:0:0:
64,192,20432,128,8,20732:0:0:0:0:
192,192,20432,1,4,0:0:0:0:
320,192,20732,128,8,21032:0:0:0:0:
448,192,20732,1,4,0:0:0:0:
64,192,21032,1,8,0:0:0:0:
192,192,21032,1,4,0:0:0:0:
448,192,21332,128,8,21632:0:3:0:0:
64,192,21632,1,2,0:0:0:0:
192,192,21632,1,4,0:0:0:0:
320,192,21932,1,8,0:0:0:0:
448,192,22232,1,2,0:0:0:0:
64,192,22532,1,8,0:0:0:0:
192,192,22832,1,2,0:0:0:0:
448,192,23132,1,8,0:0:0:0:
320,192,23432,1,2,0:0:0:0:
64,192,23732,1,8,0:0:0:0:
192,192,24032,1,2,0:0:0:0:
320,192,24332,1,8,0:0:0:0:
448,192,24632,1,2,0:0:0:0:
192,192,24932,1,8,0:0:0:0:
320,192,25232,1,2,0:0:0:0:
64,192,25532,128,8,25832:0:0:0:0:
448,192,25832,128,2,26132:0:0:0:0:
192,192,26132,1,8,0:0:0:0:
320,192,26432,128,2,26732:0:0:0:0:
64,192,26732,1,8,0:0:0:0:
192,192,26732,1,4,0:0:0:0:
320,192,27032,1,2,0:0:0:0:
448,192,27332,1,8,0:0:0:0:
192,192,27632,1,2,0:0:0:0:
320,192,27932,1,8,0:0:0:0:
64,192,28232,128,2,28532:0:0:0:0:
192,192,28532,128,8,28832:0:3:0:0:
448,192,28832,128,2,29282:0:0:0:0:
320,192,29282,128,2,29732:0:0:0:0:
192,192,29732,128,2,30182:0:0:0:0:
64,192,30182,128,2,30632:0:0:0:0:
448,192,30632,128,2,31082:0:0:0:0:
64,192,31082,1,2,0:0:0:0:
192,192,31082,128,4,32432:0:0:0:0:
448,192,32432,1,2,0:3:0:0:
64,192,32732,1,2,0:3:0:0:
448,192,33032,1,2,0:3:0:0:
192,192,33332,1,2,0:0:0:0:
320,192,33482,1,2,0:0:0:0:
64,192,33632,1,2,0:0:0:0:
448,192,33632,1,4,0:0:0:0:
192,192,33932,1,8,0:0:0:0:
320,192,34232,1,2,0:0:0:0:
64,192,34532,1,8,0:0:0:0:
192,192,34832,1,2,0:0:0:0:
448,192,35132,1,8,0:0:0:0:
320,192,35432,1,2,0:0:0:0:
64,192,35732,1,8,0:0:0:0:
448,192,36032,1,2,0:0:0:0:
192,192,36332,1,8,0:0:0:0:
320,192,36632,1,2,0:0:0:0:
64,192,36932,1,8,0:0:0:0:
192,192,37232,1,2,0:0:0:0:
320,192,37532,1,8,0:0:0:0:
448,192,37832,1,2,0:0:0:0:
192,192,38132,1,8,0:0:0:0:
64,192,38432,1,2,0:0:0:0:
448,192,38732,1,8,0:0:0:0:
320,192,39032,1,2,0:0:0:0:
192,192,39332,1,8,0:0:0:0:
64,192,39632,1,2,0:0:0:0:
320,192,39932,1,8,0:0:0:0:
192,192,40232,1,2,0:0:0:0:
448,192,40532,1,8,0:0:0:0:
320,192,40832,1,2,0:0:0:0:
64,192,41132,1,8,0:0:0:0:
192,192,41432,128,2,41732:0:0:0:0:
448,192,41732,1,8,0:0:0:0:
64,192,41882,1,2,0:0:0:0:
320,192,42182,1,8,0:0:0:0:
448,192,42182,128,4,42632:0:0:0:0:
192,192,42632,1,2,0:0:0:0:
320,192,42932,1,2,0:0:0:0:
64,192,43232,1,2,0:0:0:0:
448,192,43232,1,4,0:0:0:0:
192,192,43532,1,8,0:0:0:0:
320,192,43832,1,2,0:0:0:0:
448,192,44132,1,8,0:0:0:0:
64,192,44432,1,2,0:0:0:0:
192,192,44732,1,8,0:0:0:0:
448,192,45032,1,2,0:0:0:0:
320,192,45332,1,8,0:0:0:0:
192,192,45632,1,2,0:0:0:0:
64,192,45932,1,8,0:0:0:0:
320,192,46232,1,2,0:0:0:0:
192,192,46532,1,8,0:0:0:0:
448,192,46832,1,2,0:0:0:0:
64,192,47132,1,8,0:0:0:0:
320,192,47432,1,2,0:0:0:0:
192,192,47732,1,8,0:0:0:0:
448,192,48032,1,2,0:0:0:0:
320,192,48332,128,8,48632:0:0:0:0:
64,192,48632,128,2,48932:0:0:0:0:
448,192,48932,1,8,0:0:0:0:
320,192,49082,1,0,0:0:0:0:
192,192,49232,128,2,49532:0:0:0:0:
320,192,49532,128,8,49832:0:0:0:0:
64,192,49832,128,2,50132:0:0:0:0:
448,192,50132,1,8,0:0:0:0:
192,192,50432,128,2,50732:0:0:0:0:
320,192,50732,1,2,0:0:0:0:
448,192,50732,1,4,0:0:0:0:
64,192,51032,128,2,51332:0:0:0:0:
192,192,51332,1,4,0:0:0:0:
448,192,51332,1,2,0:0:0:0:
320,192,51632,128,2,51932:0:0:0:0:
64,192,51932,1,2,0:0:0:0:
192,192,51932,1,4,0:0:0:0:
448,192,52232,1,0,0:0:0:0:
64,192,52382,1,8,0:0:0:0:
320,192,52682,128,8,53732:0:0:0:0:
448,192,52682,1,4,0:0:0:0:
192,192,53132,1,8,0:0:0:0:
64,192,53432,1,2,0:0:0:0:
448,192,53732,1,8,0:0:0:0:
64,192,54332,128,2,54632:0:0:0:0:
192,192,54332,1,4,0:0:0:0:
448,192,54632,128,0,54932:0:0:0:0:
64,192,54932,1,2,0:0:0:0:
192,192,55082,1,2,0:0:0:0:
320,192,55232,1,2,0:0:0:0:
448,192,55232,1,4,0:0:0:0:
64,192,55532,1,4,0:3:0:0:
448,192,55982,1,2,0:0:0:0:
192,192,56132,1,4,0:3:0:0:
64,192,56432,1,2,0:0:0:0:
320,192,56732,1,4,0:3:0:0:
192,192,57182,1,2,0:0:0:0:
448,192,57332,1,4,0:3:0:0:
64,192,57632,1,2,0:0:0:0:
192,192,57932,1,4,0:3:0:0:
448,192,58382,1,2,0:0:0:0:
64,192,58532,1,4,0:3:0:0:
320,192,58832,1,2,0:0:0:0:
64,192,59132,1,4,0:3:0:0:
192,192,59582,1,2,0:0:0:0:
320,192,59732,1,4,0:3:0:0:
448,192,60032,1,8,0:0:0:0:
64,192,60182,1,8,0:0:0:0:
320,192,60482,1,8,0:0:0:0:
448,192,60482,128,0,60932:0:0:0:0:
192,192,60932,128,8,61232:0:3:0:0:
64,192,61232,1,8,0:0:0:0:
448,192,61382,1,8,0:0:0:0:
64,192,61682,128,8,61982:0:0:0:0:
192,192,61682,1,0,0:0:0:0:
320,192,61982,128,8,62432:0:3:0:0:
64,192,62432,1,4,0:0:0:0:
448,192,62432,1,2,0:0:0:0:
192,192,62732,1,8,0:0:0:0:
320,192,63032,1,2,0:0:0:0:
448,192,63332,1,8,0:0:0:0:
192,192,63632,1,2,0:0:0:0:
320,192,63932,1,8,0:0:0:0:
64,192,64232,1,2,0:0:0:0:
192,192,64532,1,8,0:0:0:0:
448,192,64832,1,2,0:0:0:0:
320,192,65132,1,8,0:0:0:0:
64,192,65432,1,2,0:0:0:0:
448,192,65732,1,8,0:0:0:0:
192,192,66032,1,2,0:0:0:0:
320,192,66332,1,8,0:0:0:0:
64,192,66632,1,2,0:0:0:0:
192,192,66932,1,8,0:0:0:0:
320,192,67232,1,2,0:0:0:0:
448,192,67232,1,4,0:0:0:0:
192,192,67682,1,2,0:1:0:0:
448,192,67832,1,8,0:1:0:0:
64,192,67982,1,2,0:1:0:0:
320,192,68282,1,2,0:1:0:0:
192,192,68582,128,2,68882:0:1:0:0:
448,192,68882,1,2,0:1:0:0:
64,192,69032,1,8,0:1:0:0:
192,192,69632,1,2,0:1:0:0:
320,192,70082,1,2,0:1:0:0:
64,192,70232,1,8,0:1:0:0:
448,192,70382,1,2,0:1:0:0:
192,192,70682,1,2,0:1:0:0:
320,192,70982,128,2,71282:0:1:0:0:
64,192,71282,1,2,0:1:0:0:
448,192,71432,1,8,0:1:0:0:
192,192,71732,128,0,72032:0:0:0:0:
320,192,72032,128,8,72332:0:0:0:0:
448,192,72032,1,4,0:0:0:0:
64,192,72332,1,0,0:0:0:0:
448,192,72482,1,0,0:0:0:0:
192,192,72782,1,8,0:0:0:0:
320,192,73082,128,8,73382:0:0:0:0:
448,192,73082,1,0,0:0:0:0:
64,192,73382,1,0,0:0:0:0:
192,192,73532,1,0,0:0:0:0:
320,192,73682,1,0,0:0:0:0:
448,192,73982,1,8,0:0:0:0:
64,192,74282,128,8,74582:0:0:0:0:
192,192,74282,1,0,0:0:0:0:
448,192,74582,1,0,0:0:0:0:
320,192,74732,1,0,0:0:0:0:
192,192,74882,1,0,0:0:0:0:
320,192,75182,1,8,0:0:0:0:
448,192,75182,128,0,75632:0:0:0:0:
192,192,75632,1,0,0:0:0:0:
320,192,75782,1,8,0:0:0:0:
64,192,76082,1,8,0:0:0:0:
448,192,76382,1,8,0:0:0:0:
192,192,76682,128,8,76982:0:0:0:0:
320,192,76682,1,4,0:0:0:0:
448,192,76982,1,2,0:0:0:0:
64,192,77132,1,8,0:0:0:0:
320,192,77432,1,2,0:0:0:0:
192,192,77732,1,8,0:0:0:0:
64,192,78032,1,2,0:0:0:0:
320,192,78332,1,8,0:0:0:0:
192,192,78632,1,2,0:0:0:0:
448,192,78932,1,8,0:0:0:0:
192,192,79232,1,2,0:0:0:0:
320,192,79382,1,0,0:0:0:0:
448,192,79532,128,12,79832:0:0:0:0:
64,192,79832,1,2,0:0:0:0:
192,192,79982,1,0,0:0:0:0:
320,192,80132,128,12,80432:0:0:0:0:
64,192,80432,128,6,80732:0:0:0:0:
448,192,80732,128,8,81032:0:0:0:0:
192,192,81032,128,2,81332:0:0:0:0:
320,192,81332,1,8,0:0:0:0:
64,192,81632,1,2,0:0:0:0:
448,192,81932,128,12,82232:0:0:0:0:
192,192,82232,128,2,82532:0:0:0:0:
320,192,82532,128,8,82832:0:0:0:0:
64,192,82832,1,2,0:0:0:0:
448,192,82982,1,0,0:0:0:0:
192,192,83132,1,8,0:0:0:0:
320,192,83282,128,0,83732:0:0:0:0:
64,192,83732,1,8,0:0:0:0:
192,192,83732,1,0,0:0:0:0:
448,192,84032,1,2,0:0:0:0:
192,192,84332,128,8,84632:0:0:0:0:
320,192,84632,128,2,84932:0:0:0:0:
64,192,84932,128,8,85232:0:0:0:0:
448,192,85232,1,8,0:0:0:0:
192,192,85382,1,8,0:0:0:0:
320,192,85682,128,8,85982:0:0:0:0:
448,192,85682,1,0,0:0:0:0:
64,192,85982,1,0,0:0:0:0:
192,192,86132,1,0,0:0:0:0:
320,192,86282,1,2,0:0:0:0:
448,192,86282,128,4,86582:0:0:0:0:
64,192,86582,1,2,0:0:0:0:
320,192,86732,1,8,0:0:0:0:
192,192,87032,1,2,0:0:0:0:
448,192,87332,1,8,0:0:0:0:
64,192,87632,1,2,0:0:0:0:
192,192,87932,1,8,0:0:0:0:
448,192,88232,1,2,0:0:0:0:
64,192,88532,1,8,0:0:0:0:
320,192,88832,1,2,0:0:0:0:
192,192,88982,1,2,0:0:0:0:
64,192,89132,128,12,89432:0:0:0:0:
448,192,89432,1,2,0:0:0:0:
320,192,89582,1,2,0:0:0:0:
192,192,89732,128,12,90032:0:0:0:0:
320,192,90032,128,6,90332:0:0:0:0:
64,192,90332,1,4,0:3:0:0:
448,192,90482,1,6,0:0:0:0:
192,192,90632,128,4,90932:0:3:0:0:
320,192,90932,1,6,0:0:0:0:
64,192,91082,1,0,0:0:0:0:
192,192,91532,1,8,0:0:0:0:
448,192,91532,128,4,91832:0:0:0:0:
320,192,91832,128,2,92132:0:0:0:0:
64,192,92132,128,8,92432:0:0:0:0:
448,192,92432,1,2,0:0:0:0:
192,192,92582,1,0,0:0:0:0:
320,192,92732,1,8,0:0:0:0:
64,192,92882,1,0,0:0:0:0:
448,192,93032,128,2,93332:0:0:0:0:
320,192,93332,128,8,93632:0:0:0:0:
64,192,93632,1,2,0:0:0:0:
192,192,93632,1,4,0:0:0:0:
448,192,93932,1,8,0:0:0:0:
320,192,94382,1,2,0:0:0:0:
192,192,94532,1,8,0:0:0:0:
64,192,94832,1,2,0:0:0:0:
320,192,95132,1,8,0:0:0:0:
64,192,95582,1,2,0:0:0:0:
448,192,95732,1,8,0:0:0:0:
192,192,96032,1,2,0:0:0:0:
320,192,96332,1,8,0:0:0:0:
448,192,96782,1,2,0:0:0:0:
64,192,96932,1,8,0:0:0:0:
320,192,97232,1,2,0:0:0:0:
192,192,97532,1,8,0:0:0:0:
320,192,97832,1,8,0:0:0:0:
448,192,97832,1,4,0:0:0:0:
64,192,98132,1,8,0:0:0:0:
192,192,98132,1,4,0:0:0:0:
448,192,98432,1,8,0:0:0:0:
192,192,98582,1,8,0:0:0:0:
320,192,98882,1,8,0:0:0:0:
64,192,99032,1,8,0:0:0:0:
192,192,99332,1,8,0:0:0:0:
448,192,99482,1,8,0:0:0:0:
64,192,99782,1,8,0:0:0:0:
320,192,99932,1,8,0:0:0:0:
448,192,100232,1,8,0:0:0:0:
192,192,100382,1,8,0:0:0:0:
448,192,100682,128,8,102032:0:0:0:0:
320,192,100682,1,4,0:0:0:0:
64,192,102032,1,2,0:0:0:0:
192,192,102332,1,8,0:0:0:0:
320,192,102482,1,8,0:0:0:0:
64,192,102632,128,4,102932:0:3:0:0:
448,192,102932,128,4,103232:0:3:0:0:
192,192,103232,128,2,103532:0:0:0:0:
320,192,103532,1,4,0:1:0:0:
64,192,103832,1,2,0:0:0:0:
192,192,103832,1,4,0:0:0:0:
320,192,104132,1,8,0:0:0:0:
64,192,104582,1,2,0:0:0:0:
448,192,104732,1,8,0:0:0:0:
192,192,105032,1,2,0:0:0:0:
320,192,105332,1,8,0:0:0:0:
448,192,105782,1,2,0:0:0:0:
64,192,105932,1,8,0:0:0:0:
320,192,106232,1,2,0:0:0:0:
192,192,106532,1,8,0:0:0:0:
448,192,106982,1,2,0:0:0:0:
192,192,107132,1,8,0:0:0:0:
64,192,107432,1,2,0:0:0:0:
320,192,107732,128,8,108032:0:0:0:0:
64,192,108032,128,0,108332:0:0:0:0:
448,192,108332,1,8,0:0:0:0:
320,192,108632,1,2,0:0:0:0:
192,192,108932,1,8,0:0:0:0:
64,192,109382,1,2,0:0:0:0:
320,192,109532,1,8,0:0:0:0:
192,192,109832,1,2,0:0:0:0:
448,192,110132,1,8,0:0:0:0:
320,192,110582,1,2,0:0:0:0:
64,192,110732,1,8,0:0:0:0:
192,192,111032,1,2,0:0:0:0:
448,192,111332,1,8,0:0:0:0:
320,192,111782,1,2,0:0:0:0:
192,192,111932,1,8,0:0:0:0:
320,192,112232,1,8,0:0:0:0:
448,192,112232,128,4,112532:0:0:0:0:
64,192,112532,1,8,0:0:0:0:
192,192,112532,128,4,112832:0:0:0:0:
320,192,112832,1,8,0:0:0:0:
448,192,112832,1,4,0:0:0:0:
64,192,113132,128,8,113432:0:3:0:0:
320,192,113432,1,2,0:0:0:0:
448,192,113432,1,4,0:0:0:0:
192,192,113732,1,8,0:0:0:0:
64,192,114032,1,2,0:0:0:0:
448,192,114332,1,8,0:0:0:0:
320,192,114632,1,2,0:0:0:0:
64,192,114932,1,8,0:0:0:0:
192,192,115232,1,2,0:0:0:0:
448,192,115532,1,8,0:0:0:0:
320,192,115832,1,2,0:0:0:0:
192,192,116132,1,8,0:0:0:0:
64,192,116432,1,2,0:0:0:0:
320,192,116732,1,8,0:0:0:0:
192,192,117032,1,2,0:0:0:0:
448,192,117332,128,8,117632:0:0:0:0:
64,192,117632,128,2,117932:0:0:0:0:
320,192,117932,1,8,0:0:0:0:
192,192,118232,128,2,118532:0:0:0:0:
320,192,118532,1,8,0:0:0:0:
448,192,118532,1,4,0:0:0:0:
192,192,118832,1,2,0:0:0:0:
64,192,119132,1,8,0:0:0:0:
320,192,119432,1,2,0:0:0:0:
192,192,119732,1,8,0:0:0:0:
448,192,120032,128,2,120332:0:0:0:0:
320,192,120332,128,8,120632:0:3:0:0:
64,192,120632,128,2,121082:0:0:0:0:
192,192,121082,128,2,121532:0:0:0:0:
320,192,121532,128,2,121982:0:0:0:0:
448,192,121982,128,2,122432:0:0:0:0:
64,192,122432,128,2,122882:0:0:0:0:
320,192,122882,1,2,0:0:0:0:
448,192,122882,128,4,124232:0:0:0:0:
64,192,124232,1,2,0:3:0:0:
448,192,124532,1,2,0:3:0:0:
64,192,124832,1,2,0:3:0:0:
320,192,125132,1,2,0:0:0:0:
192,192,125282,1,2,0:0:0:0:
64,192,125432,1,2,0:0:0:0:
448,192,125432,1,4,0:0:0:0:
192,192,125882,1,4,0:0:0:0:
320,192,125882,1,2,0:0:0:0:
320,192,126482,1,2,0:0:0:0:
448,192,126482,1,4,0:0:0:0:
64,192,127082,1,4,0:0:0:0:
192,192,127082,1,2,0:0:0:0:
320,192,127382,128,8,127832:0:3:0:0:
192,192,127832,1,4,0:0:0:0:
448,192,127832,1,2,0:0:0:0:
64,192,128282,1,2,0:0:0:0:
320,192,128282,1,4,0:0:0:0:
320,192,128882,1,4,0:0:0:0:
448,192,128882,1,2,0:0:0:0:
64,192,129482,1,2,0:0:0:0:
192,192,129482,1,4,0:0:0:0:
448,192,129932,1,6,0:0:0:0:
192,192,130232,1,2,0:0:0:0:
320,192,130232,1,4,0:0:0:0:
64,192,130532,128,0,130832:0:0:0:0:
448,192,130832,128,8,131282:0:3:0:0:
192,192,131282,1,4,0:0:0:0:
64,192,131282,1,2,0:0:0:0:
64,192,131882,1,2,0:3:0:0:
448,192,132032,1,2,0:3:0:0:
192,192,132332,1,2,0:3:0:0:
448,192,132482,1,2,0:0:0:0:
320,192,132482,1,4,0:0:0:0:
192,192,132932,1,4,0:0:0:0:
64,192,132932,1,2,0:0:0:0:
448,192,133382,1,2,0:0:0:0:
320,192,133382,1,4,0:0:0:0:
192,192,133832,1,4,0:0:0:0:
64,192,133832,128,2,135032:0:0:0:0:
