osu file format v14

[General]
AudioFilename: 07. .mp3
AudioLeadIn: 0
PreviewTime: 88898
Countdown: 0
SampleSet: Normal
StackLeniency: 0.2
Mode: 0
LetterboxInBreaks: 1
WidescreenStoryboard: 1

[Editor]
Bookmarks: 124631,128401,192641,215259,219500
DistanceSpacing: 0.7
BeatDivisor: 4
GridSize: 4
TimelineZoom: 2.2

[Metadata]
Title:Tsukitourou
TitleUnicode:月燈籠
Artist:Camellia feat. Nanahira
ArtistUnicode:かめりあ feat. ななひら
Creator:jonathanlfj
Version:yf's Expert
Source:
Tags:ErunamoJAZZ Raose Nyquill yf_bmp moon lantern かめるかめりあ×Confetto りぷれい!Replay!
BeatmapID:1272890
BeatmapSetID:383147

[Difficulty]
HPDrainRate:6
CircleSize:4.4
OverallDifficulty:9
ApproachRate:9.4
SliderMultiplier:1.7
SliderTickRate:1

[Events]
//Background and Video events
0,0,"tsuki.jpg",0,0
//Break Periods
2,114936,124091
2,215459,218960
//Storyboard Layer 0 (Background)
//Storyboard Layer 1 (Fail)
//Storyboard Layer 2 (Pass)
//Storyboard Layer 3 (Foreground)
//Storyboard Sound Samples

[TimingPoints]
-866,314.13612565445,4,2,1,50,1,0
3846,-66.6666666666667,4,2,1,50,0,0
4474,-166.666666666667,4,2,1,50,0,0
4788,-100,4,2,1,50,0,0
6673,-66.6666666666667,4,2,1,50,0,0
6987,-166.666666666667,4,2,1,50,0,0
7301,-100,4,2,1,50,0,0
7929,-133.333333333333,4,2,1,50,0,0
9186,-166.666666666667,4,2,1,50,0,0
9814,-100,4,2,1,50,0,0
11280,-125,4,2,1,50,0,0
11490,-166.666666666667,4,2,1,50,0,0
11699,-100,4,2,1,70,0,0
13427,-66.6666666666667,4,2,1,70,0,0
13898,-50,4,2,1,70,0,0
14212,-133.333333333333,4,2,1,70,0,0
21437,-100,4,2,1,70,0,0
21751,-100,4,2,1,60,0,0
24107,-76.9230769230769,4,2,1,60,0,0
24264,-111.111111111111,4,2,1,70,0,0
42955,-52.6315789473684,4,2,1,70,0,0
43427,-66.6666666666667,4,2,1,70,0,0
43741,-100,4,2,1,70,0,0
44212,-111.111111111111,4,2,1,70,0,0
53950,-133.333333333333,4,2,1,70,0,0
54264,-111.111111111111,4,2,1,70,0,0
59448,-100,4,2,1,70,0,0
64003,-111.111111111111,4,2,1,70,0,0
64160,-125,4,2,1,70,0,0
64317,-133.333333333333,4,2,1,70,0,0
64474,-133.333333333333,4,2,1,70,0,0
73113,-100,4,2,1,70,0,0
74526,-111.111111111111,4,2,1,70,0,0
83636,-76.9230769230769,4,2,1,70,0,0
83950,-62.5,4,2,1,70,0,0
84264,-50,4,2,1,70,0,0
84579,-76.9230769230769,4,2,1,70,0,0
88898,-200,4,2,1,5,0,0
88976,-76.9230769230769,4,2,1,70,0,0
89605,-90.9090909090909,4,1,1,80,0,1
97144,-66.6666666666667,4,1,1,80,0,1
98401,-90.9090909090909,4,1,1,80,0,1
99343,-133.333333333333,4,1,1,80,0,1
99657,-90.9090909090909,4,1,1,80,0,1
101856,-66.6666666666667,4,1,1,80,0,1
102170,-90.9090909090909,4,1,1,80,0,1
104369,-66.6666666666667,4,1,1,80,0,1
106882,-90.9090909090909,4,1,1,80,0,1
107196,-66.6666666666667,4,1,1,80,0,1
107825,-90.9090909090909,4,1,1,80,0,1
109709,-100,4,1,1,80,0,1
110652,-90.9090909090909,4,1,1,80,0,1
111280,-83.3333333333333,4,1,1,80,0,1
111908,-76.9230769230769,4,1,1,80,0,1
112537,-71.4285714285714,4,1,1,80,0,1
113165,-66.6666666666667,4,1,1,80,0,1
113479,-100,4,1,1,80,0,0
124631,-111.111111111111,4,2,1,80,0,0
128401,-66.6666666666667,4,2,1,80,0,0
129186,-100,4,2,1,80,0,0
133584,-66.6666666666667,4,2,1,80,0,0
133741,-100,4,2,1,80,0,0
134055,-66.6666666666667,4,2,1,80,0,0
134212,-133.333333333333,4,2,1,80,0,0
134683,-100,4,2,1,80,0,0
138453,-66.6666666666667,4,2,1,80,0,0
139081,-100,4,2,1,80,0,0
144421,-111.111111111111,4,2,1,80,0,0
144579,-125,4,2,1,80,0,0
144736,-142.857142857143,4,2,1,80,0,0
144893,-133.333333333333,4,2,1,70,0,0
153531,-100,4,1,1,80,0,0
154945,-100,4,1,1,80,0,0
157144,-66.6666666666667,4,1,1,80,0,0
157458,-100,4,1,1,80,0,0
159657,-66.6666666666667,4,1,1,80,0,0
159971,-111.111111111111,4,1,1,80,0,0
164055,-76.9230769230769,4,1,1,80,0,0
164369,-62.5,4,1,1,80,0,0
164683,-50,4,1,1,80,0,0
164997,-76.9230769230769,4,1,1,80,0,0
170024,-90.9090909090909,4,1,1,80,0,1
174736,-66.6666666666667,4,1,1,80,0,1
175050,-90.9090909090909,4,1,1,80,0,1
177563,-66.6666666666667,4,1,1,80,0,1
177877,-90.9090909090909,4,1,1,80,0,1
179762,-133.333333333333,4,1,1,80,0,1
180076,-90.9090909090909,4,1,1,80,0,1
184788,-66.6666666666667,4,1,1,80,0,1
185024,-90.9090909090909,4,1,1,80,0,1
187615,-66.6666666666667,4,1,1,80,0,1
187929,-90.9090909090909,4,1,1,80,0,1
190128,-100,4,1,1,80,0,1
191071,-90.9090909090909,4,1,1,80,0,1
191699,-83.3333333333333,4,1,1,80,0,1
192327,-76.9230769230769,4,1,1,80,0,1
193270,-66.6666666666667,4,1,1,80,0,1
193898,-100,4,1,1,80,0,0
195154,-133.333333333333,4,1,1,80,0,0
195469,-166.666666666667,4,2,1,70,0,0
198924,-133.333333333333,4,2,1,60,0,0
199395,-100,4,2,1,60,0,0
200809,-66.6666666666667,4,2,1,60,0,0
201751,-100,4,2,1,60,0,0
202380,-58.8235294117647,4,2,1,60,0,0
202694,-100,4,2,1,60,0,0
204421,-66.6666666666667,4,2,1,60,0,0
204893,-50,4,2,1,60,0,0
205207,-133.333333333333,4,2,1,70,0,0
212432,-100,4,2,1,70,0,0
219500,-100,4,2,1,60,0,0
219866,-133.333333333333,4,2,1,60,0,0
220128,-133.333333333333,4,2,1,5,0,0
220285,-200,4,2,1,60,0,0
222798,-100,4,2,1,60,0,0
223427,-133.333333333333,4,2,1,60,0,0
225312,-76.9230769230769,4,2,1,70,0,0
227196,-66.6666666666667,4,2,1,70,0,0
227825,-76.9230769230769,4,2,1,70,0,0
228060,-76.9230769230769,4,2,2,60,0,0
228139,-76.9230769230769,4,2,1,50,0,0
228217,-76.9230769230769,4,2,2,40,0,0
228296,-76.9230769230769,4,2,1,30,0,0
228374,-76.9230769230769,4,2,1,5,0,0
229552,-76.9230769230769,4,2,1,5,0,0
229709,-76.9230769230769,4,2,1,40,0,0
230338,-90.9090909090909,4,1,1,80,0,1
237877,-66.6666666666667,4,1,1,80,0,1
238191,-90.9090909090909,4,1,1,80,0,1
239133,-133.333333333333,4,1,1,80,0,1
239762,-90.9090909090909,4,1,1,80,0,1
239919,-66.6666666666667,4,1,1,80,0,1
240390,-76.9230769230769,4,1,1,80,0,1
240861,-90.9090909090909,4,1,1,80,0,1
249264,-76.9230769230769,4,1,1,80,0,1
249814,-90.9090909090909,4,1,1,80,0,1
250128,-66.6666666666667,4,1,1,80,0,1
250442,-100,4,1,1,80,0,1
251385,-90.9090909090909,4,1,1,80,0,1
252013,-83.3333333333333,4,1,1,80,0,1
252641,-76.9230769230769,4,1,1,80,0,1
253270,-71.4285714285714,4,1,1,80,0,1
253898,-66.6666666666667,4,1,1,80,0,1
255469,-100,4,1,1,80,0,1
256097,-90.9090909090909,4,1,1,80,0,1
256725,-83.3333333333333,4,1,1,80,0,1
257668,-76.9230769230769,4,1,1,80,0,1
257982,-66.6666666666667,4,1,1,80,0,1
259238,-100,4,1,1,80,0,0

[Colours]
Combo1 : 86,54,54
Combo2 : 232,0,0
Combo3 : 254,84,35
Combo4 : 254,175,12
Combo5 : 255,66,222
Combo6 : 170,29,254

[HitObjects]
180,232,2903,5,2,0:0:0:0:
252,204,3217,1,0,0:0:0:0:
316,244,3531,1,2,0:0:0:0:
446,323,3688,2,0,L|406:307,2,28.3333333333333,0|0|0,3:0|3:0|3:0,0:0:0:0:
456,308,3846,6,0,P|383:296|376:192,1,191.250007295609,8|0,1:0|0:0,0:0:0:0:
429,241,4160,5,2,1:2:0:0:
256,348,4317,1,2,1:2:0:0:
111,216,4474,2,0,P|148:211|179:231,1,76.4999976654053,6|0,1:2|0:0,0:0:0:0:
188,248,4788,5,0,0:0:0:0:
124,292,5102,1,0,0:0:0:0:
68,152,5416,1,0,0:0:0:0:
111,216,5730,1,0,0:0:0:0:
124,292,6044,5,0,0:0:0:0:
0,384,6202,1,0,3:0:0:0:
20,216,6359,1,0,1:0:0:0:
28,188,6437,1,0,1:0:0:0:
28,160,6516,1,4,3:0:0:0:
20,132,6594,1,0,3:0:0:0:
4,108,6673,5,2,1:2:0:0:
184,240,6830,1,2,1:2:0:0:
380,132,6987,2,0,P|404:100|396:48,1,76.4999976654053,6|0,1:2|0:0,0:0:0:0:
396,48,7301,5,0,0:0:0:0:
324,76,7615,1,0,0:0:0:0:
380,132,7929,6,0,P|408:145|439:142,1,63.7500024318696,8|0,1:0|3:0,0:0:0:0:
496,88,8243,1,0,3:0:0:0:
476,256,8401,6,0,P|479:287|465:315,1,63.7500024318696,8|0,1:0|3:0,0:0:0:0:
396,348,8715,1,0,3:0:0:0:
284,216,8872,5,8,1:0:0:0:
476,256,9029,1,0,3:0:0:0:
424,68,9186,5,6,0:2:0:0:
252,144,9343,1,2,0:2:0:0:
72,104,9500,2,0,P|51:71|56:24,1,76.4999976654053,6|0,1:2|0:0,0:0:0:0:
60,16,9814,5,0,0:0:0:0:
128,52,10128,1,2,0:0:0:0:
72,104,10442,1,0,0:0:0:0:
80,180,10757,1,2,0:0:0:0:
104,308,11071,6,0,P|88:284|87:255,1,56.6666666666667,0|0,1:0|1:0,0:0:0:0:
156,188,11280,6,0,P|184:190|207:208,1,45.3333333333333,0|0,1:0|1:0,0:0:0:0:
224,292,11490,6,0,P|206:315|179:325,1,33.9999989624024,0|0,1:0|1:0,0:0:0:0:
160,260,11699,5,4,0:0:0:0:
268,232,11856,1,2,1:2:0:0:
80,180,12013,5,2,1:2:0:0:
160,260,12170,1,0,3:0:0:0:
264,156,12327,5,4,1:2:0:0:
16,224,12484,1,2,1:2:0:0:
264,156,12641,5,8,1:0:0:0:
160,260,12798,1,0,3:0:0:0:
8,148,12955,5,6,1:2:0:0:
160,260,13113,1,0,1:0:0:0:
160,260,13191,1,0,1:0:0:0:
160,260,13270,1,0,1:0:0:0:
336,192,13427,6,0,P|416:84|280:104,1,318.750012159348,6|0,1:2|0:0,0:0:0:0:
351,120,13898,6,0,P|327:10|222:51,1,255,8|0,1:0|0:0,0:0:0:0:
228,124,14212,5,2,1:2:0:0:
228,124,14369,1,2,1:2:0:0:
228,124,14526,2,0,P|226:156|193:193,1,63.7500024318696,8|0,1:0|0:0,0:0:0:0:
8,324,14840,5,0,3:0:0:0:
152,316,14997,1,0,3:0:0:0:
84,348,15154,2,0,B|76:320|76:320|84:276,1,63.7500024318696,8|0,1:0|0:0,0:0:0:0:
144,240,15390,1,0,0:2:0:0:
152,240,15469,2,0,L|220:260,1,63.7500024318696,0|0,3:0|3:0,0:0:0:0:
428,312,15783,1,0,1:0:0:0:
264,316,15940,6,0,B|356:316|356:316|320:268,1,127.500004863739,0|0,3:0|3:0,0:0:0:0:
72,212,16411,2,0,L|0:212,1,63.7500024318696,0|0,1:0|0:0,0:0:0:0:
208,24,16725,5,2,1:2:0:0:
208,24,16882,1,2,1:2:0:0:
208,24,17039,2,0,P|210:56|243:93,1,63.7500024318696,8|0,1:0|0:0,0:0:0:0:
428,224,17353,5,0,3:0:0:0:
284,216,17510,1,0,3:0:0:0:
352,248,17668,2,0,B|360:220|360:220|352:176,1,63.7500024318696,8|0,1:0|0:0,0:0:0:0:
292,140,17903,1,0,0:2:0:0:
284,140,17982,2,0,L|216:160,1,63.7500024318696,0|0,3:0|3:0,0:0:0:0:
72,160,18296,1,0,1:0:0:0:
156,192,18453,6,0,B|148:164|148:164|156:120,1,63.7500024318696,0|8,3:0|3:0,0:0:0:0:
364,112,18767,1,0,3:0:0:0:
364,112,18846,1,0,3:0:0:0:
364,112,18924,2,0,L|436:112,1,63.7500024318696,4|0,1:0|3:0,0:0:0:0:
284,260,19238,5,6,1:2:0:0:
284,260,19395,1,2,1:2:0:0:
284,260,19552,2,0,P|286:228|319:191,1,63.7500024318696,8|0,1:0|0:0,0:0:0:0:
500,40,19866,5,0,3:0:0:0:
425,49,20024,1,0,3:0:0:0:
425,49,20102,1,0,3:2:0:0:
425,49,20181,2,0,B|433:77|433:77|425:121,1,63.7500024318696,8|0,1:0|0:0,0:0:0:0:
302,201,20495,2,0,L|234:181,1,63.7500024318696,0|0,3:0|3:0,0:0:0:0:
100,136,20809,1,0,1:0:0:0:
184,32,20966,6,0,L|168:184,1,127.500004863739,0|0,3:0|3:0,0:0:0:0:
276,272,21437,6,0,P|317:276|354:256,1,85,4|0,1:1|0:0,0:0:0:0:
426,111,21751,5,0,1:2:0:0:
316,160,21908,1,2,1:2:0:0:
348,80,22065,1,2,1:2:0:0:
394,191,22223,1,2,1:2:0:0:
256,340,22380,5,0,1:2:0:0:
102,271,22537,1,8,1:0:0:0:
146,383,22694,1,8,1:0:0:0:
211,228,22851,1,8,1:0:0:0:
180,308,23008,5,0,0:0:0:0:
212,314,23086,1,0,1:0:0:0:
245,307,23165,1,0,1:0:0:0:
278,281,23243,1,0,1:0:0:0:
327,261,23322,1,8,1:0:0:0:
374,269,23401,1,0,1:0:0:0:
402,294,23479,1,0,1:0:0:0:
414,321,23558,1,0,1:0:0:0:
430,340,23636,1,0,1:0:0:0:
449,347,23715,1,0,1:0:0:0:
465,350,23793,1,0,1:0:0:0:
478,348,23872,1,0,1:0:0:0:
486,346,23950,6,0,P|497:321|492:288,1,42.5,2|0,0:1|0:1,0:0:0:0:
420,184,24107,2,0,P|384:184|356:216,1,55.2499974708558,2|0,0:1|0:1,0:0:0:0:
204,280,24264,6,0,P|248:272|284:284,1,76.4999976654053,4|2,1:2|0:1,0:0:0:0:
449,347,24579,1,8,1:0:0:0:
368,194,24736,5,2,0:0:0:0:
368,194,24814,1,2,0:0:0:0:
368,194,24893,2,2,L|360:282,1,76.4999976654053,2|0,3:1|3:0,0:1:0:0:
277,281,25207,1,8,1:0:0:0:
364,356,25364,2,0,P|392:352|412:340,1,38.2499988327027,2|0,0:1|2:0,0:0:0:0:
456,288,25521,5,0,3:0:0:0:
432,92,25678,1,0,3:0:0:0:
456,288,25835,2,2,P|460:232|448:196,1,76.4999976654053,12|0,1:0|0:0,0:1:0:0:
320,128,26149,6,0,L|228:124,1,76.4999976654053,0|2,3:0|0:1,0:0:0:0:
135,6,26463,1,4,1:0:0:0:
135,6,26777,6,0,P|144:43|136:80,1,76.4999976654053,0|2,3:2|0:1,0:0:0:0:
60,48,27092,1,8,1:0:0:0:
136,240,27249,5,2,0:0:0:0:
136,240,27327,1,2,0:0:0:0:
136,240,27406,2,2,L|144:152,1,76.4999976654053,2|0,3:1|3:0,0:1:0:0:
243,124,27720,1,8,1:0:0:0:
135,6,27877,2,0,P|107:10|87:22,1,38.2499988327027,10|0,1:1|2:0,0:0:0:0:
28,64,28034,5,0,3:0:0:0:
64,268,28191,1,0,3:0:0:0:
28,64,28348,2,2,P|24:120|36:156,1,76.4999976654053,12|0,1:0|0:0,0:1:0:0:
174,242,28662,6,0,L|136:240,1,38.2499988327027,0|0,3:0|3:1,0:0:0:0:
272,292,28819,2,0,L|233:289,1,38.2499988327027,0|0,3:0|3:1,0:0:0:0:
217,365,28976,6,0,L|256:368,1,38.2499988327027,4|0,1:0|3:1,0:0:0:0:
120,316,29133,2,0,L|158:318,1,38.2499988327027,0|0,3:0|3:1,0:0:0:0:
332,352,29291,6,0,P|369:349|403:331,1,76.4999976654053,4|2,3:2|0:1,0:0:0:0:
488,224,29605,1,8,1:0:0:0:
416,92,29762,1,2,0:1:0:0:
416,92,29840,1,0,0:0:0:0:
416,92,29919,2,0,L|428:184,1,76.4999976654053,2|0,3:1|3:0,0:0:0:0:
288,248,30233,1,8,1:0:0:0:
372,260,30390,2,0,P|368:232|356:212,1,38.2499988327027,2|0,0:1|2:0,0:0:0:0:
304,168,30547,5,0,3:0:0:0:
108,192,30704,1,2,3:1:0:0:
304,168,30861,2,2,P|248:164|212:176,1,76.4999976654053,12|2,1:0|0:1,0:1:0:0:
140,380,31175,6,0,L|144:304,1,76.4999976654053,0|2,3:0|0:1,0:0:0:0:
180,32,31490,1,4,1:0:0:0:
180,32,31804,6,0,P|142:34|108:52,1,76.4999976654053,0|2,3:0|0:1,0:0:0:0:
24,160,32118,1,8,1:0:0:0:
96,292,32275,1,2,0:1:0:0:
96,292,32353,1,0,0:0:0:0:
96,292,32432,2,0,L|84:200,1,76.4999976654053,2|0,3:1|3:0,0:0:0:0:
224,136,32746,1,8,1:0:0:0:
140,124,32903,2,0,P|144:152|156:172,1,38.2499988327027,6|0,1:1|2:0,0:0:0:0:
208,216,33060,6,0,L|256:220,1,38.2499988327027
404,192,33217,2,0,L|356:196,1,38.2499988327027,2|0,0:2|0:0,0:0:0:0:
208,216,33374,54,2,P|264:220|300:208,1,76.4999976654053,4|0,1:1|0:0,0:1:0:0:
448,88,33688,54,0,L|400:92,1,38.2499988327027,2|0,0:0|0:0,0:0:0:0:
252,64,33846,2,0,L|300:68,1,38.2499988327027,2|0,0:2|0:0,0:0:0:0:
448,88,34003,6,2,P|392:92|356:80,1,76.4999976654053,6|0,1:0|0:0,0:1:0:0:
184,8,34317,5,4,0:0:0:0:
372,87,34474,1,2,0:1:0:0:
176,28,34631,5,8,1:0:0:0:
364,68,34788,1,2,0:1:0:0:
168,48,34945,6,0,P|212:52|244:36,1,76.4999976654053,2|0,0:1|3:0,0:0:0:0:
144,120,35259,1,8,1:0:0:0:
76,152,35416,6,0,P|32:156|0:140,1,76.4999976654053,2|0,0:1|0:0,0:0:0:0:
56,268,35730,1,2,3:1:0:0:
200,236,35887,2,0,L|212:148,1,76.4999976654053,8|2,1:0|0:1,0:0:0:0:
132,276,36202,6,0,P|140:288|160:304,1,38.2499988327027,0|0,3:0|0:0,0:0:0:0:
232,328,36359,2,0,P|246:328|271:321,1,38.2499988327027,2|0,3:1|0:0,0:0:0:0:
336,280,36516,6,0,L|444:288,1,76.4999976654053,4|0,1:0|0:0,0:0:0:0:
472,105,36830,5,0,3:0:0:0:
393,293,36987,1,2,0:1:0:0:
452,97,37144,5,8,1:0:0:0:
412,285,37301,1,2,0:1:0:0:
432,89,37458,6,0,P|428:133|444:165,1,76.4999976654053,2|0,0:1|3:0,0:0:0:0:
476,328,37772,1,2,0:1:0:0:
402,357,37929,6,0,P|398:313|414:281,1,76.4999976654053,10|0,1:1|3:0,0:0:0:0:
504,116,38243,1,2,0:1:0:0:
376,212,38401,2,0,L|300:201,1,76.4999976654053,12|2,1:0|0:1,0:0:0:0:
411,284,38715,5,0,3:0:0:0:
440,256,38793,1,0,3:0:0:0:
452,220,38872,1,0,3:0:0:0:
448,184,38950,1,0,3:0:0:0:
428,152,39029,6,0,B|404:84|448:104|423:40,1,114.749996498108,4|0,1:0|0:0,0:0:0:0:
328,8,39343,5,4,3:2:0:0:
140,87,39500,1,2,0:1:0:0:
336,28,39657,5,8,1:0:0:0:
148,68,39814,1,2,0:1:0:0:
344,48,39971,6,0,P|300:52|268:36,1,76.4999976654053,2|0,0:1|3:0,0:0:0:0:
368,120,40285,1,8,1:0:0:0:
436,152,40442,6,0,P|480:156|512:140,1,76.4999976654053,2|0,0:1|3:0,0:0:0:0:
456,268,40757,1,2,3:1:0:0:
312,236,40914,2,0,L|300:148,1,76.4999976654053,12|2,1:0|0:1,0:0:0:0:
380,276,41228,6,0,P|372:288|352:304,1,38.2499988327027,0|0,3:0|0:0,0:0:0:0:
280,328,41385,2,0,P|266:328|241:321,1,38.2499988327027,2|0,3:1|0:0,0:0:0:0:
176,280,41542,6,0,L|68:288,1,76.4999976654053,4|0,1:0|0:0,0:0:0:0:
0,108,41856,6,0,P|8:96|28:80,1,38.2499988327027,8|0,1:0|3:0,0:0:0:0:
100,56,42013,2,0,P|114:56|139:63,1,38.2499988327027,2|0,3:1|3:0,0:0:0:0:
201,108,42170,6,0,P|209:120|229:136,1,38.2499988327027,8|0,1:0|3:0,0:0:0:0:
301,160,42327,2,0,P|315:160|340:153,1,38.2499988327027,2|0,3:1|3:0,0:0:0:0:
400,104,42484,5,4,1:1:0:0:
400,104,42641,1,4,1:0:0:0:
412,180,42955,6,0,P|468:68|324:108,1,322.99999137497,4|2,1:0|1:2,0:0:0:0:
400,104,43348,1,0,1:0:0:0:
399,104,43427,6,0,P|405:72|395:42,1,63.7500024318696,0|0,1:0|1:0,0:0:0:0:
274,186,43584,2,0,P|302:200|334:199,1,63.7500024318696,0|0,1:0|1:0,0:0:0:0:
400,104,43741,6,0,L|420:160,1,42.5,2|0,1:2|0:0,0:0:0:0:
320,240,43898,2,0,L|340:184,1,42.5,2|0,1:2|0:0,0:0:0:0:
312,44,44055,1,8,1:0:0:0:
216,99,44212,6,0,B|281:84|259:134|323:121,1,114.749996498108,4|0,3:2|0:0,0:0:0:0:
344,112,44526,1,0,3:0:0:0:
224,176,44683,1,8,1:0:0:0:
72,156,44840,1,2,0:0:0:0:
128,212,44997,2,0,P|148:179|150:142,1,76.4999976654053,0|0,3:0|3:0,0:0:0:0:
72,20,45312,1,8,1:0:0:0:
216,98,45469,6,0,L|304:104,1,76.4999976654053,2|0,3:2|3:0,0:0:0:0:
352,156,45783,1,0,3:0:0:0:
200,252,45940,2,0,P|204:304|224:328,1,76.4999976654053,8|0,1:0|0:0,0:0:0:0:
236,336,46175,1,0,1:0:0:0:
236,336,46254,2,0,P|288:332|312:312,1,76.4999976654053,8|0,1:0|0:0,0:0:0:0:
340,244,46568,1,0,1:0:0:0:
217,322,46725,6,0,B|152:307|174:357|109:344,1,114.749996498108,2|0,3:2|0:0,0:0:0:0:
88,336,47039,1,0,3:0:0:0:
208,240,47196,1,8,1:0:0:0:
372,328,47353,1,2,0:0:0:0:
217,322,47510,1,0,3:0:0:0:
388,244,47668,1,0,3:0:0:0:
384,252,47982,6,0,P|340:256|304:296,1,76.4999976654053,0|0,1:0|0:0,0:0:0:0:
372,328,48296,1,0,0:0:0:0:
444,152,48453,6,0,P|488:156|524:196,1,76.4999976654053,0|0,1:0|3:0,0:0:0:0:
452,236,48688,1,0,1:0:0:0:
452,236,48767,1,0,1:0:0:0:
452,236,48845,2,0,L|413:232,1,38.2499988327027,0|0,1:0|1:0,0:0:0:0:
320,176,49002,1,0,1:0:0:0:
320,176,49081,2,0,L|358:172,1,38.2499988327027,0|0,1:0|1:0,0:0:0:0:
384,96,49238,1,0,1:0:0:0:
392,60,49317,1,0,1:0:0:0:
384,24,49395,70,0,L|488:4,1,76.4999976654053,6|0,1:2|0:0,0:0:0:0:
358,172,49709,2,0,P|320:177|246:132,1,114.749996498108,8|0,1:0|0:0,0:0:0:0:
248,120,50024,1,0,3:2:0:0:
240,44,50181,1,0,3:0:0:0:
208,208,50338,1,8,1:0:0:0:
143,247,50495,6,0,P|68:261|0:230,1,152.999995330811,0|0,3:0|0:0,0:0:0:0:
211,283,50966,2,0,P|248:294|277:319,1,76.4999976654053,8|0,1:0|0:0,0:0:0:0:
336,360,51202,1,0,1:0:0:0:
340,372,51280,2,0,L|428:360,1,76.4999976654053,2|0,3:2|3:0,0:0:0:0:
219,133,51594,2,0,P|216:184|207:207,1,76.4999976654053,8|0,1:0|0:0,0:0:0:0:
128,360,51908,70,0,L|24:380,1,76.4999976654053,2|0,3:2|0:0,0:0:0:0:
207,207,52223,2,0,P|245:202|319:247,1,114.749996498108,8|0,1:0|0:0,0:0:0:0:
320,256,52537,1,0,3:2:0:0:
143,248,52694,1,4,3:1:0:0:
219,133,52851,1,8,1:0:0:0:
144,16,53008,6,0,P|69:29|0:0,1,152.999995330811,4|0,3:1|0:0,0:0:0:0:
212,56,53479,2,0,L|250:53,1,38.2499988327027,0|0,1:0|1:0,0:0:0:0:
320,84,53636,2,0,L|351:62,1,38.2499988327027,0|0,1:0|1:0,0:0:0:0:
428,76,53793,2,0,L|444:41,1,38.2499988327027,0|0,1:0|1:0,0:0:0:0:
328,176,53950,6,0,P|331:224|313:267,1,95.6250036478044,0|0,3:0|0:0,0:0:0:0:
296,285,54264,6,0,B|231:300|253:250|189:263,1,114.749996498108,4|0,3:2|0:0,0:0:0:0:
168,272,54579,1,0,3:0:0:0:
288,208,54736,1,8,1:0:0:0:
440,228,54893,1,2,0:0:0:0:
384,172,55050,2,0,P|364:205|362:242,1,76.4999976654053,0|0,3:0|3:0,0:0:0:0:
440,364,55364,1,8,1:0:0:0:
410,297,55521,6,0,L|290:285,1,114.749996498108,2|0,3:2|0:0,0:0:0:0:
276,296,55835,1,0,3:0:0:0:
312,132,55992,6,0,P|308:80|288:56,1,76.4999976654053,8|0,1:0|0:0,0:0:0:0:
276,48,56228,1,0,1:0:0:0:
276,48,56307,2,0,P|224:52|200:72,1,76.4999976654053,8|0,1:0|0:0,0:0:0:0:
172,140,56621,1,0,1:0:0:0:
295,62,56777,6,0,B|360:77|338:27|403:40,1,114.749996498108,2|0,3:2|0:0,0:0:0:0:
424,48,57092,1,0,3:0:0:0:
304,148,57249,1,8,1:0:0:0:
140,56,57406,1,2,0:0:0:0:
295,62,57563,1,0,3:0:0:0:
124,140,57720,1,0,3:0:0:0:
128,132,58034,6,0,P|172:128|208:88,1,76.4999976654053,0|0,1:0|0:0,0:0:0:0:
140,56,58348,1,0,3:0:0:0:
68,232,58505,6,0,P|24:228|-12:188,1,76.4999976654053,0|0,1:0|3:0,0:0:0:0:
136,208,58819,5,0,3:0:0:0:
136,248,58898,1,0,1:0:0:0:
120,280,58976,1,0,3:0:0:0:
88,300,59055,1,0,3:0:0:0:
52,300,59133,6,0,L|4:296,1,38.2499988327027,0|0,1:0|1:0,0:0:0:0:
72,372,59291,1,0,1:0:0:0:
120,368,59369,1,0,1:0:0:0:
168,364,59448,5,4,0:0:0:0:
284,248,59605,1,0,0:0:0:0:
412,344,59762,2,0,P|484:336|508:288,1,127.5,8|0,1:0|0:0,0:0:0:0:
440,280,60076,5,2,3:2:0:0:
312,180,60233,1,0,0:0:0:0:
172,260,60390,2,0,P|100:252|76:204,1,127.5,8|0,1:0|0:0,0:0:0:0:
144,196,60704,5,0,3:2:0:0:
353,240,60861,1,2,3:2:0:0:
452,44,61018,1,8,1:0:0:0:
384,96,61175,5,0,0:0:0:0:
377,129,61254,1,8,1:0:0:0:
384,160,61332,1,2,3:2:0:0:
488,284,61490,1,0,3:0:0:0:
460,124,61647,1,8,1:0:0:0:
512,207,61804,70,0,B|420:187|448:259|352:239,1,170,2|0,0:2|3:0,0:0:0:0:
268,120,62275,2,0,P|268:72|300:32,1,85,8|0,1:0|0:0,0:0:0:0:
384,168,62589,1,0,3:2:0:0:
192,76,62746,1,4,1:1:0:0:
352,240,62903,1,2,3:2:0:0:
160,148,63060,1,4,0:1:0:0:
320,312,63217,6,0,L|328:392,1,42.5,0|0,3:2|0:2,0:0:0:0:
272,252,63374,2,0,L|198:218,1,42.5,2|0,0:0|0:2,0:0:0:0:
0,224,63531,5,8,1:0:0:0:
32,244,63610,1,8,1:0:0:0:
68,248,63688,1,0,3:0:0:0:
104,240,63767,1,0,3:0:0:0:
136,220,63846,6,0,L|160:272,1,42.5,8|0,1:0|0:0,0:0:0:0:
320,312,64003,6,0,L|283:322,1,38.2499988327027,0|0,3:0|0:0,0:0:0:0:
432,228,64160,6,0,L|452:180,1,34,0|0,3:0|0:0,0:0:0:0:
459,66,64317,6,0,L|472:96,1,31.8750012159348,0|0,3:0|0:0,0:0:0:0:
432,228,64474,5,4,3:2:0:0:
400,24,64631,1,2,3:2:0:0:
400,24,64788,1,2,3:2:0:0:
400,24,64945,1,2,3:2:0:0:
400,24,65102,2,0,P|385:59|392:92,1,63.7500024318696,8|0,1:0|2:0,0:0:0:0:
432,228,65416,5,2,0:0:0:0:
400,24,65573,2,0,P|426:51|431:86,1,63.7500024318696,8|0,1:0|2:0,0:0:0:0:
432,228,65887,2,0,L|420:148,1,63.7500024318696,8|2,1:0|3:2,0:0:0:0:
423,165,66202,1,0,3:0:0:0:
312,112,66359,5,8,1:0:0:0:
512,80,66516,1,4,1:0:0:0:
512,80,66673,1,0,3:0:0:0:
28,292,66987,5,0,1:0:0:0:
180,272,67144,1,2,3:2:0:0:
180,272,67301,1,2,3:2:0:0:
180,272,67458,1,2,3:2:0:0:
180,272,67615,2,0,P|172:312|140:340,1,63.7500024318696,8|0,1:0|2:0,0:0:0:0:
28,292,67929,5,2,0:0:0:0:
180,272,68086,2,0,P|166:234|129:212,1,63.7500024318696,8|0,1:0|2:0,0:0:0:0:
28,292,68401,1,8,1:1:0:0:
28,292,68558,2,0,L|92:284,1,63.7500024318696,2|0,3:2|3:0,0:0:0:0:
256,120,68872,6,0,B|205:120|205:120|180:108,1,63.7500024318696,4|0,0:1|1:0,0:0:0:0:
196,92,69081,2,0,B|246:92|246:92|272:80,1,63.7500024318696,4|0,0:1|1:0,0:0:0:0:
256,64,69291,2,0,B|205:64|205:64|180:52,1,63.7500024318696,4|0,0:1|1:0,0:0:0:0:
128,12,69500,5,4,3:1:0:0:
120,92,69657,1,2,3:2:0:0:
120,92,69814,1,2,3:2:0:0:
120,92,69971,1,2,3:2:0:0:
120,92,70128,2,0,P|144:116|184:120,1,63.7500024318696,8|0,1:0|2:0,0:0:0:0:
128,12,70442,5,2,3:2:0:0:
120,92,70599,2,0,P|95:111|64:113,1,63.7500024318696,8|0,1:0|2:0,0:0:0:0:
128,12,70914,1,8,1:0:0:0:
111,185,71071,2,0,L|104:248,1,63.7500024318696,2|0,3:2|3:0,0:0:0:0:
96,324,71385,1,8,1:3:0:0:
203,286,71542,2,0,L|216:264,2,21.2500008106232,0|0|0,3:0|3:0|3:0,3:0:0:0:
228,292,71699,6,0,B|209:283|209:283|161:291,1,63.7500024318696,4|0,1:1|3:0,0:0:0:0:
8,220,72013,5,4,3:2:0:0:
172,216,72170,1,2,3:2:0:0:
172,216,72327,1,8,1:0:0:0:
172,216,72484,1,2,3:2:0:0:
228,292,72641,5,0,3:0:0:0:
248,144,72798,1,8,1:0:0:0:
248,144,72955,1,0,3:0:0:0:
391,195,73113,6,0,P|409:234|405:276,1,85,4|0,1:2|2:0,0:0:0:0:
356,344,73427,1,8,1:0:0:0:
468,160,73584,6,0,P|486:121|482:79,1,85,8|0,1:0|3:0,0:0:0:0:
444,4,73898,1,8,3:0:0:0:
416,28,73976,1,0,3:0:0:0:
380,36,74055,1,0,3:0:0:0:
344,32,74133,1,0,3:0:0:0:
308,16,74212,6,0,L|256:24,1,42.5,4|0,1:0|1:0,0:0:0:0:
300,132,74369,1,0,1:0:0:0:
344,136,74448,1,0,1:0:0:0:
388,140,74526,5,4,3:2:0:0:
460,256,74683,1,2,3:2:0:0:
360,360,74840,5,8,1:0:0:0:
392,220,74997,1,2,3:2:0:0:
360,360,75154,2,0,P|345:325|352:280,1,76.4999976654053,2|0,3:2|2:0,0:0:0:0:
460,256,75469,5,2,1:2:0:0:
312,216,75626,2,0,L|237:197,1,76.4999976654053,8|0,1:0|2:0,0:0:0:0:
108,216,75940,1,0,3:0:0:0:
176,332,76097,2,0,P|184:296|176:248,1,76.4999976654053,8|2,1:0|3:2,0:0:0:0:
64,144,76411,5,0,3:0:0:0:
64,144,76568,1,0,3:0:0:0:
64,144,76725,2,0,L|156:132,1,76.4999976654053,4|0,1:1|0:0,0:0:0:0:
179,257,77039,5,4,3:2:0:0:
139,134,77196,1,2,3:2:0:0:
236,44,77353,5,8,1:0:0:0:
204,184,77510,1,2,3:2:0:0:
236,44,77668,2,0,P|251:79|244:124,1,76.4999976654053,0|0,3:0|2:0,0:0:0:0:
400,116,77982,5,8,1:0:0:0:
247,116,78139,2,0,L|328:116,1,76.4999976654053,2|0,1:2|2:0,0:0:0:0:
400,116,78453,1,2,3:2:0:0:
396,248,78610,2,0,P|367:218|358:171,1,76.4999976654053,8|0,1:0|2:0,0:0:0:0:
393,39,78924,5,0,3:0:0:0:
393,39,79081,1,0,3:0:0:0:
393,39,79238,2,0,L|400:136,1,76.4999976654053,4|0,1:1|0:0,0:0:0:0:
376,328,79552,5,4,3:0:0:0:
452,308,79709,1,0,3:2:0:0:
320,268,79866,5,8,1:0:0:0:
396,248,80024,2,0,L|440:236,1,38.2499988327027,0|0,3:0|3:0,0:0:0:0:
172,192,80181,5,0,1:0:0:0:
340,192,80338,1,0,3:0:0:0:
116,248,80495,5,8,1:0:0:0:
256,312,80652,1,2,0:0:0:0:
60,308,80809,5,8,1:0:0:0:
192,268,80966,1,0,3:0:0:0:
136,328,81123,5,8,1:0:0:0:
274,216,81280,2,0,L|238:204,1,38.2499988327027,0|0,3:0|3:0,0:0:0:0:
72,156,81437,5,8,1:0:0:0:
124,364,81594,2,0,L|135:327,1,38.2499988327027,0|0,3:0|3:0,0:0:0:0:
188,140,81751,5,8,1:0:0:0:
256,312,81908,1,2,0:2:0:0:
324,140,82065,5,0,3:0:0:0:
216,8,82223,1,0,2:0:0:0:
256,184,82380,1,8,1:0:0:0:
296,8,82537,1,2,2:0:0:0:
124,96,82694,5,8,1:0:0:0:
124,96,82772,1,8,3:0:0:0:
124,96,82851,1,0,3:0:0:0:
388,96,83008,1,8,1:0:0:0:
388,96,83086,1,4,3:0:0:0:
388,96,83165,1,0,3:0:0:0:
352,360,83322,5,0,1:0:0:0:
316,376,83401,1,8,3:0:0:0:
280,372,83479,1,0,3:0:0:0:
248,348,83558,1,0,3:0:0:0:
236,316,83636,2,0,L|232:248,1,55.2499974708558,8|0,1:0|3:0,0:0:0:0:
255,192,83793,2,0,P|255:174|265:159,2,36.8333316472372,0|0|0,1:0|1:0|1:0,0:0:0:0:
301,237,83950,5,8,1:0:0:0:
301,237,84029,1,4,3:0:0:0:
301,237,84107,2,0,P|288:210|256:192,1,68,0|0,3:0|3:0,0:0:0:0:
179,213,84264,5,4,1:0:0:0:
179,213,84343,1,4,3:0:0:0:
179,213,84421,2,0,P|216:215|255:192,1,85,0|0,3:0|3:0,0:0:0:0:
270,58,84579,38,0,L|254:-6,1,55.2499974708558,0|0,1:0|0:0,0:0:0:0:
125,136,84736,2,0,L|77:181,1,55.2499974708558,0|0,1:0|0:0,0:0:0:0:
270,214,84893,6,0,L|333:232,1,55.2499974708558,0|0,1:0|0:0,0:0:0:0:
468,88,85050,2,0,L|404:106,1,55.2499974708558,0|0,1:0|0:0,0:0:0:0:
284,236,85207,2,0,L|347:254,1,55.2499974708558,0|0,1:0|0:0,0:0:0:0:
296,256,85521,6,0,L|359:274,1,55.2499974708558,2|0,1:2|0:0,0:0:0:0:
454,110,85678,2,0,L|390:128,1,55.2499974708558,2|0,1:2|0:0,0:0:0:0:
436,136,85992,6,0,L|372:154,1,55.2499974708558,2|0,1:1|0:0,0:0:0:0:
432,356,86149,2,0,P|457:346|481:331,1,55.2499974708558,2|0,1:1|0:0,0:0:0:0:
480,304,86463,54,0,P|450:286|396:276,1,55.2499974708558,2|0,1:1|0:0,0:0:0:0:
348,300,86620,2,0,P|318:317|264:328,1,55.2499974708558,2|0,1:1|0:0,0:0:0:0:
213,323,86777,70,0,P|189:309|164:300,1,55.2499974708558,2|0,1:1|0:0,0:0:0:0:
81,280,86935,2,0,P|55:289|31:304,1,55.2499974708558,2|0,1:0|0:0,0:0:0:0:
104,164,87092,22,0,L|119:105,1,55.2499974708558,0|0,1:0|0:0,0:0:0:0:
128,148,87406,22,0,L|143:89,1,55.2499974708558,2|0,1:2|0:0,0:0:0:0:
0,0,87563,2,0,L|15:59,1,55.2499974708558,2|0,1:2|0:0,0:0:0:0:
24,20,87877,22,0,L|39:79,1,55.2499974708558,2|0,1:0|0:0,0:0:0:0:
152,132,88034,2,0,L|167:73,1,55.2499974708558,2|0,1:0|0:0,0:0:0:0:
300,12,88191,6,0,B|304:52|269:72|269:72|319:126|381:58|415:149|415:149|376:241|318:173|292:271|292:271|297:232|276:211,1,497.249977237702
220,256,88976,5,8,3:0:0:0:
368,280,89291,1,4,3:0:0:0:
164,312,89605,6,0,B|64:300|64:300|20:272|46:225,1,187.000005706787,6|8,0:2|0:0,0:0:0:0:
220,256,90076,1,2,2:2:0:0:
128,384,90233,2,0,B|32:372,1,93.5000028533936,2|0,3:2|2:0,0:0:0:0:
125,117,90547,2,0,B|141:189|141:189|121:241,1,93.5000028533936,8|2,0:0|2:2,0:0:0:0:
45,225,90783,1,2,2:0:0:0:
45,225,90861,5,2,3:2:0:0:
164,312,91018,1,0,3:0:0:0:
276,132,91175,5,8,0:0:0:0:
220,256,91332,1,2,2:2:0:0:
43,108,91490,6,0,B|31:36|96:23|96:23|73:31|65:63,1,140.25000428009,2|0,3:2|2:0,0:0:0:0:
125,117,91804,2,0,P|81:130|42:107,1,93.5000028533936,8|0,0:0|2:0,0:0:0:0:
348,72,92118,6,0,B|448:84|448:84|492:112|466:159,1,187.000005706787,2|8,3:2|0:0,0:0:0:0:
292,128,92589,1,2,2:2:0:0:
384,0,92746,2,0,B|480:12,1,93.5000028533936,2|0,3:2|3:0,0:0:0:0:
387,267,93060,2,0,B|371:195|371:195|391:143,1,93.5000028533936,8|2,0:0|2:2,0:0:0:0:
467,159,93296,1,2,2:0:0:0:
467,159,93374,5,2,3:2:0:0:
348,72,93531,1,0,3:0:0:0:
236,252,93688,5,4,1:2:0:0:
292,128,93846,1,2,2:2:0:0:
469,276,94003,6,0,B|481:348|415:360|415:360|438:352|446:320,1,140.25000428009,2|0,3:2|2:0,0:0:0:0:
387,267,94317,2,0,P|430:253|469:276,1,93.5000028533936,12|0,0:1|2:0,0:0:0:0:
256,344,94631,53,6,0:2:0:0:
236,252,94788,1,2,2:0:0:0:
288,176,94945,1,8,0:0:0:0:
372,160,95102,1,2,2:2:0:0:
444,120,95259,5,2,3:2:0:0:
452,52,95416,1,0,2:0:0:0:
368,8,95573,5,8,1:0:0:0:
376,84,95730,1,2,2:0:0:0:
288,176,95887,5,2,3:1:0:0:
300,92,96044,1,0,2:0:0:0:
168,0,96202,5,10,1:1:0:0:
224,124,96359,1,0,3:0:0:0:
136,224,96516,5,2,3:1:0:0:
232,48,96673,1,0,3:0:0:0:
28,8,96830,6,2,B|16:80|81:93|81:93|76:76|28:76,1,140.25000428009,10|2,1:1|2:1,0:1:0:0:
27,154,97144,6,0,B|22:300|22:300|28:324|56:320,1,191.250007295609,2|0,3:2|2:0,0:0:0:0:
128,296,97458,1,8,1:0:0:0:
208,380,97615,1,2,2:2:0:0:
340,216,97772,5,2,3:2:0:0:
300,292,97929,1,0,3:0:0:0:
256,304,98008,1,0,3:0:0:0:
212,292,98086,1,8,0:0:0:0:
172,216,98243,1,2,2:2:0:0:
304,380,98401,54,0,L|400:372,1,93.5000028533936,2|0,3:2|2:0,0:0:0:0:
496,240,98715,1,12,0:0:0:0:
468,352,98872,6,0,L|460:300,1,46.7500014266968
432,200,99029,2,0,L|440:148,1,46.7500014266968
484,36,99186,2,0,P|480:56|464:68,2,31.1666676177979
476,24,99343,6,0,P|456:72|400:76,1,95.6250036478044,12|0,0:0|2:0,0:0:0:0:
348,73,99657,6,0,B|448:85|448:85|492:113|466:160,1,187.000005706787,6|8,0:2|0:0,0:0:0:0:
360,312,100128,1,2,2:2:0:0:
212,280,100285,2,0,B|116:292,1,93.5000028533936,2|0,3:2|2:0,0:0:0:0:
312,160,100599,2,0,P|315:206|297:248,1,93.5000028533936,8|2,0:0|2:2,0:0:0:0:
212,280,100835,1,2,2:0:0:0:
212,280,100914,5,2,3:2:0:0:
208,88,101071,1,0,3:0:0:0:
392,136,101228,1,8,1:0:0:0:
224,192,101385,1,2,2:2:0:0:
320,0,101542,2,0,P|317:46|335:88,1,93.5000028533936,2|0,3:2|3:2,0:0:0:0:
390,306,101856,2,0,B|298:344|298:246|211:279,1,191.250007295609,4|0,1:0|2:0,0:0:0:0:
148,328,102170,6,0,B|48:316|48:316|4:288|30:241,1,187.000005706787,6|8,0:2|0:0,0:0:0:0:
128,100,102641,1,2,2:2:0:0:
300,104,102798,2,0,B|396:92,1,93.5000028533936,2|0,3:2|2:0,0:0:0:0:
200,224,103113,2,0,P|196:177|214:135,1,93.5000028533936,8|2,0:0|2:2,0:0:0:0:
300,104,103348,1,2,2:0:0:0:
300,104,103427,5,2,3:2:0:0:
304,296,103584,1,0,3:0:0:0:
120,248,103741,1,4,1:2:0:0:
288,192,103898,1,2,2:2:0:0:
128,100,104055,2,0,B|13:114,1,93.5000028533936,2|0,3:2|3:0,0:0:0:0:
304,296,104369,2,0,P|398:297|475:244,1,191.250007295609,4|0,1:0|2:0,0:0:0:0:
512,180,104683,53,6,3:2:0:0:
420,160,104840,1,2,2:0:0:0:
344,212,104997,1,8,0:0:0:0:
328,296,105154,1,2,2:2:0:0:
288,368,105312,5,2,3:2:0:0:
220,376,105469,1,0,2:0:0:0:
176,292,105626,5,8,1:0:0:0:
252,300,105783,1,2,2:0:0:0:
344,212,105940,5,2,3:1:0:0:
260,224,106097,1,0,2:0:0:0:
168,92,106254,5,10,1:1:0:0:
292,148,106411,1,0,3:0:0:0:
392,60,106568,5,2,3:1:0:0:
216,156,106725,1,0,3:0:0:0:
56,12,106882,6,2,B|115:54|78:109|78:109|67:91|104:60,1,140.25000428009,10|2,1:1|2:1,0:1:0:0:
136,176,107196,6,0,B|154:230|108:260|108:260|53:243|54:189,1,191.250007295609,2|0,3:2|2:0,0:0:0:0:
53,191,107510,1,8,1:0:0:0:
168,92,107668,1,2,2:2:0:0:
172,316,107825,5,2,3:2:0:0:
212,240,107982,1,0,3:0:0:0:
256,228,108060,1,0,3:0:0:0:
300,240,108139,1,8,0:0:0:0:
340,316,108296,1,2,2:2:0:0:
468,144,108453,5,0,3:0:0:0:
412,284,108610,1,0,3:0:0:0:
328,160,108767,6,0,L|320:104,1,31.1666676177979,0|0,1:0|1:0,0:0:0:0:
308,124,108872,2,0,L|300:180,1,31.1666676177979,0|0,1:0|1:0,0:0:0:0:
216,36,109081,1,0,3:0:0:0:
144,188,109238,1,0,3:0:0:0:
152,184,109291,1,0,3:0:0:0:
160,180,109343,1,0,3:0:0:0:
168,176,109395,1,12,0:0:0:0:
303,154,109552,1,0,3:0:0:0:
212,328,109709,5,4,1:2:0:0:
300,308,109866,1,0,2:0:0:0:
96,360,110024,2,0,P|76:324|84:280,1,85,8|2,1:0|2:2,0:0:0:0:
300,308,110338,5,8,1:0:0:0:
200,296,110495,1,0,3:0:0:0:
412,332,110652,2,0,P|432:288|420:240,1,93.5000028533936,8|0,1:0|2:2,0:0:0:0:
200,296,110966,5,2,1:2:0:0:
308,276,111123,1,0,2:0:0:0:
84,316,111280,2,0,P|64:280|76:216,1,101.999996887207,8|2,1:0|2:2,0:0:0:0:
308,276,111594,5,8,1:0:0:0:
188,260,111751,1,0,3:2:0:0:
412,300,111908,2,0,P|432:240|412:168,1,110.499994941712,8|0,1:0|2:2,0:0:0:0:
188,260,112223,5,2,1:2:0:0:
312,216,112380,1,0,2:0:0:0:
68,228,112537,2,0,P|48:164|80:100,1,118.999996368408,12|2,1:0|2:2,0:0:0:0:
312,216,112851,5,4,1:2:0:0:
172,188,113008,1,0,3:2:0:0:
412,152,113165,2,0,P|436:92|416:16,1,127.500004863739,8|0,1:0|2:2,0:0:0:0:
88,176,113479,5,6,1:2:0:0:
424,176,113636,1,2,1:2:0:0:
196,180,113793,2,0,B|269:160|245:220|315:201,1,127.5,2|0,1:2|2:0,0:0:0:0:
340,112,114107,6,0,P|328:32|308:122,1,255,0|2,2:0|2:0,1:0:0:0:
311,75,114657,1,2,2:0:0:0:
311,75,114736,1,4,0:2:0:0:
116,144,124631,6,0,L|136:260,1,114.749996498108,6|0,3:2|0:0,0:0:0:0:
124,280,124945,2,0,L|88:320,1,38.2499988327027
56,244,125102,1,0,3:0:0:0:
208,212,125259,1,0,0:0:0:0:
208,212,125416,1,0,0:0:0:0:
152,40,125573,2,0,L|163:92,1,38.2499988327027
82,73,125730,1,0,3:0:0:0:
232,44,125887,1,2,0:0:0:0:
240,48,125966,1,0,0:0:0:0:
248,52,126044,6,0,B|276:44|276:44|296:0,1,76.4999976654053
344,144,126359,1,0,3:0:0:0:
348,68,126516,2,0,L|364:32,1,38.2499988327027
440,20,126673,1,0,0:0:0:0:
412,176,126830,1,0,0:0:0:0:
416,184,126908,1,0,0:0:0:0:
420,192,126987,1,0,3:0:0:0:
412,228,127065,1,0,0:0:0:0:
404,264,127144,2,0,L|380:232,1,38.2499988327027
484,144,127301,5,2,0:0:0:0:
492,220,127458,1,0,0:0:0:0:
468,292,127615,1,0,3:0:0:0:
508,356,127772,2,0,L|464:372,1,38.2499988327027
400,340,127929,1,0,0:0:0:0:
252,380,128086,1,0,0:0:0:0:
252,380,128165,1,0,0:0:0:0:
252,380,128243,1,0,3:0:0:0:
160,256,128401,6,0,B|156:192|220:184|220:184|260:220|232:260,1,191.250007295609,4|0,1:1|0:0,0:0:0:0:
192,328,128715,1,8,1:0:0:0:
87,260,128872,6,0,B|59:220|99:184|99:184|163:192|159:256,1,191.250007295609,8|0,1:1|0:0,0:0:0:0:
4,216,129186,5,0,1:0:0:0:
12,176,129264,1,0,1:0:0:0:
36,140,129343,1,0,1:0:0:0:
72,116,129421,1,0,1:0:0:0:
116,108,129500,5,0,1:0:0:0:
180,132,129579,1,0,1:0:0:0:
248,116,129657,1,0,1:0:0:0:
292,64,129736,1,0,1:0:0:0:
356,40,129814,70,0,B|408:24|428:60|428:60|420:128,1,127.5,6|0,1:2|0:0,0:0:0:0:
400,172,130128,2,0,L|408:260,1,85,8|0,1:0|0:0,0:0:0:0:
420,384,130442,1,0,3:2:0:0:
456,316,130599,1,0,3:0:0:0:
328,192,130757,1,8,1:0:0:0:
400,172,130914,5,0,3:0:0:0:
400,172,131228,1,0,3:0:0:0:
272,144,131385,1,8,1:0:0:0:
256,276,131542,1,0,0:0:0:0:
260,284,131620,1,0,1:1:0:0:
264,292,131699,1,0,3:0:0:0:
328,332,131856,1,0,3:0:0:0:
240,208,132013,1,8,1:0:0:0:
92,240,132170,1,0,0:0:0:0:
92,240,132327,70,0,B|40:256|20:220|20:220|28:152,1,127.5,2|0,3:2|0:0,0:0:0:0:
80,36,132641,2,0,L|71:139,1,85,8|0,1:0|0:0,0:0:0:0:
92,240,132955,1,0,3:2:0:0:
68,312,133113,1,0,3:1:0:0:
256,280,133270,1,8,1:0:0:0:
324,320,133427,1,0,3:0:0:0:
324,320,133584,6,0,P|334:301|324:248,1,63.7500024318696,8|0,1:0|0:0,0:0:0:0:
244,192,133741,6,0,P|260:201|288:200,1,42.5,0|0,3:0|3:0,0:0:0:0:
332,184,133898,2,0,P|310:183|292:193,1,42.5,0|0,3:0|0:0,0:0:0:0:
193,290,134055,6,0,L|281:275,1,63.7500024318696,12|0,1:0|2:0,0:0:0:0:
400,224,134212,6,0,P|412:176|384:124,1,95.6250036478044,0|0,3:0|3:0,0:0:0:0:
392,152,134683,6,0,P|400:224|484:288,1,170,4|0,3:2|3:0,0:0:0:0:
324,316,135154,1,8,1:0:0:0:
255,279,135312,2,0,L|188:292,1,42.5,0|0,0:0|1:0,0:0:0:0:
156,340,135469,1,0,3:0:0:0:
92,300,135626,1,0,3:0:0:0:
80,156,135783,1,8,1:0:0:0:
12,192,135940,6,0,P|37:222|136:208,1,127.5,2|0,3:2|0:0,0:0:0:0:
140,200,136254,1,0,3:0:0:0:
36,4,136411,5,8,1:0:0:0:
0,72,136568,2,0,L|16:124,1,42.5,0|0,0:0|1:0,0:0:0:0:
12,192,136725,1,0,3:0:0:0:
80,156,136882,1,0,3:0:0:0:
184,268,137039,1,8,1:0:0:0:
184,268,137196,6,0,P|116:316|16:296,1,170,2|2,3:2|2:0,0:0:0:0:
12,284,137589,1,2,2:0:0:0:
4,256,137668,1,8,1:0:0:0:
204,356,137825,1,2,0:0:0:0:
252,364,137903,1,0,1:0:0:0:
296,344,137982,1,0,0:0:0:0:
408,224,138139,1,0,3:0:0:0:
408,224,138453,6,0,P|364:228|428:284,1,191.250007295609,0|0,1:0|0:0,0:0:0:0:
480,244,138767,1,0,3:0:0:0:
480,112,138924,6,0,P|476:156|436:192,1,63.7500024318696,0|0,1:0|2:0,0:0:0:0:
408,380,139081,1,0,3:0:0:0:
432,336,139160,1,0,1:0:0:0:
420,293,139238,5,0,1:0:0:0:
380,248,139317,1,2,1:2:0:0:
376,184,139395,1,8,1:1:0:0:
412,124,139474,1,8,1:1:0:0:
388,56,139552,6,0,L|372:8,1,42.5,2|0,1:2|1:0,0:0:0:0:
464,40,139709,1,0,1:0:0:0:
464,40,139788,1,0,1:0:0:0:
464,40,139866,5,4,0:0:0:0:
316,80,140024,1,2,0:0:0:0:
160,8,140181,2,0,B|156:40|156:40|176:100,1,85,8|0,1:0|0:0,0:0:0:0:
200,160,140495,5,2,3:2:0:0:
248,100,140652,1,0,3:0:0:0:
128,152,140809,2,0,L|40:144,1,85,8|0,1:0|0:0,0:0:0:0:
204,280,141123,5,2,3:2:0:0:
156,220,141280,1,0,3:0:0:0:
276,272,141437,2,0,L|364:264,1,85,8|0,1:0|0:0,0:0:0:0:
388,260,141673,1,8,1:0:0:0:
388,260,141751,1,2,3:2:0:0:
248,340,141908,1,0,3:0:0:0:
204,280,142065,1,8,1:0:0:0:
436,204,142223,6,0,P|458:238|456:292,1,85,2|0,0:0|3:0,0:0:0:0:
428,128,142537,2,0,L|512:124,1,85,2|8,0:0|1:0,0:0:0:0:
367,89,142851,1,0,0:0:0:0:
367,89,143008,5,0,3:2:0:0:
459,281,143165,1,4,1:1:0:0:
295,121,143322,1,2,3:2:0:0:
387,313,143479,1,4,0:1:0:0:
223,153,143636,6,0,L|143:145,1,42.5,0|0,3:2|0:2,0:0:0:0:
283,201,143793,2,0,L|317:275,1,42.5,2|0,1:2|0:2,0:0:0:0:
160,360,143950,5,8,1:0:0:0:
124,340,144029,1,8,1:0:0:0:
88,336,144107,1,0,3:0:0:0:
52,344,144186,1,0,3:0:0:0:
20,364,144264,6,0,L|2:325,1,42.5,8|0,1:0|0:0,0:0:0:0:
120,220,144421,6,0,L|158:219,1,38.2499988327027,0|0,3:0|0:0,0:0:0:0:
224,312,144579,6,0,L|204:263,1,34,4|0,3:1|0:0,0:0:0:0:
44,224,144736,6,0,L|31:254,1,29.7499990921021,0|0,3:0|0:0,0:0:0:0:
20,364,144893,5,4,3:2:0:0:
112,360,145050,1,2,3:2:0:0:
112,360,145207,1,2,3:2:0:0:
112,360,145364,1,2,3:2:0:0:
112,360,145521,2,0,P|127:325|120:292,1,63.7500024318696,8|0,1:0|2:0,0:0:0:0:
80,156,145835,5,2,3:2:0:0:
112,360,145992,2,0,P|86:333|81:298,1,63.7500024318696,8|0,1:0|2:0,0:0:0:0:
80,156,146306,2,0,L|92:236,1,63.7500024318696,8|2,1:0|2:0,0:0:0:0:
89,219,146620,1,0,3:0:0:0:
0,304,146777,5,8,1:0:0:0:
200,272,146935,1,0,1:0:0:0:
200,272,147249,1,0,3:0:0:0:
248,124,147406,5,2,3:2:0:0:
332,112,147563,1,2,3:2:0:0:
332,112,147720,1,2,3:2:0:0:
332,112,147877,1,2,3:2:0:0:
332,112,148034,2,0,P|340:72|372:44,1,63.7500024318696,8|0,1:0|2:0,0:0:0:0:
484,92,148348,5,2,3:2:0:0:
332,112,148505,2,0,P|346:150|383:172,1,63.7500024318696,8|0,1:0|2:0,0:0:0:0:
484,92,148819,1,2,3:2:0:0:
484,92,148898,1,2,3:2:0:0:
484,92,148976,2,0,L|420:100,1,63.7500024318696,8|0,1:0|3:0,0:0:0:0:
316,324,149291,6,0,L|252:316,2,42.5000016212464,4|0|0,3:1|3:0|3:0,3:0:0:0:
464,340,149605,2,0,L|528:348,2,42.5000016212464,0|0|0,3:1|3:0|3:0,3:0:0:0:
384,372,149919,5,6,3:2:0:0:
392,292,150076,1,2,3:2:0:0:
392,292,150233,1,2,3:2:0:0:
392,292,150390,1,2,3:2:0:0:
392,292,150547,2,0,P|368:268|328:264,1,63.7500024318696,8|0,1:0|2:0,0:0:0:0:
384,372,150861,5,2,0:0:0:0:
392,292,151018,2,0,P|417:273|448:271,1,63.7500024318696,8|0,1:0|2:0,0:0:0:0:
384,372,151332,1,8,1:0:0:0:
401,199,151490,2,0,L|408:136,1,63.7500024318696,2|0,0:0|3:0,0:0:0:0:
412,98,151725,1,0,3:0:0:0:
416,60,151804,1,8,1:0:0:0:
309,98,151961,2,0,L|296:120,2,21.2500008106232,0|0|0,3:0|3:0|3:0,3:0:0:0:
284,92,152118,6,0,B|303:101|303:101|351:93,1,63.7500024318696,4|0,1:1|3:0,0:0:0:0:
504,164,152432,5,4,3:2:0:0:
340,168,152589,1,2,3:2:0:0:
316,12,152746,5,8,1:0:0:0:
340,168,152903,1,2,3:2:0:0:
284,92,153060,5,0,3:0:0:0:
264,240,153217,1,8,1:0:0:0:
264,240,153374,1,0,3:0:0:0:
121,189,153531,6,0,P|103:150|107:108,1,85,4|0,1:2|2:0,0:0:0:0:
156,40,153846,1,8,1:0:0:0:
44,224,154003,6,0,P|26:263|30:305,1,85,8|0,1:0|3:0,0:0:0:0:
68,380,154317,1,8,3:0:0:0:
96,356,154395,1,0,3:0:0:0:
132,348,154474,1,0,3:0:0:0:
168,352,154552,1,0,3:0:0:0:
204,368,154631,6,0,L|256:360,1,42.5,4|0,1:0|1:0,0:0:0:0:
212,252,154788,1,0,1:0:0:0:
168,248,154866,1,0,1:0:0:0:
124,244,154945,5,4,3:2:0:0:
52,128,155102,1,2,3:2:0:0:
152,24,155259,5,8,1:0:0:0:
120,164,155416,1,2,3:2:0:0:
152,24,155573,1,2,3:2:0:0:
152,24,155887,5,2,1:2:0:0:
256,136,156044,1,2,2:0:0:0:
328,112,156202,2,0,L|412:116,1,85,0|0,3:0|2:0,0:0:0:0:
256,136,156516,2,0,P|272:168|320:188,1,85,8|2,1:0|3:2,0:0:0:0:
152,24,156830,5,0,3:0:0:0:
152,24,156987,1,0,3:0:0:0:
152,24,157144,2,0,L|132:232,1,191.250007295609,4|0,1:1|2:0,0:0:0:0:
144,292,157458,5,4,3:2:0:0:
260,364,157615,1,2,3:2:0:0:
364,264,157772,5,8,1:0:0:0:
224,296,157929,1,2,3:2:0:0:
364,264,158086,1,2,3:2:0:0:
364,264,158401,5,2,1:2:0:0:
252,160,158558,1,2,2:0:0:0:
276,88,158715,2,0,L|272:4,1,85,0|2,3:0|2:0,0:0:0:0:
252,160,159029,2,0,P|220:144|200:96,1,85,8|0,1:0|3:2,0:0:0:0:
364,264,159343,5,0,3:0:0:0:
364,264,159500,1,0,3:0:0:0:
364,264,159657,2,0,L|156:284,1,191.250007295609,4|0,1:1|2:0,0:0:0:0:
100,216,159971,5,4,3:2:0:0:
80,292,160128,1,0,3:2:0:0:
192,116,160285,5,8,1:0:0:0:
116,136,160442,2,0,L|72:148,1,38.2499988327027,0|0,3:0|3:0,0:0:0:0:
340,192,160599,5,0,1:0:0:0:
172,192,160757,1,0,3:0:0:0:
396,136,160914,5,8,1:0:0:0:
256,72,161071,1,2,2:0:0:0:
432,292,161228,5,8,1:0:0:0:
320,116,161385,1,0,3:0:0:0:
412,216,161542,5,8,1:0:0:0:
274,180,161699,2,0,L|238:168,1,38.2499988327027,0|0,3:0|3:0,0:0:0:0:
412,216,161856,5,8,1:0:0:0:
377,57,162013,2,0,L|388:20,1,38.2499988327027,0|0,3:0|3:0,0:0:0:0:
324,244,162170,5,8,1:0:0:0:
256,72,162327,1,2,2:2:0:0:
188,244,162484,5,0,3:0:0:0:
296,376,162641,1,0,2:0:0:0:
256,200,162798,1,8,1:0:0:0:
216,376,162955,1,2,2:0:0:0:
404,340,163113,5,8,1:0:0:0:
404,340,163191,1,8,1:0:0:0:
404,340,163270,1,0,3:0:0:0:
404,340,163348,1,0,3:0:0:0:
364,340,163427,5,8,1:0:0:0:
332,320,163505,1,0,1:0:0:0:
316,284,163584,2,0,L|272:296,2,25.4999992218018,0|0|0,1:0|1:0|1:0,0:0:0:0:
328,216,163741,5,0,1:0:0:0:
328,216,163819,1,8,3:0:0:0:
328,216,163898,2,0,P|302:215|272:232,1,38.2499988327027,0|0,3:0|3:0,0:0:0:0:
168,236,164055,6,0,L|120:240,2,36.8333316472372,0|0|0,1:0|1:0|1:0,0:0:0:0:
172,168,164212,2,0,P|198:172|222:196,1,55.2499974708558,0|0,3:0|3:0,0:0:0:0:
316,88,164369,5,8,1:0:0:0:
316,88,164448,1,4,1:3:0:0:
316,88,164526,2,0,P|292:106|281:141,1,68,0|0,3:0|3:0,0:0:0:0:
192,20,164683,5,4,1:0:0:0:
192,20,164762,1,4,3:0:0:0:
192,20,164840,2,0,P|212:51|211:96,1,85,0|0,3:0|3:0,0:0:0:0:
36,104,164997,70,0,L|44:36,1,55.2499974708558,0|0,0:0|2:0,0:0:0:0:
108,188,165154,2,0,L|116:120,1,55.2499974708558,0|0,0:0|2:0,0:0:0:0:
180,272,165312,2,0,L|188:204,1,55.2499974708558,0|0,0:0|2:0,0:0:0:0:
40,300,165469,2,0,L|48:232,1,55.2499974708558,0|0,0:0|2:0,0:0:0:0:
112,384,165626,2,0,L|120:316,1,55.2499974708558,0|0,0:0|2:0,0:0:0:0:
476,104,165940,70,0,L|468:36,1,55.2499974708558,2|0,0:2|2:0,0:0:0:0:
404,188,166097,2,0,L|396:120,1,55.2499974708558,2|0,0:2|2:0,0:0:0:0:
332,272,166411,6,0,L|324:204,1,55.2499974708558,2|0,0:1|2:0,0:0:0:0:
472,300,166568,2,0,L|464:232,1,55.2499974708558,2|0,0:1|2:0,0:0:0:0:
400,384,166882,6,0,L|392:316,1,55.2499974708558,2|0,0:1|2:0,0:0:0:0:
180,272,167039,2,0,L|187:217,1,55.2499974708558,2|0,0:1|2:0,0:0:0:0:
332,272,167196,2,0,L|324:204,1,55.2499974708558,2|0,0:1|2:0,0:0:0:0:
108,188,167353,2,0,L|116:120,1,55.2499974708558,2|0,0:1|2:0,0:0:0:0:
404,188,167510,2,0,L|396:120,1,55.2499974708558,0|0,0:1|2:0,0:0:0:0:
476,104,167825,70,0,L|468:36,1,55.2499974708558,2|0,0:2|2:0,0:0:0:0:
36,104,167982,2,0,L|44:36,1,55.2499974708558,2|0,0:2|2:0,0:0:0:0:
344,364,168296,6,0,L|408:372,1,55.2499974708558,2|0,1:0|2:0,0:0:0:0:
168,364,168453,2,0,L|104:372,1,55.2499974708558,2|0,0:0|2:0,0:0:0:0:
256,376,168610,6,0,B|280:344|259:312|259:312|209:258|147:326|113:235|113:235|124:184|172:184,1,331.499984825135,0|8,2:0|0:0,1:0:0:0:
240,220,169238,1,0,1:0:0:0:
236,296,169395,5,0,3:0:0:0:
84,324,169709,1,4,3:0:0:0:
44,172,170024,6,0,B|172:183|172:183|200:163|193:133,1,187.000005706787,6|8,0:2|0:0,0:0:0:0:
116,84,170495,1,2,2:2:0:0:
236,296,170652,2,0,B|348:288,1,93.5000028533936,2|0,3:2|2:0,0:0:0:0:
84,324,170966,2,0,P|128:351|196:336,1,93.5000028533936,8|2,0:0|2:2,0:0:0:0:
236,296,171202,1,2,2:0:0:0:
236,296,171280,5,2,3:2:0:0:
96,216,171437,1,0,3:0:0:0:
0,328,171594,5,8,0:0:0:0:
168,349,171751,1,2,2:2:0:0:
124,144,171908,6,0,B|65:103|25:159|25:159|24:185,1,140.25000428009,2|0,3:2|2:0,2:0:0:0:
96,216,172223,2,0,P|141:220|181:197,1,93.5000028533936,8|0,0:0|2:0,0:0:0:0:
359,72,172537,6,0,B|348:200|348:200|368:228|398:221,1,187.000005706787,2|8,3:2|0:0,0:0:0:0:
447,144,173008,1,2,2:2:0:0:
235,264,173165,2,0,B|328:292,1,93.5000028533936,2|0,3:2|2:0,0:0:0:0:
207,112,173479,2,0,P|179:156|195:224,1,93.5000028533936,8|2,0:0|2:2,0:0:0:0:
235,264,173715,1,2,2:0:0:0:
235,264,173793,5,2,3:2:0:0:
315,124,173950,1,0,3:0:0:0:
203,28,174107,5,12,0:0:0:0:
180,195,174264,1,2,2:2:0:0:
396,100,174421,6,0,P|373:59|330:43,1,93.5000028533936,2|0,2:2|3:0,2:0:0:0:
5,55,174736,2,0,B|104:32|88:108|188:74,1,191.250007295609,12|0,0:0|2:0,0:0:0:0:
256,40,175050,53,6,0:2:0:0:
236,132,175207,1,2,2:0:0:0:
288,208,175364,1,8,0:0:0:0:
372,224,175521,1,2,2:2:0:0:
444,264,175678,5,2,3:2:0:0:
452,332,175835,1,0,2:0:0:0:
376,300,175992,5,8,1:0:0:0:
368,376,176149,1,2,2:0:0:0:
288,208,176306,5,2,3:1:0:0:
304,332,176463,1,0,2:0:0:0:
452,332,176620,5,10,1:1:0:0:
304,332,176777,1,0,3:0:0:0:
320,136,176935,5,2,3:1:0:0:
304,332,177092,1,0,3:0:0:0:
512,288,177249,6,2,P|486:217|512:148,1,140.25000428009,10|2,1:1|2:1,0:1:0:0:
511,79,177563,6,0,P|481:163|392:156,1,191.250007295609,2|0,3:2|2:0,0:0:0:0:
441,100,177877,1,8,1:0:0:0:
412,248,178034,1,2,2:2:0:0:
172,216,178191,5,2,3:2:0:0:
300,292,178348,1,0,3:0:0:0:
256,304,178427,1,0,3:0:0:0:
212,292,178505,1,8,1:0:0:0:
340,216,178662,1,2,2:2:0:0:
100,248,178819,54,0,L|4:252,1,93.5000028533936,2|0,3:2|2:0,0:0:0:0:
256,220,179133,1,12,0:0:0:0:
452,180,179291,6,0,L|400:172,1,46.7500014266968
300,144,179448,2,0,L|248:152,1,46.7500014266968
132,176,179605,2,0,P|149:175|161:165,2,31.1666676177979
120,172,179762,6,0,P|168:152|172:96,1,95.6250036478044,12|0,0:0|2:0,0:0:0:0:
80,23,180076,6,0,B|69:151|69:151|89:179|119:172,1,187.000005706787,6|8,0:2|0:0,0:0:0:0:
256,220,180547,1,2,2:2:0:0:
276,88,180704,2,0,B|164:96,1,93.5000028533936,2|0,3:2|2:0,0:0:0:0:
428,60,181018,2,0,P|384:33|316:48,1,93.5000028533936,8|2,0:0|2:2,0:0:0:0:
276,88,181254,1,2,2:0:0:0:
276,88,181332,5,2,3:2:0:0:
416,168,181490,1,0,3:0:0:0:
512,56,181647,5,8,0:0:0:0:
344,35,181804,1,2,2:2:0:0:
388,240,181961,6,0,P|432:248|476:216,1,93.5000028533936,2|0,2:2|3:0,2:0:0:0:
308,168,182275,2,0,L|303:261,1,93.5000028533936,8|0,0:0|2:0,0:0:0:0:
112,368,182589,6,0,P|63:289|60:196,1,187.000005706787,2|8,3:2|0:0,0:0:0:0:
197,260,183060,1,2,2:2:0:0:
277,120,183217,2,0,B|187:93,1,93.5000028533936,2|0,3:2|2:0,0:0:0:0:
305,272,183531,2,0,P|333:228|317:160,1,93.5000028533936,8|2,0:0|2:2,0:0:0:0:
277,120,183767,1,2,2:0:0:0:
277,120,183846,5,2,3:2:0:0:
197,260,184003,1,0,3:0:0:0:
332,188,184160,5,12,1:0:0:0:
309,356,184317,1,2,2:0:0:0:
480,264,184474,6,0,L|348:252,1,93.5000028533936,2|0,2:2|3:0,2:0:0:0:
36,260,184788,2,0,P|99:234|224:332,1,191.250007295609,12|0,0:0|2:0,0:0:0:0:
256,344,185102,53,6,0:2:0:0:
276,252,185259,1,2,2:0:0:0:
224,176,185416,1,8,0:0:0:0:
140,160,185573,1,2,2:2:0:0:
68,120,185730,5,2,3:2:0:0:
60,52,185887,1,0,2:0:0:0:
136,84,186044,5,8,1:0:0:0:
144,8,186202,1,2,2:0:0:0:
224,176,186359,5,2,3:1:0:0:
208,52,186516,1,0,2:0:0:0:
60,52,186673,5,10,1:1:0:0:
208,52,186830,1,0,3:0:0:0:
192,248,186987,5,2,3:1:0:0:
208,52,187144,1,0,3:0:0:0:
0,96,187301,6,2,P|26:167|0:236,1,140.25000428009,10|2,1:1|2:1,0:1:0:0:
1,305,187615,6,0,P|31:221|120:228,1,191.250007295609,2|0,3:2|2:0,0:0:0:0:
71,284,187929,1,8,1:0:0:0:
100,136,188086,1,2,2:2:0:0:
340,168,188243,5,2,3:2:0:0:
212,92,188401,1,0,3:0:0:0:
256,80,188479,1,0,3:0:0:0:
300,92,188558,1,8,1:0:0:0:
172,168,188715,1,2,2:2:0:0:
412,136,188872,54,0,L|432:40,1,93.5000028533936,2|0,3:2|3:0,0:0:0:0:
256,164,189186,2,0,L|248:220,1,31.1666676177979,0|0,1:0|1:0,0:0:0:0:
272,216,189291,2,0,L|267:185,1,31.1666676177979,0|0,1:0|1:0,0:0:0:0:
180,328,189500,1,0,3:0:0:0:
144,164,189657,5,0,3:0:0:0:
152,168,189709,1,0,3:0:0:0:
160,172,189762,1,0,3:0:0:0:
168,176,189814,1,12,0:0:0:0:
324,108,189971,1,2,3:2:0:0:
488,160,190128,5,4,1:2:0:0:
300,248,190285,1,0,2:0:0:0:
148,220,190442,2,0,P|124:196|116:144,1,85,8|2,1:0|2:2,0:0:0:0:
24,164,190757,5,8,1:0:0:0:
212,252,190914,1,0,3:0:0:0:
364,224,191071,2,0,P|388:200|396:144,1,93.5000028533936,8|0,1:0|2:2,0:0:0:0:
488,168,191385,5,6,1:2:0:0:
300,256,191542,1,0,2:0:0:0:
148,228,191699,2,0,P|124:204|116:136,1,101.999996887207,8|2,1:0|2:2,0:0:0:0:
24,172,192013,5,8,1:0:0:0:
212,260,192170,1,0,3:0:0:0:
364,232,192327,2,0,P|388:208|396:132,1,110.499994941712,8|0,1:0|2:2,2:0:0:0:
300,260,192641,5,6,1:2:0:0:
212,124,192798,1,2,2:0:0:0:
236,316,192955,5,4,1:0:0:0:
276,68,193113,1,2,2:2:0:0:
297,380,193270,6,0,P|321:320|289:248,1,127.500004863739,8|0,1:0|3:0,3:0:0:0:
215,4,193584,2,0,P|191:64|223:136,1,127.500004863739,8|0,1:0|3:0,0:0:0:0:
424,176,193898,5,6,1:2:0:0:
88,176,194055,1,2,1:2:0:0:
316,180,194212,2,0,B|243:160|267:220|197:201,1,127.5,2|0,1:2|2:0,0:0:0:0:
175,114,194526,5,2,2:0:0:0:
157,75,194605,1,0,2:0:0:0:
175,41,194683,1,2,2:0:0:0:
208,32,194762,1,2,2:0:0:0:
235,42,194840,1,2,2:0:0:0:
248,63,194919,1,0,2:0:0:0:
250,84,194997,1,2,2:0:0:0:
244,100,195076,1,0,2:0:0:0:
237,110,195154,5,0,0:0:0:0:
116,160,195312,1,2,1:2:0:0:
236,204,195469,6,0,P|232:241|251:272,1,76.4999976654053,6|0,1:2|2:0,0:0:0:0:
272,288,195783,5,0,0:0:0:0:
284,284,196097,1,0,0:0:0:0:
296,280,196411,1,0,0:0:0:0:
308,276,196725,5,0,0:0:0:0:
372,212,196882,2,0,L|376:248,1,25.4999992218018,0|0,3:0|3:0,0:0:0:0:
456,328,197039,5,8,1:0:0:0:
442,258,197144,1,0,3:0:0:0:
389,306,197249,1,0,3:0:0:0:
455,335,197353,5,8,3:0:0:0:
508,284,197458,1,8,3:0:0:0:
500,212,197563,1,4,3:0:0:0:
436,184,197668,5,4,0:0:0:0:
324,124,197825,1,2,1:2:0:0:
448,68,197982,2,0,P|418:44|380:43,1,76.4999976654053,6|0,1:2|0:0,0:0:0:0:
356,52,198296,5,0,0:0:0:0:
348,56,198610,1,0,0:0:0:0:
256,156,198767,2,0,L|252:108,1,25.4999992218018,0|0,1:0|1:0,0:0:0:0:
232,56,198924,6,0,P|200:51|170:59,1,63.7500024318696,4|0,0:1|2:0,0:0:0:0:
284,22,199160,2,0,P|254:34|231:56,1,63.7500024318696,4|0,0:1|2:0,0:0:0:0:
170,59,199395,6,0,P|148:88|168:144,1,85,4|0,0:1|2:0,0:0:0:0:
341,71,199631,2,0,P|326:37|268:26,1,85,4|0,0:1|2:0,0:0:0:0:
156,133,199866,6,0,P|168:152|196:161,1,42.5,8|0,3:0|0:0,0:0:0:0:
320,200,200024,2,0,L|332:240,1,42.5,4|0,3:0|0:0,0:0:0:0:
316,356,200181,5,6,0:2:0:0:
232,248,200338,1,2,0:2:0:0:
108,308,200495,2,0,P|87:275|104:176,1,127.5,6|0,1:2|2:0,0:0:0:0:
156,133,200809,5,0,3:0:0:0:
156,133,200887,1,0,3:0:0:0:
156,133,200966,1,0,3:0:0:0:
156,133,201044,1,0,3:0:0:0:
156,133,201123,2,0,P|132:112|76:115,1,63.7500024318696,4|0,1:1|0:0,0:0:0:0:
0,288,201280,5,0,3:0:0:0:
0,288,201359,1,0,3:0:0:0:
0,288,201437,2,0,L|60:256,1,63.7500024318696,0|0,1:0|1:0,0:0:0:0:
292,152,201594,1,0,3:0:0:0:
292,152,201673,1,0,3:0:0:0:
292,152,201751,6,0,P|272:156|249:156,1,42.5,0|0,3:0|3:0,0:0:0:0:
94,190,201908,2,0,P|100:168|110:150,1,42.5,8|8,3:0|3:0,0:0:0:0:
160,0,202065,2,0,P|176:16|185:34,1,42.5,12|4,3:0|3:0,0:0:0:0:
184,112,202223,1,0,3:0:0:0:
184,112,202301,1,0,3:0:0:0:
184,112,202380,6,0,B|152:216|256:206|224:314,1,216.750004134178,0|0,1:0|0:0,0:0:0:0:
224,314,202694,5,4,0:0:0:0:
321,259,202851,1,2,1:2:0:0:
126,257,203008,5,2,1:2:0:0:
224,314,203165,1,0,3:0:0:0:
297,186,203322,5,6,1:2:0:0:
75,316,203479,1,2,1:2:0:0:
297,186,203636,5,8,1:0:0:0:
224,314,203793,1,0,3:0:0:0:
48,245,203950,5,6,1:2:0:0:
224,314,204107,1,0,1:0:0:0:
224,314,204186,1,0,1:0:0:0:
224,314,204264,1,0,1:0:0:0:
370,207,204421,6,0,P|419:332|293:277,1,318.750012159348,6|0,1:2|0:0,0:0:0:0:
365,278,204893,6,0,P|313:378|222:311,1,255,8|0,1:0|0:0,0:0:0:0:
256,244,205207,5,2,1:2:0:0:
180,248,205364,1,2,1:2:0:0:
64,348,205521,2,0,P|32:346|-5:313,1,63.7500024318696,8|0,1:0|0:0,0:0:0:0:
44,164,205835,5,0,3:0:0:0:
188,172,205992,1,0,3:0:0:0:
120,140,206149,2,0,B|112:168|112:168|120:212,1,63.7500024318696,8|0,1:0|0:0,0:0:0:0:
180,248,206385,1,0,0:2:0:0:
188,248,206463,2,0,L|249:230,1,63.7500024318696,0|0,3:0|3:0,0:0:0:0:
120,140,206777,1,8,1:0:0:0:
114,14,206935,6,0,B|104:55|104:55|119:139,1,127.500004863739,0|0,3:0|3:0,0:0:0:0:
32,226,207406,2,0,L|43:163,1,63.7500024318696,0|0,1:0|0:0,0:0:0:0:
260,156,207720,5,2,1:2:0:0:
312,212,207877,1,2,1:2:0:0:
296,344,208034,2,0,P|297:312|314:285,1,63.7500024318696,8|0,1:0|0:0,0:0:0:0:
468,112,208348,5,0,3:0:0:0:
460,256,208505,1,0,3:0:0:0:
492,188,208662,2,0,B|464:180|464:180|420:188,1,63.7500024318696,8|0,1:0|0:0,0:0:0:0:
384,248,208898,1,0,0:2:0:0:
384,256,208976,2,0,L|404:324,1,63.7500024318696,0|0,3:0|3:0,0:0:0:0:
492,188,209291,1,8,1:0:0:0:
432,44,209448,6,0,B|372:4,1,63.7500024318696,0|8,3:0|3:0,0:0:0:0:
468,112,209762,1,0,3:0:0:0:
468,112,209840,1,0,3:0:0:0:
468,112,209919,2,0,P|435:122|396:112,1,63.7500024318696,4|0,1:0|3:0,0:0:0:0:
252,44,210233,5,6,1:2:0:0:
180,72,210390,1,2,1:2:0:0:
84,4,210547,2,0,P|86:36|119:73,1,63.7500024318696,8|0,1:0|0:0,0:0:0:0:
208,208,210861,5,0,3:0:0:0:
133,199,211018,1,0,3:0:0:0:
133,199,211097,1,0,3:2:0:0:
133,199,211175,2,0,B|141:171|141:171|133:127,1,63.7500024318696,8|0,1:0|0:0,0:0:0:0:
0,144,211490,2,0,L|61:161,1,63.7500024318696,0|0,3:0|3:0,0:0:0:0:
168,272,211804,1,8,1:0:0:0:
42,296,211961,6,0,L|168:272,1,127.500004863739,0|0,3:0|3:0,0:0:0:0:
320,348,212432,6,0,P|361:352|398:332,1,85,4|0,1:1|0:0,0:0:0:0:
458,145,212746,5,4,1:2:0:0:
266,53,212903,1,0,1:1:0:0:
426,217,213060,1,0,1:2:0:0:
234,125,213217,1,0,1:1:0:0:
394,289,213374,6,0,L|402:369,1,42.5,0|0,1:2|0:2,0:0:0:0:
346,229,213531,2,0,L|272:195,1,42.5,0|0,1:2|0:2,0:0:0:0:
315,305,213688,6,0,L|323:385,1,42.5,8|0,1:0|0:2,0:0:0:0:
228,208,213846,2,0,L|154:174,1,42.5,8|0,1:0|0:2,0:0:0:0:
11,336,214003,5,0,0:0:0:0:
43,339,214081,1,0,1:0:0:0:
75,329,214160,1,0,1:0:0:0:
106,300,214238,1,0,1:0:0:0:
153,276,214317,1,8,1:0:0:0:
200,280,214395,1,0,1:0:0:0:
230,302,214474,1,0,1:0:0:0:
245,328,214552,1,0,1:0:0:0:
262,346,214631,1,0,1:0:0:0:
282,351,214709,1,0,1:0:0:0:
298,353,214788,1,0,1:0:0:0:
311,349,214866,1,0,1:0:0:0:
319,347,214945,5,8,1:0:0:0:
299,278,215024,1,8,1:0:0:0:
303,206,215102,1,8,1:0:0:0:
347,150,215181,1,8,1:0:0:0:
412,121,215259,5,4,1:2:0:0:
440,344,219500,6,0,L|432:312,3,28.3333333333333,0|0|0|0,1:0|1:0|1:0|0:0,0:0:0:0:
368,356,219762,1,0,1:0:0:0:
440,344,219866,6,0,P|487:373|508:321,1,127.500004863739,0|0,1:0|2:0,0:0:0:0:
412,244,220285,5,4,3:2:0:0:
204,348,220914,1,0,1:0:0:0:
100,140,221542,1,4,3:2:0:0:
308,36,222170,6,0,P|262:58|176:40,1,127.5,4|0,1:1|0:0,0:0:0:0:
167,32,222798,6,0,P|276:22|376:124,1,255,4|0,1:2|1:0,0:0:0:0:
374,266,223427,5,0,1:0:0:0:
374,266,223584,1,0,1:0:0:0:
374,266,223741,1,0,1:0:0:0:
374,266,223898,1,0,1:0:0:0:
277,199,224055,5,0,1:0:0:0:
474,210,224212,1,0,1:0:0:0:
343,148,224369,1,0,1:0:0:0:
289,279,224526,1,0,1:0:0:0:
266,2,224683,5,0,1:0:0:0:
277,199,224840,1,0,1:0:0:0:
215,68,224997,1,0,1:0:0:0:
346,14,225154,1,0,1:0:0:0:
354,38,225233,1,0,1:0:0:0:
360,60,225312,38,0,P|361:89|344:124,1,55.2499974708558,2|0,1:0|0:0,0:0:0:0:
282,254,225469,2,0,L|277:194,1,55.2499974708558,2|0,1:0|0:0,0:0:0:0:
215,68,225626,6,0,L|205:123,1,55.2499974708558,2|0,1:0|0:0,0:0:0:0:
154,278,225783,2,0,P|150:242|162:210,1,55.2499974708558,2|0,1:0|0:0,0:0:0:0:
82,122,225940,2,0,L|34:166,1,55.2499974708558,2|0,1:2|0:0,0:0:0:0:
10,154,226254,70,0,P|31:171|45:194,1,55.2499974708558,2|0,1:2|0:0,0:0:0:0:
66,282,226411,2,0,P|53:317|32:339,1,55.2499974708558,2|0,1:2|0:0,0:0:0:0:
14,342,226725,70,0,P|31:321|54:307,1,55.2499974708558,2|0,1:0|0:0,0:0:0:0:
142,286,226882,2,0,P|177:299|199:320,1,55.2499974708558,2|0,1:0|0:0,0:0:0:0:
184,339,227196,70,0,P|148:330|124:311,1,63.7500024318696,2|0,1:2|0:0,0:0:0:0:
70,238,227353,6,0,P|59:203|64:173,1,63.7500024318696,2|0,1:2|0:0,0:0:0:0:
106,90,227510,70,0,P|131:64|160:53,1,63.7500024318696,2|0,1:2|0:0,0:0:0:0:
254,54,227668,6,0,P|289:63|314:83,1,63.7500024318696,2|0,1:2|0:0,0:0:0:0:
366,158,227825,70,2,P|364:248|267:124,1,386.749982295991,0|0,0:0|0:0,0:1:0:0:
256,192,228453,12,0,229552,0:0:0:0:
256,192,229709,5,0,2:0:0:0:
256,204,230024,1,0,2:0:0:0:
256,216,230338,6,0,P|296:132|284:40,1,187.000005706787,6|8,0:2|0:0,0:0:0:0:
196,8,230809,1,2,2:2:0:0:
384,68,230966,2,0,B|480:56,1,93.5000028533936,2|0,3:2|2:0,0:0:0:0:
284,41,231280,2,0,P|280:88|304:131,1,93.5000028533936,8|2,0:0|2:2,0:0:0:0:
380,152,231516,1,2,2:0:0:0:
380,152,231594,5,2,3:2:0:0:
204,96,231751,1,0,3:0:0:0:
380,64,231908,5,8,0:0:0:0:
220,184,232065,1,2,2:2:0:0:
24,88,232223,6,0,B|92:80|109:141|109:141|120:152|133:156,1,140.25000428009,2|0,3:2|2:0,0:0:0:0:
152,240,232537,2,0,P|100:240|64:208,1,93.5000028533936,8|0,0:0|2:0,0:0:0:0:
256,356,232851,6,0,P|360:364|448:308,1,187.000005706787,2|8,3:2|0:0,0:0:0:0:
488,252,233322,1,2,2:2:0:0:
324,280,233479,2,0,B|228:268,1,93.5000028533936,2|0,3:2|3:0,0:0:0:0:
452,88,233793,2,0,P|436:132|456:212,1,93.5000028533936,8|2,0:0|2:2,0:0:0:0:
492,256,234029,1,2,2:0:0:0:
492,256,234107,5,2,3:2:0:0:
324,280,234264,1,0,3:0:0:0:
444,184,234421,5,4,1:2:0:0:
348,368,234579,1,2,2:2:0:0:
144,308,234736,6,0,L|44:316,1,93.5000028533936,2|0,3:2|2:0,0:0:0:0:
80,140,235050,2,0,P|80:192|100:248,1,93.5000028533936,12|2,0:1|2:0,0:0:0:0:
148,312,235285,1,2,2:0:0:0:
148,312,235364,53,6,0:2:0:0:
332,288,235521,1,2,2:0:0:0:
188,228,235678,5,8,0:0:0:0:
208,376,235835,1,2,2:2:0:0:
324,280,235992,5,2,3:2:0:0:
236,296,236149,1,0,2:0:0:0:
284,168,236306,5,8,1:0:0:0:
244,304,236463,1,2,2:0:0:0:
232,88,236620,5,2,3:1:0:0:
316,272,236777,1,0,3:0:0:0:
348,40,236935,5,10,1:1:0:0:
196,220,237092,1,0,3:0:0:0:
128,0,237249,5,2,3:1:0:0:
288,160,237406,1,0,3:0:0:0:
472,32,237563,6,2,B|400:20|387:85|387:85|408:92|416:112,1,140.25000428009,10|2,1:1|2:1,0:1:0:0:
448,165,237877,6,0,B|488:272|384:248|420:342,1,191.250007295609,2|0,3:2|2:0,0:0:0:0:
484,384,238191,1,8,1:0:0:0:
344,268,238348,1,2,2:2:0:0:
188,364,238505,5,2,3:2:0:0:
244,204,238662,1,0,3:0:0:0:
256,248,238740,1,0,3:0:0:0:
244,292,238819,1,8,1:0:0:0:
184,132,238976,1,2,2:2:0:0:
16,80,239133,6,0,L|32:124,1,31.8750012159348,8|0,1:0|0:0,0:0:0:0:
92,24,239291,2,0,L|83:70,1,31.8750012159348,0|0,3:0|3:0,0:0:0:0:
188,12,239448,2,0,L|157:47,1,31.8750012159348,0|0,3:0|3:0,0:0:0:0:
276,48,239605,2,0,L|232:64,1,31.8750012159348,0|0,3:0|3:0,0:0:0:0:
184,132,239762,6,0,L|155:122,2,23.3750007133484,2|2|0,3:2|2:0|3:2,0:0:0:0:
92,152,239919,5,8,0:0:0:0:
120,216,239997,1,8,0:0:0:0:
80,276,240076,2,0,P|48:276|20:263,1,63.7500024318696,4|0,0:0|3:0,0:0:0:0:
165,353,240233,2,0,P|196:353|226:341,1,63.7500024318696,8|4,3:0|3:0,0:0:0:0:
282,163,240390,6,0,B|212:176|208:255|208:255|241:293|226:341,1,220.999989883423,4|4,0:1|0:2,0:0:0:0:
316,376,240861,1,2,2:2:0:0:
128,316,241018,2,0,B|32:328,1,93.5000028533936,2|0,3:2|2:0,0:0:0:0:
226,341,241332,2,0,P|230:294|206:251,1,93.5000028533936,4|2,0:2|2:2,0:0:0:0:
132,232,241568,1,2,2:0:0:0:
132,232,241646,5,2,3:2:0:0:
308,288,241803,1,0,3:0:0:0:
132,320,241960,5,4,0:2:0:0:
292,200,242117,1,2,2:2:0:0:
488,292,242275,6,0,P|416:288|384:212,1,140.25000428009,2|0,3:2|2:0,0:0:0:0:
364,148,242589,2,0,P|416:148|452:180,1,93.5000028533936,4|0,0:2|2:0,0:0:0:0:
256,28,242903,6,0,P|152:20|64:76,1,187.000005706787,2|4,3:2|0:2,0:0:0:0:
24,132,243374,1,2,2:2:0:0:
188,104,243531,2,0,B|284:116,1,93.5000028533936,2|0,3:2|3:0,0:0:0:0:
60,296,243845,2,0,P|76:252|56:172,1,93.5000028533936,4|2,0:2|2:2,0:0:0:0:
20,128,244081,1,2,2:0:0:0:
20,128,244159,5,2,3:2:0:0:
188,104,244316,1,0,3:0:0:0:
68,200,244473,5,4,1:2:0:0:
164,16,244631,1,2,2:2:0:0:
367,76,244788,6,0,P|434:61|489:101,1,140.25000428009,2|0,3:2|2:0,0:0:0:0:
432,244,245102,2,0,P|432:192|412:136,1,93.5000028533936,4|2,0:2|2:0,0:0:0:0:
364,72,245337,1,2,2:0:0:0:
364,72,245416,53,4,3:1:0:0:
180,96,245573,1,2,2:0:0:0:
324,156,245730,5,4,0:2:0:0:
304,8,245887,1,2,2:2:0:0:
188,104,246044,5,2,3:2:0:0:
276,88,246201,1,0,2:0:0:0:
228,216,246358,5,4,1:2:0:0:
268,80,246515,1,2,2:0:0:0:
280,296,246672,5,2,3:1:0:0:
196,112,246829,1,0,3:0:0:0:
164,344,246987,5,4,1:2:0:0:
316,164,247144,1,0,3:0:0:0:
384,384,247301,5,2,3:1:0:0:
224,224,247458,1,0,3:0:0:0:
40,352,247615,6,2,B|112:364|125:299|125:299|104:292|96:272,1,140.25000428009,4|2,1:2|2:1,0:1:0:0:
48,232,247929,6,0,P|39:211|40:176,1,46.7500014266968,8|8,0:0|0:0,0:0:0:0:
164,88,248087,1,0,3:0:0:0:
168,128,248165,1,0,3:0:0:0:
152,168,248244,1,0,3:0:0:0:
116,192,248322,1,0,3:0:0:0:
38,187,248401,6,0,P|42:164|54:143,1,46.7500014266968,8|8,0:0|0:0,0:0:0:0:
252,180,248558,1,0,3:0:0:0:
212,212,248636,1,0,3:0:0:0:
160,216,248715,1,0,3:0:0:0:
116,192,248793,1,0,3:0:0:0:
54,143,248872,6,0,P|70:126|91:117,1,46.7500014266968,8|8,0:0|0:0,0:0:0:0:
240,8,249029,2,0,L|232:56,1,46.7500014266968,4|0,3:1|3:0,0:0:0:0:
280,248,249186,5,4,0:2:0:0:
156,40,249343,2,0,P|154:67|165:96,1,55.2499974708558,8|0,0:0|2:0,0:0:0:0:
108,245,249500,2,0,P|116:218|115:191,1,55.2499974708558,8|0,0:0|2:0,0:0:0:0:
12,88,249657,2,0,L|24:156,1,55.2499974708558,0|0,3:0|3:0,0:0:0:0:
108,245,249814,6,0,L|90:270,2,23.3750007133484,8|0|0,1:0|1:0|1:2,0:0:0:0:
44,212,249971,5,8,0:0:0:0:
28,280,250049,1,8,0:0:0:0:
76,332,250128,2,0,P|107:333|137:322,1,63.7500024318696,4|0,0:0|3:0,0:0:0:0:
320,292,250285,2,0,L|256:282,1,63.7500024318696,8|4,3:0|3:0,0:0:0:0:
120,224,250442,5,4,1:2:0:0:
140,136,250599,1,0,2:0:0:0:
88,336,250757,2,0,P|124:356|168:348,1,85,8|2,1:0|2:2,0:0:0:0:
140,136,251071,5,8,1:0:0:0:
152,236,251228,1,0,3:0:0:0:
116,24,251385,2,0,P|160:4|208:16,1,93.5000028533936,8|0,1:0|2:2,0:0:0:0:
152,236,251699,5,2,1:2:0:0:
172,128,251856,1,0,2:0:0:0:
132,348,252013,2,0,P|168:368|232:356,1,101.999996887207,8|2,1:0|2:2,0:0:0:0:
172,128,252327,5,8,1:0:0:0:
188,248,252484,1,0,3:2:0:0:
148,24,252641,2,0,P|208:4|280:24,1,110.499994941712,8|0,1:0|2:2,0:0:0:0:
188,248,252956,5,2,1:2:0:0:
232,124,253113,1,0,2:0:0:0:
219,363,253270,2,0,P|273:383|329:366,1,118.999996368408,12|2,1:0|2:2,0:0:0:0:
232,124,253584,5,4,1:2:0:0:
260,264,253741,1,0,3:2:0:0:
295,24,253898,2,0,P|354:0|416:10,1,127.500004863739,8|0,1:0|2:2,0:0:0:0:
380,312,254212,5,0,0:0:0:0:
424,308,254291,1,0,0:0:0:0:
460,284,254369,1,0,0:0:0:0:
480,244,254448,1,0,0:0:0:0:
472,200,254526,1,4,1:2:0:0:
444,164,254605,1,0,0:0:0:0:
404,148,254683,1,0,0:0:0:0:
360,152,254762,1,0,0:0:0:0:
324,176,254840,6,0,P|316:208|328:248,1,63.7500024318696,0|0,2:0|1:0,0:0:0:0:
256,384,254997,2,0,L|272:316,1,63.7500024318696
228,96,255154,2,0,P|236:128|224:168,1,63.7500024318696,4|0,3:1|3:0,0:0:0:0:
60,212,255311,2,0,L|122:226,1,63.7500024318696,0|0,3:0|3:0,0:0:0:0:
212,248,255469,5,4,1:2:0:0:
148,72,255626,1,0,2:2:0:0:
364,220,255783,2,0,P|388:196|396:144,1,85,8|2,1:0|2:2,0:0:0:0:
300,248,256098,5,8,1:0:0:0:
364,72,256254,1,0,3:2:0:0:
148,224,256412,2,0,P|124:200|116:144,1,93.5000028533936,8|0,1:0|2:2,0:0:0:0:
212,256,256726,5,4,1:2:0:0:
152,64,256883,1,0,2:2:0:0:
364,228,257040,2,0,P|388:204|396:136,1,101.999996887207,8|2,1:0|2:2,0:0:0:0:
300,256,257353,5,8,1:0:0:0:
360,64,257510,1,0,3:2:0:0:
148,232,257668,2,0,P|124:208|116:132,1,110.499994941712,8|0,1:0|2:2,2:0:0:0:
240,312,257982,5,4,1:2:0:0:
220,272,258060,1,0,3:0:0:0:
224,228,258139,1,0,3:2:0:0:
256,192,258217,1,0,3:0:0:0:
288,156,258295,1,12,1:1:0:0:
292,112,258374,1,0,3:0:0:0:
272,72,258453,2,0,L|264:8,1,63.7500024318696,0|0,3:0|3:0,0:0:0:0:
504,72,258610,6,0,P|444:48|372:80,1,127.500004863739,12|0,1:0|3:0,0:0:0:0:
8,152,258924,2,0,P|68:176|140:144,1,127.500004863739,8|2,1:0|2:0,0:0:0:0:
268,68,259238,5,6,1:2:0:0:
244,316,259395,1,2,1:2:0:0:
315,183,259552,2,0,B|245:164|269:224|196:204,1,127.5,2|0,1:2|2:0,0:0:0:0:
164,276,259866,6,0,P|125:347|137:255,1,255,0|2,2:0|2:0,1:0:0:0:
124,300,260416,1,2,2:0:0:0:
124,300,260495,1,4,0:2:0:0:
