osu file format v14

[General]
AudioFilename: 07. .mp3
AudioLeadIn: 0
PreviewTime: 88898
Countdown: 0
SampleSet: Normal
StackLeniency: 0.5
Mode: 0
LetterboxInBreaks: 1
WidescreenStoryboard: 1

[Editor]
Bookmarks: 99971,124631,128401,215259,219500
DistanceSpacing: 0.7
BeatDivisor: 4
GridSize: 4
TimelineZoom: 1.5

[Metadata]
Title:Tsukitourou
TitleUnicode:月燈籠
Artist:Camellia feat. Nanahira
ArtistUnicode:かめりあ feat. ななひら
Creator:jonathanlfj
Version:Raose's Hard
Source:
Tags:ErunamoJAZZ Raose Nyquill yf_bmp moon lantern かめるかめりあ×Confetto りぷれい!Replay!
BeatmapID:936947
BeatmapSetID:383147

[Difficulty]
HPDrainRate:5
CircleSize:4
OverallDifficulty:7
ApproachRate:8
SliderMultiplier:1.5
SliderTickRate:1

[Events]
//Background and Video events
0,0,"tsuki.jpg",0,0
//Break Periods
2,124831,127651
2,215459,218907
//Storyboard Layer 0 (Background)
//Storyboard Layer 1 (Fail)
//Storyboard Layer 2 (Pass)
//Storyboard Layer 3 (Foreground)
//Storyboard Sound Samples

[TimingPoints]
-866,314.13612565445,4,2,1,50,1,0
2903,-133.333333333333,4,2,1,50,0,0
3688,-133.333333333333,4,1,1,60,0,0
4160,-111.111111111111,4,1,1,60,0,0
14212,-111.111111111111,4,1,1,65,0,0
24264,-111.111111111111,4,1,1,70,0,0
44212,-117.647058823529,4,1,1,60,0,0
49395,-117.647058823529,4,1,1,65,0,0
64474,-117.647058823529,4,1,1,60,0,0
72013,-111.111111111111,4,1,1,70,0,0
74526,-111.111111111111,4,1,1,65,0,0
79552,-111.111111111111,4,1,1,70,0,0
84579,-100,4,1,1,75,0,0
88191,-200,4,2,1,40,0,0
88976,-100,4,3,1,70,0,0
89605,-100,4,1,1,80,0,1
109709,-100,4,1,1,60,0,1
110966,-100,4,1,1,70,0,1
112223,-100,4,1,1,80,0,1
113479,-100,4,1,1,80,0,0
114421,-111.111111111111,4,1,1,70,0,0
128401,-111.111111111111,4,1,1,65,0,0
134683,-111.111111111111,4,1,1,70,0,0
139866,-111.111111111111,4,1,1,65,0,0
144893,-111.111111111111,4,1,1,60,0,0
152432,-111.111111111111,4,1,1,65,0,0
164997,-100,4,1,1,75,0,0
168610,-200,4,2,1,40,0,0
169395,-200,4,2,1,70,0,0
170024,-100,4,1,1,80,0,1
190128,-100,4,1,1,60,0,1
191385,-100,4,1,1,70,0,1
192641,-100,4,1,1,80,0,1
193898,-100,4,1,1,80,0,0
194526,-100,4,2,1,70,0,0
195154,-111.111111111111,4,1,1,60,0,0
205207,-111.111111111111,4,1,1,65,0,0
219500,-125,4,1,1,50,0,0
220181,-125,4,1,1,20,0,0
220285,-125,4,1,1,50,0,0
222798,-111.111111111111,4,1,1,55,0,0
223427,-111.111111111111,4,1,1,60,0,0
224055,-111.111111111111,4,1,1,65,0,0
224683,-111.111111111111,4,1,1,70,0,0
225312,-100,4,1,1,75,0,0
227196,-100,4,1,1,75,0,0
227825,-200,4,1,1,40,0,0
229631,-200,4,1,1,5,0,0
229709,-200,4,1,1,20,0,0
230338,-100,4,1,1,80,0,1
250442,-100,4,1,1,60,0,1
251699,-100,4,1,1,70,0,1
252955,-100,4,1,1,80,0,1
254212,-100,4,1,1,80,0,1
255469,-100,4,1,1,60,0,1
256725,-100,4,1,1,70,0,1
257982,-100,4,1,1,80,0,1
259238,-100,4,1,1,80,0,0
260181,-100,4,1,1,70,0,0
278086,-100,4,1,1,60,0,0
279186,-100,4,1,1,70,0,0
280442,-100,4,1,1,80,0,0
281542,-100,4,1,1,80,0,0
281856,-100,4,1,1,50,0,0

[Colours]
Combo1 : 86,54,54
Combo2 : 232,0,0
Combo3 : 254,84,35
Combo4 : 254,175,12
Combo5 : 255,66,222
Combo6 : 170,29,254

[HitObjects]
178,305,2903,85,2,0:3:0:0:
321,253,3217,1,2,0:3:0:0:
188,158,3531,1,2,0:3:0:0:
268,131,3688,1,0,0:0:0:0:
268,131,3767,1,0,0:0:0:0:
268,131,3846,2,0,L|274:64,1,56.2500021457673,8|0,0:0|0:0,0:0:0:0:
347,43,4160,69,6,0:2:0:0:
422,72,4317,1,2,0:2:0:0:
466,139,4474,1,2,0:2:0:0:
466,139,4788,2,0,L|458:282,1,134.999995880127,0|0,2:0|2:0,0:0:0:0:
300,310,5416,70,0,L|307:175,2,134.999995880127,0|0|0,2:0|2:0|2:0,0:0:0:0:
229,350,6202,1,0,0:0:0:0:
163,302,6359,2,0,P|151:278|151:222,1,67.4999979400635,8|0,0:0|0:0,0:0:0:0:
166,159,6673,5,6,0:2:0:0:
245,145,6830,1,2,0:2:0:0:
221,222,6987,1,2,0:2:0:0:
221,222,7301,2,0,L|86:248,1,134.999995880127,0|0,2:0|2:0,0:0:0:0:
114,87,7929,69,8,0:0:0:0:
180,41,8086,2,0,L|192:122,1,67.4999979400635,0|0,0:0|0:0,0:0:0:0:
205,187,8401,1,8,0:0:0:0:
129,230,8558,2,0,L|135:153,1,67.4999979400635,0|8,0:0|0:0,0:0:0:0:
261,131,8872,2,0,P|309:128|345:138,1,67.4999979400635,0|8,0:0|0:0,0:0:0:0:
404,156,9186,5,6,0:2:0:0:
441,227,9343,1,2,0:2:0:0:
416,304,9500,1,2,0:2:0:0:
416,304,9814,2,0,P|337:311|290:287,1,134.999995880127,0|0,2:0|2:0,0:0:0:0:
189,158,10442,70,0,P|128:127|62:140,1,134.999995880127,0|0,2:0|2:0,0:0:0:0:
115,293,11071,2,0,L|119:215,1,67.4999979400635,0|0,0:0|0:0,0:0:0:0:
36,282,11385,2,0,L|32:349,1,67.4999979400635,8|0,0:0|0:0,0:0:0:0:
188,337,11699,5,6,0:2:0:0:
204,257,11856,1,8,0:0:0:0:
214,176,12013,1,8,0:0:0:0:
348,266,12327,69,6,0:2:0:0:
358,185,12484,1,8,0:0:0:0:
369,104,12641,1,8,0:0:0:0:
210,69,12955,5,6,0:2:0:0:
145,119,13113,2,0,L|101:122,2,33.7499989700318,8|0|8,0:0|0:0|0:0,0:0:0:0:
210,69,13427,2,0,P|297:47|350:77,1,134.999995880127,2|0,0:2|0:0,0:0:0:0:
395,117,13898,2,0,P|411:93|413:48,1,67.4999979400635,12|0,0:1|0:0,0:0:0:0:
318,143,14212,70,0,P|302:167|300:206,1,67.4999979400635,2|2,0:2|0:2,0:0:0:0:
332,279,14526,1,8,0:0:0:0:
380,213,14683,1,0,0:0:0:0:
299,204,14840,2,0,L|230:197,1,67.4999979400635,0|0,3:0|3:0,0:0:0:0:
131,275,15154,2,0,L|199:270,1,67.4999979400635,8|0,0:0|0:0,0:0:0:0:
85,209,15469,6,0,P|52:271|81:336,2,134.999995880127,2|8|0,0:2|0:0|3:0,0:0:0:0:
135,145,16254,1,0,3:0:0:0:
192,202,16411,2,0,L|198:270,1,67.4999979400635,8|0,0:0|0:0,0:0:0:0:
263,316,16725,70,0,P|300:318|335:300,1,67.4999979400635,2|2,0:2|0:2,0:0:0:0:
430,225,17039,2,0,P|397:222|366:235,1,67.4999979400635,8|0,0:0|0:0,0:0:0:0:
408,304,17353,1,0,3:0:0:0:
486,284,17510,1,0,3:0:0:0:
502,204,17668,2,0,L|500:129,1,67.4999979400635,8|0,0:0|0:0,0:0:0:0:
359,62,17982,6,0,P|362:131|416:165,1,134.999995880127,2|8,0:2|0:0,0:0:0:0:
434,86,18453,1,0,0:0:0:0:
359,62,18610,2,0,L|293:78,1,67.4999979400635,2|0,0:2|0:0,0:0:0:0:
347,180,18924,2,0,L|412:163,1,67.4999979400635,12|0,0:0|0:0,0:0:0:0:
265,154,19238,70,0,P|254:195|263:244,1,67.4999979400635,2|2,0:2|0:2,0:0:0:0:
198,277,19552,2,0,P|184:229|175:213,1,67.4999979400635,8|0,0:0|0:0,0:0:0:0:
105,172,19866,1,2,0:2:0:0:
35,214,20024,1,0,3:0:0:0:
105,172,20181,2,0,L|115:97,1,67.4999979400635,8|0,0:0|0:0,0:0:0:0:
35,214,20495,2,0,P|24:287|77:344,2,134.999995880127,2|8|0,0:2|0:0|0:0,0:0:0:0:
183,150,21437,1,12,0:0:0:0:
231,214,21594,1,0,0:0:0:0:
176,274,21751,6,0,L|99:262,1,67.4999979400635,6|8,0:2|0:0,0:0:0:0:
106,182,22065,1,0,0:0:0:0:
183,150,22223,2,0,L|266:128,1,67.4999979400635,8|8,0:0|0:0,0:0:0:0:
328,146,22537,1,8,0:0:0:0:
334,226,22694,2,0,L|268:243,1,67.4999979400635,8|8,0:0|0:0,0:0:0:0:
248,132,23008,70,0,L|260:97,3,33.7499989700318,0|0|0|0,0:0|0:0|0:0|0:0,0:0:0:0:
293,77,23322,2,0,L|335:62,3,33.7499989700318,0|0|2|0,0:0|0:0|0:2|0:0,0:0:0:0:
365,70,23636,2,0,L|405:88,3,33.7499989700318,2|0|0|0,0:2|0:0|0:0|0:0,0:0:0:0:
425,111,23950,2,0,L|453:152,3,33.7499989700318,8|0|2|0,0:0|0:0|0:2|0:0,0:0:0:0:
449,179,24264,6,0,L|444:262,1,67.4999979400635,6|2,0:2|0:0,0:0:0:0:
421,324,24579,1,10,0:0:0:0:
362,267,24736,1,0,0:0:0:0:
294,314,24893,2,0,P|233:346|164:315,1,134.999995880127,2|8,0:0|0:0,0:0:0:0:
108,275,25364,2,2,P|169:243|238:274,1,134.999995880127,2|0,0:0|0:0,0:0:0:0:
303,242,25835,2,0,P|325:216|336:176,1,67.4999979400635,8|2,0:0|0:0,0:0:0:0:
330,103,26149,1,0,0:0:0:0:
259,143,26306,1,2,0:0:0:0:
303,242,26463,2,2,P|346:265|384:272,1,67.4999979400635,10|0,0:0|0:0,0:0:0:0:
437,226,26777,70,0,P|438:180|426:144,1,67.4999979400635,0|2,0:0|0:0,0:0:0:0:
359,127,27092,2,2,P|354:159|361:193,1,67.4999979400635,8|2,0:0|0:0,0:0:0:0:
428,83,27406,2,0,P|369:47|293:78,1,134.999995880127,2|0,0:0|0:0,0:0:0:0:
239,106,27877,6,2,B|199:129|137:111|137:111|160:83,1,134.999995880127,10|2,0:0|0:0,0:0:0:0:
254,27,28348,2,0,P|285:39|308:63,1,67.4999979400635,12|0,0:0|0:0,0:0:0:0:
343,136,28662,1,2,0:0:0:0:
290,197,28819,1,0,0:0:0:0:
210,213,28976,2,2,P|172:216|117:205,1,67.4999979400635,12|0,0:0|0:0,0:0:0:0:
61,217,29291,70,0,P|67:177|95:149,1,67.4999979400635,6|2,0:2|0:0,0:0:0:0:
142,102,29605,1,10,0:0:0:0:
142,102,29762,1,0,0:0:0:0:
214,145,29919,2,2,L|210:213,1,67.4999979400635,2|0,0:0|0:0,0:0:0:0:
260,276,30233,1,8,0:0:0:0:
336,249,30390,6,2,P|362:173|337:100,1,134.999995880127,2|0,0:0|0:0,0:0:0:0:
309,51,30861,2,0,L|229:51,1,67.4999979400635,8|2,0:0|0:0,0:0:0:0:
186,109,31175,2,0,L|110:110,1,67.4999979400635,0|2,0:0|0:0,0:0:0:0:
46,70,31490,1,10,0:0:0:0:
46,70,31804,70,0,P|35:126|51:155,2,67.4999979400635,0|2|8,0:0|0:0|0:0,0:0:0:0:
114,27,32275,1,2,0:0:0:0:
176,80,32432,2,2,P|147:103|111:109,1,67.4999979400635,2|0,0:0|0:0,0:0:0:0:
114,27,32746,1,10,0:0:0:0:
236,123,32903,6,0,P|191:166|117:183,1,134.999995880127,12|2,0:0|0:2,0:0:0:0:
51,143,33374,1,12,0:0:0:0:
45,223,33531,1,0,0:0:0:0:
64,301,33688,2,0,P|95:319|141:320,1,67.4999979400635,2|2,0:2|0:2,0:0:0:0:
203,297,34003,1,12,0:0:0:0:
359,208,34317,70,0,L|364:299,1,67.4999979400635,6|2,0:2|0:0,0:0:0:0:
283,289,34631,2,0,L|288:380,1,67.4999979400635,8|2,0:0|0:0,0:0:0:0:
438,312,34945,2,0,B|436:264|436:264|446:228|446:228|442:164,1,134.999995880127,2|10,0:0|0:0,0:0:0:0:
411,103,35416,6,2,B|372:116|364:157|364:157|285:135,1,134.999995880127
253,202,35887,2,0,L|328:224,1,67.4999979400635,8|2,0:0|0:0,0:0:0:0:
390,257,36202,1,0,0:0:0:0:
389,337,36359,1,2,0:0:0:0:
309,352,36516,1,12,0:0:0:0:
309,352,36830,70,0,P|288:309|288:280,1,67.4999979400635,0|2,0:0|0:0,0:0:0:0:
295,159,37144,2,0,P|312:187|317:220,1,67.4999979400635,10|0,0:0|0:0,0:0:0:0:
236,219,37458,2,2,L|162:236,1,67.4999979400635,2|0,0:0|0:0,0:0:0:0:
186,154,37772,1,2,0:0:0:0:
226,298,37929,6,0,P|156:317|94:268,1,134.999995880127,10|2,0:0|0:0,0:0:0:0:
186,154,38401,2,0,L|210:237,1,67.4999979400635,4|2,0:0|0:0,0:0:0:0:
123,210,38715,2,0,L|104:145,1,67.4999979400635,0|2,0:0|0:0,0:0:0:0:
151,79,39029,1,12,0:0:0:0:
272,215,39343,70,0,L|203:218,1,67.4999979400635,6|2,0:2|0:0,0:0:0:0:
262,142,39657,2,0,L|330:140,1,67.4999979400635,10|0,0:0|0:0,0:0:0:0:
406,166,39971,2,2,P|436:217|437:240,1,67.4999979400635,2|0,0:0|0:0,0:0:0:0:
415,302,40285,1,10,0:0:0:0:
336,325,40442,6,2,P|282:268|273:196,1,134.999995880127
224,147,40914,2,0,P|199:174|160:193,1,67.4999979400635,8|2,0:0|0:0,0:0:0:0:
92,199,41228,1,2,0:0:0:0:
127,271,41385,1,2,0:0:0:0:
92,199,41542,2,0,P|75:154|73:112,1,67.4999979400635,12|0,0:0|0:0,0:0:0:0:
135,87,41856,70,0,L|199:81,3,33.7499989700318,2|0|0|0,3:2|3:0|3:0|3:0,0:0:0:0:
204,103,42170,2,0,L|242:101,3,33.7499989700318,2|0|0|0,3:2|3:0|3:0|3:0,0:0:0:0:
278,98,42484,2,0,L|364:94,1,67.4999979400635,12|12,0:0|0:0,0:0:0:0:
346,95,42955,6,0,B|351:127|351:127|341:151|341:151|359:180|353:229,1,134.999995880127,6|12,0:2|0:0,0:0:0:0:
280,269,43427,2,0,P|274:215|274:196,1,67.4999979400635,2|0,0:2|0:0,0:0:0:0:
424,160,43741,2,0,P|430:214|427:236,1,67.4999979400635,12|2,0:0|0:2,0:0:0:0:
396,310,44055,1,8,0:0:0:0:
280,269,44212,70,0,P|217:251|145:262,1,127.50000243187,6|0,0:2|0:0,0:0:0:0:
97,320,44683,2,0,P|118:251|110:189,1,127.50000243187,8|0,0:0|0:0,0:0:0:0:
62,139,45154,1,0,0:0:0:0:
118,84,45312,1,8,0:0:0:0:
118,84,45469,6,0,L|265:73,1,127.50000243187,2|0,0:2|0:0,0:0:0:0:
289,141,45940,2,0,L|168:151,1,95.6250018239022,8|0,0:0|0:0,0:0:0:0:
168,155,46254,2,0,P|183:204|205:222,1,63.7500012159348,0|0,0:0|0:0,0:0:0:0:
270,239,46568,1,8,0:0:0:0:
370,168,46725,70,0,P|445:173|479:215,1,127.50000243187,0|0,0:0|0:0,0:0:0:0:
477,286,47196,2,0,L|415:301,1,63.7500012159348,8|0,0:0|0:0,0:0:0:0:
339,288,47510,1,0,0:0:0:0:
296,223,47668,1,0,0:0:0:0:
296,223,47982,6,0,L|290:358,1,127.50000243187,8|0,0:0|0:0,0:0:0:0:
214,337,48453,2,0,L|217:265,1,63.7500012159348,8|0,0:0|0:0,0:0:0:0:
155,199,48767,2,0,L|137:252,3,31.8750006079674,0|8|0|0,0:0|0:0|0:0|0:0,0:0:0:0:
107,239,49081,2,0,L|104:280,3,31.8750006079674,8|0|0|0,0:0|0:0|0:0|0:0,0:0:0:0:
103,316,49395,70,0,P|148:331|193:329,1,63.7500012159348,6|0,0:2|0:0,0:0:0:0:
280,256,49709,2,0,P|251:244|220:240,1,63.7500012159348,8|0,0:0|0:0,0:0:0:0:
291,344,50024,2,0,L|361:337,2,63.7500012159348,2|0|8,0:2|0:0|0:0,0:0:0:0:
375,256,50495,6,0,P|415:277|434:362,1,127.50000243187,2|2,0:2|0:2,0:0:0:0:
375,256,50966,2,0,L|388:156,1,95.6250018239022,8|0,0:0|0:0,0:0:0:0:
391,135,51280,2,0,L|317:128,1,63.7500012159348,2|0,0:2|0:0,0:0:0:0:
287,64,51594,2,0,L|214:78,1,63.7500012159348,8|0,0:0|0:0,0:0:0:0:
172,138,51908,70,0,P|101:137|66:89,2,127.50000243187,0|8|2,0:0|0:0|0:2,0:0:0:0:
179,14,52694,2,0,P|149:48|139:89,1,63.7500012159348,12|2,0:0|0:2,0:0:0:0:
144,223,53008,6,0,P|217:204|253:161,1,127.50000243187,12|2,0:0|0:2,0:0:0:0:
321,111,53479,2,0,L|340:192,1,63.7500012159348,8|0,0:0|0:0,0:0:0:0:
390,265,53793,1,2,0:2:0:0:
390,265,53950,2,0,P|409:232|410:189,1,63.7500012159348,0|8,0:0|0:0,0:0:0:0:
388,83,54264,70,0,P|331:38|265:67,1,127.50000243187,6|0,0:2|0:0,0:0:0:0:
222,98,54736,2,0,L|137:113,1,63.7500012159348,8|0,0:0|0:0,0:0:0:0:
120,179,55050,2,0,L|208:189,1,63.7500012159348,2|0,0:2|0:0,0:0:0:0:
257,167,55364,1,8,0:0:0:0:
120,179,55521,6,0,P|103:251|123:318,1,127.50000243187,2|0,0:2|0:0,0:0:0:0:
171,354,55992,2,0,P|192:313|174:254,1,95.6250018239022,8|0,0:0|0:0,0:0:0:0:
199,246,56306,2,0,P|239:240|281:224,1,63.7500012159348,0|0,0:0|0:0,0:0:0:0:
331,200,56620,1,8,0:0:0:0:
407,206,56777,70,0,P|433:264|434:333,1,127.50000243187,0|0,0:0|0:0,0:0:0:0:
357,341,57249,2,0,P|297:335|274:331,1,63.7500012159348,8|0,0:0|0:0,0:0:0:0:
247,271,57563,1,0,0:0:0:0:
267,195,57720,2,0,L|337:200,1,63.7500012159348,0|0,0:0|0:0,0:0:0:0:
247,271,58034,6,0,P|167:269|119:251,1,127.50000243187,2|0,0:2|0:0,0:0:0:0:
56,288,58505,2,0,P|46:244|63:210,1,63.7500012159348,8|0,0:0|0:0,0:0:0:0:
109,175,58819,2,0,L|128:135,3,31.8750006079674,0|0|0|0,0:0|0:0|0:0|0:0,0:0:0:0:
130,108,59133,2,0,L|120:62,3,31.8750006079674,8|0|0|0,0:0|0:0|0:0|0:0,0:0:0:0:
98,46,59448,70,0,L|35:60,1,63.7500012159348,6|0,0:2|0:0,0:0:0:0:
30,136,59762,1,8,0:0:0:0:
196,164,60076,2,0,L|274:155,1,63.7500012159348,2|0,0:2|0:0,0:0:0:0:
337,148,60390,1,8,0:0:0:0:
412,284,60704,6,0,P|352:320|290:298,1,127.50000243187,0|8,0:2|0:0,0:0:0:0:
251,246,61175,2,0,L|244:172,1,63.7500012159348,0|2,0:0|0:2,0:0:0:0:
318,95,61490,2,0,L|324:158,1,63.7500012159348,0|8,0:0|0:0,0:0:0:0:
333,234,61804,1,2,0:2:0:0:
251,246,61961,70,0,L|172:235,1,63.7500012159348,0|2,0:0|0:2,0:0:0:0:
197,144,62275,2,0,L|330:159,1,127.50000243187,8|2,0:0|0:2,0:0:0:0:
391,123,62746,2,0,P|409:87|413:37,1,63.7500012159348,12|2,0:0|0:2,0:0:0:0:
349,22,63060,1,12,0:0:0:0:
323,158,63217,6,0,B|305:203|342:246|342:246|321:301,1,127.50000243187,0|8,0:0|0:0,0:0:0:0:
284,336,63688,1,0,0:0:0:0:
212,306,63846,2,0,P|223:284|260:264,1,63.7500012159348,2|0,0:2|0:0,0:0:0:0:
401,301,64160,2,0,P|386:329|360:346,1,63.7500012159348,8|12,0:0|0:0,0:0:0:0:
284,336,64474,69,6,0:2:0:0:
284,336,64631,1,2,0:2:0:0:
255,264,64788,2,0,L|232:175,1,63.7500012159348,2|2,0:2|0:2,0:0:0:0:
136,154,65102,2,0,P|177:201|239:202,1,127.50000243187,8|2,0:0|0:2,0:0:0:0:
304,70,65573,6,0,P|243:78|211:131,1,127.50000243187,2|2,0:2|0:2,0:0:0:0:
314,200,66044,2,0,P|307:169|288:144,1,63.7500012159348,2|0,0:2|0:0,0:0:0:0:
211,130,66359,1,8,0:0:0:0:
149,174,66516,1,8,0:0:0:0:
151,250,66673,1,2,0:2:0:0:
151,250,66987,70,0,L|216:255,1,63.7500012159348,2|2,0:2|0:2,0:0:0:0:
288,237,67301,1,2,0:2:0:0:
233,183,67458,1,2,0:2:0:0:
270,308,67615,2,0,P|343:290|363:224,1,127.50000243187,8|2,0:0|0:2,0:0:0:0:
280,125,68086,6,0,P|258:182|288:237,1,127.50000243187,2|2,0:2|0:2,0:0:0:0:
338,178,68558,1,2,0:2:0:0:
280,125,68715,1,0,0:0:0:0:
272,120,68793,1,0,0:0:0:0:
280,125,68872,2,0,B|247:127|247:127|215:116|215:116|184:120,2,85.0000016212464,12|12|12,0:0|0:0|0:0,0:0:0:0:
327,65,69500,70,0,L|390:56,1,63.7500012159348,2|2,0:2|0:2,0:0:0:0:
448,140,69814,2,0,L|369:134,1,63.7500012159348,2|2,0:2|0:2,0:0:0:0:
276,225,70128,2,0,L|405:213,1,127.50000243187,8|2,0:0|0:2,0:0:0:0:
329,308,70599,6,0,L|200:296,1,127.50000243187,2|2,0:2|0:2,0:0:0:0:
141,248,71071,1,2,0:2:0:0:
156,173,71228,1,0,0:0:0:0:
230,154,71385,2,0,P|236:195|232:231,1,63.7500012159348,8|0,0:0|0:0,0:0:0:0:
234,217,71620,1,0,0:0:0:0:
234,217,71699,1,12,0:0:0:0:
202,296,71856,1,0,0:0:0:0:
156,173,72013,70,0,L|141:99,1,67.4999979400635,6|8,0:2|0:0,0:0:0:0:
183,36,72327,1,0,0:0:0:0:
278,139,72484,2,0,P|222:175|156:173,1,134.999995880127,2|8,0:2|0:0,0:0:0:0:
60,115,72955,1,0,0:0:0:0:
60,115,73113,6,0,L|82:262,1,134.999995880127,6|8,0:2|0:0,0:0:0:0:
127,314,73584,2,0,L|194:322,1,67.4999979400635,0|6,0:0|0:2,0:0:0:0:
297,257,73898,2,0,L|230:249,1,67.4999979400635,0|0,0:0|0:0,0:0:0:0:
309,333,74212,2,0,L|359:316,3,33.7499989700318,0|0|0|0,0:0|0:0|0:0|0:0,0:0:0:0:
376,302,74526,70,0,P|390:259|383:226,1,67.4999979400635,2|2,0:2|0:2,0:0:0:0:
374,157,74840,1,8,0:0:0:0:
293,161,74997,1,2,0:2:0:0:
320,256,75154,2,0,L|468:277,1,134.999995880127,2|8,0:2|0:0,0:0:0:0:
495,134,75626,6,0,P|430:122|374:157,1,134.999995880127,2|2,0:2|0:2,0:0:0:0:
293,161,76097,2,0,P|285:120|256:77,1,67.4999979400635,8|0,0:0|0:0,0:0:0:0:
199,62,76411,1,0,0:0:0:0:
178,140,76568,1,0,0:0:0:0:
158,218,76725,1,12,0:0:0:0:
158,218,77039,70,0,P|127:229|77:231,1,67.4999979400635,2|2,0:2|0:2,0:0:0:0:
178,140,77353,2,0,P|209:129|259:127,1,67.4999979400635,8|2,0:0|0:2,0:0:0:0:
309,271,77668,2,0,P|244:299|174:292,1,134.999995880127,2|8,0:2|0:0,0:0:0:0:
92,232,78139,6,0,P|59:157|66:92,1,134.999995880127,2|2,0:2|0:2,0:0:0:0:
130,60,78610,2,0,L|146:131,1,67.4999979400635,8|0,0:0|0:0,0:0:0:0:
204,190,78924,2,0,L|219:124,1,67.4999979400635,0|0,0:0|0:0,0:0:0:0:
258,53,79238,1,12,0:0:0:0:
399,132,79552,69,6,0:2:0:0:
325,165,79709,1,0,0:0:0:0:
336,84,79866,2,0,P|367:58|405:56,1,67.4999979400635,8|0,0:0|0:0,0:0:0:0:
481,138,80181,2,0,P|454:197|390:212,1,134.999995880127,8|8,0:0|0:0,0:0:0:0:
325,165,80652,1,2,0:2:0:0:
259,213,80809,6,0,P|245:260|250:302,1,67.4999979400635,0|0,0:0|0:0,0:0:0:0:
300,337,81123,1,8,0:0:0:0:
325,260,81280,1,0,0:0:0:0:
193,174,81437,2,0,P|171:242|177:319,1,134.999995880127,8|8,0:0|0:0,0:0:0:0:
223,368,81908,1,2,0:2:0:0:
300,337,82065,70,0,P|354:319|385:317,1,67.4999979400635,0|0,0:0|0:0,0:0:0:0:
445,309,82380,2,0,P|425:254|428:230,1,67.4999979400635,8|0,0:0|0:0,0:0:0:0:
401,168,82694,2,0,P|344:206|263:202,1,134.999995880127,8|8,0:0|0:0,0:0:0:0:
220,152,83165,1,2,0:2:0:0:
140,166,83322,6,0,P|111:235|135:306,2,134.999995880127,0|8|8,0:0|0:0|0:0,0:0:0:0:
220,152,84107,1,0,0:0:0:0:
220,152,84186,1,0,0:0:0:0:
220,152,84264,2,0,L|228:66,1,67.4999979400635,12|0,0:0|0:0,0:0:0:0:
200,229,84579,70,0,L|281:243,1,75,2|2,0:2|0:2,0:0:0:0:
395,175,84893,2,0,L|321:162,1,75,2|2,0:2|0:2,0:0:0:0:
348,257,85207,5,2,0:2:0:0:
440,102,85521,1,2,0:2:0:0:
406,18,85678,1,2,0:2:0:0:
226,33,85992,1,2,0:2:0:0:
214,122,86149,1,2,0:2:0:0:
152,290,86463,69,2,0:2:0:0:
132,202,86620,1,2,0:2:0:0:
152,290,86777,2,0,L|66:306,1,75,10|10,0:0|0:0,0:0:0:0:
47,218,87092,5,10,0:0:0:0:
208,139,87406,1,10,0:0:0:0:
296,125,87563,1,10,0:0:0:0:
440,232,87877,1,10,0:0:0:0:
381,300,88034,1,10,0:0:0:0:
304,329,88191,6,0,B|256:344|232:316|184:328,1,112.5,2|0,0:0|0:0,0:0:0:0:
50,300,88976,1,8,0:0:0:0:
52,150,89291,1,8,0:0:0:0:
212,232,89605,6,0,P|246:151|230:77,1,150,6|8,0:2|0:0,0:0:0:0:
170,43,90076,1,2,0:2:0:0:
104,92,90233,2,0,L|100:181,1,75,2|0,0:2|0:0,0:0:0:0:
89,248,90547,1,8,0:0:0:0:
166,298,90704,1,0,0:0:0:0:
166,298,90783,1,0,0:0:0:0:
166,298,90861,6,0,P|203:305|242:290,1,75,2|0,0:2|0:0,0:0:0:0:
348,215,91175,2,0,P|312:208|277:221,1,75,8|2,0:0|0:2,0:0:0:0:
319,292,91490,1,2,0:2:0:0:
385,340,91647,1,0,0:0:0:0:
422,266,91804,2,0,L|435:191,1,75,8|0,0:0|0:0,0:0:0:0:
305,73,92118,6,0,L|276:221,1,150,2|8,0:2|0:0,0:0:0:0:
263,301,92589,1,2,0:2:0:0:
186,271,92746,2,0,P|180:303|197:354,1,75,2|0,0:2|0:0,0:0:0:0:
263,301,93060,1,8,0:0:0:0:
197,188,93217,1,0,0:0:0:0:
197,188,93296,1,0,0:0:0:0:
197,188,93374,54,0,P|149:194|121:218,1,75,2|0,0:2|0:0,0:0:0:0:
116,332,93688,2,0,L|195:344,1,75,12|2,0:0|0:2,0:0:0:0:
263,301,94003,1,2,0:2:0:0:
186,271,94160,1,0,0:0:0:0:
263,301,94317,2,0,L|275:206,1,75,12|0,0:0|0:0,0:0:0:0:
277,144,94631,5,6,0:2:0:0:
242,69,94788,1,0,0:0:0:0:
165,38,94945,2,0,P|128:29|91:34,1,75,8|2,0:0|0:2,0:0:0:0:
30,88,95259,2,0,P|10:145|30:246,1,150,2|8,0:2|0:0,0:0:0:0:
104,240,95730,1,2,0:2:0:0:
181,211,95887,6,0,L|167:133,1,75,2|0,0:2|0:0,0:0:0:0:
104,240,96202,2,0,L|117:313,1,75,8|0,0:0|0:0,0:0:0:0:
196,337,96516,2,0,L|290:352,1,75,2|0,0:2|0:0,0:0:0:0:
327,245,96830,2,0,L|252:233,1,75,8|0,0:0|0:0,0:0:0:0:
350,316,97144,54,0,B|384:283|384:283|348:240|373:181,1,150,2|8,0:2|0:0,0:0:0:0:
400,109,97615,1,2,0:2:0:0:
318,120,97772,2,0,P|282:125|228:118,1,75,2|0,0:2|0:0,0:0:0:0:
214,92,98008,1,0,0:0:0:0:
214,92,98086,2,0,P|167:87|134:88,1,75,8|2,0:0|0:2,0:0:0:0:
62,195,98401,6,0,P|139:212|222:207,1,150,2|12,0:2|0:0,0:0:0:0:
290,193,98872,1,2,0:2:0:0:
316,271,99029,2,0,L|311:345,1,75,2|0,0:2|0:0,0:0:0:0:
204,283,99343,2,0,L|209:209,1,75,12|0,0:0|0:0,0:0:0:0:
367,202,99657,6,0,P|434:236|446:328,1,150,6|8,0:2|0:0,0:0:0:0:
371,288,100128,1,2,0:2:0:0:
299,247,100285,2,0,P|285:198|299:155,1,75,2|0,0:2|0:0,0:0:0:0:
345,114,100599,1,8,0:0:0:0:
257,64,100757,1,0,0:0:0:0:
257,64,100835,1,0,0:0:0:0:
257,64,100914,54,0,P|215:86|192:121,1,75
152,177,101228,2,0,P|115:164|59:171,1,75,8|2,0:0|0:2,0:0:0:0:
20,228,101542,1,2,0:2:0:0:
35,312,101699,1,0,0:0:0:0:
121,314,101856,1,8,0:0:0:0:
121,314,102170,6,0,P|158:250|152:177,1,150,2|8,0:2|0:0,0:0:0:0:
123,98,102641,1,2,0:2:0:0:
123,98,102798,2,0,L|299:81,1,150,2|8,0:2|0:0,0:0:0:0:
352,104,103270,1,0,0:0:0:0:
352,104,103348,1,0,0:0:0:0:
352,104,103427,6,0,P|381:138|398:179,1,75,2|0,0:2|0:0,0:0:0:0:
360,262,103741,2,0,P|335:234|319:201,1,75,12|2,0:0|0:2,0:0:0:0:
449,236,104055,2,0,L|408:383,1,150,2|12,0:2|0:0,0:0:0:0:
329,357,104526,1,2,0:2:0:0:
273,296,104683,54,0,P|224:284|182:284,1,75,6|0,0:2|0:0,0:0:0:0:
120,306,104997,1,8,0:0:0:0:
55,254,105154,1,2,0:2:0:0:
130,219,105312,2,0,P|172:179|168:84,1,150,2|8,0:2|0:0,0:0:0:0:
98,55,105783,1,2,0:2:0:0:
35,108,105940,6,0,L|106:138,1,75,2|0,0:2|0:0,0:0:0:0:
245,73,106254,2,0,L|172:91,1,75,8|0,0:0|0:0,0:0:0:0:
130,219,106568,2,0,L|202:201,1,75,2|0,0:2|0:0,0:0:0:0:
315,97,106882,2,0,L|230:67,1,75,8|0,0:0|0:0,0:0:0:0:
202,200,107196,6,0,P|203:260|250:334,1,150,2|8,0:2|0:0,0:0:0:0:
332,341,107668,1,0,0:0:0:0:
397,290,107825,2,0,P|405:252|387:197,1,75,2|0,0:2|0:0,0:0:0:0:
359,144,108139,1,12,0:0:0:0:
284,179,108296,1,0,0:0:0:0:
240,250,108453,54,0,L|229:326,1,75,2|0,0:2|0:0,0:0:0:0:
164,209,108767,2,0,L|154:131,1,75,8|2,0:0|0:2,0:0:0:0:
217,81,109081,1,2,0:2:0:0:
272,141,109238,1,0,0:0:0:0:
236,216,109395,2,0,P|199:219|164:209,1,75,12|0,0:0|0:0,0:0:0:0:
217,81,109709,6,0,P|290:61|345:104,1,150,12|8,0:0|0:0,0:0:0:0:
359,184,110181,1,0,0:0:0:0:
372,265,110338,2,0,L|458:275,1,75,8|0,0:0|0:0,0:0:0:0:
444,191,110652,1,8,0:0:0:0:
444,191,110809,1,0,0:0:0:0:
294,217,110966,6,0,B|288:266|288:266|295:309|295:309|285:365,1,150,12|8,0:0|0:0,0:0:0:0:
208,334,111437,1,0,0:0:0:0:
174,258,111594,2,0,L|165:164,1,75,8|0,0:0|0:0,0:0:0:0:
189,103,111908,1,8,0:0:0:0:
253,154,112065,1,0,0:0:0:0:
94,228,112223,54,0,B|79:74,1,150,8|12,0:0|0:0,0:0:0:0:
145,29,112694,1,0,0:0:0:0:
225,47,112851,2,0,P|272:52|322:41,1,75,8|0,0:0|0:0,0:0:0:0:
446,16,113165,2,0,P|409:11|372:15,1,75,8|0,0:0|0:0,0:0:0:0:
361,96,113479,5,6,0:2:0:0:
356,178,113636,1,2,0:2:0:0:
352,260,113793,1,2,0:2:0:0:
352,260,114736,22,0,P|382:217|378:183,1,67.4999979400635,6|2,0:2|0:0,0:0:0:0:
304,201,115050,2,2,P|298:148|281:129,1,67.4999979400635,10|0,0:0|0:0,0:0:0:0:
229,184,115364,2,0,P|174:142|103:127,1,134.999995880127,2|8,0:0|0:0,0:0:0:0:
46,163,115835,6,2,L|52:300,1,134.999995880127
111,344,116306,1,8,0:0:0:0:
111,344,116463,1,2,0:0:0:0:
177,310,116620,2,2,P|185:282|184:237,1,67.4999979400635,2|0,0:0|0:0,0:0:0:0:
157,174,116935,1,8,0:0:0:0:
157,174,117249,70,0,L|65:175,1,67.4999979400635,2|0,0:0|0:0,0:0:0:0:
26,214,117563,1,10,0:0:0:0:
90,249,117720,1,0,0:0:0:0:
89,174,117877,2,2,P|86:131|74:97,1,67.4999979400635,2|0,0:0|0:0,0:0:0:0:
58,36,118191,1,0,0:0:0:0:
165,108,118348,6,2,P|255:105|303:74,1,134.999995880127,10|0,0:0|0:0,0:0:0:0:
394,11,118819,2,0,P|368:51|366:87,1,67.4999979400635,12|2,0:0|0:0,0:0:0:0:
344,141,119133,1,0,0:0:0:0:
374,209,119291,1,2,0:0:0:0:
443,182,119448,1,12,0:0:0:0:
443,182,119762,70,0,L|441:108,1,67.4999979400635,6|2,0:2|0:0,0:0:0:0:
417,44,120076,2,0,P|364:29|323:29,1,67.4999979400635,8|2,0:0|0:0,0:0:0:0:
286,62,120390,2,0,P|248:78|193:73,2,67.4999979400635,2|0|10,0:0|0:0|0:0,0:0:0:0:
325,124,120861,6,2,P|251:152|187:148,1,134.999995880127
122,137,121332,1,8,0:0:0:0:
87,70,121490,1,2,0:0:0:0:
131,10,121647,2,0,P|152:33|161:78,2,67.4999979400635,2|2|8,0:0|0:0|0:0,0:0:0:0:
54,136,122275,70,0,L|38:182,3,33.7499989700318,2|0|0|0,3:2|3:0|3:0|3:0,0:0:0:0:
41,205,122589,2,0,L|55:258,3,33.7499989700318,2|0|0|0,3:2|3:0|3:0|3:0,0:0:0:0:
67,270,122903,2,0,L|-7:303,1,67.4999979400635,12|12,0:0|0:0,0:0:0:0:
173,285,123374,6,0,B|202:293|202:293|233:276|233:276|269:269|316:295,1,134.999995880127,12|2,0:0|0:2,0:0:0:0:
326,357,123846,2,0,P|298:362|252:341,1,67.4999979400635,2|0,3:2|3:0,0:0:0:0:
173,285,124160,2,0,P|158:246|158:202,1,67.4999979400635,12|2,0:0|0:2,0:0:0:0:
174,148,124474,1,0,0:0:0:0:
244,120,124631,5,6,0:2:0:0:
92,292,128401,54,0,P|53:216|67:152,1,134.999995880127,12|8,0:0|0:0,0:0:0:0:
88,94,128872,2,0,L|166:92,1,67.4999979400635,12|0,0:0|0:0,0:0:0:0:
222,137,129186,2,0,L|257:146,3,33.7499989700318,8|8|8|8,0:0|0:0|0:0|0:0,0:0:0:0:
295,144,129500,2,0,L|335:131,3,33.7499989700318,8|8|8|8,0:0|0:0|0:0|0:0,0:0:0:0:
364,116,129814,6,0,P|438:101|492:59,2,134.999995880127,6|8|2,0:2|0:0|0:2,0:0:0:0:
370,196,130599,2,0,L|372:274,1,67.4999979400635,0|8,0:0|0:0,0:0:0:0:
285,231,130914,70,0,P|230:196|165:207,1,134.999995880127,2|2,0:2|0:2,0:0:0:0:
12,259,131385,2,0,P|68:290|127:273,1,101.249996910095,8|0,0:0|0:0,0:0:0:0:
101,245,131699,2,0,L|88:176,1,67.4999979400635,2|0,0:2|0:0,0:0:0:0:
46,109,132013,2,0,P|24:127|8:185,1,67.4999979400635,8|2,0:0|0:2,0:0:0:0:
88,178,132327,6,0,P|154:184|219:164,2,134.999995880127,0|8|2,0:0|0:0|0:2,0:0:0:0:
104,257,133113,1,0,0:0:0:0:
104,257,133270,2,0,P|139:264|176:257,1,67.4999979400635,8|2,0:0|0:2,0:0:0:0:
219,164,133584,70,0,L|233:69,1,67.4999979400635,8|2,0:0|0:2,0:0:0:0:
247,18,133898,1,0,0:0:0:0:
309,134,134055,2,0,L|323:229,1,67.4999979400635,8|2,0:0|0:2,0:0:0:0:
233,316,134369,2,0,P|244:270|272:240,1,67.4999979400635,0|2,0:0|0:2,0:0:0:0:
375,256,134683,6,0,P|314:281|254:253,1,134.999995880127,6|0,0:2|0:0,0:0:0:0:
238,174,135154,1,8,0:0:0:0:
309,134,135312,1,0,0:0:0:0:
385,161,135469,2,0,L|390:237,2,67.4999979400635,0|0|8,0:0|0:0|0:0,0:0:0:0:
462,136,135940,70,0,L|473:282,1,134.999995880127,2|0,0:2|0:0,0:0:0:0:
404,315,136411,2,0,P|352:290|297:284,1,101.249996910095,8|0,0:0|0:0,0:0:0:0:
271,299,136725,2,0,P|235:313|193:308,1,67.4999979400635,0|0,0:0|0:0,0:0:0:0:
133,276,137039,1,8,0:0:0:0:
83,209,137196,6,0,P|153:195|205:236,1,134.999995880127
263,179,137668,2,0,P|273:138|272:93,1,67.4999979400635,8|0,0:0|0:0,0:0:0:0:
220,51,137982,1,0,0:0:0:0:
200,130,138139,1,0,0:0:0:0:
200,130,138453,70,0,P|259:161|343:158,1,134.999995880127,12|0,0:0|0:0,0:0:0:0:
400,130,138924,2,0,P|412:81|397:40,1,67.4999979400635,12|0,0:0|0:0,0:0:0:0:
340,21,139238,2,0,L|294:21,3,33.7499989700318,8|0|0|0,0:0|0:0|0:0|0:0,0:0:0:0:
280,52,139552,2,0,L|230:53,3,33.7499989700318,8|0|0|0,0:0|0:0|0:0|0:0,0:0:0:0:
212,75,139866,6,0,P|178:78|135:62,1,67.4999979400635,6|0,0:2|0:0,0:0:0:0:
80,20,140181,1,8,0:0:0:0:
175,150,140495,2,0,P|161:182|136:210,1,67.4999979400635,2|0,0:2|0:0,0:0:0:0:
69,242,140809,1,8,0:0:0:0:
228,214,141123,70,0,P|284:265|279:338,1,134.999995880127,0|8,0:0|0:0,0:0:0:0:
217,362,141594,2,0,P|205:325|213:291,1,67.4999979400635,0|2,0:0|0:2,0:0:0:0:
344,220,141908,2,0,P|357:256|360:295,1,67.4999979400635,0|8,0:0|0:0,0:0:0:0:
286,320,142223,1,0,0:0:0:0:
228,214,142380,6,0,L|231:137,1,67.4999979400635,0|2,0:0|0:2,0:0:0:0:
301,107,142694,2,0,P|232:114|173:87,1,134.999995880127,8|2,0:0|0:2,0:0:0:0:
93,73,143165,2,0,P|104:42|145:18,1,67.4999979400635,12|0,0:0|0:0,0:0:0:0:
211,21,143479,1,12,0:0:0:0:
301,107,143636,70,0,P|315:165|325:243,1,134.999995880127,0|8,0:0|0:0,0:0:0:0:
280,307,144107,1,8,0:0:0:0:
209,346,144264,2,0,L|129:359,1,67.4999979400635,2|0,0:2|0:0,0:0:0:0:
91,253,144579,2,0,L|157:242,1,67.4999979400635,8|2,0:0|0:2,0:0:0:0:
241,227,144893,5,6,0:2:0:0:
241,227,145050,1,2,0:2:0:0:
300,282,145207,2,0,P|321:334|324:359,1,67.4999979400635,2|2,0:2|0:2,0:0:0:0:
367,234,145521,2,0,P|366:167|378:101,1,134.999995880127,8|2,0:0|0:2,0:0:0:0:
503,96,145992,70,0,P|441:119|378:100,1,134.999995880127,2|2,0:2|0:2,0:0:0:0:
320,42,146463,2,0,L|249:40,1,67.4999979400635,2|0,0:2|0:0,0:0:0:0:
171,48,146777,1,8,0:0:0:0:
122,113,146935,1,8,0:0:0:0:
149,194,147092,1,0,0:0:0:0:
149,194,147406,6,0,L|138:262,1,67.4999979400635,6|2,0:2|0:2,0:0:0:0:
222,279,147720,2,0,L|232:212,1,67.4999979400635,2|2,0:2|0:2,0:0:0:0:
161,333,148034,2,0,P|221:363|286:332,1,134.999995880127,8|2,0:0|0:2,0:0:0:0:
295,166,148505,70,0,P|235:136|170:167,1,134.999995880127,2|2,0:2|0:2,0:0:0:0:
117,216,148976,2,0,L|70:274,1,67.4999979400635,2|0,0:2|3:0,0:0:0:0:
157,301,149291,2,0,L|135:358,2,44.999998626709,8|0|0,0:0|3:0|3:0,0:0:0:0:
211,302,149605,2,0,L|239:346,2,44.999998626709,0|0|8,3:0|3:0|3:0,0:0:0:0:
242,267,149919,6,0,L|326:256,1,67.4999979400635,6|2,0:2|0:2,0:0:0:0:
389,255,150233,1,2,0:2:0:0:
348,325,150390,1,2,0:2:0:0:
339,185,150547,2,0,P|414:171|464:215,1,134.999995880127,8|2,0:0|0:2,0:0:0:0:
308,258,151018,70,0,P|264:216|268:147,1,134.999995880127,2|2,0:2|0:2,0:0:0:0:
291,68,151490,1,2,0:2:0:0:
361,121,151647,1,0,0:0:0:0:
361,121,151725,1,0,0:0:0:0:
361,121,151804,2,0,P|398:118|451:107,1,67.4999979400635,8|0,0:0|0:0,0:0:0:0:
473,18,152118,2,0,P|436:21|383:32,1,67.4999979400635,12|0,0:0|0:0,0:0:0:0:
291,68,152432,6,0,P|274:115|282:151,1,67.4999979400635,6|8,0:2|0:0,0:0:0:0:
290,208,152746,1,0,0:0:0:0:
290,69,152903,2,0,L|145:88,1,134.999995880127,2|8,0:2|0:0,0:0:0:0:
157,227,153374,1,0,0:0:0:0:
157,227,153531,70,0,L|290:209,1,134.999995880127,12|8,0:0|0:0,0:0:0:0:
372,205,154003,2,0,P|419:217|443:237,1,67.4999979400635,0|12,0:0|0:0,0:0:0:0:
438,308,154317,1,0,0:0:0:0:
365,344,154474,1,0,0:0:0:0:
296,301,154631,2,0,L|243:278,3,33.7499989700318,0|0|0|0,0:0|0:0|0:0|0:0,0:0:0:0:
224,282,154945,6,0,P|181:281|137:288,1,67.4999979400635,2|2,0:2|0:2,0:0:0:0:
81,253,155259,1,8,0:0:0:0:
81,253,155416,1,2,0:2:0:0:
141,199,155573,2,0,P|144:152|139:114,1,67.4999979400635,2|0,0:2|0:0,0:0:0:0:
117,54,155887,2,0,P|63:50|30:56,1,67.4999979400635,8|2,0:0|0:2,0:0:0:0:
15,127,156202,69,0,0:0:0:0:
54,197,156359,1,2,0:2:0:0:
141,199,156516,2,0,B|192:210|228:160|293:184,1,134.999995880127,8|0,0:0|0:0,0:0:0:0:
326,239,156987,1,0,0:0:0:0:
247,324,157144,2,0,L|248:242,1,67.4999979400635,12|0,0:0|0:0,0:0:0:0:
326,239,157458,5,2,0:2:0:0:
372,305,157615,1,2,0:2:0:0:
307,352,157772,2,0,P|275:342|247:324,1,67.4999979400635,8|2,0:0|0:2,0:0:0:0:
166,256,158086,2,0,P|93:242|40:296,1,134.999995880127,2|8,0:2|0:0,0:0:0:0:
116,322,158558,1,2,0:2:0:0:
166,256,158715,70,0,L|177:186,1,67.4999979400635,0|2,0:0|0:2,0:0:0:0:
98,92,159029,2,0,L|108:169,1,67.4999979400635,8|0,0:0|0:0,0:0:0:0:
88,237,159343,1,0,0:0:0:0:
88,237,159500,1,0,0:0:0:0:
166,256,159657,2,0,P|197:267|231:265,1,67.4999979400635,12|0,0:0|0:0,0:0:0:0:
302,226,159971,5,6,0:2:0:0:
247,165,160128,1,0,0:0:0:0:
323,137,160285,2,0,L|333:58,1,67.4999979400635,8|0,0:0|0:0,0:0:0:0:
465,65,160599,2,0,L|448:198,1,134.999995880127,8|8,0:0|0:0,0:0:0:0:
429,278,161071,1,2,0:2:0:0:
349,290,161228,69,2,0:2:0:0:
374,213,161385,1,0,0:0:0:0:
429,278,161542,2,0,P|421:330|394:356,1,67.4999979400635,8|0,0:0|0:0,0:0:0:0:
291,229,161856,2,0,P|279:184|306:84,1,134.999995880127,8|8,0:0|0:0,0:0:0:0:
373,74,162327,1,2,0:2:0:0:
421,138,162484,6,0,L|345:173,1,67.4999979400635,2|0,0:2|0:0,0:0:0:0:
291,229,162798,2,0,L|225:210,1,67.4999979400635,8|0,0:0|0:0,0:0:0:0:
159,163,163113,1,8,0:0:0:0:
159,163,163191,1,0,0:0:0:0:
159,163,163270,1,0,0:0:0:0:
96,214,163427,2,0,P|131:241|168:239,1,67.4999979400635,8|2,0:0|0:2,0:0:0:0:
234,131,163741,70,0,L|224:51,1,67.4999979400635,6|0,0:2|0:0,0:0:0:0:
95,70,164055,2,0,L|109:15,2,44.999998626709,8|8|8,0:0|0:0|0:0,0:0:0:0:
68,117,164369,2,0,P|56:158|61:190,1,67.4999979400635,0|0,3:0|0:0,0:0:0:0:
131,272,164683,2,0,P|134:231|125:204,2,44.999998626709,8|8|8,0:0|0:0|0:0,0:0:0:0:
126,314,164997,6,0,L|39:318,1,75,2|2,0:2|0:2,0:0:0:0:
133,227,165312,2,0,L|211:223,1,75,2|2,0:2|0:2,0:0:0:0:
286,266,165626,69,2,0:2:0:0:
286,266,165940,1,2,0:2:0:0:
366,225,166097,1,2,0:2:0:0:
211,133,166411,1,2,0:2:0:0:
207,223,166568,1,2,0:2:0:0:
366,140,166882,5,2,0:2:0:0:
293,87,167039,1,2,0:2:0:0:
290,176,167196,2,0,L|286:256,1,75,10|10,0:0|0:0,0:0:0:0:
240,328,167510,69,10,0:0:0:0:
92,223,167825,1,10,0:0:0:0:
174,186,167982,1,10,0:0:0:0:
349,147,168296,1,10,0:0:0:0:
272,100,168453,1,10,0:0:0:0:
263,192,168610,22,0,B|259:220|259:220|288:253|272:307,1,112.5,2|8,0:0|1:0,0:0:0:0:
218,347,169238,1,0,3:0:0:0:
146,332,169395,1,8,3:0:0:0:
118,201,169709,1,8,3:0:0:0:
224,54,170024,6,0,P|317:52|366:104,1,150,6|8,0:2|0:0,0:0:0:0:
367,176,170495,1,2,0:2:0:0:
307,243,170652,2,0,P|274:256|224:253,1,75,2|0,0:2|0:0,0:0:0:0:
217,167,170966,1,8,0:0:0:0:
367,176,171123,1,0,0:0:0:0:
367,176,171202,1,0,0:0:0:0:
367,176,171280,6,0,P|390:214|392:265,1,75,2|0,0:2|0:0,0:0:0:0:
350,322,171594,1,8,0:0:0:0:
307,243,171751,1,2,0:2:0:0:
221,269,171908,2,0,P|206:300|203:347,1,75,2|0,0:2|0:0,0:0:0:0:
113,321,172223,1,8,0:0:0:0:
113,321,172537,6,0,P|129:243|69:174,1,150,2|8,0:2|0:0,0:0:0:0:
0,187,173008,1,2,0:2:0:0:
44,265,173165,2,0,L|194:234,1,150,2|8,0:2|0:0,0:0:0:0:
219,149,173636,1,2,0:2:0:0:
219,149,173715,1,0,0:0:0:0:
219,149,173793,54,0,L|125:148,1,75,2|0,0:2|0:0,0:0:0:0:
52,58,174107,2,0,L|127:59,1,75,12|2,0:0|0:2,0:0:0:0:
215,45,174421,1,2,0:2:0:0:
296,85,174579,1,0,0:0:0:0:
384,98,174736,2,0,P|423:68|434:32,1,75,12|0,0:0|0:0,0:0:0:0:
428,171,175050,6,0,L|417:249,2,75,6|0|8,0:2|0:0|0:0,0:0:0:0:
338,163,175521,1,2,0:2:0:0:
331,252,175678,2,0,P|304:323|227:344,1,150,2|8,0:2|0:0,0:0:0:0:
163,303,176149,1,2,0:2:0:0:
177,214,176306,6,0,L|244:258,1,75,2|0,0:2|0:0,0:0:0:0:
95,355,176620,2,0,L|86:266,1,75,8|0,0:0|0:0,0:0:0:0:
146,127,176935,2,0,L|72:178,1,75,2|0,0:2|0:0,0:0:0:0:
108,17,177249,2,0,L|199:36,1,75,8|2,0:0|0:2,0:0:0:0:
330,18,177563,54,0,L|181:32,1,150,2|8,0:2|0:0,0:0:0:0:
113,91,178034,1,2,0:2:0:0:
128,179,178191,2,0,P|164:220|196:229,1,75,2|0,0:2|0:0,0:0:0:0:
222,246,178427,1,0,0:0:0:0:
222,246,178505,2,0,L|244:170,1,75,8|0,0:0|0:0,0:0:0:0:
137,302,178819,6,0,P|195:343|285:324,1,150,2|8,0:2|0:0,0:0:0:0:
333,269,179291,1,2,0:2:0:0:
394,203,179448,2,0,L|425:288,1,75,2|0,0:2|0:0,0:0:0:0:
423,299,179683,1,0,0:0:0:0:
423,299,179762,2,0,P|384:349|341:356,1,75,8|0,0:0|0:0,0:0:0:0:
250,254,180076,6,0,L|257:91,1,150,6|8,0:2|0:0,0:0:0:0:
333,57,180547,1,2,0:2:0:0:
333,57,180704,2,0,L|411:51,2,75,2|0|8,0:2|0:0|0:0,0:0:0:0:
359,142,181175,1,0,0:0:0:0:
359,142,181254,1,0,0:0:0:0:
359,142,181332,54,0,P|403:149|432:191,1,75,2|0,0:2|0:0,0:0:0:0:
343,292,181647,2,0,P|349:246|369:212,1,75,8|2,0:0|0:2,0:0:0:0:
433,275,181961,1,2,0:2:0:0:
398,358,182118,1,0,0:0:0:0:
343,292,182275,2,0,P|306:283|255:286,1,75,8|2,0:0|0:2,0:0:0:0:
186,338,182589,6,0,P|186:255|149:194,1,150,2|8,0:2|0:0,0:0:0:0:
65,179,183060,1,2,0:2:0:0:
32,262,183217,2,0,L|21:343,2,75,2|0|8,0:2|0:0|0:0,0:0:0:0:
65,179,183688,1,0,0:0:0:0:
65,179,183767,1,0,0:0:0:0:
65,179,183846,6,0,P|94:147|112:88,1,75,2|0,0:2|0:0,0:0:0:0:
178,43,184160,2,0,L|186:128,1,75,12|2,0:0|0:2,0:0:0:0:
228,196,184474,2,0,L|302:194,1,75,2|0,0:2|0:0,0:0:0:0:
333,53,184788,2,0,P|295:32|260:30,1,75,12|2,0:0|0:2,0:0:0:0:
269,119,185102,53,6,0:2:0:0:
357,135,185259,1,0,0:0:0:0:
430,82,185416,2,0,P|432:31|416:1,1,75,8|2,0:0|0:2,0:0:0:0:
357,135,185730,2,0,P|336:227|327:286,1,150,2|8,0:2|0:0,0:0:0:0:
264,347,186202,1,2,0:2:0:0:
196,287,186359,6,0,P|190:237|163:198,1,75,2|0,0:2|0:0,0:0:0:0:
73,145,186673,2,0,P|79:195|106:234,1,75,8|0,0:0|0:0,0:0:0:0:
196,287,186987,2,0,L|289:293,1,75,2|0,0:2|0:0,0:0:0:0:
327,144,187301,2,0,L|248:148,1,75,8|2,0:0|0:2,0:0:0:0:
332,231,187615,6,0,P|427:242|501:202,1,150,2|8,0:2|0:0,0:0:0:0:
488,133,188086,1,2,0:2:0:0:
430,63,188243,2,0,P|401:100|395:146,1,75,2|0,0:2|0:0,0:0:0:0:
368,163,188479,1,0,0:0:0:0:
368,163,188558,2,0,L|340:80,1,75,8|0,0:0|0:0,0:0:0:0:
282,25,188872,53,2,0:2:0:0:
246,107,189029,1,0,0:0:0:0:
170,155,189186,2,0,P|117:164|67:157,1,75,8|0,0:0|0:0,0:0:0:0:
42,85,189500,2,0,P|95:76|145:83,1,75,2|0,0:2|0:0,0:0:0:0:
170,155,189814,2,0,L|181:244,1,75,12|0,0:0|0:0,0:0:0:0:
71,306,190128,6,0,P|108:243|180:229,1,150,6|8,0:2|0:0,0:0:0:0:
256,275,190599,1,0,0:0:0:0:
339,239,190757,2,0,L|330:153,1,75,8|0,0:0|0:0,0:0:0:0:
418,244,191071,2,0,L|403:331,1,75,8|0,0:0|0:0,0:0:0:0:
256,275,191385,6,0,P|239:195|257:108,1,150,6|8,0:2|0:0,0:0:0:0:
317,69,191856,1,0,0:0:0:0:
406,76,192013,2,0,P|446:129|452:157,1,75,8|0,0:0|0:0,0:0:0:0:
349,226,192327,2,0,P|359:178|379:146,1,75,8|0,0:0|0:0,0:0:0:0:
414,283,192641,6,0,P|346:313|273:272,1,150,6|12,0:2|0:0,0:0:0:0:
209,228,193113,1,0,0:0:0:0:
248,147,193270,2,0,L|328:144,1,75,8|0,0:0|0:0,0:0:0:0:
209,228,193584,2,0,L|134:230,1,75,8|0,0:0|0:0,0:0:0:0:
78,160,193898,5,2,0:2:0:0:
94,71,194055,1,2,0:2:0:0:
181,51,194212,1,2,0:2:0:0:
323,106,194840,1,8,3:0:0:0:
323,106,195154,70,0,L|332:183,1,67.4999979400635,6|2,0:2|0:2,0:0:0:0:
339,254,195469,1,2,0:2:0:0:
339,254,195783,2,0,P|268:284|186:266,1,134.999995880127,0|0,2:0|2:0,2:0:0:0:
121,143,196411,2,0,P|192:113|274:131,1,134.999995880127,0|0,2:0|2:0,2:0:0:0:
320,155,196882,1,0,0:0:0:0:
320,155,196961,1,0,0:0:0:0:
320,155,197039,6,0,L|330:91,2,44.999998626709,8|0|0,0:0|0:0|0:0,0:0:0:0:
360,191,197353,2,0,L|364:243,2,44.999998626709,8|0|0,3:0|3:0|3:0,0:0:0:0:
407,164,197668,70,0,L|420:82,1,67.4999979400635,6|2,0:2|0:2,0:0:0:0:
376,27,197982,1,2,0:2:0:0:
220,72,198296,1,0,2:0:0:0:
340,179,198610,1,0,2:0:0:0:
272,223,198767,1,8,0:0:0:0:
272,223,198846,1,8,0:0:0:0:
272,223,198924,6,0,P|213:248|159:248,2,101.249996910095,12|12|12,0:0|0:0|0:0,0:0:0:0:
152,183,199631,2,0,P|110:217|111:281,1,101.249996910095,12|8,0:0|0:0,0:0:0:0:
147,333,200024,1,0,0:0:0:0:
227,344,200181,70,0,L|326:330,1,67.4999979400635,6|2,0:2|0:2,0:0:0:0:
370,308,200495,1,2,0:2:0:0:
293,165,200809,1,0,2:0:0:0:
356,215,200966,2,0,L|389:212,2,33.7499989700318,0|0|4,0:0|0:0|0:0,0:0:0:0:
254,89,201437,6,0,L|217:98,3,33.7499989700318,8|0|2|0,0:0|0:0|0:2|0:0,0:0:0:0:
188,121,201751,2,0,L|164:156,3,33.7499989700318,2|0|0|0,3:2|3:0|3:0|3:0,0:0:0:0:
158,188,202065,2,0,L|137:275,1,67.4999979400635,8|2,0:0|0:2,0:0:0:0:
67,329,202380,2,0,L|58:251,1,67.4999979400635,12|0,0:0|0:0,0:0:0:0:
61,181,202694,69,6,0:2:0:0:
89,105,202851,1,8,0:0:0:0:
166,82,203008,1,8,0:0:0:0:
230,230,203322,1,6,0:2:0:0:
167,281,203479,1,8,0:0:0:0:
89,258,203636,1,8,0:0:0:0:
210,150,203950,5,6,0:2:0:0:
230,230,204107,2,0,L|236:278,2,33.7499989700318,8|8|8,0:0|0:0|0:0,0:0:0:0:
291,122,204421,2,0,P|359:129|410:186,1,134.999995880127,2|0,0:2|0:0,0:0:0:0:
397,255,204893,1,12,0:0:0:0:
291,122,205207,70,0,L|340:40,1,67.4999979400635,2|2,0:2|0:2,0:0:0:0:
395,24,205521,2,0,L|410:109,1,67.4999979400635,8|0,0:0|0:0,0:0:0:0:
426,168,205835,1,0,3:0:0:0:
364,221,205992,1,0,3:0:0:0:
284,208,206149,2,0,P|234:197|208:180,1,67.4999979400635,8|0,0:0|0:0,0:0:0:0:
153,143,206463,6,0,P|150:208|146:291,2,134.999995880127,2|8|0,0:2|0:0|3:0,0:0:0:0:
131,64,207249,1,0,3:0:0:0:
61,105,207406,2,0,P|47:142|41:171,1,67.4999979400635,8|0,0:0|0:0,0:0:0:0:
81,264,207720,70,0,P|113:276|146:277,1,67.4999979400635,2|2,0:2|0:2,0:0:0:0:
274,241,208034,2,0,P|243:228|210:228,1,67.4999979400635,8|0,0:0|0:0,0:0:0:0:
230,306,208348,1,0,3:0:0:0:
230,306,208505,1,0,3:0:0:0:
297,350,208662,2,0,L|377:333,1,67.4999979400635,8|0,0:0|0:0,0:0:0:0:
401,264,208976,5,2,0:2:0:0:
346,204,209133,1,0,0:0:0:0:
274,241,209291,2,0,P|235:189|227:162,1,67.4999979400635,8|0,0:0|0:0,0:0:0:0:
153,184,209605,2,0,P|180:131|213:114,1,67.4999979400635,2|0,0:2|0:0,0:0:0:0:
327,108,209919,2,0,L|252:107,1,67.4999979400635,12|0,0:0|0:0,0:0:0:0:
345,34,210233,70,0,L|412:34,1,67.4999979400635,2|2,0:2|0:2,0:0:0:0:
471,89,210547,1,8,0:0:0:0:
485,168,210704,1,0,0:0:0:0:
444,238,210861,2,0,L|372:217,1,67.4999979400635,2|0,0:2|0:0,0:0:0:0:
307,182,211175,2,0,P|306:221|299:258,1,67.4999979400635,8|0,0:0|0:0,0:0:0:0:
227,284,211490,6,0,P|157:249|150:182,1,134.999995880127,2|8,0:2|0:0,0:0:0:0:
197,134,211961,1,2,0:2:0:0:
230,207,212118,1,2,0:2:0:0:
230,207,212275,1,0,0:0:0:0:
85,253,212432,2,0,L|9:249,1,67.4999979400635,12|0,0:0|0:0,0:0:0:0:
62,130,212746,70,0,L|197:134,1,134.999995880127,6|0,0:2|0:0,0:0:0:0:
276,139,213217,1,2,0:2:0:0:
337,191,213374,2,0,B|343:224|343:224|332:265,1,67.4999979400635,0|8,0:0|0:0,0:0:0:0:
261,293,213688,1,2,0:2:0:0:
201,237,213846,1,8,0:0:0:0:
196,133,214003,6,0,L|216:86,3,33.7499989700318,0|0|8|8,3:0|3:0|3:1|3:1,0:0:0:0:
236,72,214317,2,0,L|287:55,3,33.7499989700318,8|0|2|0,3:1|3:0|3:2|3:0,0:0:0:0:
308,63,214631,2,0,L|366:73,3,33.7499989700318,0|0|0|0,0:0|0:0|0:0|0:0,0:0:0:0:
379,82,214945,2,0,L|421:115,3,33.7499989700318,2|8|8|0,0:2|0:0|0:0|0:0,0:0:0:0:
422,138,215259,69,4,0:0:0:0:
107,153,219657,6,0,L|100:197,2,40,8|8|0,0:0|0:0|0:0,0:0:0:0:
116,105,219971,1,8,0:3:0:0:
253,72,220285,69,4,3:2:0:0:
429,299,220914,1,8,0:0:0:0:
141,312,221542,6,0,P|74:303|33:247,1,120,4|0,3:2|2:0,0:0:0:0:
148,168,222170,1,8,0:0:0:0:
466,107,222798,70,0,P|436:172|362:187,1,134.999995880127,6|0,0:2|0:0,0:0:0:0:
300,170,223270,1,8,0:0:0:0:
238,116,223427,2,0,L|233:35,1,67.4999979400635,2|8,0:2|0:0,0:0:0:0:
310,26,223741,2,0,L|314:93,1,67.4999979400635,0|8,0:0|0:0,0:0:0:0:
300,170,224055,5,8,0:0:0:0:
225,202,224212,1,2,0:2:0:0:
159,154,224369,2,0,P|112:146|69:153,1,67.4999979400635,8|8,0:0|0:0,0:0:0:0:
54,219,224683,2,0,P|101:227|144:220,1,67.4999979400635,2|8,0:2|0:0,0:0:0:0:
187,271,224997,2,0,L|197:315,3,33.7499989700318,8|8|8|8,0:0|0:0|0:0|0:0,0:0:0:0:
224,338,225312,70,0,L|245:253,1,75,2|2,0:2|0:2,0:0:0:0:
313,160,225626,2,0,L|325:246,1,75,2|2,0:2|0:2,0:0:0:0:
360,316,225940,5,10,0:0:0:0:
228,187,226254,1,10,0:0:0:0:
313,160,226411,1,10,0:0:0:0:
175,275,226725,1,10,0:0:0:0:
118,204,226882,1,10,0:0:0:0:
233,66,227196,70,0,L|325:65,1,75,2|2,0:2|0:2,0:0:0:0:
387,160,227510,2,0,L|313:160,1,75,2|2,0:2|0:2,0:0:0:0:
212,164,227825,22,0,B|149:167|149:167|90:168|23:269|80:381|202:396|271:322|263:263|261:249,1,450,2|0,2:0|2:0,0:0:0:0:
174,250,230024,1,0,2:0:0:0:
325,338,230338,6,0,P|348:260|341:182,1,150,6|8,0:2|0:0,0:0:0:0:
292,118,230809,1,2,0:2:0:0:
381,118,230966,2,0,P|436:109|465:93,1,75,2|0,0:2|0:0,0:0:0:0:
395,31,231280,1,8,0:0:0:0:
306,17,231437,1,0,0:0:0:0:
306,17,231516,1,0,0:0:0:0:
306,17,231594,6,0,P|257:5|223:8,1,75,2|0,0:2|0:0,0:0:0:0:
151,44,231908,2,0,P|139:91|141:124,1,75,8|2,0:0|0:2,0:0:0:0:
194,189,232223,1,2,0:2:0:0:
229,106,232380,1,0,0:0:0:0:
288,173,232537,2,0,P|307:199|316:256,1,75,8|0,0:0|0:0,0:0:0:0:
333,327,232851,6,0,L|182:344,1,150,2|8,0:2|0:0,0:0:0:0:
117,283,233322,1,2,0:2:0:0:
186,225,233479,2,0,L|266:215,2,75,2|0|8,0:2|0:0|0:0,0:0:0:0:
99,199,233950,1,0,0:0:0:0:
99,199,234029,1,0,0:0:0:0:
99,199,234107,54,0,P|68:134|70:111,1,75,2|0,0:2|0:0,0:0:0:0:
117,27,234421,2,0,P|140:57|149:94,1,75,12|2,0:0|0:2,0:0:0:0:
194,172,234736,1,2,0:2:0:0:
242,96,234893,1,0,0:0:0:0:
331,106,235050,2,0,L|414:122,1,75,12|0,0:0|0:0,0:0:0:0:
455,194,235364,5,6,0:2:0:0:
461,283,235521,1,0,0:0:0:0:
386,333,235678,2,0,P|373:291|379:246,1,75,8|2,0:0|0:2,0:0:0:0:
309,198,235992,2,0,P|252:255|248:334,1,150,2|8,0:2|0:0,0:0:0:0:
158,347,236463,1,2,0:2:0:0:
154,257,236620,6,0,L|134:181,1,75,2|0,0:2|0:0,0:0:0:0:
33,137,236935,2,0,L|52:209,1,75,8|2,0:0|0:2,0:0:0:0:
87,373,237249,2,0,L|157:347,1,75,2|2,0:2|0:2,0:0:0:0:
224,231,237563,2,0,L|154:257,1,75,8|2,0:0|0:2,0:0:0:0:
261,314,237877,54,0,B|295:325|295:325|345:283|426:316,1,150,2|8,0:2|0:0,0:0:0:0:
489,332,238348,1,2,0:2:0:0:
464,245,238505,1,2,0:2:0:0:
494,160,238662,2,0,L|503:116,2,37.5,0|0|8,0:0|0:0|0:0,0:0:0:0:
405,178,238976,1,2,0:2:0:0:
315,177,239133,6,0,B|286:148|286:148|275:100,1,75,2|0,0:2|0:0,0:0:0:0:
301,26,239448,1,8,0:0:0:0:
368,85,239605,1,2,0:2:0:0:
279,114,239762,2,0,L|180:97,1,75,2|0,0:2|3:0,0:0:0:0:
174,69,239997,1,0,3:0:0:0:
174,69,240076,2,0,P|119:62|84:69,1,75,12|0,0:0|0:0,0:0:0:0:
64,204,240390,6,0,P|129:238|198:215,1,150,6|12,0:2|0:0,0:0:0:0:
240,133,240861,1,2,0:2:0:0:
174,69,241018,2,0,P|146:102|139:151,2,75,2|0|12,0:2|0:0|0:0,0:0:0:0:
310,33,241490,53,0,0:0:0:0:
310,33,241568,1,0,0:0:0:0:
310,33,241647,2,0,P|349:28|395:54,1,75
445,140,241961,2,0,L|351:129,1,75,12|0,0:0|0:0,0:0:0:0:
281,142,242275,1,2,0:2:0:0:
268,231,242432,1,0,0:0:0:0:
255,320,242589,1,12,0:0:0:0:
255,320,242903,6,0,P|334:337|400:304,1,150,2|12,0:2|0:0,0:0:0:0:
366,223,243374,1,2,0:2:0:0:
268,231,243531,2,0,P|170:209|141:159,1,150,2|12,0:2|0:0,0:0:0:0:
70,120,244003,1,0,0:0:0:0:
70,120,244081,1,0,0:0:0:0:
70,120,244160,6,0,L|53:198,1,75,2|0,0:2|0:0,0:0:0:0:
124,329,244474,2,0,L|106:252,1,75,12|2,0:0|0:2,0:0:0:0:
18,270,244788,1,2,0:2:0:0:
33,358,244945,1,0,0:0:0:0:
124,329,245102,2,0,L|218:307,1,75,12|0,0:0|0:0,0:0:0:0:
268,257,245416,53,6,0:2:0:0:
348,298,245573,1,0,0:0:0:0:
348,208,245730,2,0,L|359:112,1,75,12|2,0:0|0:2,0:0:0:0:
452,225,246044,2,0,P|458:293|418:373,1,150,2|12,0:2|0:0,0:0:0:0:
334,370,246516,1,2,0:2:0:0:
273,303,246673,6,0,L|177:309,1,75,2|0,0:2|0:0,0:0:0:0:
59,220,246987,2,0,L|133:215,1,75,12|2,0:0|0:2,0:0:0:0:
120,373,247301,2,0,L|113:294,1,75,2|0,0:2|0:0,0:0:0:0:
213,156,247615,2,0,L|219:230,1,75,12|0,0:0|0:0,0:0:0:0:
302,264,247929,6,0,L|316:198,2,37.5,8|8|0,0:0|0:0|0:0,0:0:0:0:
227,314,248243,1,8,0:3:0:0:
311,346,248401,2,0,L|357:331,2,37.5,8|8|2,0:0|0:0|0:2,0:0:0:0:
227,314,248715,1,0,0:0:0:0:
140,338,248872,2,0,P|95:331|57:309,1,75,12|0,0:0|0:0,0:0:0:0:
35,234,249186,53,2,0:2:0:0:
135,173,249343,2,0,L|128:249,1,75,12|12,0:0|0:0,0:0:0:0:
214,223,249657,1,0,0:0:0:0:
214,223,249814,2,0,L|221:135,1,75,8|0,0:0|0:0,0:0:0:0:
223,58,250128,1,8,0:0:0:0:
223,58,250285,1,0,0:0:0:0:
147,115,250442,6,0,P|72:125|13:70,1,150,6|8,0:2|0:0,0:0:0:0:
98,39,250914,1,0,0:0:0:0:
223,58,251071,2,0,P|285:89|310:109,1,75,8|0,0:0|0:0,0:0:0:0:
378,78,251385,2,0,P|416:128|428:157,1,75,8|0,0:0|0:0,0:0:0:0:
332,268,251699,6,0,P|370:223|469:231,1,150,6|8,0:2|0:0,0:0:0:0:
416,303,252170,1,0,0:0:0:0:
339,350,252327,2,0,L|250:358,1,75,8|0,0:0|0:0,0:0:0:0:
178,243,252641,2,0,L|252:236,1,75,8|0,0:0|0:0,0:0:0:0:
121,339,252955,54,0,B|117:292|117:292|94:248|94:248|88:189,1,150,6|8,0:2|0:0,0:0:0:0:
116,109,253427,1,0,0:0:0:0:
184,167,253584,1,8,0:0:0:0:
238,95,253741,1,0,0:0:0:0:
301,158,253898,2,0,L|311:234,1,75,8|0,0:0|0:0,0:0:0:0:
341,316,254212,6,0,L|390:333,3,37.5,2|0|0|0,3:2|3:0|3:0|3:0,0:0:0:0:
421,323,254526,2,0,L|470:299,3,37.5,12|0|0|0,3:1|3:0|3:0|3:0,0:0:0:0:
483,271,254840,2,0,P|502:203|501:177,1,75,8|0,3:1|3:0,0:0:0:0:
425,114,255154,2,0,P|406:182|407:208,1,75,12|0,3:1|3:0,0:0:0:0:
494,76,255469,6,0,L|338:83,1,150,6|8,0:2|0:0,0:0:0:0:
263,133,255940,1,0,0:0:0:0:
184,87,256097,2,0,P|150:90|105:127,1,75,8|0,0:0|0:0,0:0:0:0:
181,179,256411,1,8,0:0:0:0:
181,179,256568,1,0,0:0:0:0:
104,32,256725,54,0,P|41:90|52:156,1,150,6|8,0:2|0:0,0:0:0:0:
33,236,257196,1,0,0:0:0:0:
111,281,257353,2,0,P|159:295|192:318,1,75,8|0,0:0|0:0,0:0:0:0:
294,358,257668,2,0,P|268:322|258:275,1,75,8|0,0:0|0:0,0:0:0:0:
260,204,257982,6,0,L|296:171,3,37.5,6|0|0|0,3:2|3:0|3:0|3:0,0:0:0:0:
329,162,258296,2,0,L|383:163,3,37.5,4|0|0|0,3:2|3:0|3:0|3:0,0:0:0:0:
410,171,258610,2,0,L|448:198,3,37.5,0|0|0|0,3:0|3:0|3:0|3:0,0:0:0:0:
470,226,258924,2,0,P|465:283|458:309,1,75,0|0,3:0|3:0,0:0:0:0:
378,336,259238,5,6,0:2:0:0:
288,323,259395,1,2,0:2:0:0:
198,311,259552,1,2,0:2:0:0:
86,287,260495,6,0,B|65:237|80:177|80:177|111:137,1,150,6|10,0:2|0:0,0:0:0:0:
192,135,260966,1,0,0:0:0:0:
244,207,261123,2,2,P|210:224|158:216,1,75,2|0,0:0|0:0,0:0:0:0:
276,120,261437,1,8,0:0:0:0:
276,120,261594,6,2,L|436:134,1,150
480,61,262065,2,0,P|445:39|399:24,1,75,8|2,0:0|0:0,0:0:0:0:
323,21,262380,2,2,P|278:24|228:55,1,75,2|2,0:2|0:0,0:0:0:0:
177,87,262694,1,10,0:0:0:0:
90,112,262851,1,0,0:0:0:0:
90,112,262929,1,0,0:0:0:0:
90,112,263008,70,0,B|52:111|52:111|21:88,1,75,2|0,0:2|0:0,0:0:0:0:
86,26,263322,1,10,0:0:0:0:
177,87,263479,2,0,B|209:149|170:203|170:203|126:177,1,150,2|2,0:2|0:2,0:0:0:0:
276,127,263950,1,2,0:2:0:0:
276,127,264029,1,2,0:2:0:0:
276,127,264107,6,2,P|359:118|421:144,1,150,10|2,0:0|0:0,0:0:0:0:
323,220,264579,2,2,L|235:239,1,75,10|0,0:0|0:0,0:0:0:0:
276,127,264893,2,2,L|256:52,1,75
348,3,265207,2,0,L|346:89,1,75,12|0,0:0|0:0,0:0:0:0:
185,149,265521,70,0,B|157:93|202:46|175:-4,1,150,6|8,0:2|0:0,0:0:0:0:
88,11,265992,1,0,0:0:0:0:
47,91,266149,2,0,L|37:174,1,75,0|0,0:0|0:0,0:0:0:0:
28,254,266463,2,0,P|69:284|106:288,1,75,8|0,0:0|0:0,0:0:0:0:
176,258,266777,5,0,0:0:0:0:
108,197,266935,1,2,0:2:0:0:
193,168,267092,2,2,P|216:130|216:80,1,75,10|2,0:0|0:0,0:0:0:0:
195,13,267406,1,2,0:0:0:0:
106,30,267563,1,2,0:2:0:0:
61,108,267720,2,2,L|160:105,1,75,10|2,0:0|0:2,0:0:0:0:
276,44,268034,70,0,L|327:53,3,37.5,2|0|0|0,0:0|0:0|0:0|0:0,0:0:0:0:
355,65,268348,2,0,L|396:104,3,37.5,10|0|0|0,0:0|0:0|0:0|0:0,0:0:0:0:
408,127,268662,2,2,P|423:176|415:223,1,75,2|4,0:0|0:0,0:0:0:0:
300,278,268976,1,2,0:0:0:0:
300,278,269055,1,0,0:0:0:0:
300,278,269133,6,0,B|263:224|299:181|299:181|356:179,1,150,6|2,0:2|0:2,0:0:0:0:
206,208,269605,2,0,L|155:206,3,37.5,2|0|0|0,0:2|0:0|0:0|0:0,0:0:0:0:
123,204,269919,2,0,L|82:154,3,37.5,2|0|2|0,0:2|0:0|0:2|0:0,0:0:0:0:
83,132,270233,2,0,L|95:81,3,37.5,2|0|0|0,0:0|0:0|0:0|0:0,0:0:0:0:
123,63,270547,70,0,P|168:71|198:91,1,75,6|2,0:2|0:0,0:0:0:0:
275,120,270861,1,10,0:0:0:0:
293,31,271018,1,0,0:0:0:0:
362,87,271175,2,2,P|388:141|373:248,1,150,2|8,0:0|0:0,0:0:0:0:
298,263,271647,1,2,0:0:0:0:
367,319,271804,6,0,L|459:313,1,75,0|2,0:0|0:0,0:0:0:0:
457,225,272118,2,2,L|382:229,1,75,10|0,0:0|0:0,0:0:0:0:
309,175,272432,1,2,0:0:0:0:
223,202,272589,1,0,0:0:0:0:
191,286,272746,2,2,P|239:320|267:323,1,75,10|0,0:0|0:0,0:0:0:0:
223,202,273060,70,0,L|126:215,2,75,0|2|10,0:0|0:0|0:0,0:0:0:0:
281,133,273531,1,0,0:0:0:0:
357,180,273688,1,2,0:0:0:0:
301,251,273846,2,0,P|289:301|290:333,1,75
398,259,274160,6,2,L|423:99,1,150,10|0,0:0|0:0,0:0:0:0:
370,36,274631,2,0,P|339:68|328:112,1,75,12|2,0:0|0:0,0:0:0:0:
286,175,274945,1,0,0:0:0:0:
219,113,275102,1,0,0:0:0:0:
219,113,275181,1,0,0:0:0:0:
219,113,275259,2,2,P|177:102|117:106,1,75,10|0,0:0|0:0,0:0:0:0:
62,135,275573,69,6,0:2:0:0:
116,206,275730,2,0,L|158:209,2,37.5,0|0|10,0:0|0:0|0:0,0:0:0:0:
29,231,276044,1,0,0:0:0:0:
70,311,276202,1,0,0:0:0:0:
157,289,276359,2,0,L|202:289,2,37.5,0|0|10,0:0|0:0|0:0,0:0:0:0:
166,378,276673,1,0,0:0:0:0:
253,357,276830,5,0,0:0:0:0:
306,224,276987,2,0,P|234:228|194:288,1,150,0|0,0:0|0:0,0:0:0:0:
306,224,277458,2,2,B|321:185|321:185|323:142,1,75,0|2,0:0|0:0,0:0:0:0:
257,57,277772,2,0,B|242:96|242:96|240:139,1,75,12|0,0:0|0:0,0:0:0:0:
170,190,278086,54,0,L|157:144,3,37.5,6|0|0|0,3:2|3:0|3:0|3:0,0:0:0:0:
137,114,278401,2,0,L|103:83,3,37.5,6|0|0|0,3:2|3:0|3:0|3:0,0:0:0:0:
65,77,278715,2,0,L|-16:68,1,75,12|12,0:0|0:0,0:0:0:0:
70,229,279186,1,10,0:0:0:0:
70,229,279264,1,0,0:0:0:0:
70,229,279343,70,0,L|100:267,3,37.5,0|0|0|0,3:0|3:0|3:0|3:0,0:0:0:0:
133,278,279657,2,0,L|186:286,3,37.5,12|0|0|0,3:1|3:0|3:0|3:0,0:0:0:0:
215,278,279971,2,0,L|295:249,1,75,12|12,0:0|0:0,0:0:0:0:
356,87,280442,1,10,0:0:0:0:
356,87,280521,1,0,0:0:0:0:
356,87,280599,70,0,L|335:133,3,37.5,0|0|0|0,3:0|3:0|3:0|3:0,0:0:0:0:
341,166,280914,2,0,L|366:211,3,37.5,6|0|0|0,3:2|3:0|3:0|3:0,0:0:0:0:
399,219,281228,2,0,L|499:230,1,75,12|12,0:0|0:0,0:0:0:0:
273,54,281699,69,6,0:2:0:0:
256,192,281856,12,4,285429,2:0:0:0:
256,192,285547,12,4,289186,3:0:0:0:
