osu file format v14

[General]
AudioFilename: 07. .mp3
AudioLeadIn: 0
PreviewTime: 88898
Countdown: 0
SampleSet: Normal
StackLeniency: 0.5
Mode: 0
LetterboxInBreaks: 1
WidescreenStoryboard: 0

[Editor]
Bookmarks: 99971,124631,128401,215259,219500
DistanceSpacing: 1.2
BeatDivisor: 4
GridSize: 4
TimelineZoom: 1.6

[Metadata]
Title:Tsukitourou
TitleUnicode:月燈籠
Artist:Camellia feat. Nanahira
ArtistUnicode:かめりあ feat. ななひら
Creator:jonathanlfj
Version:Advanced
Source:
Tags:ErunamoJAZZ Raose Nyquill yf_bmp moon lantern かめるかめりあ×Confetto りぷれい!Replay!
BeatmapID:1092064
BeatmapSetID:383147

[Difficulty]
HPDrainRate:4.5
CircleSize:3.5
OverallDifficulty:5.3
ApproachRate:6.3
SliderMultiplier:1.3
SliderTickRate:1

[Events]
//Background and Video events
0,0,"tsuki.jpg",0,0
//Break Periods
2,124831,127351
2,215459,219281
//Storyboard Layer 0 (Background)
//Storyboard Layer 1 (Fail)
//Storyboard Layer 2 (Pass)
//Storyboard Layer 3 (Foreground)
//Storyboard Sound Samples

[TimingPoints]
-866,314.13612565445,4,2,1,50,1,0
2903,-125,4,2,1,50,0,0
3688,-125,4,1,1,60,0,0
4160,-111.111111111111,4,1,1,60,0,0
14212,-111.111111111111,4,1,1,65,0,0
24264,-100,4,1,1,70,0,0
44212,-111.111111111111,4,1,1,60,0,0
49395,-100,4,1,1,65,0,0
54264,-111.111111111111,4,1,1,65,0,0
59448,-100,4,1,1,65,0,0
64474,-111.111111111111,4,1,1,60,0,0
72013,-100,4,1,1,70,0,0
74526,-111.111111111111,4,1,1,65,0,0
79552,-100,4,1,1,70,0,0
84579,-90.9090909090909,4,1,1,75,0,0
88191,-125,4,2,1,40,0,0
88976,-100,4,3,1,70,0,0
89605,-90.9090909090909,4,1,1,80,0,1
109709,-100,4,1,1,60,0,1
110966,-90.9090909090909,4,1,1,70,0,1
112223,-83.3333333333333,4,1,1,80,0,1
113479,-83.3333333333333,4,1,1,80,0,0
114421,-90.9090909090909,4,1,1,70,0,0
114736,-100,4,1,1,70,0,0
128401,-100,4,1,1,65,0,0
134683,-111.111111111111,4,1,1,70,0,0
139866,-100,4,1,1,65,0,0
144893,-111.111111111111,4,1,1,60,0,0
152432,-100,4,1,1,65,0,0
154945,-111.111111111111,4,1,1,65,0,0
159971,-100,4,1,1,65,0,0
164997,-90.9090909090909,4,1,1,75,0,0
167825,-83.3333333333333,4,1,1,75,0,0
168610,-125,4,2,1,40,0,0
169395,-125,4,2,1,70,0,0
170024,-90.9090909090909,4,1,1,80,0,1
190128,-100,4,1,1,60,0,1
191385,-90.9090909090909,4,1,1,70,0,1
192641,-83.3333333333333,4,1,1,80,0,1
193898,-83.3333333333333,4,1,1,80,0,0
194526,-100,4,2,1,70,0,0
195154,-111.111111111111,4,1,1,60,0,0
205207,-111.111111111111,4,1,1,65,0,0
220285,-125,4,1,1,50,0,0
222798,-100,4,1,1,55,0,0
223427,-100,4,1,1,60,0,0
224055,-100,4,1,1,65,0,0
224683,-100,4,1,1,70,0,0
225312,-90.9090909090909,4,1,1,75,0,0
227196,-83.3333333333333,4,1,1,75,0,0
227825,-125,4,1,1,40,0,0
229709,-125,4,1,1,20,0,0
230338,-90.9090909090909,4,1,1,80,0,1
250442,-100,4,1,1,60,0,1
251699,-90.9090909090909,4,1,1,70,0,1
252955,-83.3333333333333,4,1,1,80,0,1
254212,-90.9090909090909,4,1,1,80,0,1
255469,-100,4,1,1,60,0,1
256725,-90.9090909090909,4,1,1,70,0,1
257982,-83.3333333333333,4,1,1,80,0,1
259238,-83.3333333333333,4,1,1,80,0,0
260181,-100,4,1,1,70,0,0
278086,-100,4,1,1,60,0,0
279186,-90.9090909090909,4,1,1,70,0,0
280442,-83.3333333333333,4,1,1,80,0,0
281542,-125,4,1,1,80,0,0
281856,-100,4,1,1,50,0,0

[Colours]
Combo1 : 86,54,54
Combo2 : 232,0,0
Combo3 : 254,84,35
Combo4 : 254,175,12
Combo5 : 255,66,222
Combo6 : 170,29,254

[HitObjects]
168,338,2903,85,2,0:3:0:0:
268,250,3217,1,2,0:3:0:0:
372,162,3531,2,0,L|440:174,2,52,2|0|8,0:3|0:0|0:0,0:0:0:0:
268,250,4160,54,0,L|192:238,1,58.4999982147217,6|2,0:2|0:2,0:0:0:0:
136,228,4474,1,2,0:2:0:0:
136,228,6044,1,0,2:0:0:0:
172,160,6202,2,0,P|180:116|176:88,1,58.4999982147217,0|8,0:0|0:0,0:0:0:0:
320,44,6673,6,0,P|328:88|340:116,1,58.4999982147217,6|2,0:2|0:2,0:0:0:0:
392,152,6987,1,2,0:2:0:0:
392,152,7929,2,0,L|464:144,2,58.4999982147217,8|0|0,0:0|0:0|0:0,0:0:0:0:
340,208,8401,2,0,L|272:204,2,58.4999982147217,8|0|8,0:0|0:0|0:0,0:0:0:0:
396,260,8872,2,0,P|396:288|380:324,1,58.4999982147217,0|8,0:0|0:0,0:0:0:0:
316,344,9186,70,0,B|288:336|288:336|252:336,1,58.4999982147217,6|2,0:2|0:2,0:0:0:0:
188,364,9500,1,2,0:2:0:0:
188,364,11071,2,0,P|168:328|164:280,2,77.999997619629,0|0|0,0:0|0:0|0:0,0:0:0:0:
264,296,11699,6,0,L|272:236,1,58.4999982147217,6|8,0:2|0:0,0:0:0:0:
284,164,12013,1,8,0:0:0:0:
424,108,12327,2,0,L|436:172,1,58.4999982147217,6|8,0:2|0:0,0:0:0:0:
448,240,12641,1,8,0:0:0:0:
328,336,12955,1,6,0:2:0:0:
264,296,13113,2,0,L|212:300,2,29.2499991073609,8|0|8,0:0|0:0|0:0,0:0:0:0:
332,260,13427,2,0,B|360:208|336:148|336:148|300:144|276:160,1,175.499994644165,2|12,0:2|0:1,0:0:0:0:
164,260,14212,70,0,P|116:252|88:236,1,58.4999982147217,2|2,0:2|0:2,0:0:0:0:
56,192,14526,1,8,0:0:0:0:
169,91,14840,2,0,P|226:66|283:65,2,116.999996429443,0|8|2,3:0|0:0|0:2,0:0:0:0:
56,192,15783,1,8,0:0:0:0:
160,304,16097,2,0,L|228:292,1,58.4999982147217,0|0,3:0|3:0,0:0:0:0:
294,293,16411,2,0,L|352:304,1,58.4999982147217,8|0,0:0|0:0,0:0:0:0:
412,256,16725,6,0,P|400:208|400:188,1,58.4999982147217,2|2,0:2|0:2,0:0:0:0:
424,128,17039,1,8,0:0:0:0:
292,56,17353,2,0,B|263:52|236:61|236:61|208:70|176:68,2,116.999996429443,0|8|2,3:0|0:0|0:2,0:0:0:0:
424,128,18296,1,8,0:0:0:0:
276,160,18610,2,0,P|268:204|272:224,1,58.4999982147217,2|0,0:2|0:0,0:0:0:0:
203,253,18924,2,0,P|235:285|259:293,1,58.4999982147217,12|0,0:0|0:0,0:0:0:0:
320,276,19238,70,0,P|368:268|392:272,1,58.4999982147217,2|2,0:2|0:2,0:0:0:0:
448,300,19552,1,8,0:0:0:0:
352,180,19866,2,0,L|360:52,2,116.999996429443,2|8|2,0:2|0:0|0:2,0:0:0:0:
246,289,20809,1,8,0:0:0:0:
108,224,21123,2,0,L|100:160,1,58.4999982147217,0|0,0:0|0:0,0:0:0:0:
152,108,21437,1,12,0:0:0:0:
176,260,21751,6,0,P|140:296|72:292,1,116.999996429443,6|0,0:2|0:0,0:0:0:0:
108,224,22223,1,8,0:0:0:0:
171,182,22380,2,0,L|239:190,1,58.4999982147217,8|8,0:0|0:0,0:0:0:0:
282,242,22694,2,0,L|348:234,1,58.4999982147217,8|8,0:0|0:0,0:0:0:0:
393,180,23008,70,0,B|344:229|368:286|368:286|397:302|405:329,1,175.499994644165,0|2,0:0|0:2,0:0:0:0:
333,355,23636,2,0,B|275:372|222:335|222:335|195:353|165:350,1,175.499994644165,2|2,0:2|0:2,0:0:0:0:
176,272,24264,6,2,P|192:212|160:136,1,130,6|10,0:2|0:0,0:0:0:0:
40,64,24893,1,2,0:0:0:0:
80,216,25207,1,8,0:0:0:0:
80,216,25364,2,2,P|56:280|0:324,2,130,2|0|2,0:0|0:0|0:0,0:0:0:0:
61,140,26149,2,0,P|99:141|127:153,1,65,0|2,0:0|0:0,0:0:0:0:
160,220,26463,1,10,0:0:0:0:
268,332,26777,70,2,B|344:364|344:364|396:348,1,130,0|8,0:0|0:0,0:0:0:0:
496,236,27406,1,2,0:0:0:0:
348,280,27720,1,0,0:0:0:0:
348,280,27877,2,2,L|220:220,1,130,10|2,0:0|0:0,0:0:0:0:
160,192,28348,1,12,0:0:0:0:
300,124,28662,2,0,L|368:92,2,65,2|0|12,0:0|0:0|0:0,0:0:0:0:
144,116,29291,6,2,P|72:88|0:116,1,130,6|10,0:2|0:0,0:0:0:0:
68,248,29919,2,0,P|140:276|212:248,1,130,2|8,0:0|0:0,0:0:0:0:
236,200,30390,2,2,L|247:347,2,130,2|0|2,0:0|0:0|0:0,0:0:0:0:
276,132,31175,2,0,L|285:62,2,65,0|2|10,0:0|0:0|0:0,0:0:0:0:
372,256,31804,69,0,0:0:0:0:
432,112,32118,1,10,0:0:0:0:
276,132,32432,1,2,0:0:0:0:
420,192,32746,1,10,0:0:0:0:
420,192,32903,2,0,P|484:172|512:108,1,130,12|2,0:0|0:2,0:0:0:0:
432,112,33374,2,0,P|368:132|340:196,1,130,12|2,0:0|0:2,0:0:0:0:
372,256,33846,1,2,0:2:0:0:
332,324,34003,2,0,P|296:336|260:336,1,65,12|0,0:0|0:0,0:0:0:0:
208,288,34317,6,2,B|169:282|169:282|124:296|108:344,2,130,6|8|2,0:2|0:0|0:0,0:0:0:0:
328,188,35259,1,10,0:0:0:0:
328,188,35416,2,0,P|347:135|328:56,1,130,2|2,0:0|0:0,0:0:0:0:
264,32,35887,2,2,P|228:44|128:28,1,130,8|0,0:0|0:0,0:0:0:0:
80,84,36359,2,0,L|84:152,1,65,2|12,0:0|0:0,0:0:0:0:
160,284,36830,70,2,P|204:260|292:272,1,130,0|10,0:0|0:0,0:0:0:0:
424,336,37458,1,2,0:0:0:0:
484,192,37772,1,2,0:0:0:0:
484,192,37929,2,2,P|460:136|400:88,1,130,10|2,0:0|0:0,0:0:0:0:
336,116,38401,2,0,P|301:130|260:127,1,65,4|2,0:0|0:0,0:0:0:0:
289,55,38715,2,0,P|323:40|364:43,1,65,0|0,0:0|0:0,0:0:0:0:
408,91,39029,1,12,0:0:0:0:
308,212,39343,6,2,P|248:212|184:152,1,130,6|10,0:2|0:0,0:0:0:0:
60,248,39971,2,0,P|36:184|48:116,1,130,2|10,0:0|0:0,0:0:0:0:
100,68,40442,2,2,B|168:80|168:80|235:57,1,130,2|2,0:0|0:0,0:0:0:0:
292,16,40914,2,0,B|304:48|304:48|304:92,1,65,8|2,0:0|0:0,0:0:0:0:
372,116,41228,2,0,B|404:120|404:120|440:108,2,65,2|2|12,0:0|0:0|0:0,0:0:0:0:
236,192,41856,70,0,B|227:226|227:226|232:268,1,65,2|0,3:2|3:0,0:0:0:0:
296,300,42170,2,0,L|336:304,2,32.5,2|0|0,3:2|3:0|3:0,0:0:0:0:
224,332,42484,1,12,0:0:0:0:
160,288,42641,2,0,L|24:308,1,130,12|6,0:0|0:2,0:0:0:0:
76,156,43270,1,12,0:0:0:0:
76,156,43427,1,2,0:2:0:0:
160,288,43741,1,12,0:0:0:0:
212,228,43898,2,0,L|292:216,1,65,2|8,0:2|0:0,0:0:0:0:
344,256,44212,6,0,P|384:224|392:156,1,116.999996429443,6|0,0:2|0:0,0:0:0:0:
340,108,44683,2,0,P|404:128|460:84,1,116.999996429443,8|0,0:0|0:0,0:0:0:0:
392,52,45154,2,0,P|352:32|324:32,1,58.4999982147217,0|8,0:0|0:0,0:0:0:0:
273,71,45469,2,0,B|217:91|217:91|141:83,1,116.999996429443,2|0,0:2|0:0,0:0:0:0:
84,76,45940,1,8,0:0:0:0:
68,228,46254,2,0,L|144:212,1,58.4999982147217,0|0,0:0|0:0,0:0:0:0:
200,232,46568,1,8,0:0:0:0:
276,248,46725,70,0,L|400:220,1,116.999996429443,0|0,0:0|0:0,0:0:0:0:
432,160,47196,2,0,P|456:184|464:220,2,58.4999982147217,8|0|0,0:0|0:0|0:0,0:0:0:0:
356,152,47668,2,0,P|328:96|332:24,1,116.999996429443,0|8,0:0|0:0,0:0:0:0:
208,140,48296,1,0,0:0:0:0:
208,140,48453,2,0,P|236:196|232:268,1,116.999996429443,8|0,0:0|0:0,0:0:0:0:
192,312,48924,2,0,L|236:332,2,29.2499991073609,0|0|8,0:0|0:0|0:0,0:0:0:0:
48,248,49395,5,6,0:2:0:0:
180,168,49709,1,8,0:0:0:0:
36,104,50024,2,0,L|44:192,1,65,2|0,0:2|0:0,0:0:0:0:
48,248,50338,1,8,0:0:0:0:
116,288,50495,2,0,P|188:252|248:268,1,130,2|2,0:2|0:2,0:0:0:0:
288,316,50966,2,0,L|340:276,1,65,8|0,0:0|0:0,0:0:0:0:
404,320,51280,2,0,L|440:252,2,65,2|0|8,0:2|0:0|0:0,0:0:0:0:
320,188,51908,69,0,0:0:0:0:
476,180,52223,1,8,0:0:0:0:
404,320,52537,2,0,P|384:332|320:344,1,65,2|12,0:2|0:0,0:0:0:0:
268,324,52851,1,2,0:2:0:0:
204,280,53008,2,0,P|136:284|100:336,1,130,12|2,0:0|0:2,0:0:0:0:
36,288,53479,2,0,L|0:292,2,32.5,8|8|0,0:0|0:0|0:0,0:0:0:0:
84,228,53793,2,0,P|95:194|92:156,2,65,2|0|8,0:2|0:0|0:0,0:0:0:0:
20,184,54264,6,0,P|32:120|88:88,1,116.999996429443,6|0,0:2|0:0,0:0:0:0:
148,108,54736,1,8,0:0:0:0:
256,216,55050,1,2,0:2:0:0:
312,164,55207,2,0,P|320:128|320:92,1,58.4999982147217,0|8,0:0|0:0,0:0:0:0:
268,52,55521,2,0,P|336:72|396:40,1,116.999996429443,2|0,0:2|0:0,0:0:0:0:
436,104,55992,2,0,L|420:232,1,116.999996429443,8|0,0:0|0:0,0:0:0:0:
376,280,56463,2,0,P|336:260|296:256,1,58.4999982147217,0|8,0:0|0:0,0:0:0:0:
248,276,56777,70,0,P|184:296|132:288,1,116.999996429443,0|0,0:0|0:0,0:0:0:0:
76,240,57249,2,0,L|68:168,2,58.4999982147217,8|0|0,0:0|0:0|0:0,0:0:0:0:
64,316,57720,1,0,0:0:0:0:
164,200,58034,2,0,L|184:68,1,116.999996429443,2|0,0:2|0:0,0:0:0:0:
128,32,58505,2,0,B|184:48|184:48|264:40,1,116.999996429443,8|0,0:0|0:0,0:0:0:0:
288,104,58976,2,0,L|332:100,2,29.2499991073609,0|0|8,0:0|0:0|0:0,0:0:0:0:
164,200,59448,6,0,P|160:252|168:280,1,65,6|0,0:2|0:0,0:0:0:0:
216,320,59762,1,8,0:0:0:0:
340,224,60076,2,0,P|344:172|336:144,1,65,2|0,0:2|0:0,0:0:0:0:
288,104,60390,1,8,0:0:0:0:
164,200,60704,2,0,P|100:212|24:172,1,130,0|8,0:2|0:0,0:0:0:0:
4,120,61175,2,0,L|12:48,1,65,0|2,0:0|0:2,0:0:0:0:
88,44,61490,2,0,L|120:120,1,65,0|8,0:0|0:0,0:0:0:0:
192,92,61804,70,0,P|240:64|316:72,1,130,2|2,0:2|0:2,0:0:0:0:
360,132,62275,2,0,L|432:136,2,65,8|0|2,0:0|0:0|0:2,0:0:0:0:
304,184,62746,1,12,0:0:0:0:
348,248,62903,2,0,L|420:252,1,65,2|12,0:2|0:0,0:0:0:0:
448,320,63217,2,0,P|400:368|320:364,1,130,0|8,0:0|0:0,0:0:0:0:
276,328,63688,1,0,0:0:0:0:
216,276,63846,2,0,L|232:128,1,130,2|8,0:2|0:0,0:0:0:0:
240,68,64317,1,12,0:0:0:0:
300,116,64474,6,0,L|368:124,2,58.4999982147217,6|2|2,0:2|0:2|0:2,0:0:0:0:
229,146,64945,1,2,0:2:0:0:
229,146,65102,1,8,0:0:0:0:
312,276,65416,1,2,0:2:0:0:
312,276,65573,1,2,0:2:0:0:
420,168,65887,1,2,0:2:0:0:
420,168,66044,2,0,P|432:104|400:56,1,116.999996429443,2|8,0:2|0:0,0:0:0:0:
332,44,66516,2,0,L|264:52,1,58.4999982147217,8|2,0:0|0:2,0:0:0:0:
176,164,66987,70,0,L|96:152,2,58.4999982147217,2|2|2,0:2|0:2|0:2,0:0:0:0:
224,224,67458,1,2,0:2:0:0:
228,228,67615,1,8,0:0:0:0:
344,128,67929,1,2,0:2:0:0:
344,128,68086,1,2,0:2:0:0:
364,280,68401,1,2,0:2:0:0:
364,280,68558,1,2,0:2:0:0:
248,376,68872,2,0,P|208:376|152:360,2,77.999997619629,12|12|12,0:0|0:0|0:0,0:0:0:0:
220,280,69500,6,0,P|220:240|240:204,2,58.4999982147217,2|2|2,0:2|0:2|0:2,0:0:0:0:
292,260,69971,1,2,0:2:0:0:
296,256,70128,1,8,0:0:0:0:
160,184,70442,1,2,0:2:0:0:
164,180,70599,1,2,0:2:0:0:
312,144,70914,1,2,0:2:0:0:
312,144,71071,2,0,P|332:92|308:24,1,116.999996429443,2|8,0:2|0:0,0:0:0:0:
244,12,71542,2,0,L|180:24,1,58.4999982147217,0|12,0:0|0:0,0:0:0:0:
84,140,72013,70,0,L|4:132,2,65,6|8|0,0:2|0:0|0:0,0:0:0:0:
144,192,72484,2,0,P|184:156|276:172,1,130,2|8,0:2|0:0,0:0:0:0:
310,215,72955,1,0,0:0:0:0:
388,220,73113,2,0,P|436:176|432:100,1,130,6|8,0:2|0:0,0:0:0:0:
388,56,73584,1,0,0:0:0:0:
312,36,73741,2,0,B|256:60|256:60|176:52,1,130,6|0,0:2|0:0,0:0:0:0:
128,104,74212,1,0,0:0:0:0:
260,176,74526,6,0,L|324:180,2,58.4999982147217,2|2|8,0:2|0:2|0:0,0:0:0:0:
192,212,74997,1,2,0:2:0:0:
192,212,75154,1,2,0:2:0:0:
252,72,75469,1,8,0:0:0:0:
252,72,75626,1,2,0:2:0:0:
404,92,75940,1,2,0:2:0:0:
404,92,76097,1,8,0:0:0:0:
428,244,76411,2,0,L|360:284,1,58.4999982147217,0|0,0:0|0:0,0:0:0:0:
308,308,76725,1,12,0:0:0:0:
184,220,77039,70,0,P|154:212|109:219,2,58.4999982147217,2|2|8,0:2|0:2|0:0,0:0:0:0:
148,288,77510,1,2,0:2:0:0:
152,292,77668,1,2,0:2:0:0:
28,196,77982,1,8,0:0:0:0:
28,196,78139,1,2,0:2:0:0:
168,132,78453,1,2,0:2:0:0:
168,132,78610,1,8,0:0:0:0:
36,60,78924,2,0,L|32:132,1,58.4999982147217,0|0,0:0|0:0,0:0:0:0:
28,196,79238,1,12,0:0:0:0:
156,287,79552,6,0,P|188:282|216:265,1,65,6|0,0:2|0:0,0:0:0:0:
295,265,79866,2,0,P|322:281|354:287,1,65,8|0,0:0|0:0,0:0:0:0:
351,208,80181,2,0,P|323:152|336:82,1,130,8|8,0:0|0:0,0:0:0:0:
392,36,80652,1,2,0:2:0:0:
460,72,80809,2,0,P|472:112|472:152,1,65,0|0,0:0|0:0,0:0:0:0:
440,208,81123,2,0,P|436:256|444:292,1,65,8|0,0:0|0:0,0:0:0:0:
484,336,81437,2,0,P|424:324|344:344,1,130,8|8,0:0|0:0,0:0:0:0:
292,292,81908,1,2,0:2:0:0:
224,332,82065,70,0,P|176:336|144:328,2,65,0|0|8,0:0|0:0|0:0,0:0:0:0:
292,292,82537,1,0,0:0:0:0:
256,224,82694,2,0,P|260:148|292:100,1,130,8|8,0:0|0:0,0:0:0:0:
432,48,83322,1,0,0:0:0:0:
364,188,83636,1,8,0:0:0:0:
456,312,83950,1,8,0:0:0:0:
484,240,84107,2,0,L|500:196,2,32.5,0|0|12,0:0|0:0|0:0,0:0:0:0:
328,260,84579,6,0,L|248:248,1,71.5000021820069,2|2,0:2|0:2,0:0:0:0:
232,324,84893,2,0,L|312:336,1,71.5000021820069,2|2,0:2|0:2,0:0:0:0:
380,320,85207,1,2,0:2:0:0:
360,164,85521,1,2,0:2:0:0:
360,164,85678,1,2,0:2:0:0:
504,224,85992,1,2,0:2:0:0:
504,224,86149,1,2,0:2:0:0:
348,244,86463,2,0,B|336:323,1,71.5000021820069,2|2,0:2|0:2,0:0:0:0:
259,316,86777,70,0,B|271:235,1,71.5000021820069,10|10,0:0|0:0,0:0:0:0:
232,176,87092,1,10,0:0:0:0:
372,108,87406,1,10,0:0:0:0:
372,108,87563,1,10,0:0:0:0:
244,20,87877,1,10,0:0:0:0:
244,20,88034,1,10,0:0:0:0:
216,92,88191,22,0,B|172:72|168:28|168:28|136:4|84:4|56:36|56:36|68:60|100:68,1,260,2|8,0:0|0:0,0:0:0:0:
244,20,89291,1,8,0:0:0:0:
212,172,89605,6,0,P|164:208|80:220,1,143.000004364014,6|8,0:2|0:0,0:0:0:0:
40,288,90076,1,2,0:2:0:0:
40,288,90233,2,0,B|64:312|64:312|188:332,1,143.000004364014,2|8,0:2|0:0,0:0:0:0:
244,296,90704,1,0,0:0:0:0:
316,264,90861,2,0,L|392:280,2,71.5000021820069,2|0|8,0:2|0:0|0:0,0:0:0:0:
288,188,91332,1,2,0:2:0:0:
332,124,91490,2,0,B|368:108|368:108|424:120|444:172,1,143.000004364014,2|8,0:2|0:0,0:0:0:0:
288,188,92118,6,0,L|280:36,1,143.000004364014,2|8,0:2|0:0,0:0:0:0:
204,32,92589,1,2,0:2:0:0:
204,32,92746,2,0,P|144:64|64:60,1,143.000004364014,2|8,0:2|0:0,0:0:0:0:
36,132,93217,1,0,0:0:0:0:
96,184,93374,2,0,P|104:224|100:264,1,71.5000021820069,2|0,0:2|0:0,0:0:0:0:
52,316,93688,2,0,P|84:332|124:332,1,71.5000021820069,12|2,0:0|0:2,0:0:0:0:
180,284,94003,2,0,P|224:264|312:308,1,143.000004364014,2|12,0:2|0:0,0:0:0:0:
360,240,94474,1,0,0:0:0:0:
360,240,94631,6,0,L|352:156,1,71.5000021820069,6|0,0:2|0:0,0:0:0:0:
280,140,94945,2,0,L|272:56,1,71.5000021820069,8|2,0:0|0:2,0:0:0:0:
320,4,95259,1,2,0:2:0:0:
204,112,95573,1,8,0:0:0:0:
353,168,95887,2,0,B|336:200|336:200|284:228,1,71.5000021820069,2|0,0:2|0:0,0:0:0:0:
236,256,96202,1,8,0:0:0:0:
87,200,96516,2,0,B|104:168|104:168|156:140,1,71.5000021820069,2|0,0:2|0:0,0:0:0:0:
204,112,96830,2,0,B|183:84|183:84|143:72,1,71.5000021820069,8|0,0:0|0:0,0:0:0:0:
72,96,97144,53,2,0:2:0:0:
164,224,97458,1,8,0:0:0:0:
232,184,97615,2,0,L|312:180,1,71.5000021820069,2|2,0:2|0:2,0:0:0:0:
372,220,97929,2,0,L|376:260,2,35.7500010910034,0|0|8,0:0|0:0|0:0,0:0:0:0:
420,156,98243,1,2,0:2:0:0:
420,156,98401,2,0,P|420:84|376:28,1,143.000004364014,2|12,0:2|0:0,0:0:0:0:
264,140,99029,2,0,P|244:176|236:216,1,71.5000021820069,2|0,0:2|0:0,0:0:0:0:
252,284,99343,1,12,0:0:0:0:
100,328,99657,6,0,P|120:272|100:192,1,143.000004364014,6|8,0:2|0:0,0:0:0:0:
32,156,100128,1,2,0:2:0:0:
32,156,100285,2,0,B|72:168|72:168|128:160|156:116,1,143.000004364014,2|8,0:2|0:0,0:0:0:0:
156,36,100757,1,0,0:0:0:0:
80,12,100914,2,0,P|20:20|0:32,2,71.5000021820069,2|0|8,0:2|0:0|0:0,0:0:0:0:
156,36,101385,1,2,0:2:0:0:
224,76,101542,2,0,P|280:80|360:32,1,143.000004364014,2|8,0:2|0:0,0:0:0:0:
484,128,102170,6,0,B|492:176|492:176|480:224|480:224|488:272,1,143.000004364014,2|8,0:2|0:0,0:0:0:0:
496,348,102641,1,2,0:2:0:0:
496,348,102798,2,0,B|444:340|444:340|336:356,1,143.000004364014,2|8,0:2|0:0,0:0:0:0:
284,316,103270,1,0,0:0:0:0:
320,248,103427,2,0,L|424:232,2,71.5000021820069,2|0|12,0:2|0:0|0:0,0:0:0:0:
260,196,103898,1,2,0:2:0:0:
260,196,104055,2,0,B|200:204|200:204|100:184,1,143.000004364014,2|12,0:2|0:0,0:0:0:0:
72,124,104526,1,2,0:2:0:0:
116,60,104683,54,0,P|152:48|200:48,1,71.5000021820069,6|0,0:2|0:0,0:0:0:0:
252,88,104997,2,0,P|296:92|336:84,1,71.5000021820069,8|2,0:0|0:2,0:0:0:0:
384,40,105312,1,2,0:2:0:0:
332,188,105626,1,8,0:0:0:0:
472,256,105940,2,0,P|488:208|488:176,1,71.5000021820069,2|0,0:2|0:0,0:0:0:0:
468,112,106254,1,8,0:0:0:0:
332,188,106568,2,0,P|318:221|315:256,1,71.5000021820069,2|0,0:2|0:0,0:0:0:0:
335,332,106882,1,8,0:0:0:0:
188,280,107196,6,0,P|188:200|212:136,1,143.000004364014,2|8,0:2|0:0,0:0:0:0:
276,100,107668,1,0,0:0:0:0:
208,64,107825,2,0,P|176:60|128:68,1,71.5000021820069,2|0,0:2|0:0,0:0:0:0:
80,120,108139,2,0,P|84:164|80:200,1,71.5000021820069,12|0,0:0|0:0,0:0:0:0:
28,248,108453,2,0,B|64:236|96:248|96:248|132:260|168:248,1,143.000004364014,2|8,0:2|0:0,0:0:0:0:
232,204,108924,1,2,0:2:0:0:
292,252,109081,2,0,L|304:336,2,71.5000021820069,2|0|12,0:2|0:0|0:0,0:0:0:0:
268,96,109709,6,0,B|333:101|333:101|404:72,1,130,12|8,0:0|0:0,0:0:0:0:
444,136,110181,1,0,0:0:0:0:
444,136,110338,2,0,B|406:190|406:190|396:265,1,130,8|8,0:0|0:0,0:0:0:0:
244,212,110966,54,0,P|187:168|108:182,1,143.000004364014,12|8,0:0|0:0,0:0:0:0:
96,99,111437,1,0,0:0:0:0:
96,99,111594,2,0,P|160:70|188:-4,1,143.000004364014,8|8,0:0|0:0,0:0:0:0:
304,112,112223,6,0,B|472:140,1,155.999995239258,8|12,0:0|0:0,0:0:0:0:
484,212,112694,1,0,0:0:0:0:
484,212,112851,2,0,B|428:284,1,77.999997619629,8|0,0:0|0:0,0:0:0:0:
360,264,113165,2,0,L|272:248,1,77.999997619629,8|0,0:0|0:0,0:0:0:0:
208,236,113479,5,6,0:2:0:0:
208,236,113636,1,2,0:2:0:0:
208,236,113793,1,2,0:2:0:0:
208,236,114736,6,2,P|192:184|216:108,1,130,6|10,0:2|0:0,0:0:0:0:
352,40,115364,1,2,0:0:0:0:
492,112,115678,1,8,0:0:0:0:
492,112,115835,2,2,P|512:172|496:234,2,130,2|2|2,0:0|0:0|0:0,0:0:0:0:
424,72,116620,2,0,P|408:96|372:116,1,65,2|0,0:0|0:0,0:0:0:0:
300,100,116935,1,8,0:0:0:0:
196,216,117249,6,2,B|184:280|184:280|212:364,1,130,2|10,0:0|0:0,0:0:0:0:
340,264,117877,1,2,0:0:0:0:
236,148,118191,1,0,0:0:0:0:
236,148,118348,2,2,B|196:136|196:136|156:156|108:144,1,130,10|0,0:0|0:0,0:0:0:0:
52,92,118819,1,12,0:0:0:0:
204,56,119133,2,0,L|276:80,2,65,0|2|12,0:0|0:0|0:0,0:0:0:0:
52,92,119762,70,2,P|32:156|72:216,1,130,6|10,0:2|0:0,0:0:0:0:
132,348,120390,2,0,P|192:320|268:344,1,130,2|10,0:0|0:0,0:0:0:0:
312,280,120861,2,2,L|336:140,2,130,2|2|2,0:0|0:0|0:0,0:0:0:0:
360,344,121647,2,0,P|376:348|436:344,1,65,2|2,0:0|0:0,0:0:0:0:
480,292,121961,1,8,0:0:0:0:
412,152,122275,5,2,3:2:0:0:
508,28,122589,1,2,3:2:0:0:
484,184,122903,1,12,0:0:0:0:
484,184,123060,1,12,0:0:0:0:
340,120,123374,2,0,P|280:112|228:156,1,130,12|2,0:0|0:2,0:0:0:0:
300,188,123846,2,0,P|311:250|273:300,1,130,2|12,3:2|0:0,0:0:0:0:
236,232,124317,2,0,P|176:210|151:152,1,130,2|6,0:2|0:2,0:0:0:0:
184,120,128401,70,0,B|220:136|220:136|320:116,1,130,12|8,0:0|0:0,0:0:0:0:
384,144,128872,2,0,P|412:200|400:276,1,130,12|8,0:0|0:0,0:0:0:0:
344,316,129343,2,0,L|356:352,2,32.5,8|8|8,0:0|0:0|0:0,0:0:0:0:
276,280,129657,2,0,P|248:292|192:296,1,65,8|6,0:0|0:2,0:0:0:0:
76,224,130128,5,8,0:0:0:0:
192,120,130442,2,0,P|224:116|268:124,2,65,2|0|8,0:2|0:0|0:0,0:0:0:0:
136,172,130914,2,0,B|148:108|148:108|120:24,1,130,2|2,0:2|0:2,0:0:0:0:
56,16,131385,2,0,L|40:92,1,65,8|0,0:0|0:0,0:0:0:0:
60,156,131699,2,0,L|44:232,1,65,2|0,0:2|0:0,0:0:0:0:
72,292,132013,1,8,0:0:0:0:
204,212,132327,69,0,0:0:0:0:
280,348,132641,1,8,0:0:0:0:
148,268,132955,2,0,P|132:240|128:184,1,65,2|0,0:2|0:0,0:0:0:0:
168,144,133270,1,8,0:0:0:0:
204,212,133427,2,0,P|270:232|344:224,1,130,2|2,0:2|0:2,0:0:0:0:
384,172,133898,2,0,L|392:104,1,65,0|8,0:0|0:0,0:0:0:0:
468,128,134212,2,0,L|460:200,2,65,2|0|2,0:2|0:0|0:2,0:0:0:0:
448,56,134683,6,0,P|384:68|320:40,1,116.999996429443,6|0,0:2|0:0,0:0:0:0:
280,104,135154,2,0,P|248:100|212:108,1,58.4999982147217,8|0,0:0|0:0,0:0:0:0:
196,176,135469,2,0,P|228:180|264:172,2,58.4999982147217,0|0|8,0:0|0:0|0:0,0:0:0:0:
148,116,135940,1,2,0:2:0:0:
44,224,136254,1,0,0:0:0:0:
44,224,136411,2,0,L|28:352,1,116.999996429443,8|0,0:0|0:0,0:0:0:0:
104,364,136882,2,0,P|136:346|172:344,1,58.4999982147217,0|8,0:0|0:0,0:0:0:0:
232,360,137196,70,0,P|256:340|260:248,1,116.999996429443,0|0,0:0|0:0,0:0:0:0:
204,216,137668,2,0,L|212:132,2,58.4999982147217,8|0|0,0:0|0:0|0:0,0:0:0:0:
196,292,138139,1,0,0:0:0:0:
348,276,138453,2,0,B|376:272|376:272|420:184,1,116.999996429443,12|0,0:0|0:0,0:0:0:0:
476,144,138924,2,0,B|448:156|448:156|360:132,1,116.999996429443,12|8,0:0|0:0,0:0:0:0:
292,112,139395,2,0,L|304:68,2,29.2499991073609,0|0|8,0:0|0:0|0:0,0:0:0:0:
196,236,139866,6,0,P|144:240|116:232,1,65,6|0,0:2|0:0,0:0:0:0:
76,184,140181,1,8,0:0:0:0:
172,60,140495,2,0,P|224:56|252:64,1,65,2|0,0:2|0:0,0:0:0:0:
292,112,140809,1,8,0:0:0:0:
320,264,141123,2,0,P|256:264|196:236,1,130,0|8,0:0|0:0,0:0:0:0:
124,260,141594,2,0,P|108:292|104:336,1,65,0|2,0:0|0:2,0:0:0:0:
32,288,141908,2,0,P|17:268|8:228,1,65,0|8,0:0|0:0,0:0:0:0:
56,168,142223,69,0,0:0:0:0:
196,236,142537,1,2,0:2:0:0:
248,180,142694,2,0,L|256:112,2,65,8|0|2,0:0|0:0|0:2,0:0:0:0:
272,252,143165,1,12,0:0:0:0:
300,324,143322,2,0,P|344:340|368:336,1,65,0|12,0:0|0:0,0:0:0:0:
424,292,143636,2,0,P|396:228|400:160,1,130,0|8,0:0|0:0,0:0:0:0:
452,112,144107,1,8,0:0:0:0:
452,112,144264,2,0,P|392:140|312:116,1,130,2|8,0:2|0:0,0:0:0:0:
280,72,144736,1,2,0:2:0:0:
256,144,144893,6,0,L|264:212,1,58.4999982147217,6|2,0:2|0:2,0:0:0:0:
188,224,145207,2,0,L|196:292,1,58.4999982147217,2|2,0:2|0:2,0:0:0:0:
248,336,145521,1,8,0:0:0:0:
340,216,145835,1,2,0:2:0:0:
340,216,145992,1,2,0:2:0:0:
204,148,146306,1,2,0:2:0:0:
204,148,146463,2,0,P|172:92|184:36,1,116.999996429443,2|8,0:2|0:0,0:0:0:0:
248,8,146935,2,0,L|324:20,1,58.4999982147217,8|0,0:0|0:0,0:0:0:0:
392,144,147406,70,0,L|456:156,1,58.4999982147217,6|2,0:2|0:2,0:0:0:0:
452,232,147720,2,0,L|394:221,1,58.4999982147217,2|2,0:2|0:2,0:0:0:0:
328,184,148034,1,8,0:0:0:0:
436,76,148348,1,2,0:2:0:0:
436,76,148505,1,2,0:2:0:0:
288,36,148819,1,2,0:2:0:0:
288,36,148976,1,2,0:2:0:0:
328,184,149291,2,0,B|334:207|334:207|331:236|312:257,2,77.999997619629,8|0|0,0:0|3:0|3:0,0:0:0:0:
228,196,149919,6,0,P|232:156|248:120,1,58.4999982147217,6|2,0:2|0:2,0:0:0:0:
188,80,150233,2,0,P|152:92|120:92,1,58.4999982147217,2|2,0:2|0:2,0:0:0:0:
68,52,150547,1,8,0:0:0:0:
216,8,150861,1,2,0:2:0:0:
216,8,151018,1,2,0:2:0:0:
316,124,151332,1,2,0:2:0:0:
316,124,151490,2,0,B|376:136|376:136|448:108,1,116.999996429443,2|8,0:2|0:0,0:0:0:0:
484,168,151961,2,0,L|476:236,1,58.4999982147217,0|12,0:0|0:0,0:0:0:0:
332,280,152432,70,0,L|320:204,2,65,6|8|0,0:2|0:0|0:0,0:0:0:0:
400,316,152903,2,0,P|350:355|288:344,1,130,2|8,0:2|0:0,0:0:0:0:
256,276,153374,1,0,0:0:0:0:
180,256,153531,2,0,P|132:298|129:361,1,130,12|8,0:0|0:0,0:0:0:0:
52,376,154003,1,0,0:0:0:0:
16,308,154160,2,0,B|36:176,1,130,12|0,0:0|0:0,0:0:0:0:
96,128,154631,1,0,0:0:0:0:
208,212,154945,6,0,P|240:220|272:216,2,58.4999982147217,2|2|8,0:2|0:2|0:0,0:0:0:0:
244,144,155416,1,2,0:2:0:0:
244,144,155573,1,2,0:2:0:0:
308,284,155887,1,8,0:0:0:0:
308,284,156044,1,2,0:2:0:0:
156,268,156359,1,2,0:2:0:0:
156,268,156516,1,8,0:0:0:0:
296,204,156830,2,0,L|356:176,1,58.4999982147217,0|0,0:0|0:0,0:0:0:0:
416,144,157144,1,12,0:0:0:0:
312,32,157458,70,0,P|280:24|232:32,2,58.4999982147217,2|2|8,0:2|0:2|0:0,0:0:0:0:
276,100,157929,1,2,0:2:0:0:
280,104,158086,1,2,0:2:0:0:
144,32,158401,1,8,0:0:0:0:
144,32,158558,1,2,0:2:0:0:
212,168,158872,1,2,0:2:0:0:
212,168,159029,1,8,0:0:0:0:
64,128,159343,2,0,L|60:192,1,58.4999982147217,0|0,0:0|0:0,0:0:0:0:
56,264,159657,1,12,0:0:0:0:
196,336,159971,6,0,P|216:284|216:268,1,65,6|0,0:2|0:0,0:0:0:0:
295,275,160285,2,0,P|300:307|316:336,1,65,8|0,0:0|0:0,0:0:0:0:
376,284,160599,2,0,P|384:228|356:160,1,130,8|8,0:0|0:0,0:0:0:0:
284,136,161071,1,2,0:2:0:0:
344,84,161228,2,0,L|396:40,1,65,2|0,0:2|0:0,0:0:0:0:
468,72,161542,2,0,L|472:156,1,65,8|0,0:0|0:0,0:0:0:0:
444,212,161856,2,0,P|384:192|304:216,1,130,8|8,0:0|0:0,0:0:0:0:
276,272,162327,1,2,0:2:0:0:
216,320,162484,70,0,P|168:324|136:316,2,65,2|0|8,0:2|0:0|0:0,0:0:0:0:
276,272,162955,1,0,0:0:0:0:
244,200,163113,2,0,P|178:212|104:188,1,130,8|8,0:0|0:0,0:0:0:0:
184,56,163741,1,6,0:2:0:0:
312,144,164055,1,8,0:0:0:0:
416,28,164369,1,0,3:0:0:0:
268,72,164683,1,8,0:0:0:0:
388,172,164997,6,0,P|388:124|376:92,1,71.5000021820069,2|2,0:2|0:2,0:0:0:0:
312,144,165312,2,0,P|312:192|324:224,1,71.5000021820069,2|2,0:2|0:2,0:0:0:0:
388,252,165626,1,2,0:2:0:0:
480,124,165940,1,2,0:2:0:0:
480,124,166097,1,2,0:2:0:0:
356,24,166411,1,2,0:2:0:0:
356,24,166568,1,2,0:2:0:0:
236,124,166882,2,0,B|200:128|200:128|152:116,1,71.5000021820069,2|2,0:2|0:2,0:0:0:0:
156,196,167196,70,0,B|120:188|120:188|76:192,2,71.5000021820069,10|10|10,0:0|0:0|0:0,0:0:0:0:
256,336,167825,1,10,0:0:0:0:
260,332,167982,1,10,0:0:0:0:
356,196,168296,1,10,0:0:0:0:
360,192,168453,1,10,0:0:0:0:
284,168,168610,22,0,P|280:212|372:272,1,156,2|8,0:0|1:0,0:0:0:0:
427,231,169238,1,0,3:0:0:0:
431,227,169395,1,8,3:0:0:0:
332,104,169709,1,8,3:0:0:0:
212,204,170024,6,0,P|148:196|90:133,1,143.000004364014,6|8,0:2|0:0,0:0:0:0:
16,152,170495,1,2,0:2:0:0:
16,152,170652,2,0,P|8:222|40:288,1,143.000004364014,2|8,0:2|0:0,0:0:0:0:
112,312,171123,1,0,0:0:0:0:
188,296,171280,2,0,P|184:340|168:368,2,71.5000021820069,2|0|8,0:2|0:0|0:0,0:0:0:0:
168,220,171751,1,2,0:2:0:0:
244,240,171908,2,0,B|268:240|292:232|292:232|328:264|384:264,1,143.000004364014,2|8,0:2|0:0,0:0:0:0:
500,164,172537,6,0,B|496:52|496:52|476:12,1,143.000004364014,2|8,0:2|0:0,0:0:0:0:
420,72,173008,1,2,0:2:0:0:
420,72,173165,2,0,P|360:88|288:56,1,143.000004364014,2|8,0:2|0:0,0:0:0:0:
224,100,173636,1,2,0:2:0:0:
288,148,173793,2,0,P|296:188|292:228,1,71.5000021820069,2|0,0:2|0:0,0:0:0:0:
232,268,174107,2,0,P|196:266|164:250,1,71.5000021820069,12|2,0:0|0:2,0:0:0:0:
128,180,174421,2,0,L|108:328,1,143.000004364014,2|12,0:2|0:0,0:0:0:0:
32,304,174893,1,0,0:0:0:0:
32,304,175050,6,0,L|24:220,1,71.5000021820069,6|0,0:2|0:0,0:0:0:0:
56,160,175364,2,0,L|48:76,1,71.5000021820069,8|2,0:0|0:2,0:0:0:0:
4,24,175678,1,2,0:2:0:0:
132,116,175992,1,8,0:0:0:0:
256,20,176306,2,0,B|328:64,1,71.5000021820069,2|0,0:2|0:0,0:0:0:0:
384,100,176620,1,8,0:0:0:0:
264,204,176935,1,2,0:2:0:0:
376,312,177249,2,0,P|399:285|412:240,1,71.5000021820069,8|2,0:0|0:2,0:0:0:0:
332,244,177563,54,0,P|280:280|204:256,1,143.000004364014,2|8,0:2|0:0,0:0:0:0:
188,184,178034,2,0,L|200:104,1,71.5000021820069,2|2,0:2|0:2,0:0:0:0:
260,64,178348,2,0,L|304:68,2,35.7500010910034,0|0|8,0:0|0:0|0:0,0:0:0:0:
184,36,178662,1,0,0:0:0:0:
184,36,178819,2,0,P|104:36|64:84,1,143.000004364014,2|8,0:2|0:0,0:0:0:0:
152,212,179448,2,0,P|121:229|86:239,1,71.5000021820069,2|0,0:2|0:0,0:0:0:0:
7,224,179762,1,8,0:0:0:0:
140,308,180076,6,0,P|200:284|292:300,1,143.000004364014,6|8,0:2|0:0,0:0:0:0:
340,340,180547,1,2,0:2:0:0:
340,340,180704,2,0,B|380:352|380:352|436:344|464:300,1,143.000004364014,2|8,0:2|0:0,0:0:0:0:
468,220,181175,1,0,0:0:0:0:
396,184,181332,2,0,P|336:192|316:204,2,71.5000021820069,2|0|8,0:2|0:0|0:0,0:0:0:0:
460,140,181804,1,2,0:2:0:0:
392,104,181961,2,0,P|324:82|236:96,1,143.000004364014,2|8,0:2|0:0,0:0:0:0:
152,208,182589,6,0,B|176:276|176:276|156:352,1,143.000004364014,2|8,0:2|0:0,0:0:0:0:
232,368,183060,1,2,0:2:0:0:
232,368,183217,2,0,L|392:336,1,143.000004364014,2|8,0:2|0:0,0:0:0:0:
400,268,183688,1,0,0:0:0:0:
432,196,183846,2,0,L|520:180,2,71.5000021820069,2|0|12,0:2|0:0|0:0,0:0:0:0:
400,268,184317,1,2,0:2:0:0:
324,244,184474,2,0,B|312:196|312:196|320:152|320:152|308:104,1,143.000004364014,2|12,0:2|0:0,0:0:0:0:
288,28,184945,1,2,0:2:0:0:
232,84,185102,54,0,P|198:95|162:97,1,71.5000021820069,6|0,0:2|0:0,0:0:0:0:
88,72,185416,2,0,P|88:116|104:152,1,71.5000021820069,8|2,0:0|0:2,0:0:0:0:
168,176,185730,1,2,0:2:0:0:
308,104,186044,1,8,0:0:0:0:
448,172,186359,2,0,P|464:124|464:92,1,71.5000021820069,2|0,0:2|0:0,0:0:0:0:
444,28,186673,1,8,0:0:0:0:
308,104,186987,2,0,P|294:137|291:172,1,71.5000021820069,2|0,0:2|0:0,0:0:0:0:
311,248,187301,2,0,P|304:288|284:328,1,71.5000021820069,8|2,0:0|0:2,0:0:0:0:
224,352,187615,6,0,B|208:324|208:324|144:304|92:340,1,143.000004364014,2|8,0:2|0:0,0:0:0:0:
28,308,188086,1,2,0:2:0:0:
36,228,188243,2,0,L|44:144,1,71.5000021820069,2|0,0:2|0:0,0:0:0:0:
120,140,188558,2,0,L|160:220,1,71.5000021820069,8|0,0:0|0:0,0:0:0:0:
232,204,188872,2,0,P|276:152|240:88,1,143.000004364014,2|8,0:2|0:0,0:0:0:0:
168,76,189343,1,0,0:0:0:0:
120,140,189500,2,0,L|40:132,2,71.5000021820069,2|0|12,0:2|0:0|0:0,0:0:0:0:
256,220,190128,6,0,B|321:225|321:225|392:196,1,130,6|8,0:2|0:0,0:0:0:0:
380,124,190599,1,0,0:0:0:0:
380,124,190757,2,0,B|320:99|320:99|255:104,1,130,8|8,0:0|0:0,0:0:0:0:
120,212,191385,54,0,P|98:280|138:350,1,143.000004364014,6|8,0:2|0:0,0:0:0:0:
208,340,191856,1,0,0:0:0:0:
208,340,192013,2,0,P|237:276|215:210,1,143.000004364014,8|8,0:0|0:0,0:0:0:0:
300,60,192641,6,0,B|468:88,1,155.999995239258,6|12,0:2|0:0,0:0:0:0:
428,160,193113,1,0,0:0:0:0:
428,160,193270,2,0,B|388:152|388:152|336:164,1,77.999997619629,8|0,0:0|0:0,0:0:0:0:
280,188,193584,2,0,B|240:196|240:196|203:187,1,77.999997619629,8|0,0:0|0:0,0:0:0:0:
144,136,193898,5,2,0:2:0:0:
144,136,194055,1,2,0:2:0:0:
144,136,194212,1,2,0:2:0:0:
144,136,195154,6,0,L|220:128,1,58.4999982147217,6|2,0:2|0:2,0:0:0:0:
276,120,195469,1,2,0:2:0:0:
276,120,196882,1,0,0:0:0:0:
332,172,197039,2,0,P|336:212|324:256,2,77.999997619629,8|0|0,0:0|0:0|3:0,0:0:0:0:
236,208,197668,6,0,P|228:240|232:284,1,58.4999982147217,6|2,0:2|0:2,0:0:0:0:
272,328,197982,1,2,0:2:0:0:
272,328,198924,2,0,B|296:340|296:340|372:336,2,87.7499973220826,12|12|12,0:0|0:0|0:0,0:0:0:0:
180,260,199631,2,0,B|156:248|156:248|80:252,1,87.7499973220826,12|8,0:0|0:0,0:0:0:0:
172,120,200181,70,0,B|200:112|200:112|236:112,1,58.4999982147217,6|2,0:2|0:2,0:0:0:0:
300,140,200495,1,2,0:2:0:0:
300,140,201437,2,0,L|304:180,2,29.2499991073609,8|0|2,0:0|0:0|0:2,0:0:0:0:
348,80,201751,2,0,P|392:76|424:84,1,58.4999982147217,2|0,3:2|3:0,0:0:0:0:
452,140,202065,2,0,B|448:164|448:164|456:188|456:188|448:268,1,116.999996429443,8|12,0:0|0:0,0:0:0:0:
328,348,202694,6,0,L|336:280,1,58.4999982147217,6|8,0:2|0:0,0:0:0:0:
304,220,203008,1,8,0:0:0:0:
152,208,203322,2,0,L|160:272,1,58.4999982147217,6|8,0:2|0:0,0:0:0:0:
136,340,203636,1,8,0:0:0:0:
16,248,203950,1,6,0:2:0:0:
8,172,204107,2,0,L|4:124,2,29.2499991073609,8|8|8,0:0|0:0|0:0,0:0:0:0:
76,204,204421,2,0,B|140:188|148:124|148:124|124:104|116:72,1,175.499994644165,2|12,0:2|0:0,0:0:0:0:
260,20,205207,70,0,P|308:28|336:44,1,58.4999982147217,2|2,0:2|0:2,0:0:0:0:
368,88,205521,1,8,0:0:0:0:
252,188,205835,2,0,P|194:179|137:191,2,116.999996429443,0|8|2,3:0|0:0|0:2,0:0:0:0:
360,296,206777,1,8,0:0:0:0:
488,216,207092,2,0,L|499:158,1,58.4999982147217,0|0,3:0|3:0,0:0:0:0:
488,84,207406,2,0,L|450:35,1,58.4999982147217,8|0,0:0|0:0,0:0:0:0:
388,80,207720,6,0,P|340:92|320:92,1,58.4999982147217,2|2,0:2|0:2,0:0:0:0:
260,68,208034,1,8,0:0:0:0:
144,164,208348,2,0,P|136:216|160:276,2,116.999996429443,0|8|2,3:0|0:0|0:2,0:0:0:0:
292,200,209291,1,8,0:0:0:0:
212,329,209605,2,0,P|178:346|134:346,1,58.4999982147217,2|0,0:2|0:0,0:0:0:0:
159,274,209919,2,0,P|192:256|236:256,1,58.4999982147217,12|0,0:0|0:0,0:0:0:0:
280,292,210233,70,0,B|304:304|304:304|344:304,1,58.4999982147217,2|2,0:2|0:2,0:0:0:0:
404,272,210547,1,8,0:0:0:0:
336,136,210861,2,0,B|324:104|324:104|348:8,2,116.999996429443,2|8|2,0:2|0:0|0:2,0:0:0:0:
404,272,211804,1,8,0:0:0:0:
272,200,212118,2,0,L|192:208,1,58.4999982147217,2|0,0:2|0:0,0:0:0:0:
140,216,212432,1,12,0:0:0:0:
260,124,212746,6,0,P|308:132|348:188,1,116.999996429443,6|0,0:2|0:0,0:0:0:0:
272,200,213217,1,2,0:2:0:0:
200,172,213374,2,0,P|184:138|188:96,1,58.4999982147217,0|8,0:0|0:0,0:0:0:0:
176,40,213688,2,0,P|144:52|112:84,1,58.4999982147217,2|8,0:2|0:0,0:0:0:0:
109,141,214003,70,0,B|81:177|33:181|33:181|21:229|57:265,1,175.499994644165,0|2,3:0|3:2,0:0:0:0:
112,309,214631,2,0,B|152:277|200:297|200:297|220:261|220:261|244:265|260:277,1,175.499994644165,0|8,0:0|0:0,0:0:0:0:
312,329,215259,5,4,0:0:0:0:
424,120,220285,70,0,L|444:232,1,104,4|0,3:2|2:0,0:0:0:0:
400,364,220914,1,8,0:0:0:0:
124,268,221542,2,0,P|168:244|236:240,1,104,4|0,3:2|2:0,0:0:0:0:
360,272,222170,1,8,0:0:0:0:
164,32,222798,6,0,B|96:24|46:72|46:72|84:68|112:88,1,195,6|8,0:2|0:0,0:0:0:0:
64,152,223427,2,0,P|64:200|84:232,1,65,2|8,0:2|0:0,0:0:0:0:
140,176,223741,2,0,P|168:140|204:120,1,65,0|8,0:0|0:0,0:0:0:0:
216,200,224055,2,0,P|280:208|340:148,1,130,8|8,0:0|0:0,0:0:0:0:
319,93,224526,1,8,0:0:0:0:
392,120,224683,2,0,P|404:148|408:192,2,65,2|8|8,0:2|0:0|0:0,0:0:0:0:
228,64,225312,70,0,B|192:68|192:68|156:96,1,71.5000021820069,2|2,0:2|0:2,0:0:0:0:
224,144,225626,2,0,B|260:140|260:140|296:112,1,71.5000021820069,2|2,0:2|0:2,0:0:0:0:
304,40,225940,1,10,0:0:0:0:
316,196,226254,1,10,0:0:0:0:
316,196,226411,1,10,0:0:0:0:
160,204,226725,1,10,0:0:0:0:
160,204,226882,1,10,0:0:0:0:
148,48,227196,37,2,0:2:0:0:
226,44,227353,1,2,0:2:0:0:
304,40,227510,2,0,B|343:38|343:38|385:69,1,77.999997619629,2|2,0:2|0:2,0:0:0:0:
256,192,227825,12,0,229709,2:0:0:0:
108,88,230338,6,0,B|140:120|140:120|240:136,1,143.000004364014,6|8,0:2|0:0,0:0:0:0:
316,148,230809,1,2,0:2:0:0:
352,76,230966,2,0,P|388:116|372:204,1,143.000004364014,2|8,0:2|0:0,0:0:0:0:
301,224,231437,1,0,0:0:0:0:
360,276,231594,2,0,L|416:328,2,71.5000021820069,2|0|8,0:2|0:0|0:0,0:0:0:0:
301,224,232065,1,2,0:2:0:0:
228,256,232223,2,0,B|192:272|192:272|136:260|116:208,1,143.000004364014,2|8,0:2|0:0,0:0:0:0:
148,56,232851,6,0,P|212:76|300:44,1,143.000004364014,2|8,0:2|0:0,0:0:0:0:
344,108,233322,1,2,0:2:0:0:
344,108,233479,2,0,P|406:98|484:128,1,143.000004364014,2|8,0:2|0:0,0:0:0:0:
508,200,233950,1,0,0:0:0:0:
456,260,234107,2,0,P|414:267|372:264,1,71.5000021820069,2|0,0:2|0:0,0:0:0:0:
320,312,234421,2,0,P|308:272|316:224,1,71.5000021820069,12|2,0:0|0:2,0:0:0:0:
368,188,234736,2,0,P|296:212|224:184,1,143.000004364014,2|12,0:2|0:0,0:0:0:0:
200,120,235207,1,0,0:0:0:0:
200,120,235364,54,0,L|204:36,1,71.5000021820069,6|0,0:2|0:0,0:0:0:0:
124,44,235678,2,0,L|120:124,1,71.5000021820069,8|2,0:0|0:2,0:0:0:0:
156,188,235992,1,2,0:2:0:0:
276,84,236306,1,8,0:0:0:0:
124,44,236620,2,0,B|88:44|88:44|52:56,1,71.5000021820069,2|0,0:2|0:0,0:0:0:0:
4,116,236935,1,8,0:0:0:0:
124,216,237249,2,0,B|136:300,1,71.5000021820069,2|0,0:2|0:0,0:0:0:0:
80,344,237563,2,0,B|60:312|60:312|52:260,1,71.5000021820069,8|2,0:0|0:2,0:0:0:0:
48,200,237877,5,2,0:2:0:0:
204,228,238191,1,8,0:0:0:0:
248,164,238348,2,0,L|328:156,1,71.5000021820069,2|2,0:2|0:2,0:0:0:0:
376,212,238662,2,0,L|420:208,2,35.7500010910034,0|0|8,0:0|0:0|0:0,0:0:0:0:
316,264,238976,1,2,0:2:0:0:
316,264,239133,2,0,P|306:310|372:376,2,143.000004364014,2|8|2,0:2|0:0|0:2,0:0:0:0:
376,212,239919,2,0,L|420:208,2,35.7500010910034,0|0|12,3:0|3:0|0:0,0:0:0:0:
232,276,240390,6,0,P|212:220|232:140,1,143.000004364014,6|12,0:2|0:0,0:0:0:0:
300,104,240861,1,2,0:2:0:0:
300,104,241018,2,0,B|260:116|260:116|204:108|176:64,1,143.000004364014,2|12,0:2|0:0,0:0:0:0:
104,92,241490,1,0,0:0:0:0:
128,168,241647,2,0,P|120:208|92:248,1,71.5000021820069,2|0,0:2|0:0,0:0:0:0:
26,243,241961,2,0,P|34:203|62:163,1,71.5000021820069,12|0,0:0|0:0,0:0:0:0:
128,168,242275,2,0,P|176:204|268:196,1,143.000004364014,2|12,0:2|0:0,0:0:0:0:
408,240,242903,54,0,B|415:195|415:195|403:147|403:147|411:99,1,143.000004364014,2|12,0:2|0:0,0:0:0:0:
476,52,243374,1,2,0:2:0:0:
476,52,243531,2,0,B|440:72|440:72|320:56,1,143.000004364014,2|12,0:2|0:0,0:0:0:0:
260,44,244003,1,0,0:0:0:0:
208,104,244160,2,0,L|132:120,2,71.5000021820069,2|0|12,0:2|0:0|0:0,0:0:0:0:
260,44,244631,1,2,0:2:0:0:
184,28,244788,2,0,B|40:56,1,143.000004364014,2|12,0:2|0:0,0:0:0:0:
9,126,245259,1,0,0:0:0:0:
76,167,245416,6,0,P|86:201|84:247,1,71.5000021820069,6|0,0:2|0:0,0:0:0:0:
52,308,245730,2,0,P|76:304|136:312,1,71.5000021820069,12|2,0:0|0:2,0:0:0:0:
196,340,246044,1,2,0:2:0:0:
224,186,246359,1,12,0:0:0:0:
325,304,246673,2,0,L|232:276,1,71.5000021820069,2|0,0:2|0:0,0:0:0:0:
182,258,246987,1,12,0:0:0:0:
252,116,247301,2,0,B|285:98|285:98|340:100,1,71.5000021820069,2|0,0:2|0:0,0:0:0:0:
380,152,247615,2,0,B|384:188|384:188|368:232,1,71.5000021820069,12|0,0:0|0:0,0:0:0:0:
304,180,247929,6,0,P|324:93|388:68,1,143.000004364014,8|8,0:0|0:3,0:0:0:0:
442,96,248401,1,8,0:0:0:0:
457,173,248558,2,0,L|471:254,1,71.5000021820069,2|0,0:2|0:0,0:0:0:0:
398,278,248872,2,0,L|387:361,1,71.5000021820069,12|0,0:0|0:0,0:0:0:0:
312,368,249186,2,0,P|272:372|232:360,2,71.5000021820069,2|12|12,0:2|0:0|0:0,0:0:0:0:
280,296,249657,1,0,0:0:0:0:
248,224,249814,2,0,P|288:220|328:232,2,71.5000021820069,8|0|8,0:0|0:0|0:0,0:0:0:0:
116,304,250442,54,0,B|84:292|76:264|76:264|92:176,1,130,6|8,0:2|0:0,0:0:0:0:
152,144,250914,1,0,0:0:0:0:
152,144,251071,2,0,B|164:73|164:73|156:45|124:33,1,130,8|8,0:0|0:0,0:0:0:0:
256,120,251699,6,0,P|324:124|388:80,1,143.000004364014,6|8,0:2|0:0,0:0:0:0:
460,112,252170,1,0,0:0:0:0:
460,112,252327,2,0,P|496:156|500:252,1,143.000004364014,8|8,0:0|0:0,0:0:0:0:
388,344,252955,6,0,B|336:348|336:348|284:332|284:332|232:336,1,155.999995239258,6|8,0:2|0:0,0:0:0:0:
244,256,253427,1,0,0:0:0:0:
244,256,253584,2,0,B|293:252|293:252|345:268|345:268|397:264,1,155.999995239258,8|8,0:0|0:0,0:0:0:0:
332,120,254212,53,2,3:2:0:0:
184,172,254526,1,12,3:1:0:0:
272,44,254840,1,8,3:1:0:0:
280,200,255154,1,12,3:1:0:0:
176,76,255469,6,0,P|112:108|88:160,1,130,6|8,0:2|0:0,0:0:0:0:
112,232,255940,1,0,0:0:0:0:
184,264,256097,2,0,P|242:237|271:181,1,130,8|8,0:0|0:0,0:0:0:0:
424,136,256725,6,0,B|440:168|432:204|432:204|472:220|484:256,1,143.000004364014,6|8,0:2|0:0,0:0:0:0:
408,280,257196,1,0,0:0:0:0:
356,220,257353,2,0,B|320:204|284:220|284:220|248:232|212:224,1,143.000004364014,8|8,0:0|0:0,0:0:0:0:
144,69,257982,54,0,P|182:51|229:54,1,77.999997619629,6|0,3:2|3:0,0:0:0:0:
294,50,258296,2,0,P|333:51|368:69,1,77.999997619629,4|0,3:2|3:0,0:0:0:0:
316,127,258610,2,0,P|303:152|296:207,1,77.999997619629,0|0,3:0|3:0,0:0:0:0:
216,200,258924,2,0,P|212:162|196:127,1,77.999997619629,0|0,3:0|3:0,0:0:0:0:
256,76,259238,5,6,0:2:0:0:
256,76,259395,1,2,0:2:0:0:
256,76,259552,1,2,0:2:0:0:
256,76,260495,22,2,P|208:88|176:84,1,65,6|2,0:2|0:0,0:0:0:0:
116,68,260809,1,10,0:0:0:0:
40,204,261123,2,0,P|88:192|172:220,1,130,2|8,0:0|0:0,0:0:0:0:
200,284,261594,2,2,P|196:220|232:160,2,130
264,332,262380,2,0,P|296:328|332:308,1,65,2|2,0:2|0:0,0:0:0:0:
368,248,262694,1,10,0:0:0:0:
288,112,263008,6,0,L|296:44,2,65,2|0|10,0:2|0:0|0:0,0:0:0:0:
228,164,263479,2,2,P|156:148|120:96,1,130,2|2,0:2|0:2,0:0:0:0:
60,152,263950,2,0,L|52:216,1,65,2|10,0:2|0:0,0:0:0:0:
108,272,264264,2,0,B|140:264|140:264|180:272,1,65,0|2,0:0|0:0,0:0:0:0:
244,240,264579,2,2,B|275:246|275:246|307:238,1,65,10|0,0:0|0:0,0:0:0:0:
272,168,264893,1,2,0:0:0:0:
344,308,265207,1,12,0:0:0:0:
272,168,265521,70,0,L|288:24,2,130,6|8|0,0:2|0:0|0:0,0:0:0:0:
332,220,266306,1,0,0:0:0:0:
384,164,266463,2,0,P|420:156|456:160,1,65,8|0,0:0|0:0,0:0:0:0:
504,212,266777,2,0,P|488:264|488:296,1,65,0|2,0:0|0:2,0:0:0:0:
420,316,267092,2,2,P|376:300|292:332,1,130,10|2,0:0|0:0,0:0:0:0:
240,272,267563,1,2,0:2:0:0:
180,324,267720,2,2,P|128:332|96:324,1,65,10|2,0:0|0:2,0:0:0:0:
56,280,268034,5,2,0:0:0:0:
164,168,268348,1,10,0:0:0:0:
28,88,268662,2,2,P|56:56|88:36,1,65,2|4,0:0|0:0,0:0:0:0:
148,20,268976,1,2,0:0:0:0:
148,20,269133,2,0,B|176:40|176:40|208:32|208:32|236:48|268:48,1,130,6|2,0:2|0:2,0:0:0:0:
344,24,269605,2,0,B|352:56|336:88|336:88|344:120|344:120|332:148,1,130,2|2,0:2|0:2,0:0:0:0:
292,216,270076,1,2,0:2:0:0:
220,184,270233,2,2,B|188:172|188:172|156:176,1,65,2|0,0:0|0:0,0:0:0:0:
108,236,270547,70,0,L|120:312,1,65,6|2,0:2|0:0,0:0:0:0:
188,332,270861,1,10,0:0:0:0:
292,216,271175,2,2,L|268:68,1,130,2|8,0:0|0:0,0:0:0:0:
320,24,271647,1,2,0:0:0:0:
384,68,271804,2,0,P|424:76|456:72,2,65,0|2|10,0:0|0:0|0:0,0:0:0:0:
320,24,272275,1,0,0:0:0:0:
244,12,272432,2,2,P|212:33|204:132,1,130,2|10,0:0|0:0,0:0:0:0:
260,168,272903,1,0,0:0:0:0:
188,198,273060,6,0,L|100:186,1,65,0|2,0:0|0:0,0:0:0:0:
115,266,273374,2,2,L|179:274,1,65,10|0,0:0|0:0,0:0:0:0:
251,245,273688,1,2,0:0:0:0:
251,245,273846,1,2,0:0:0:0:
136,348,274160,2,2,P|72:336|32:272,1,130,10|0,0:0|0:0,0:0:0:0:
60,212,274631,2,0,P|104:176|108:88,1,130,12|0,0:0|0:0,0:0:0:0:
60,52,275102,2,0,L|8:56,2,32.5,0|0|10,0:0|0:0|0:0,0:0:0:0:
204,116,275573,69,6,0:2:0:0:
260,64,275730,2,0,L|264:28,2,32.5,0|0|10,0:0|0:0|0:0,0:0:0:0:
356,188,276202,2,0,L|348:264,1,65
340,332,276516,1,10,0:0:0:0:
196,272,276830,1,0,0:0:0:0:
252,220,276987,2,0,L|256:184,2,32.5,0|0|10,0:0|0:0|0:0,0:0:0:0:
100,192,277458,2,0,L|108:112,1,65,0|2,0:0|0:0,0:0:0:0:
116,48,277772,1,12,0:0:0:0:
260,104,278086,70,0,L|339:111,1,65,6|0,3:2|3:0,0:0:0:0:
382,163,278401,2,0,P|402:115|402:91,1,65,6|0,3:2|3:0,0:0:0:0:
356,40,278715,1,12,0:0:0:0:
356,40,278872,1,12,0:0:0:0:
304,188,279186,70,2,B|292:228|292:228|324:344,1,143.000004364014,10|0,0:0|3:0,0:0:0:0:
248,360,279657,2,0,L|228:288,1,71.5000021820069,12|0,3:1|3:0,0:0:0:0:
216,212,279971,1,12,0:0:0:0:
216,212,280128,1,12,0:0:0:0:
372,228,280442,70,2,B|401:230|428:214|428:214|443:163|415:120,1,155.999995239258,10|0,0:0|3:0,0:0:0:0:
354,70,280914,2,0,P|318:82|270:82,1,77.999997619629,6|0,3:2|3:0,0:0:0:0:
208,49,281228,1,12,0:0:0:0:
214,126,281385,2,8,B|219:170|197:215|197:215|223:194|256:192,1,155.999995239258,12|6,0:0|0:2,0:0:0:0:
256,192,281856,12,4,285429,2:0:0:0:
256,192,285547,12,4,289186,3:0:0:0:
