osu file format v14

[General]
AudioFilename: 07. .mp3
AudioLeadIn: 0
PreviewTime: 88898
Countdown: 0
SampleSet: Normal
StackLeniency: 0.5
Mode: 0
LetterboxInBreaks: 1
WidescreenStoryboard: 0

[Editor]
Bookmarks: 99971,124631,128401,215259,219500
DistanceSpacing: 0.7
BeatDivisor: 4
GridSize: 4
TimelineZoom: 1.5

[Metadata]
Title:Tsukitourou
TitleUnicode:月燈籠
Artist:Camellia feat. Nanahira
ArtistUnicode:かめりあ feat. ななひら
Creator:jonathanlfj
Version:Insane
Source:
Tags:ErunamoJAZZ Raose Nyquill yf_bmp moon lantern かめるかめりあ×Confetto りぷれい!Replay!
BeatmapID:901137
BeatmapSetID:383147

[Difficulty]
HPDrainRate:5.5
CircleSize:4
OverallDifficulty:8
ApproachRate:9
SliderMultiplier:1.7
SliderTickRate:1

[Events]
//Background and Video events
0,0,"tsuki.jpg",0,0
//Break Periods
2,124831,127801
2,215460,218900
//Storyboard Layer 0 (Background)
//Storyboard Layer 1 (Fail)
//Storyboard Layer 2 (Pass)
//Storyboard Layer 3 (Foreground)
//Storyboard Sound Samples

[TimingPoints]
-866,314.13612565445,4,2,1,50,1,0
2903,-133.333333333333,4,2,1,50,0,0
3688,-133.333333333333,4,1,1,60,0,0
4160,-111.111111111111,4,1,1,60,0,0
14212,-105.263157894737,4,1,1,65,0,0
23636,-100,4,1,1,65,0,0
24264,-100,4,1,1,70,0,0
44212,-111.111111111111,4,1,1,60,0,0
49395,-100,4,1,1,65,0,0
54264,-111.111111111111,4,1,1,65,0,0
59448,-100,4,1,1,65,0,0
64474,-125,4,1,1,60,0,0
72013,-100,4,1,1,70,0,0
74526,-111.111111111111,4,1,1,65,0,0
79552,-100,4,1,1,70,0,0
84579,-90.9090909090909,4,1,1,75,0,0
88191,-200,4,2,1,40,0,0
88898,-200,4,2,1,5,0,0
88976,-100,4,3,1,70,0,0
89605,-90.9090909090909,4,1,1,80,0,1
109709,-100,4,1,1,60,0,1
110966,-90.9090909090909,4,1,1,70,0,1
112223,-83.3333333333333,4,1,1,80,0,1
113479,-83.3333333333333,4,1,1,80,0,0
114421,-90.9090909090909,4,1,1,70,0,0
114736,-100,4,1,1,70,0,0
128401,-100,4,1,1,65,0,0
134683,-111.111111111111,4,1,1,70,0,0
139866,-100,4,1,1,65,0,0
144893,-125,4,1,1,60,0,0
152432,-100,4,1,1,65,0,0
154945,-111.111111111111,4,1,1,65,0,0
159971,-100,4,1,1,65,0,0
164997,-90.9090909090909,4,1,1,75,0,0
167825,-83.3333333333333,4,1,1,75,0,0
168610,-200,4,2,1,40,0,0
169395,-200,4,2,1,70,0,0
170024,-90.9090909090909,4,1,1,80,0,1
190128,-100,4,1,1,60,0,1
191385,-90.9090909090909,4,1,1,70,0,1
192641,-83.3333333333333,4,1,1,80,0,1
193898,-83.3333333333333,4,1,1,80,0,0
194526,-100,4,2,1,70,0,0
195154,-111.111111111111,4,1,1,60,0,0
205207,-105.263157894737,4,1,1,65,0,0
219500,-125,4,1,1,50,0,0
220181,-125,4,1,1,20,0,0
220285,-125,4,1,1,50,0,0
222798,-100,4,1,1,55,0,0
223427,-100,4,1,1,60,0,0
224055,-100,4,1,1,65,0,0
224683,-100,4,1,1,70,0,0
225312,-83.3333333333333,4,1,1,75,0,0
227196,-76.9230769230769,4,1,1,75,0,0
227825,-200,4,1,1,40,0,0
229631,-200,4,1,1,5,0,0
229709,-200,4,1,1,20,0,0
230338,-90.9090909090909,4,1,1,80,0,1
250442,-100,4,1,1,60,0,1
251699,-90.9090909090909,4,1,1,70,0,1
252955,-83.3333333333333,4,1,1,80,0,1
254212,-90.9090909090909,4,1,1,80,0,1
255469,-90.9090909090909,4,1,1,60,0,1
256725,-83.3333333333333,4,1,1,70,0,1
257982,-76.9230769230769,4,1,1,80,0,1
259238,-76.9230769230769,4,1,1,80,0,0
260181,-100,4,1,1,70,0,0
278086,-100,4,1,1,60,0,0
279186,-90.9090909090909,4,1,1,70,0,0
280442,-83.3333333333333,4,1,1,80,0,0
281542,-142.857142857143,4,1,1,80,0,0
281856,-100,4,1,1,50,0,0

[Colours]
Combo1 : 86,54,54
Combo2 : 232,0,0
Combo3 : 254,84,35
Combo4 : 254,175,12
Combo5 : 255,66,222
Combo6 : 170,29,254

[HitObjects]
180,64,2903,85,2,0:3:0:0:
204,144,3217,1,2,0:3:0:0:
188,224,3531,1,2,0:3:0:0:
120,272,3688,2,0,L|88:296,2,21.2500008106232,0|0|0,0:0|0:0|0:0,0:0:0:0:
120,272,3846,2,0,P|168:306|208:304,1,95.6250036478044,8|0,0:0|2:0,0:0:0:0:
236,292,4160,69,6,0:2:0:0:
120,168,4317,1,2,0:2:0:0:
276,100,4474,1,2,0:2:0:0:
224,196,4788,69,0,2:0:0:0:
120,168,5102,1,0,2:0:0:0:
108,64,5416,1,0,2:0:0:0:
205,24,5730,1,0,2:0:0:0:
276,100,6044,5,0,2:0:0:0:
224,196,6202,1,0,0:0:0:0:
352,180,6359,2,0,P|380:136|380:64,1,114.749996498108,8|0,0:0|2:0,0:0:0:0:
376,44,6673,69,6,0:2:0:0:
460,156,6830,1,2,0:2:0:0:
276,100,6987,1,2,0:2:0:0:
352,180,7301,5,0,2:0:0:0:
320,284,7615,1,0,2:0:0:0:
212,296,7929,69,8,0:0:0:0:
320,284,8086,2,0,L|408:288,1,76.4999976654053,0|0,0:0|0:0,0:0:0:0:
256,192,8401,1,8,0:0:0:0:
364,180,8558,2,0,L|440:172,1,76.4999976654053,0|8,0:0|0:0,0:0:0:0:
296,96,8872,2,0,P|256:92|220:96,1,76.4999976654053,0|8,0:0|0:0,0:0:0:0:
148,176,9186,5,6,0:2:0:0:
294,285,9343,1,2,0:2:0:0:
316,104,9500,1,2,0:2:0:0:
256,192,9814,69,0,2:0:0:0:
359,199,10128,1,0,2:0:0:0:
316,104,10442,1,0,2:0:0:0:
210,98,10757,1,0,2:0:0:0:
150,184,11071,6,0,L|118:232,2,50.9999984436036,0|0|0,0:0|0:0|0:0,0:0:0:0:
201,251,11385,2,0,L|190:312,2,50.9999984436036,8|0|0,0:0|0:0|0:0,0:0:0:0:
275,293,11699,69,6,0:2:0:0:
275,293,11856,1,8,0:0:0:0:
317,144,12013,2,0,L|325:232,1,76.4999976654053,8|0,0:0|0:0,0:0:0:0:
401,317,12327,5,6,0:2:0:0:
401,317,12484,1,8,0:0:0:0:
425,139,12641,2,0,L|436:228,1,76.4999976654053,8|0,0:0|0:0,0:0:0:0:
317,144,12955,69,6,0:2:0:0:
402,41,13113,2,0,L|455:44,2,38.2499988327027,8|0|8,0:0|0:0|0:0,0:0:0:0:
231,89,13427,2,0,P|226:190|260:231,1,152.999995330811,2|0,0:2|0:0,0:0:0:0:
416,301,13898,2,0,P|360:297|298:309,1,114.749996498108,12|0,0:1|2:0,0:0:0:0:
276,319,14212,5,2,0:2:0:0:
350,211,14369,1,2,0:2:0:0:
276,319,14526,2,0,P|212:333|146:328,1,121.124996765614,8|0,0:0|3:0,0:0:0:0:
156,330,14840,2,0,L|135:246,1,80.7499978437424,0|0,3:0|3:0,0:0:0:0:
255,139,15154,2,0,L|246:235,1,80.7499978437424,8|0,0:0|0:0,0:0:0:0:
131,229,15469,69,2,0:2:0:0:
160,126,15626,1,0,0:0:0:0:
31,203,15783,2,0,P|33:262|68:311,1,121.124996765614,8|0,0:0|3:0,0:0:0:0:
68,311,16097,2,0,L|155:326,1,80.7499978437424,0|0,3:0|3:0,0:0:0:0:
304,252,16411,2,0,L|217:263,1,80.7499978437424,8|0,0:0|0:0,0:0:0:0:
280,348,16725,5,2,0:2:0:0:
402,255,16882,1,2,0:2:0:0:
306,135,17039,2,0,P|289:193|303:251,1,121.124996765614,8|0,0:0|3:0,0:0:0:0:
303,251,17353,2,0,P|262:260|211:259,1,80.7499978437424,0|0,3:0|3:0,0:0:0:0:
391,195,17668,2,0,P|431:201|472:215,1,80.7499978437424,8|0,0:0|0:0,0:0:0:0:
469,213,17903,1,0,0:0:0:0:
469,213,17982,69,2,0:2:0:0:
405,305,18139,1,0,0:0:0:0:
303,251,18296,2,0,P|289:193|306:136,1,121.124996765614,8|0,0:0|3:0,0:0:0:0:
305,136,18610,2,0,L|218:149,1,80.7499978437424,2|0,0:2|0:0,0:0:0:0:
391,84,18924,2,0,L|487:94,1,80.7499978437424,12|0,0:0|0:0,0:0:0:0:
305,136,19238,5,2,0:2:0:0:
329,8,19395,1,2,0:2:0:0:
391,182,19552,2,0,P|341:227|283:234,1,121.124996765614,8|0,0:0|3:0,0:0:0:0:
289,234,19866,2,0,P|250:222|204:219,1,80.7499978437424,2|0,0:2|3:0,0:0:0:0:
345,321,20181,2,0,P|384:325|435:319,1,80.7499978437424,8|0,0:0|0:0,0:0:0:0:
387,227,20495,69,2,0:2:0:0:
289,234,20652,1,0,0:0:0:0:
243,322,20809,2,0,P|205:332|155:332,1,80.7499978437424,8|2,0:0|0:2,0:0:0:0:
38,227,21123,2,0,P|95:234|131:247,1,80.7499978437424,0|0,0:0|0:0,0:0:0:0:
215,171,21437,2,0,P|183:142|160:92,1,80.7499978437424,12|0,0:0|0:0,0:0:0:0:
311,8,21751,5,6,0:2:0:0:
340,133,21908,1,8,0:0:0:0:
261,84,22065,1,0,0:0:0:0:
391,58,22223,1,8,0:0:0:0:
420,182,22380,2,0,B|415:223|415:223|394:267,1,80.7499978437424,8|8,0:0|0:0,0:0:0:0:
233,252,22694,2,0,B|238:211|238:211|259:167,1,80.7499978437424,8|8,0:0|0:0,0:0:0:0:
313,312,23008,70,0,L|278:343,3,40.3749989218712,0|0|0|0,0:0|0:0|0:0|0:0,0:0:0:0:
208,345,23322,2,0,L|167:326,3,40.3749989218712,0|0|2|0,0:0|0:0|0:2|0:0,0:0:0:0:
135,260,23636,2,0,L|143:207,3,42.5,2|0|0|0,0:2|0:0|0:0|0:0,0:0:0:0:
197,165,23950,1,8,0:0:0:0:
221,173,24029,1,0,0:0:0:0:
246,176,24107,1,2,0:2:0:0:
271,173,24186,1,0,0:0:0:0:
293,166,24264,6,0,P|306:210|335:250,1,85,6|2,0:2|0:0,0:0:0:0:
364,106,24579,2,2,P|310:75|248:83,1,127.5,10|0,0:0|0:0,0:0:0:0:
225,103,24893,2,0,L|241:14,1,85,2|0,0:0|0:0,0:0:0:0:
123,122,25207,1,8,0:0:0:0:
190,198,25364,70,2,P|201:268|171:365,1,170,2|0,0:0|0:0,0:0:0:0:
52,283,25835,2,0,P|48:241|60:191,1,85,8|2,0:0|0:0,0:0:0:0:
123,122,26149,1,0,0:0:0:0:
190,198,26306,1,2,0:0:0:0:
268,135,26463,2,2,L|362:127,1,85,10|0,0:0|0:0,0:0:0:0:
437,265,26777,6,0,B|396:256|396:256|352:217,1,85,0|2,0:0|0:0,0:0:0:0:
352,127,27092,1,8,0:0:0:0:
443,167,27249,1,2,0:0:0:0:
273,189,27406,2,2,P|255:147|255:97,1,85,2|0,0:0|0:0,0:0:0:0:
320,33,27720,1,0,0:0:0:0:
165,104,27877,70,2,P|123:104|79:94,2,85,10|0|2,0:0|0:0|0:0,0:0:0:0:
320,33,28348,2,0,P|367:30|416:39,1,85,12|0,0:0|0:0,0:0:0:0:
270,129,28662,1,2,0:0:0:0:
165,104,28819,1,0,0:0:0:0:
165,104,28898,1,0,0:0:0:0:
165,104,28976,2,0,L|147:11,1,85,12|0,0:0|0:0,0:0:0:0:
88,169,29291,6,0,P|124:196|178:204,1,85,6|2,0:2|0:0,0:0:0:0:
366,172,29605,2,2,P|302:144|238:160,1,127.5,10|0,0:0|0:0,0:0:0:0:
219,174,29919,2,0,L|230:269,1,85,2|0,0:0|0:0,0:0:0:0:
373,311,30233,1,8,0:0:0:0:
446,244,30390,70,2,P|467:175|440:75,1,170,2|0,0:0|0:0,0:0:0:0:
263,113,30861,2,0,L|356:123,1,85,8|2,0:0|0:0,0:0:0:0:
360,23,31175,1,0,0:0:0:0:
231,109,31332,1,2,0:0:0:0:
325,220,31490,2,2,B|415:202,1,85,10|0,0:0|0:0,0:0:0:0:
251,285,31804,6,0,P|234:255|228:197,1,85,0|2,0:0|0:0,0:0:0:0:
346,315,32118,1,8,0:0:0:0:
211,357,32275,1,2,0:0:0:0:
325,220,32432,2,2,P|332:181|329:135,1,85,2|0,0:0|0:0,0:0:0:0:
419,252,32746,1,10,0:0:0:0:
234,176,32903,70,0,P|136:172|72:208,1,170,12|2,0:0|0:2,0:0:0:0:
246,79,33374,1,12,0:0:0:0:
246,79,33688,1,2,0:2:0:0:
234,176,33846,1,2,0:2:0:0:
222,272,34003,2,0,L|229:365,1,85,12|0,0:0|0:0,0:0:0:0:
326,223,34317,6,0,B|339:183|339:183|335:124,1,85,6|2,0:2|0:0,0:0:0:0:
234,176,34631,1,8,0:0:0:0:
325,316,34788,1,2,0:0:0:0:
162,249,34945,2,2,P|241:220|326:223,1,170,2|10,0:0|0:0,0:0:0:0:
483,281,35416,70,2,P|440:292|385:292,1,85,2|0,0:0|0:0,0:0:0:0:
352,125,35730,1,2,0:0:0:0:
427,196,35887,1,8,0:0:0:0:
326,223,36044,1,2,0:0:0:0:
312,32,36202,2,2,P|353:29|415:42,1,85,0|2,0:0|0:0,0:0:0:0:
254,150,36516,2,0,P|190:158|128:129,1,127.5,12|0,0:0|0:0,0:0:0:0:
113,114,36830,6,0,L|121:210,1,85,0|2,0:0|0:0,0:0:0:0:
205,63,37144,1,10,0:0:0:0:
295,217,37301,1,0,0:0:0:0:
207,167,37458,2,2,P|294:119|359:139,1,170,2|2,0:0|0:0,0:0:0:0:
295,217,37929,69,10,0:0:0:0:
304,73,38086,1,0,0:0:0:0:
392,229,38243,2,0,L|450:234,2,42.5,2|0|4,0:0|0:0|0:0,0:0:0:0:
214,207,38558,1,2,0:0:0:0:
356,137,38715,1,0,0:0:0:0:
320,294,38872,1,0,0:0:0:0:
320,294,38950,1,0,0:0:0:0:
320,294,39029,2,0,P|298:237|325:156,1,127.5,12|0,0:0|0:0,0:0:0:0:
334,154,39343,6,0,P|379:162|437:159,1,85,6|2,0:2|0:0,0:0:0:0:
242,111,39657,2,2,P|296:72|312:52,1,85,10|0,0:0|0:0,0:0:0:0:
141,117,39971,2,2,P|181:179|173:283,1,170,2|10,0:0|0:0,0:0:0:0:
327,341,40442,70,2,P|305:306|295:264,1,85,2|0,0:0|0:0,0:0:0:0:
397,266,40757,1,2,0:0:0:0:
198,293,40914,2,0,P|197:251|208:210,1,85,8|2,0:0|0:0,0:0:0:0:
295,264,41228,1,2,0:0:0:0:
103,257,41385,1,2,0:0:0:0:
167,128,41542,2,0,L|255:124,1,85,12|0,0:0|0:0,0:0:0:0:
275,139,41777,1,0,0:0:0:0:
299,152,41856,6,0,L|354:147,3,42.5,2|0|0|0,3:2|3:0|3:0|3:0,0:0:0:0:
386,87,42170,2,0,L|441:82,3,42.5,2|0|0|0,3:2|3:0|3:0|3:0,0:0:0:0:
417,160,42484,69,12,0:0:0:0:
269,18,42641,1,12,0:0:0:0:
269,18,42955,6,0,B|256:58|256:58|253:114,1,85,6|0,0:2|0:0,0:0:0:0:
372,281,43270,2,0,L|364:233,1,42.5,12|0,0:0|0:0,0:0:0:0:
302,178,43427,2,0,P|263:177|196:190,1,85,2|0,0:2|0:0,0:0:0:0:
456,257,43741,2,0,L|448:209,1,42.5,12|0,0:0|0:0,0:0:0:0:
386,155,43898,2,0,B|389:113|389:113|405:63,1,85,2|8,0:2|0:0,0:0:0:0:
365,239,44212,70,0,P|309:283|221:280,1,152.999995330811,6|0,0:2|0:0,0:0:0:0:
97,166,44683,2,0,L|200:179,1,76.4999976654053,8|0,0:0|0:0,0:0:0:0:
273,192,44997,1,0,0:0:0:0:
123,264,45154,2,0,P|83:270|35:267,1,76.4999976654053,0|8,0:0|0:0,0:0:0:0:
144,84,45469,6,0,P|208:92|264:160,1,152.999995330811,2|0,0:2|0:0,0:0:0:0:
288,320,45940,2,0,P|336:304|388:264,1,114.749996498108,8|0,0:0|0:0,0:0:0:0:
400,240,46254,2,0,L|420:324,1,76.4999976654053,0|0,0:0|0:0,0:0:0:0:
284,196,46568,1,8,0:0:0:0:
360,96,46725,69,0,0:0:0:0:
196,164,46882,2,0,P|192:208|204:252,1,76.4999976654053,2|0,0:2|0:0,0:0:0:0:
320,320,47196,1,8,0:0:0:0:
212,260,47353,1,0,0:0:0:0:
320,196,47510,1,0,0:0:0:0:
428,260,47668,2,0,P|440:300|440:352,1,76.4999976654053,0|2,0:0|0:2,0:0:0:0:
320,196,47982,6,0,P|356:156|456:136,1,152.999995330811,8|0,0:0|0:0,0:0:0:0:
252,128,48453,2,0,L|164:116,1,76.4999976654053,8|0,0:0|0:0,0:0:0:0:
364,24,48767,1,0,0:0:0:0:
364,24,48846,2,0,L|452:36,1,76.4999976654053,8|0,0:0|0:0,0:0:0:0:
504,84,49081,2,0,L|512:128,3,38.2499988327027,8|0|0|0,0:0|0:0|0:0|0:0,0:0:0:0:
428,116,49395,70,0,P|415:158|416:208,1,85,6|0,0:2|0:0,0:0:0:0:
312,344,49709,2,0,P|304:308|280:264,1,85,8|0,0:0|0:0,0:0:0:0:
120,296,50024,1,2,0:2:0:0:
216,340,50181,1,0,0:0:0:0:
260,244,50338,1,8,0:0:0:0:
124,268,50495,6,0,L|112:360,1,85,2|0,0:2|0:0,0:0:0:0:
176,176,50809,1,2,0:2:0:0:
80,124,50966,2,0,P|68:80|68:24,1,85,8|0,0:0|0:0,0:0:0:0:
72,16,51202,1,0,0:0:0:0:
72,16,51280,2,0,L|160:8,1,85,2|0,0:2|0:0,0:0:0:0:
368,76,51594,2,0,L|264:88,1,85,8|0,0:0|0:0,0:0:0:0:
152,104,51908,69,0,0:0:0:0:
272,176,52065,1,2,0:2:0:0:
180,284,52223,2,0,L|164:180,1,85,8|0,0:0|0:0,0:0:0:0:
252,80,52537,1,2,0:2:0:0:
268,224,52694,1,12,0:0:0:0:
152,104,52851,1,2,0:2:0:0:
300,8,53008,6,0,B|444:24|444:24|432:28|420:36,1,170,12|2,0:0|0:2,0:0:0:0:
364,124,53479,1,8,0:0:0:0:
362,156,53558,1,8,0:0:0:0:
373,186,53636,1,0,0:0:0:0:
393,210,53715,1,0,0:0:0:0:
418,227,53793,1,2,0:2:0:0:
304,224,53950,2,0,L|204:240,1,85,2|8,0:2|0:0,0:0:0:0:
457,144,54264,70,0,P|504:200|488:288,1,152.999995330811,6|0,0:2|0:0,0:0:0:0:
348,132,54736,2,0,P|340:80|344:44,1,76.4999976654053,8|0,0:0|0:0,0:0:0:0:
418,227,55050,1,2,0:2:0:0:
272,208,55207,2,0,P|248:168|236:124,1,76.4999976654053,0|8,0:0|0:0,0:0:0:0:
336,292,55521,6,0,L|324:372,1,76.4999976654053,2|0,0:2|0:0,0:0:0:0:
418,227,55835,1,0,0:0:0:0:
252,224,55992,2,0,B|216:223|216:223|132:240,1,114.749996498108,8|0,0:0|0:0,0:0:0:0:
112,248,56306,2,0,L|96:324,1,76.4999976654053,0|0,0:0|0:0,0:0:0:0:
252,224,56620,1,8,0:0:0:0:
172,152,56777,70,0,P|168:112|176:68,1,76.4999976654053,0|2,0:0|0:2,0:0:0:0:
352,184,57092,1,0,0:0:0:0:
252,224,57249,1,8,0:0:0:0:
272,120,57406,1,0,0:0:0:0:
340,292,57563,1,0,0:0:0:0:
152,271,57720,2,0,P|196:235|252:224,1,114.749996498108,0|0,0:0|0:0,0:0:0:0:
280,228,58034,6,0,L|304:312,1,76.4999976654053,2|0,0:2|0:0,0:0:0:0:
324,144,58348,1,0,0:0:0:0:
324,144,58505,2,0,L|408:140,1,76.4999976654053,8|0,0:0|0:0,0:0:0:0:
260,80,58819,1,0,0:0:0:0:
239,102,58898,1,0,0:0:0:0:
229,131,58976,1,0,0:0:0:0:
231,163,59055,1,0,0:0:0:0:
243,191,59133,2,0,L|120:184,1,114.749996498108,8|0,0:0|0:0,0:0:0:0:
96,180,59448,69,6,0:2:0:0:
176,280,59605,1,0,0:0:0:0:
96,180,59762,2,0,P|92:108|120:48,1,127.5,8|0,0:0|0:0,0:0:0:0:
140,40,60076,1,2,0:2:0:0:
4,100,60233,1,0,0:0:0:0:
140,40,60390,2,0,P|196:60|272:52,1,127.5,8|0,0:0|0:0,0:0:0:0:
292,40,60704,5,0,0:2:0:0:
380,176,60861,1,2,0:2:0:0:
396,72,61018,1,8,0:0:0:0:
272,176,61175,1,0,0:0:0:0:
268,200,61254,1,0,0:0:0:0:
264,224,61332,1,2,0:2:0:0:
400,336,61490,2,0,L|380:244,1,85,0|8,0:0|0:0,0:0:0:0:
484,112,61804,70,0,P|484:148|472:200,1,85,2|0,0:2|0:0,0:0:0:0:
292,200,62118,1,2,0:2:0:0:
380,56,62275,2,0,P|384:100|376:148,1,85,8|0,0:0|0:0,0:0:0:0:
248,280,62589,1,2,0:2:0:0:
280,96,62746,1,12,0:0:0:0:
372,240,62903,1,2,0:2:0:0:
164,220,63060,1,12,0:0:0:0:
264,172,63217,6,0,L|268:260,1,85,0|2,0:0|0:2,0:0:0:0:
92,288,63531,1,8,0:0:0:0:
72,264,63610,1,8,0:0:0:0:
64,236,63688,1,0,0:0:0:0:
64,204,63767,1,0,0:0:0:0:
76,176,63846,2,0,P|116:156|152:124,1,85,2|0,0:2|0:0,0:0:0:0:
184,256,64160,2,0,P|220:276|252:312,1,85,8|12,0:0|0:0,0:0:0:0:
380,192,64474,69,6,0:2:0:0:
280,200,64631,1,2,0:2:0:0:
324,108,64788,1,2,0:2:0:0:
380,192,64945,1,2,0:2:0:0:
220,116,65102,5,8,0:0:0:0:
428,100,65416,1,2,0:2:0:0:
428,100,65573,1,2,0:2:0:0:
336,284,65887,1,2,0:2:0:0:
336,284,66044,1,2,0:2:0:0:
328,184,66202,70,0,L|324:128,2,34,0|0|8,0:0|0:0|0:0,0:0:0:0:
420,228,66516,1,8,0:0:0:0:
244,244,66673,2,0,L|160:252,1,68,2|0,0:2|0:0,0:0:0:0:
104,120,66987,5,2,0:2:0:0:
196,160,67144,1,2,0:2:0:0:
156,252,67301,1,2,0:2:0:0:
64,208,67458,1,2,0:2:0:0:
220,152,67615,69,8,0:0:0:0:
72,308,67929,1,2,0:2:0:0:
72,308,68086,1,2,0:2:0:0:
104,96,68401,1,2,0:2:0:0:
104,96,68559,1,2,0:2:0:0:
176,168,68715,5,0,0:0:0:0:
176,168,68793,1,0,0:0:0:0:
176,168,68872,2,0,P|229:168|276:156,2,90.6666666666667,12|12|12,0:0|0:0|0:0,0:0:0:0:
316,76,69500,69,2,0:2:0:0:
368,164,69657,1,2,0:2:0:0:
312,248,69814,1,2,0:2:0:0:
212,244,69971,1,2,0:2:0:0:
216,72,70128,5,8,0:0:0:0:
444,164,70442,1,2,0:2:0:0:
444,164,70599,1,2,0:2:0:0:
212,244,70914,1,2,0:2:0:0:
212,244,71071,1,2,0:2:0:0:
264,160,71228,69,0,0:0:0:0:
264,160,71306,1,0,0:0:0:0:
264,160,71385,1,8,0:0:0:0:
160,144,71542,2,0,L|168:108,2,22.6666666666667,0|0|0,0:0|0:0|0:0,0:0:0:0:
152,160,71699,2,0,L|60:180,1,68,12|0,0:0|0:0,0:0:0:0:
212,244,72013,5,6,0:2:0:0:
252,136,72170,1,8,0:0:0:0:
312,256,72327,1,0,0:0:0:0:
348,112,72484,2,0,P|390:104|436:104,1,85,2|0,0:2|0:0,0:0:0:0:
460,276,72798,1,8,0:0:0:0:
400,196,72955,1,0,0:0:0:0:
400,356,73113,70,0,P|344:368|264:352,1,127.5,6|0,0:2|0:0,0:0:0:0:
252,336,73427,2,0,L|240:248,1,85,8|0,0:0|0:0,0:0:0:0:
348,112,73741,2,0,L|340:204,1,85,6|0,0:2|0:0,0:0:0:0:
232,144,74055,1,0,0:0:0:0:
288,40,74212,1,0,0:0:0:0:
312,36,74291,1,0,0:0:0:0:
336,32,74369,1,0,0:0:0:0:
360,28,74448,1,0,0:0:0:0:
384,24,74526,5,2,0:2:0:0:
448,100,74683,1,2,0:2:0:0:
388,180,74840,1,8,0:0:0:0:
456,252,74997,1,2,0:2:0:0:
456,252,75076,1,0,0:0:0:0:
456,252,75154,2,0,B|456:292|456:292|444:336,1,76.4999976654053,2|0,0:2|0:0,0:0:0:0:
300,368,75469,69,8,0:0:0:0:
224,300,75626,2,0,B|214:264|214:264|214:224,1,76.4999976654053,2|0,0:2|0:0,0:0:0:0:
312,252,75940,1,2,0:2:0:0:
152,356,76097,2,0,L|68:348,1,76.4999976654053,8|0,0:0|0:0,0:0:0:0:
214,224,76411,1,0,0:0:0:0:
214,224,76568,1,0,0:0:0:0:
300,368,76725,2,0,P|296:320|284:284,1,76.4999976654053,12|0,0:0|0:0,0:0:0:0:
124,272,77039,5,2,0:2:0:0:
200,348,77196,1,2,0:2:0:0:
268,264,77353,1,8,0:0:0:0:
196,184,77510,1,2,0:2:0:0:
196,184,77589,1,0,0:0:0:0:
196,184,77668,2,0,L|116:156,1,76.4999976654053,2|0,0:2|0:0,0:0:0:0:
124,272,77982,69,8,0:0:0:0:
280,252,78139,2,0,L|372:236,1,76.4999976654053,2|0,0:2|0:0,0:0:0:0:
208,332,78453,1,2,0:2:0:0:
195,183,78610,2,0,L|192:104,1,76.4999976654053,8|0,0:0|0:0,0:0:0:0:
280,252,78924,1,0,0:0:0:0:
280,252,79081,1,0,0:0:0:0:
104,204,79238,2,0,L|96:68,1,114.749996498108,12|0,0:0|2:0,0:0:0:0:
96,60,79552,5,6,0:2:0:0:
232,168,79709,1,0,0:0:0:0:
108,236,79866,1,8,0:0:0:0:
200,72,80024,2,0,L|196:20,2,42.5,0|0|0,0:0|0:0|0:0,0:0:0:0:
256,188,80338,2,0,L|260:240,2,42.5,0|0|8,0:0|0:0|0:0,0:0:0:0:
300,40,80652,69,2,0:2:0:0:
344,132,80809,1,0,0:0:0:0:
200,72,80966,1,0,0:0:0:0:
400,12,81123,2,0,B|444:16|444:16|488:36,1,85,8|0,0:0|0:0,0:0:0:0:
424,92,81359,1,0,0:0:0:0:
424,92,81437,2,0,B|421:133|421:133|432:188,1,85,8|0,0:0|0:0,0:0:0:0:
496,216,81673,1,0,0:0:0:0:
496,216,81751,2,0,B|496:260|496:260|488:312,1,85,8|2,0:0|0:2,0:0:0:0:
308,308,82065,5,0,0:0:0:0:
372,152,82223,1,0,0:0:0:0:
396,252,82380,1,8,0:0:0:0:
268,152,82537,2,0,L|276:96,2,42.5,0|0|8,0:0|0:0|0:0,0:0:0:0:
400,328,82851,2,0,L|412:388,2,42.5,0|0|8,0:0|0:0|0:0,0:0:0:0:
372,152,83165,1,2,0:2:0:0:
308,324,83322,70,0,L|286:382,3,42.5,0|0|0|0,0:0|0:0|0:0|0:0,0:0:0:0:
236,264,83636,2,0,L|215:318,3,42.5,8|0|0|0,0:0|0:0|0:0|0:0,0:0:0:0:
132,332,83950,1,8,0:0:0:0:
104,324,84029,1,0,0:0:0:0:
80,304,84107,1,0,0:0:0:0:
64,276,84186,1,0,0:0:0:0:
60,248,84264,2,0,B|68:192|100:156|100:156|112:169|120:184,1,127.5,12|0,0:0|0:0,0:0:0:0:
148,248,84579,5,2,0:2:0:0:
164,56,84736,1,2,0:2:0:0:
224,156,84893,1,2,0:2:0:0:
40,200,85050,1,2,0:2:0:0:
48,88,85207,1,2,0:2:0:0:
48,88,85521,69,2,0:2:0:0:
244,164,85678,1,2,0:2:0:0:
244,164,85992,5,2,0:2:0:0:
412,36,86149,1,2,0:2:0:0:
412,36,86463,69,2,0:2:0:0:
368,146,86620,1,2,0:2:0:0:
276,71,86777,1,10,0:0:0:0:
449,145,86935,1,10,0:0:0:0:
288,240,87092,1,10,0:0:0:0:
288,240,87406,5,10,0:0:0:0:
368,40,87563,1,10,0:0:0:0:
368,40,87877,69,10,0:0:0:0:
404,268,88034,1,10,0:0:0:0:
435,153,88191,22,0,B|368:144|316:192|316:192|288:172|296:136,1,191.25,2|0,0:0|0:0,0:0:0:0:
295,138,88976,1,8,0:0:0:0:
404,268,89291,1,8,0:0:0:0:
212,212,89605,6,0,P|184:120|236:40,1,187.000005706787,6|8,0:2|0:0,0:0:0:0:
295,138,90076,1,2,0:2:0:0:
92,188,90233,2,0,P|84:148|92:84,1,93.5000028533936,2|0,0:2|0:0,0:0:0:0:
224,228,90547,2,0,P|224:300|216:332,1,93.5000028533936,8|0,0:0|0:0,0:0:0:0:
152,360,90783,1,0,0:0:0:0:
152,360,90861,6,0,L|36:344,1,93.5000028533936,2|0,0:2|0:0,0:0:0:0:
180,140,91175,2,0,L|276:132,1,93.5000028533936,8|2,0:0|0:2,0:0:0:0:
432,264,91490,2,0,P|328:300|264:260,1,187.000005706787,2|8,0:2|0:0,0:0:0:0:
352,200,91961,1,0,0:0:0:0:
204,324,92118,6,0,B|184:336|184:336|148:252|180:164,1,187.000005706787,2|8,0:2|0:0,0:0:0:0:
296,280,92589,1,2,0:2:0:0:
388,232,92746,2,0,P|398:192|396:132,1,93.5000028533936,2|0,0:2|0:0,0:0:0:0:
276,8,93060,2,0,P|284:52|316:108,1,93.5000028533936,8|0,0:0|0:0,0:0:0:0:
384,116,93296,1,0,0:0:0:0:
384,116,93374,54,0,B|432:108|432:108|496:112,1,93.5000028533936,2|0,0:2|0:0,0:0:0:0:
212,112,93688,2,0,B|192:68|192:68|184:0,1,93.5000028533936,12|2,0:0|0:2,0:0:0:0:
272,208,94003,2,0,B|212:216|212:216|148:204|148:204|84:212,1,187.000005706787,2|12,0:2|0:0,0:0:0:0:
148,308,94474,1,0,0:0:0:0:
272,208,94631,5,6,0:2:0:0:
212,112,94788,1,0,0:0:0:0:
332,40,94945,1,8,0:0:0:0:
296,200,95102,1,2,0:2:0:0:
118,104,95259,2,0,L|218:112,1,93.5000028533936,2|0,0:2|0:0,0:0:0:0:
336,196,95573,2,0,L|432:180,1,93.5000028533936,8|2,0:0|0:2,0:0:0:0:
144,228,95887,6,0,L|240:212,1,93.5000028533936,2|0,0:2|0:0,0:0:0:0:
360,72,96202,2,0,L|456:80,1,93.5000028533936,8|0,0:0|0:0,0:0:0:0:
336,196,96516,1,2,0:2:0:0:
320,68,96673,1,0,0:0:0:0:
452,184,96830,2,0,B|448:232|448:232|428:272,1,93.5000028533936,8|0,0:0|0:0,0:0:0:0:
200,368,97144,54,0,B|160:288|160:288|172:192,1,187.000005706787,2|8,0:2|0:0,0:0:0:0:
360,160,97615,1,2,0:2:0:0:
248,88,97772,1,2,0:2:0:0:
256,272,97929,1,0,0:0:0:0:
256,272,98008,1,0,0:0:0:0:
256,272,98086,2,0,L|268:176,1,93.5000028533936,8|2,0:0|0:2,0:0:0:0:
132,16,98401,6,0,L|152:112,1,93.5000028533936,2|0,0:2|0:0,0:0:0:0:
120,236,98715,1,12,0:0:0:0:
40,92,98872,1,2,0:2:0:0:
160,136,99029,1,2,0:2:0:0:
20,220,99186,2,0,L|-20:204,2,31.1666676177979
20,220,99343,2,0,B|52:232|52:232|127:222|127:222|160:228,1,140.25000428009,12|0,0:0|2:0,0:0:0:0:
188,240,99657,6,0,B|236:256|280:240|280:240|324:224|380:236,1,187.000005706787,6|8,0:2|0:0,0:0:0:0:
236,152,100128,1,2,0:2:0:0:
332,328,100285,2,0,P|380:332|432:320,1,93.5000028533936,2|0,0:2|0:0,0:0:0:0:
488,136,100599,2,0,P|442:127|395:129,1,93.5000028533936,8|0,0:0|0:0,0:0:0:0:
395,128,100835,1,0,0:0:0:0:
395,128,100914,53,2,0:2:0:0:
332,212,101071,1,0,0:0:0:0:
480,320,101228,1,8,0:0:0:0:
436,224,101385,1,2,0:2:0:0:
280,304,101542,2,0,P|325:316|371:310,2,93.5000028533936,2|0|8,0:2|0:0|0:0,0:0:0:0:
332,212,102013,1,0,0:0:0:0:
220,376,102170,6,0,P|185:306|192:188,1,187.000005706787,2|8,0:2|0:0,0:0:0:0:
296,224,102641,1,2,0:2:0:0:
392,72,102798,2,0,P|395:119|384:172,1,93.5000028533936,2|0,0:2|0:0,0:0:0:0:
216,108,103113,2,0,P|209:61|216:12,1,93.5000028533936,8|0,0:0|0:0,0:0:0:0:
215,15,103348,1,0,0:0:0:0:
215,15,103427,5,2,0:2:0:0:
316,64,103584,1,0,0:0:0:0:
120,72,103741,1,12,0:0:0:0:
221,121,103898,1,2,0:2:0:0:
24,128,104055,2,0,P|12:84|16:28,2,93.5000028533936,2|0|12,0:2|0:0|0:0,0:0:0:0:
124,180,104526,1,2,0:2:0:0:
20,328,104683,54,0,B|32:236,1,93.5000028533936,6|0,0:2|0:0,0:0:0:0:
221,121,104997,2,0,B|233:229,1,93.5000028533936,8|2,0:0|0:2,0:0:0:0:
120,72,105312,1,2,0:2:0:0:
120,72,105469,1,0,0:0:0:0:
272,28,105626,2,0,B|320:28|320:28|372:48,1,93.5000028533936,8|2,0:0|0:2,0:0:0:0:
221,121,105940,5,2,0:2:0:0:
221,121,106097,1,0,0:0:0:0:
373,165,106254,2,0,B|421:165|421:165|473:145,1,93.5000028533936,8|0,0:0|0:0,0:0:0:0:
292,304,106568,2,0,P|276:248|276:196,1,93.5000028533936,2|0,0:2|0:0,0:0:0:0:
444,288,106882,2,0,P|440:334|426:378,1,93.5000028533936,8|0,0:0|0:0,0:0:0:0:
167,224,107196,6,0,P|196:139|281:106,1,187.000005706787,2|8,0:2|0:0,0:0:0:0:
274,213,107668,1,0,0:0:0:0:
200,40,107825,1,2,0:2:0:0:
374,114,107982,1,0,0:0:0:0:
374,114,108060,1,0,0:0:0:0:
374,114,108139,2,0,L|278:106,1,93.5000028533936,12|0,0:0|0:0,0:0:0:0:
160,160,108453,53,2,0:2:0:0:
274,213,108610,1,0,0:0:0:0:
80,228,108767,2,0,B|60:184|60:184|60:124,1,93.5000028533936,8|2,0:0|0:2,0:0:0:0:
264,100,109081,1,2,0:2:0:0:
176,264,109238,2,0,L|160:296,2,31.1666676177979,0|0|0,0:0|0:0|0:0,0:0:0:0:
176,264,109395,2,0,L|271:258,1,93.5000028533936,12|0,0:0|0:0,0:0:0:0:
380,188,109709,5,12,0:0:0:0:
269,258,109866,1,0,0:0:0:0:
288,168,110024,1,8,0:0:0:0:
361,278,110181,1,0,0:0:0:0:
269,258,110338,2,0,B|232:240|232:240|200:204,1,85,8|0,0:0|0:0,0:0:0:0:
400,100,110652,2,0,B|437:118|437:118|469:154,1,85,8|0,0:0|0:0,0:0:0:0:
364,284,110966,5,12,0:0:0:0:
283,162,111123,1,0,0:0:0:0:
386,182,111281,1,8,0:0:0:0:
262,262,111438,1,0,0:0:0:0:
283,162,111595,2,0,B|302:121|302:121|342:86,1,93.5000028533936,8|0,0:0|0:0,0:0:0:0:
460,306,111909,2,0,B|440:346|440:346|400:381,1,93.5000028533936,8|0,0:0|0:0,0:0:0:0:
256,268,112223,53,8,0:0:0:0:
392,179,112380,1,0,0:0:0:0:
368,292,112538,1,12,0:0:0:0:
279,157,112695,1,0,0:0:0:0:
392,179,112852,2,0,B|436:200|436:200|475:244,1,101.999996887207,8|0,0:0|0:0,0:0:0:0:
230,375,113166,2,0,B|185:353|185:353|146:309,1,101.999996887207,8|0,0:0|0:0,0:0:0:0:
140,284,113401,1,0,0:0:0:0:
140,284,113479,5,6,0:2:0:0:
308,164,113636,1,2,0:2:0:0:
120,80,113793,1,2,0:2:0:0:
188,180,114421,2,0,P|228:184|244:188,1,46.7500014266968,2|0,2:0|2:0,0:0:0:0:
308,164,114579,2,0,P|336:163|368:156,1,46.7500014266968,2|0,2:0|2:0,0:0:0:0:
424,196,114736,38,0,P|432:236|432:280,1,85,6|2,0:2|0:0,0:0:0:0:
268,120,115050,2,2,P|308:124|362:124,1,85,10|0,0:0|0:0,0:0:0:0:
244,240,115364,2,2,P|148:208|88:232,1,170,2|8,0:0|0:0,0:0:0:0:
244,344,115835,70,2,P|300:328|324:308,1,85,2|0,0:0|0:0,0:0:0:0:
328,172,116149,1,2,0:0:0:0:
244,240,116306,1,8,0:0:0:0:
344,276,116463,1,2,0:0:0:0:
228,140,116620,2,2,P|184:132|124:136,1,85,2|0,0:0|0:0,0:0:0:0:
328,172,116935,2,0,B|348:152|348:152|356:104|332:52,1,127.5,8|0,0:0|0:0,0:0:0:0:
312,32,117249,6,2,L|200:36,1,85,2|0,0:0|0:0,0:0:0:0:
452,132,117563,2,2,P|448:180|436:216,1,85,10|0,0:0|0:0,0:0:0:0:
244,124,117877,2,0,L|152:132,2,85,2|0|0,0:0|0:0|0:0,0:0:0:0:
272,224,118348,70,2,P|264:268|264:320,1,85,10|0,0:0|0:0,0:0:0:0:
344,152,118662,1,0,0:0:0:0:
236,40,118819,1,12,0:0:0:0:
340,52,118976,1,2,0:0:0:0:
196,128,119133,1,0,0:0:0:0:
304,244,119291,1,2,0:0:0:0:
304,244,119369,1,0,0:0:0:0:
304,244,119448,2,0,L|392:240,1,85,12|0,0:0|0:0,0:0:0:0:
220,316,119762,5,6,0:2:0:0:
304,244,119919,1,2,0:0:0:0:
128,252,120076,2,0,P|112:296|112:344,1,85,8|2,0:0|0:0,0:0:0:0:
252,156,120390,2,2,P|252:112|236:64,1,85,2|0,0:0|0:0,0:0:0:0:
148,128,120704,1,10,0:0:0:0:
248,256,120861,70,2,P|284:248|328:224,1,85,2|0,0:0|0:0,0:0:0:0:
252,156,121175,1,2,0:0:0:0:
148,284,121332,1,8,0:0:0:0:
148,128,121490,1,2,0:0:0:0:
248,256,121647,2,0,P|244:308|232:344,1,85,2|2,0:0|0:0,0:0:0:0:
20,228,121961,2,0,P|4:192|4:136,1,85,8|0,0:0|0:0,0:0:0:0:
20,124,122196,1,0,0:0:0:0:
40,104,122275,6,0,L|88:88,3,42.5,2|0|0|0,3:2|3:0|3:0|3:0,0:0:0:0:
148,128,122589,2,0,L|196:112,3,42.5,2|0|0|0,3:2|3:0|3:0|3:0,0:0:0:0:
144,48,122903,69,12,0:0:0:0:
152,256,123060,1,12,0:0:0:0:
152,256,123374,6,0,L|148:160,1,85,12|0,0:0|0:0,0:0:0:0:
308,40,123688,2,0,L|304:92,1,42.5,2|0,0:2|0:0,0:0:0:0:
352,144,123846,2,0,B|396:144|396:144|456:120,1,85,2|0,3:2|3:0,0:0:0:0:
204,56,124160,2,0,L|136:64,1,42.5,12|0,0:0|0:0,0:0:0:0:
192,132,124317,2,0,L|156:176,1,42.5,2|0,0:2|0:0,0:0:0:0:
236,196,124474,2,0,B|252:236|252:236|256:280,1,85,0|6,0:0|0:2,0:0:0:0:
272,236,128401,70,0,P|328:232|352:112,1,170,12|8,0:0|0:0,0:0:0:0:
176,196,128872,1,12,0:0:0:0:
176,196,129186,2,0,L|168:256,3,42.5,8|8|8|8,0:0|0:0|0:0|0:0,0:0:0:0:
108,288,129500,1,8,0:0:0:0:
76,284,129579,1,8,0:0:0:0:
44,268,129657,1,8,0:0:0:0:
24,240,129736,1,8,0:0:0:0:
16,208,129814,6,0,L|28:116,1,85,6|0,0:2|0:0,0:0:0:0:
164,16,130128,2,0,L|172:108,1,85,8|0,0:0|0:0,0:0:0:0:
140,308,130442,2,0,L|132:212,1,85,2|0,0:2|0:0,0:0:0:0:
296,104,130757,1,8,0:0:0:0:
380,160,130914,70,0,P|324:200|225:176,1,170,2|2,0:2|0:2,0:0:0:0:
160,40,131385,2,0,P|200:28|244:24,1,85,8|0,0:0|0:0,0:0:0:0:
388,60,131699,1,2,0:2:0:0:
296,104,131856,1,0,0:0:0:0:
444,224,132013,1,8,0:0:0:0:
468,124,132170,1,2,0:2:0:0:
344,248,132327,6,0,P|336:288|344:344,1,85,0|2,0:0|0:2,0:0:0:0:
468,124,132641,2,0,B|426:120|426:120|384:128,1,85,8|0,0:0|0:0,0:0:0:0:
172,228,132955,2,0,B|213:231|213:231|256:224,1,85,2|0,0:2|0:0,0:0:0:0:
208,132,133270,1,8,0:0:0:0:
252,316,133427,1,2,0:2:0:0:
336,160,133584,70,0,B|344:112|344:112|320:32,2,127.5,8|0|8,0:0|0:0|0:0,0:0:0:0:
208,132,134212,2,0,L|180:36,1,85,2|0,0:2|0:0,0:0:0:0:
328,184,134526,1,2,0:2:0:0:
204,232,134683,6,0,P|168:284|184:380,1,152.999995330811,6|0,0:2|0:0,0:0:0:0:
268,316,135154,1,8,0:0:0:0:
308,220,135312,1,0,0:0:0:0:
308,220,135390,1,0,0:0:0:0:
308,220,135469,2,0,L|300:132,1,76.4999976654053,0|0,0:0|0:0,0:0:0:0:
204,232,135783,1,8,0:0:0:0:
356,312,135940,70,0,P|417:305|460:216,1,152.999995330811,2|0,0:2|0:0,0:0:0:0:
372,136,136411,2,0,P|376:88|392:52,1,76.4999976654053,8|0,0:0|0:0,0:0:0:0:
408,44,136647,1,0,0:0:0:0:
408,44,136725,2,0,L|500:52,2,76.4999976654053,0|0|8,0:0|0:0|0:0,0:0:0:0:
240,160,137196,6,0,P|191:167|116:88,1,152.999995330811,0|0,0:0|0:0,0:0:0:0:
308,16,137668,2,0,L|316:100,1,76.4999976654053,8|0,0:0|0:0,0:0:0:0:
332,116,137903,1,0,0:0:0:0:
332,116,137982,2,0,L|340:200,2,76.4999976654053,0|0|0,0:0|0:0|0:0,0:0:0:0:
420,252,138453,70,0,P|368:288|268:264,1,152.999995330811,12|0,0:0|0:0,0:0:0:0:
240,136,138924,1,12,0:0:0:0:
339,192,139081,1,0,0:0:0:0:
252,260,139238,2,0,L|200:268,3,38.2499988327027,8|0|0|0,0:0|0:0|0:0|0:0,0:0:0:0:
152,216,139552,2,0,L|100:224,3,38.2499988327027,8|0|0|0,0:0|0:0|0:0|0:0,0:0:0:0:
60,280,139866,5,6,0:2:0:0:
124,144,140024,1,0,0:0:0:0:
60,280,140181,2,0,B|76:304|76:304|120:328|176:320,1,127.5,8|0,0:0|0:0,0:0:0:0:
204,312,140495,1,2,0:2:0:0:
272,180,140652,1,0,0:0:0:0:
204,312,140809,2,0,B|256:308|299:328|299:328|320:296,1,127.5,8|0,0:0|0:0,0:0:0:0:
328,272,141123,69,0,0:0:0:0:
192,196,141280,1,2,0:2:0:0:
364,156,141437,1,8,0:0:0:0:
252,92,141594,1,0,0:0:0:0:
256,116,141673,1,0,0:0:0:0:
260,140,141751,1,2,0:2:0:0:
356,240,141908,2,0,L|364:156,1,85,0|8,0:0|0:0,0:0:0:0:
200,4,142223,6,0,P|168:32|148:80,1,85,0|0,0:0|0:0,0:0:0:0:
344,136,142537,1,2,0:2:0:0:
252,92,142694,2,0,P|244:140|252:184,1,85,8|0,0:0|0:0,0:0:0:0:
356,240,143008,1,2,0:2:0:0:
268,72,143165,1,12,0:0:0:0:
152,160,143322,1,0,0:0:0:0:
344,136,143479,1,12,0:0:0:0:
244,258,143636,70,0,P|240:216|249:175,1,85,0|2,0:0|0:2,0:0:0:0:
388,232,143950,1,8,0:0:0:0:
408,254,144029,1,0,0:0:0:0:
420,280,144107,1,8,0:0:0:0:
422,309,144186,1,0,0:0:0:0:
416,337,144264,2,0,L|324:361,1,85,2|0,0:2|0:0,0:0:0:0:
244,258,144579,2,0,L|152:282,1,85,8|2,0:0|0:2,0:0:0:0:
76,360,144893,5,6,0:2:0:0:
64,264,145050,1,2,0:2:0:0:
161,279,145207,1,2,0:2:0:0:
172,376,145364,1,2,0:2:0:0:
64,264,145521,69,8,0:0:0:0:
292,220,145835,1,2,0:2:0:0:
292,220,145992,1,2,0:2:0:0:
120,68,146306,1,2,0:2:0:0:
120,68,146463,1,2,0:2:0:0:
208,28,146620,6,0,L|252:24,2,34,0|0|8,0:0|0:0|0:0,0:0:0:0:
112,44,146935,1,8,0:0:0:0:
80,136,147092,1,0,0:0:0:0:
328,200,147406,69,6,0:2:0:0:
296,108,147563,1,2,0:2:0:0:
228,180,147720,1,2,0:2:0:0:
260,272,147877,1,2,0:2:0:0:
392,128,148034,5,8,0:0:0:0:
136,192,148348,1,2,0:2:0:0:
136,192,148505,1,2,0:2:0:0:
388,272,148819,1,2,0:2:0:0:
388,272,148976,2,0,L|376:224,1,34,2|8,0:2|0:0,0:0:0:0:
436,184,149133,2,0,L|440:140,1,34,0|0,3:0|3:0,0:0:0:0:
380,96,149291,70,0,B|387:73|387:73|388:48,2,45.3333333333333,8|0|0,0:0|3:0|3:0,0:0:0:0:
304,144,149605,2,0,B|283:144|283:144|259:136,2,45.3333333333333,0|0|8,3:0|3:0|3:0,0:0:0:0:
296,56,149919,5,6,0:2:0:0:
196,72,150076,1,2,0:2:0:0:
176,172,150233,1,2,0:2:0:0:
260,228,150390,1,2,0:2:0:0:
196,72,150547,69,8,0:0:0:0:
208,312,150861,1,2,0:2:0:0:
208,312,151018,1,2,0:2:0:0:
412,184,151332,1,2,0:2:0:0:
412,184,151489,1,2,0:2:0:0:
304,192,151647,5,0,0:0:0:0:
304,192,151725,1,0,0:0:0:0:
304,192,151804,1,8,0:0:0:0:
368,280,151961,2,0,L|356:312,2,22.6666666666667,0|0|0,0:0|0:0|0:0,0:0:0:0:
376,260,152118,2,0,L|476:252,1,68,12|0,0:0|0:0,0:0:0:0:
368,116,152432,69,6,0:2:0:0:
304,192,152589,1,8,0:0:0:0:
252,92,152746,1,0,0:0:0:0:
180,196,152903,2,0,B|172:240|172:240|180:288,1,85,2|0,0:2|0:0,0:0:0:0:
328,348,153217,1,8,0:0:0:0:
272,236,153374,1,0,0:0:0:0:
360,148,153531,6,0,P|422:151|471:191,1,127.5,12|0,0:0|0:0,0:0:0:0:
484,220,153846,2,0,L|476:308,1,85,8|0,0:0|0:0,0:0:0:0:
265,320,154160,2,0,L|273:216,1,85,12|0,0:0|0:0,0:0:0:0:
364,288,154474,1,0,0:0:0:0:
172,272,154631,1,0,0:0:0:0:
164,244,154710,1,0,0:0:0:0:
164,216,154788,1,0,0:0:0:0:
172,188,154867,1,0,0:0:0:0:
188,168,154945,69,2,0:2:0:0:
271,235,155102,1,2,0:2:0:0:
336,152,155259,1,8,0:0:0:0:
432,196,155416,1,2,0:2:0:0:
432,196,155495,1,0,0:0:0:0:
432,196,155573,2,0,P|440:144|436:116,1,76.4999976654053,2|0,0:2|0:0,0:0:0:0:
344,248,155887,5,8,0:0:0:0:
436,292,156044,2,0,P|472:296|512:292,1,76.4999976654053,2|0,0:2|0:0,0:0:0:0:
344,248,156359,1,2,0:2:0:0:
252,297,156516,2,0,P|242:261|244:221,1,76.4999976654053,8|0,0:0|0:0,0:0:0:0:
320,116,156830,1,0,0:0:0:0:
320,116,156987,1,0,0:0:0:0:
144,132,157144,2,0,L|236:124,1,76.4999976654053,12|0,0:0|0:0,0:0:0:0:
348,216,157458,69,2,0:2:0:0:
243,221,157615,1,2,0:2:0:0:
256,120,157772,1,8,0:0:0:0:
360,112,157929,1,2,0:2:0:0:
360,112,158008,1,0,0:0:0:0:
360,112,158087,2,0,L|436:104,1,76.4999976654053,2|0,0:2|0:0,0:0:0:0:
348,216,158401,5,8,0:0:0:0:
260,152,158558,2,0,B|244:188|244:188|240:240,1,76.4999976654053,2|0,0:2|0:0,0:0:0:0:
336,372,158872,1,2,0:2:0:0:
396,292,159029,2,0,B|393:255|393:255|377:219,1,76.4999976654053,8|0,0:0|0:0,0:0:0:0:
196,288,159343,1,0,0:0:0:0:
296,280,159500,1,0,0:0:0:0:
128,212,159657,2,0,P|100:264|108:340,1,114.749996498108,12|0,0:0|2:0,0:0:0:0:
118,346,159971,69,6,0:2:0:0:
248,297,160128,1,0,0:0:0:0:
156,192,160285,2,0,P|144:152|144:96,1,85,8|0,0:0|0:0,0:0:0:0:
204,56,160521,1,0,0:0:0:0:
204,56,160599,2,0,P|244:65|293:93,1,85,8|0,0:0|0:0,0:0:0:0:
296,164,160835,1,0,0:0:0:0:
296,164,160914,2,0,P|267:194|218:222,1,85,8|2,0:0|0:2,0:0:0:0:
64,168,161228,5,2,0:2:0:0:
220,136,161385,1,0,0:0:0:0:
152,252,161542,1,8,0:0:0:0:
104,92,161699,2,0,L|112:36,2,42.5,0|0|8,0:0|0:0|0:0,0:0:0:0:
230,217,162013,2,0,L|238:273,2,42.5,0|0|8,0:0|0:0|0:0,0:0:0:0:
312,68,162327,1,2,0:2:0:0:
448,168,162484,70,0,P|405:177|356:168,1,85,2|0,0:2|0:0,0:0:0:0:
192,248,162798,2,0,P|234:238|284:248,1,85,8|0,0:0|0:0,0:0:0:0:
296,256,163034,1,0,0:0:0:0:
316,268,163113,6,0,P|360:276|424:252,1,113.333333333333,8|0,0:0|0:0,0:0:0:0:
448,168,163427,1,8,0:0:0:0:
260,60,163584,2,0,L|268:20,2,28.3333333333333,2|0|0,0:2|0:0|0:0,0:0:0:0:
260,60,163741,70,0,P|192:60|140:92,1,113.333333333333,6|0,0:2|3:0,0:0:0:0:
112,176,164055,2,0,P|116:204|116:240,2,56.6666666666667,8|8|8,0:0|0:0|0:0,0:0:0:0:
212,216,164369,2,0,P|209:253|204:276,2,56.6666666666667,0|0|0,3:0|3:0|3:0,0:0:0:0:
300,280,164683,2,0,P|292:308|276:340,2,56.6666666666667,8|8|8,0:0|0:0|0:0,0:0:0:0:
308,176,164997,5,2,0:2:0:0:
400,272,165154,1,2,0:2:0:0:
300,280,165312,1,2,0:2:0:0:
440,184,165469,1,2,0:2:0:0:
453,354,165626,1,2,0:2:0:0:
453,354,165940,69,2,0:2:0:0:
272,266,166097,1,2,0:2:0:0:
272,266,166411,5,2,0:2:0:0:
448,132,166568,1,2,0:2:0:0:
448,132,166882,69,2,0:2:0:0:
320,64,167039,1,2,0:2:0:0:
387,217,167196,1,10,0:0:0:0:
328,40,167353,1,10,0:0:0:0:
168,136,167510,1,10,0:0:0:0:
168,136,167825,5,10,0:0:0:0:
376,188,167982,1,10,0:0:0:0:
376,188,168296,69,10,0:0:0:0:
144,248,168453,1,10,0:0:0:0:
256,216,168610,22,0,L|264:132,1,85,2|0,0:0|1:0,0:0:0:0:
276,44,169081,1,8,1:0:0:0:
264,131,169238,1,0,3:0:0:0:
192,76,169395,1,8,3:0:0:0:
364,212,169709,1,8,3:0:0:0:
144,296,170024,6,0,P|92:228|124:116,1,187.000005706787,6|8,0:2|0:0,0:0:0:0:
196,200,170495,1,2,0:2:0:0:
76,368,170652,2,0,P|36:336|12:292,1,93.5000028533936,2|0,0:2|0:0,0:0:0:0:
144,296,170966,1,8,0:0:0:0:
228,360,171123,1,0,0:0:0:0:
228,360,171202,1,0,0:0:0:0:
228,360,171280,6,0,L|328:348,1,93.5000028533936,2|0,0:2|0:0,0:0:0:0:
352,204,171594,2,0,L|259:215,1,93.5000028533936,8|2,0:0|0:2,0:0:0:0:
448,280,171908,2,0,B|476:228|476:228|460:92,1,187.000005706787,2|8,0:2|0:0,0:0:0:0:
264,32,172380,1,0,0:0:0:0:
220,128,172537,6,0,P|304:128|368:48,1,187.000005706787,2|8,0:2|0:0,0:0:0:0:
224,236,173008,1,2,0:2:0:0:
120,176,173165,2,0,P|85:164|20:156,1,93.5000028533936,2|0,0:2|0:0,0:0:0:0:
132,288,173479,1,8,0:0:0:0:
220,128,173636,1,2,0:2:0:0:
220,128,173715,1,0,0:0:0:0:
220,128,173793,54,0,B|231:82|231:82|232:28,1,93.5000028533936,2|0,0:2|0:0,0:0:0:0:
288,216,174107,2,0,B|277:261|277:261|276:316,1,93.5000028533936,12|2,0:0|0:2,0:0:0:0:
448,348,174421,1,2,0:2:0:0:
376,276,174579,1,0,0:0:0:0:
452,128,174736,2,0,B|463:173|463:173|464:228,1,93.5000028533936,12|0,0:0|0:0,0:0:0:0:
288,340,175050,6,0,B|188:348,1,93.5000028533936,6|0,0:2|0:0,0:0:0:0:
320,212,175364,1,8,0:0:0:0:
308,336,175521,1,2,0:2:0:0:
216,240,175678,2,0,P|216:196|236:140,1,93.5000028533936,2|0,0:2|0:0,0:0:0:0:
436,84,175992,2,0,P|436:128|416:184,1,93.5000028533936,8|2,0:0|0:2,0:0:0:0:
192,216,176306,6,0,P|192:172|212:116,1,93.5000028533936,2|0,0:2|0:0,0:0:0:0:
460,108,176620,2,0,P|460:152|440:208,1,93.5000028533936,8|0,0:0|0:0,0:0:0:0:
280,263,176935,1,2,0:2:0:0:
356,140,177092,1,0,0:0:0:0:
380,269,177249,1,8,0:0:0:0:
264,140,177406,1,2,0:2:0:0:
431,56,177563,54,0,P|462:126|421:230,1,187.000005706787,2|8,0:2|0:0,0:0:0:0:
261,227,178034,1,2,0:2:0:0:
356,140,178191,1,2,0:2:0:0:
196,68,178348,1,0,0:0:0:0:
196,68,178427,1,0,0:0:0:0:
196,68,178505,2,0,L|204:176,1,93.5000028533936,8|0,0:0|0:0,0:0:0:0:
359,232,178819,6,0,B|363:204|363:204|355:139,1,93.5000028533936,2|0,0:2|0:0,0:0:0:0:
196,340,179133,2,0,B|192:312|192:312|200:244,1,93.5000028533936,8|2,0:0|0:2,0:0:0:0:
300,336,179448,1,2,0:2:0:0:
96,304,179605,2,0,L|52:316,2,31.1666676177979,0|0|0,0:0|0:0|0:0,0:0:0:0:
96,304,179762,2,0,B|108:204|108:204|136:172,1,140.25000428009,8|0,0:0|2:0,0:0:0:0:
164,156,180076,6,0,B|212:148|256:168|256:168|300:184|348:168,1,187.000005706787,6|8,0:2|0:0,0:0:0:0:
416,92,180547,1,2,0:2:0:0:
252,204,180704,2,0,P|246:249|256:300,1,93.5000028533936,2|0,0:2|0:0,0:0:0:0:
484,348,181018,2,0,P|488:272|484:252,1,93.5000028533936,8|0,0:0|0:0,0:0:0:0:
468,224,181254,1,0,0:0:0:0:
468,224,181332,53,2,0:2:0:0:
348,252,181490,1,0,0:0:0:0:
340,128,181647,1,8,0:0:0:0:
452,192,181804,1,2,0:2:0:0:
360,281,181961,2,0,L|268:293,1,93.5000028533936,2|0,0:2|0:0,0:0:0:0:
360,100,182275,2,0,L|452:88,1,93.5000028533936,8|2,0:0|0:2,0:0:0:0:
292,180,182589,6,0,P|272:155|312:8,1,187.000005706787,2|8,0:2|0:0,0:0:0:0:
360,100,183060,1,2,0:2:0:0:
188,192,183217,2,0,P|141:191|80:176,1,93.5000028533936,2|0,0:2|0:0,0:0:0:0:
296,232,183531,2,0,P|341:222|388:221,1,93.5000028533936,8|0,0:0|0:0,0:0:0:0:
424,232,183767,1,0,0:0:0:0:
424,232,183846,5,2,0:2:0:0:
302,355,184003,1,0,0:0:0:0:
428,324,184160,1,12,0:0:0:0:
296,232,184317,1,2,0:2:0:0:
414,133,184474,2,0,B|460:143|460:143|503:166,1,93.5000028533936,2|0,0:2|0:0,0:0:0:0:
304,188,184788,2,0,B|292:144|292:144|296:76,1,93.5000028533936,12|2,0:0|0:2,0:0:0:0:
384,268,185102,54,0,L|356:364,1,93.5000028533936,6|0,0:2|0:0,0:0:0:0:
208,232,185416,2,0,L|180:140,1,93.5000028533936,8|2,0:0|0:2,0:0:0:0:
304,188,185730,1,2,0:2:0:0:
260,324,185887,1,0,0:0:0:0:
115,243,186044,2,0,B|163:232|163:232|207:231,1,93.5000028533936,8|2,0:0|0:2,0:0:0:0:
396,300,186359,5,2,0:2:0:0:
260,324,186516,1,0,0:0:0:0:
304,188,186673,2,0,P|344:164|400:152,1,93.5000028533936,8|0,0:0|0:0,0:0:0:0:
336,284,186987,1,2,0:2:0:0:
207,230,187144,1,0,0:0:0:0:
292,96,187301,2,0,P|303:141|304:187,1,93.5000028533936,8|2,0:0|0:2,0:0:0:0:
166,327,187615,6,0,P|108:257|124:168,1,187.000005706787,2|8,0:2|0:0,0:0:0:0:
207,230,188086,1,2,0:2:0:0:
57,268,188243,1,2,0:2:0:0:
152,144,188401,1,0,0:0:0:0:
152,144,188479,1,0,0:0:0:0:
152,144,188558,2,0,L|256:136,1,93.5000028533936,8|0,0:0|0:0,0:0:0:0:
320,284,188872,53,2,0:2:0:0:
207,230,189029,1,0,0:0:0:0:
348,104,189186,2,0,L|334:196,1,93.5000028533936,8|0,0:0|0:0,0:0:0:0:
436,168,189500,1,2,0:2:0:0:
260,44,189657,2,0,L|232:20,2,31.1666676177979,0|0|0,0:0|0:0|0:0,0:0:0:0:
260,44,189814,2,0,L|244:140,1,93.5000028533936,12|0,0:0|0:0,0:0:0:0:
176,216,190128,5,6,0:2:0:0:
244,136,190285,1,0,0:0:0:0:
144,120,190442,1,8,0:0:0:0:
276,232,190599,1,0,0:0:0:0:
144,120,190757,2,0,P|144:78|160:20,1,85,8|0,0:0|0:0,0:0:0:0:
368,76,191071,2,0,P|360:120|340:168,1,85,8|0,0:0|0:0,0:0:0:0:
168,218,191385,5,6,0:2:0:0:
278,236,191542,1,0,0:0:0:0:
242,130,191699,1,8,0:0:0:0:
207,324,191856,1,0,0:0:0:0:
242,130,192014,2,0,P|282:107|346:90,1,93.5000028533936,8|0,0:0|0:0,0:0:0:0:
407,318,192328,2,0,P|360:334|303:342,1,93.5000028533936,8|0,0:0|0:0,0:0:0:0:
163,215,192641,53,6,0:2:0:0:
205,331,192798,1,0,0:0:0:0:
283,234,192955,1,12,0:0:0:0:
88,309,193112,1,0,0:0:0:0:
283,234,193270,2,0,P|333:241|381:263,1,101.999996887207,8|0,0:0|0:0,0:0:0:0:
156,177,193584,2,0,P|161:123|182:68,1,101.999996887207,8|0,0:0|0:0,0:0:0:0:
204,51,193819,1,0,0:0:0:0:
204,51,193898,5,2,0:2:0:0:
283,234,194055,1,2,0:2:0:0:
84,211,194212,1,2,0:2:0:0:
84,211,194526,2,0,L|36:205,3,42.5,2|0|0|0,2:0|2:0|2:0|2:0,0:0:0:0:
77,130,194840,2,0,L|16:122,3,42.5,8|0|0|0,3:0|2:0|2:0|2:0,0:0:0:0:
69,48,195154,21,6,0:2:0:0:
84,211,195312,1,2,0:2:0:0:
69,48,195469,1,2,0:2:0:0:
161,115,195783,5,0,2:0:0:0:
218,18,196097,1,0,2:0:0:0:
286,108,196411,1,0,2:0:0:0:
358,21,196725,1,0,2:0:0:0:
400,101,196882,69,0,0:0:0:0:
400,101,196961,1,0,0:0:0:0:
400,101,197039,2,0,L|476:105,2,50.9999984436036,8|0|0,0:0|0:0|0:0,0:0:0:0:
361,182,197353,2,0,L|305:190,2,50.9999984436036,8|0|0,3:0|3:0|3:0,0:0:0:0:
426,248,197668,5,6,0:2:0:0:
400,101,197825,1,2,0:2:0:0:
426,248,197982,1,2,0:2:0:0:
323,187,198296,69,0,2:0:0:0:
253,282,198610,1,0,2:0:0:0:
183,213,198767,5,8,0:0:0:0:
183,213,198846,1,8,0:0:0:0:
183,213,198924,2,0,B|161:188|161:188|153:96,1,114.749996498108,12|12,0:0|0:0,0:0:0:0:
321,186,199395,2,0,B|343:161|343:161|350:79,2,114.749996498108,12|12|8,0:0|0:0|0:0,0:0:0:0:
271,24,200024,1,0,0:0:0:0:
271,24,200102,1,0,0:0:0:0:
271,24,200181,69,6,0:2:0:0:
451,86,200338,1,2,0:2:0:0:
302,204,200495,1,2,0:2:0:0:
341,107,200809,5,0,2:0:0:0:
412,188,200966,1,0,0:0:0:0:
412,188,201044,1,0,0:0:0:0:
412,188,201123,2,0,L|396:276,1,76.4999976654053,4|0,0:0|0:0,0:0:0:0:
264,300,201437,70,0,P|240:300|220:304,3,38.2499988327027,8|0|2|0,0:0|0:0|0:2|0:0,0:0:0:0:
160,344,201751,2,0,P|140:344|121:341,3,38.2499988327027,2|0|0|0,3:2|3:0|3:0|3:0,0:0:0:0:
64,288,202065,1,8,0:0:0:0:
56,260,202144,1,0,0:0:0:0:
56,232,202223,1,2,0:2:0:0:
64,204,202301,1,0,0:0:0:0:
80,180,202380,2,0,P|92:128|88:56,1,114.749996498108,12|0,0:0|0:0,0:0:0:0:
76,32,202694,5,6,0:2:0:0:
76,32,202851,1,8,0:0:0:0:
240,76,203008,2,0,L|160:84,1,76.4999976654053,8|0,0:0|0:0,0:0:0:0:
340,64,203322,1,6,0:2:0:0:
340,64,203479,1,8,0:0:0:0:
212,172,203636,2,0,L|288:164,1,76.4999976654053,8|0,0:0|0:0,0:0:0:0:
392,152,203950,69,6,0:2:0:0:
240,76,204107,2,0,L|244:24,2,38.2499988327027,8|8|8,0:0|0:0|0:0,0:0:0:0:
348,244,204421,2,0,P|424:248|488:180,1,152.999995330811,2|0,0:2|0:0,0:0:0:0:
260,188,204893,2,0,B|244:224|244:224|252:304,1,114.749996498108,12|0,0:0|2:0,0:0:0:0:
256,328,205207,5,2,0:2:0:0:
348,244,205364,1,2,0:2:0:0:
256,328,205521,2,0,P|176:340|120:324,1,121.124996765614,8|0,0:0|3:0,0:0:0:0:
137,331,205835,2,0,L|124:240,1,80.7499978437424,0|0,3:0|3:0,0:0:0:0:
232,188,206149,2,0,L|244:100,1,80.7499978437424,8|0,0:0|0:0,0:0:0:0:
100,112,206463,69,2,0:2:0:0:
120,224,206620,1,0,0:0:0:0:
232,188,206777,2,0,P|295:189|356:212,1,121.124996765614,8|0,0:0|3:0,0:0:0:0:
349,208,207092,2,0,P|339:165|340:120,1,80.7499978437424,0|0,3:0|3:0,0:0:0:0:
424,276,207406,2,0,P|416:324|404:360,1,80.7499978437424,8|0,0:0|0:0,0:0:0:0:
216,364,207720,5,2,0:2:0:0:
324,296,207877,1,2,0:2:0:0:
212,236,208034,2,0,B|152:228|152:228|76:240,1,121.124996765614,8|0,0:0|3:0,0:0:0:0:
92,237,208348,2,0,L|72:324,1,80.7499978437424,0|0,3:0|3:0,0:0:0:0:
240,188,208662,2,0,L|256:276,1,80.7499978437424,8|0,0:0|0:0,0:0:0:0:
144,156,208976,69,2,0:2:0:0:
224,88,209133,1,0,0:0:0:0:
162,257,209291,2,0,P|102:249|56:212,1,121.124996765614,8|0,0:0|3:0,0:0:0:0:
56,212,209605,2,0,L|48:128,1,80.7499978437424,2|0,0:2|0:0,0:0:0:0:
276,160,209919,2,0,P|236:172|196:172,1,80.7499978437424,12|0,0:0|0:0,0:0:0:0:
224,76,210233,5,2,0:2:0:0:
332,240,210390,1,2,0:2:0:0:
420,140,210547,2,0,P|340:136|280:156,1,121.124996765614,8|0,0:0|3:0,0:0:0:0:
301,146,210861,2,0,P|299:107|308:64,1,80.7499978437424,2|0,0:2|0:0,0:0:0:0:
436,244,211175,2,0,P|440:208|432:156,1,80.7499978437424,8|0,0:0|0:0,0:0:0:0:
352,300,211490,69,2,0:2:0:0:
444,344,211647,1,0,0:0:0:0:
340,204,211804,2,0,B|300:196|300:196|244:204,1,80.7499978437424,8|2,0:0|0:2,0:0:0:0:
192,352,212118,2,0,B|232:360|232:360|288:352,1,80.7499978437424,2|0,0:2|0:0,0:0:0:0:
164,172,212432,2,0,L|172:264,1,80.7499978437424,12|0,0:0|0:0,0:0:0:0:
340,204,212746,6,0,P|356:141|356:80,1,121.124996765614,6|0,0:2|0:0,0:0:0:0:
348,56,213060,1,0,0:0:0:0:
436,160,213217,1,2,0:2:0:0:
248,176,213374,2,0,L|332:168,1,80.7499978437424,0|8,0:0|0:0,0:0:0:0:
184,104,213688,1,2,0:2:0:0:
220,268,213846,1,8,0:0:0:0:
80,184,214003,70,0,L|32:192,3,40.3749989218712,0|0|8|8,3:0|3:0|3:1|3:1,0:0:0:0:
152,232,214317,2,0,L|200:240,1,40.3749989218712,8|0,3:1|3:0,0:0:0:0:
72,268,214474,2,0,L|24:276,1,40.3749989218712,2|0,3:2|3:0,0:0:0:0:
144,316,214631,6,0,L|192:324,3,40.3749989218712,0|0|0|0,0:0|0:0|0:0|0:0,0:0:0:0:
260,288,214945,1,2,0:2:0:0:
276,256,215024,1,8,0:0:0:0:
276,220,215103,1,8,0:0:0:0:
264,188,215181,1,0,0:0:0:0:
236,164,215260,1,4,0:0:0:0:
141,155,219500,70,0,P|167:154|192:146,1,45.3333333333333
216,120,219657,2,0,B|224:100|224:100|228:72,2,45.3333333333333,8|8|0,0:0|0:0|0:0,0:0:0:0:
251,189,219971,2,0,P|243:225|247:297,1,90.6666666666667,8|0,0:3|3:0,0:0:0:0:
243,278,220285,6,0,B|276:296|276:296|391:287,1,136,4|0,3:2|2:0,0:0:0:0:
300,196,220914,1,8,0:0:0:0:
148,312,221228,1,0,2:0:0:0:
200,104,221542,70,0,B|218:137|218:137|209:252,1,136,4|0,3:2|2:0,0:0:0:0:
116,160,222171,1,8,0:0:0:0:
296,72,222485,1,0,2:0:0:0:
300,284,222798,6,0,P|224:332|136:308,1,170,6|0,0:2|0:0,0:0:0:0:
210,235,223270,1,8,0:0:0:0:
391,237,223427,1,2,0:2:0:0:
352,369,223584,1,8,0:0:0:0:
300,188,223741,2,0,P|304:145|315:104,1,85,0|8,0:0|0:0,0:0:0:0:
300,284,224055,69,8,0:0:0:0:
200,164,224212,1,2,0:2:0:0:
336,84,224369,2,0,P|376:68|424:64,1,85,8|8,0:0|0:0,0:0:0:0:
300,188,224683,1,2,0:2:0:0:
244,28,224840,1,8,0:0:0:0:
116,140,224997,1,8,0:0:0:0:
140,136,225076,1,8,0:0:0:0:
164,132,225154,1,8,0:0:0:0:
188,128,225233,1,8,0:0:0:0:
212,124,225312,5,2,0:2:0:0:
144,44,225469,1,2,0:2:0:0:
212,220,225626,1,2,0:2:0:0:
304,108,225783,1,2,0:2:0:0:
92,144,225940,1,10,0:0:0:0:
92,144,226254,69,10,0:0:0:0:
316,216,226411,1,10,0:0:0:0:
316,216,226725,5,10,0:0:0:0:
73,288,226882,1,10,0:0:0:0:
73,288,227196,21,2,0:2:0:0:
249,169,227353,1,2,0:2:0:0:
176,369,227510,1,2,0:2:0:0:
116,163,227668,1,2,0:2:0:0:
286,294,227825,70,0,B|331:287|356:250|356:250|340:184|372:124|372:124|344:155|303:167|257:158|221:117|214:65|235:25|276:0,1,488.75,2|0,2:0|2:0,0:0:0:0:
312,72,229709,1,0,2:0:0:0:
312,72,230024,1,0,2:0:0:0:
156,180,230338,6,0,B|12:188|12:188|48:164,1,187.000005706787,6|8,0:2|0:0,0:0:0:0:
212,92,230809,1,2,0:2:0:0:
340,196,230966,2,0,B|296:216|296:216|240:220,1,93.5000028533936,2|0,0:2|0:0,0:0:0:0:
320,92,231280,1,8,0:0:0:0:
444,184,231437,1,0,0:0:0:0:
444,184,231516,1,0,0:0:0:0:
444,184,231594,6,0,P|456:232|456:284,1,93.5000028533936,2|0,0:2|0:0,0:0:0:0:
232,340,231908,2,0,P|230:293|238:247,1,93.5000028533936,8|2,0:0|0:2,0:0:0:0:
348,304,232223,1,2,0:2:0:0:
348,304,232380,1,0,0:0:0:0:
132,280,232537,2,0,B|128:232|128:232|144:176,1,93.5000028533936,8|0,0:0|0:0,0:0:0:0:
300,68,232851,6,0,B|280:108|280:108|236:144,1,93.5000028533936,2|0,0:2|0:0,0:0:0:0:
52,112,233165,1,8,0:0:0:0:
200,48,233322,1,2,0:2:0:0:
244,240,233479,2,0,P|164:208|148:100,1,187.000005706787,2|8,0:2|0:0,0:0:0:0:
336,188,233950,1,0,0:0:0:0:
336,188,234029,1,0,0:0:0:0:
336,188,234107,54,0,P|350:147|356:92,1,93.5000028533936,2|0,0:2|0:0,0:0:0:0:
244,240,234421,2,0,P|244:288|256:332,1,93.5000028533936,12|2,0:0|0:2,0:0:0:0:
468,368,234736,2,0,P|464:312|448:256,1,93.5000028533936,2|0,0:2|0:0,0:0:0:0:
412,212,234971,1,0,0:0:0:0:
412,212,235050,2,0,L|312:220,1,93.5000028533936,12|0,0:0|0:0,0:0:0:0:
169,303,235364,5,6,0:2:0:0:
292,224,235521,1,0,0:0:0:0:
188,189,235678,1,8,0:0:0:0:
304,324,235835,1,2,0:2:0:0:
120,296,235992,2,0,L|224:284,1,93.5000028533936,2|0,0:2|0:0,0:0:0:0:
388,120,236306,2,0,L|286:95,1,93.5000028533936,8|2,0:0|0:2,0:0:0:0:
104,264,236620,6,0,P|168:280|204:276,1,93.5000028533936,2|0,0:2|0:0,0:0:0:0:
392,156,236934,2,0,P|337:119|302:110,1,93.5000028533936,8|2,0:0|0:2,0:0:0:0:
100,224,237249,54,0,B|132:256|132:256|188:276,1,93.5000028533936,2|0,0:2|0:0,0:0:0:0:
383,195,237563,2,0,B|363:153|363:153|318:116,1,93.5000028533936,8|2,0:0|0:2,0:0:0:0:
108,192,237877,6,0,P|172:244|276:232,1,187.000005706787,2|8,0:2|0:0,0:0:0:0:
326,123,238348,1,2,0:2:0:0:
200,52,238505,2,0,L|208:145,1,93.5000028533936,2|0,0:2|0:0,0:0:0:0:
207,145,238741,1,0,0:0:0:0:
207,145,238819,1,8,0:0:0:0:
300,20,238976,1,2,0:2:0:0:
104,16,239133,5,2,0:2:0:0:
76,44,239212,1,0,0:0:0:0:
64,80,239291,1,0,0:0:0:0:
68,116,239369,1,0,0:0:0:0:
84,148,239448,2,0,P|95:193|92:264,1,93.5000028533936,8|2,0:0|0:2,0:0:0:0:
260,268,239762,2,0,P|214:255|155:216,1,93.5000028533936,2|0,0:2|3:0,0:0:0:0:
141,303,239997,1,0,3:0:0:0:
141,303,240076,2,0,P|101:327|68:360,1,93.5000028533936,12|0,0:0|0:0,0:0:0:0:
300,336,240390,54,0,B|328:308|328:308|356:204,1,140.25000428009,6|0,0:2|2:0,0:0:0:0:
364,176,240704,1,12,0:0:0:0:
432,292,240861,1,2,0:2:0:0:
256,236,241018,2,0,L|236:128,1,93.5000028533936,2|0,0:2|0:0,0:0:0:0:
448,24,241332,2,0,L|432:124,1,93.5000028533936,12|0,0:0|0:0,0:0:0:0:
428,152,241568,1,0,0:0:0:0:
428,152,241647,5,2,0:2:0:0:
328,52,241804,1,0,0:0:0:0:
260,176,241961,2,0,P|328:187|396:172,1,140.25000428009,12|0,0:0|2:0,0:0:0:0:
428,152,242275,1,2,0:2:0:0:
320,264,242432,1,0,0:0:0:0:
466,315,242589,2,0,P|472:245|448:180,1,140.25000428009,12|0,0:0|2:0,0:0:0:0:
428,152,242903,6,0,B|408:112|408:112|408:52,1,93.5000028533936,2|0,0:2|0:0,0:0:0:0:
336,180,243217,1,12,0:0:0:0:
504,88,243374,1,2,0:2:0:0:
312,52,243531,2,0,B|264:48|264:48|212:60,1,93.5000028533936,2|0,0:2|0:0,0:0:0:0:
384,144,243846,1,12,0:0:0:0:
260,204,244003,1,0,0:0:0:0:
264,180,244081,1,0,0:0:0:0:
268,156,244160,53,2,0:2:0:0:
320,296,244317,1,0,0:0:0:0:
164,245,244474,2,0,L|256:228,1,93.5000028533936,12|2,0:0|0:2,0:0:0:0:
128,336,244788,1,2,0:2:0:0:
128,336,244945,1,0,0:0:0:0:
100,172,245102,2,0,L|192:155,1,93.5000028533936,12|0,0:0|0:0,0:0:0:0:
344,196,245416,5,6,0:2:0:0:
248,76,245573,1,0,0:0:0:0:
340,104,245730,1,12,0:0:0:0:
191,155,245887,1,2,0:2:0:0:
260,320,246044,2,0,P|263:273|255:228,1,93.5000028533936,2|0,0:2|0:0,0:0:0:0:
88,96,246359,2,0,P|76:144|80:200,1,93.5000028533936,12|2,0:0|0:2,0:0:0:0:
374,288,246673,6,0,P|377:241|368:195,1,93.5000028533936,2|0,0:2|0:0,0:0:0:0:
201,63,246988,2,0,P|189:111|193:167,1,93.5000028533936,12|2,0:0|0:2,0:0:0:0:
368,195,247301,1,2,0:2:0:0:
292,120,247458,1,0,0:0:0:0:
308,284,247615,2,0,L|416:292,1,93.5000028533936,12|0,0:0|0:0,0:0:0:0:
132,264,247929,54,0,L|80:284,2,46.7500014266968,8|8|0,0:0|0:0|0:0,0:0:0:0:
312,184,248243,1,8,0:3:0:0:
216,320,248401,2,0,L|208:384,2,46.7500014266968,8|8|2,0:0|0:0|0:2,0:0:0:0:
236,124,248715,1,0,0:0:0:0:
308,284,248872,2,0,P|352:304|408:308,1,93.5000028533936,12|0,0:0|0:0,0:0:0:0:
312,184,249186,5,2,0:2:0:0:
132,264,249343,1,12,0:0:0:0:
236,124,249500,1,12,0:0:0:0:
216,320,249657,2,0,L|208:384,2,46.7500014266968,0|0|8,0:0|0:0|0:0,0:0:0:0:
144,164,249971,1,0,0:0:0:0:
144,164,250050,1,0,0:0:0:0:
144,164,250128,2,0,L|132:64,1,93.5000028533936,8|0,0:0|0:0,0:0:0:0:
132,264,250442,5,6,0:2:0:0:
224,304,250599,1,0,0:0:0:0:
144,164,250757,1,8,0:0:0:0:
132,264,250914,1,0,0:0:0:0:
296,232,251071,2,0,B|384:220,1,85,8|0,0:0|0:0,0:0:0:0:
304,83,251385,2,0,B|244:144,1,85,8|0,0:0|0:0,0:0:0:0:
227,313,251699,53,6,0:2:0:0:
306,233,251856,1,0,0:0:0:0:
125,269,252014,1,8,0:0:0:0:
227,313,252171,1,0,0:0:0:0:
249,137,252327,2,0,L|257:31,1,93.5000028533936,8|0,0:0|0:0,0:0:0:0:
95,76,252641,2,0,L|139:159,1,93.5000028533936,8|0,0:0|0:0,0:0:0:0:
316,234,252955,5,6,0:2:0:0:
253,128,253112,1,0,0:0:0:0:
229,322,253270,1,8,0:0:0:0:
316,234,253427,1,0,0:0:0:0:
132,152,253583,2,0,L|27:104,1,101.999996887207,8|0,0:0|0:0,0:0:0:0:
16,294,253897,2,0,L|116:273,1,101.999996887207,8|0,0:0|0:0,0:0:0:0:
256,120,254212,6,0,P|261:93|264:64,3,46.7500014266968,2|0|0|0,3:2|3:0|3:0|3:0,0:0:0:0:
192,164,254526,2,0,P|168:150|141:139,3,46.7500014266968,12|0|0|0,3:1|3:0|3:0|3:0,0:0:0:0:
216,236,254840,2,0,P|195:254|176:276,3,46.7500014266968,8|0|0|0,3:1|3:0|3:0|3:0,0:0:0:0:
294,236,255154,2,0,P|304:260|320:286,3,46.7500014266968,12|0|0|0,3:1|3:0|3:0|3:0,0:0:0:0:
320,164,255469,53,6,0:2:0:0:
192,164,255626,1,0,0:0:0:0:
328,135,255783,1,8,0:0:0:0:
398,255,255940,1,0,0:0:0:0:
335,107,256097,2,0,B|347:62|347:62|374:24,1,93.5000028533936,8|0,0:0|0:0,0:0:0:0:
398,255,256411,2,0,B|386:300|386:300|359:338,1,93.5000028533936,8|0,0:0|0:0,0:0:0:0:
180,308,256725,5,6,0:2:0:0:
298,256,256882,1,0,0:0:0:0:
152,300,257039,1,8,0:0:0:0:
256,172,257196,1,0,0:0:0:0:
128,292,257353,2,0,B|80:272|80:272|48:228,1,101.999996887207,8|0,0:0|0:0,0:0:0:0:
50,152,257589,1,0,0:0:0:0:
50,152,257668,2,0,B|80:112|80:112|128:92,1,101.999996887207,8|0,0:0|0:0,0:0:0:0:
336,140,257982,6,0,L|404:156,3,55.2499974708558,6|0|0|0,3:2|3:0|3:0|3:0,0:0:0:0:
389,231,258296,2,0,L|336:244,3,55.2499974708558,4|0|0|0,3:2|3:0|3:0|3:0,0:0:0:0:
254,234,258610,54,0,B|254:262|254:262|266:290,1,55.2499974708558,0|0,3:0|3:0,0:0:0:0:
254,150,258767,2,0,B|254:122|254:122|266:94,1,55.2499974708558,0|0,3:0|3:0,0:0:0:0:
173,231,258924,2,0,P|147:241|120:246,1,55.2499974708558,0|0,3:0|3:0,0:0:0:0:
120,136,259081,2,0,P|147:141|172:151,1,55.2499974708558,0|0,3:0|3:0,0:0:0:0:
254,234,259238,5,6,0:2:0:0:
32,192,259395,1,2,0:2:0:0:
254,150,259552,1,2,0:2:0:0:
328,192,260181,2,0,P|335:222|336:252,1,42.5,2|0,2:0|2:0,0:0:0:0:
262,275,260338,2,0,P|256:255|254:234,1,42.5,2|0,2:0|2:0,0:0:0:0:
276,124,260495,22,0,P|332:112|364:116,1,85,6|2,0:2|0:0,0:0:0:0:
456,252,260809,2,2,P|416:256|360:244,1,85,10|0,0:0|0:0,0:0:0:0:
132,276,261123,2,2,P|180:256|284:304,1,170,2|8,0:0|0:0,0:0:0:0:
196,204,261594,6,2,P|188:164|188:116,1,85,2|0,0:0|0:0,0:0:0:0:
372,248,261908,2,2,P|380:204|376:148,1,85,2|8,0:0|0:0,0:0:0:0:
196,92,262223,1,2,0:0:0:0:
288,196,262380,1,2,0:2:0:0:
152,240,262537,1,2,0:0:0:0:
276,316,262694,2,2,L|284:232,1,85,10|0,0:0|0:0,0:0:0:0:
288,196,262929,1,0,0:0:0:0:
288,196,263008,70,0,L|372:168,1,85,2|0,0:2|0:0,0:0:0:0:
208,140,263322,1,10,0:0:0:0:
140,212,263479,2,0,L|132:304,1,85,2|0,0:2|0:0,0:0:0:0:
44,188,263793,1,2,0:2:0:0:
56,156,263872,1,0,0:0:0:0:
80,132,263950,1,2,0:2:0:0:
112,116,264029,1,2,0:2:0:0:
144,112,264107,5,10,0:0:0:0:
260,168,264264,2,0,P|269:127|268:68,1,85,0|2,0:0|0:0,0:0:0:0:
260,48,264500,1,0,0:0:0:0:
260,48,264579,2,2,B|356:36,1,85,10|0,0:0|0:0,0:0:0:0:
176,116,264893,1,2,0:0:0:0:
248,192,265050,1,0,0:0:0:0:
248,192,265128,1,0,0:0:0:0:
248,192,265207,2,0,P|256:232|256:276,1,85,12|0,0:0|0:0,0:0:0:0:
60,340,265521,70,0,P|117:304|176:324,1,127.5,6|0,0:2|0:0,0:0:0:0:
192,344,265835,2,0,P|232:364|280:364,1,85,8|0,0:0|0:0,0:0:0:0:
436,260,266149,2,0,P|394:256|348:268,1,85,0|0,0:0|0:0,0:0:0:0:
400,356,266463,1,8,0:0:0:0:
468,268,266620,1,0,0:0:0:0:
380,176,266777,6,0,P|328:176|288:192,1,85,0|2,0:0|0:2,0:0:0:0:
272,208,267013,1,0,0:0:0:0:
256,236,267092,2,0,L|248:288,2,42.5,10|0|2,0:0|0:0|0:0,0:0:0:0:
236,128,267406,1,2,0:0:0:0:
352,266,267563,1,2,0:2:0:0:
332,140,267720,1,10,0:0:0:0:
176,204,267877,1,2,0:2:0:0:
244,92,268034,70,0,L|256:28,3,42.5,2|0|0|0,0:0|0:0|0:0|0:0,0:0:0:0:
172,56,268348,2,0,L|168:-4,3,42.5,10|0|0|0,0:0|0:0|0:0|0:0,0:0:0:0:
92,44,268662,1,2,0:0:0:0:
240,132,268819,1,4,0:0:0:0:
76,184,268976,1,2,0:0:0:0:
80,156,269055,1,0,0:0:0:0:
84,128,269133,5,6,0:2:0:0:
172,240,269291,2,0,P|178:264|180:288,3,42.5,0|0|2|0,0:0|0:0|0:2|0:0,0:0:0:0:
116,328,269605,2,0,P|91:321|70:310,3,42.5,2|0|0|0,0:2|0:0|0:0|0:0,0:0:0:0:
68,236,269919,2,0,P|85:218|105:205,1,42.5,2|0,0:2|0:0,0:0:0:0:
172,240,270076,2,0,P|196:244|224:244,1,42.5,2|0,0:2|0:0,0:0:0:0:
281,204,270233,1,2,0:0:0:0:
319,197,270312,1,0,0:0:0:0:
355,206,270390,1,0,0:0:0:0:
385,229,270469,1,0,0:0:0:0:
400,264,270547,70,0,L|388:356,1,85,6|2,0:2|0:0,0:0:0:0:
488,220,270861,2,2,B|496:160|467:115|467:115|440:116,1,127.5,10|0,0:0|0:0,0:0:0:0:
420,128,271175,2,2,P|379:136|328:136,1,85,2|0,0:0|0:0,0:0:0:0:
236,60,271490,1,8,0:0:0:0:
276,216,271647,1,2,0:0:0:0:
104,180,271804,6,0,P|151:170|208:172,1,85,0|2,0:0|0:0,0:0:0:0:
340,292,272118,1,10,0:0:0:0:
160,260,272275,1,0,0:0:0:0:
276,132,272432,2,2,B|283:173|283:173|276:216,1,85,2|0,0:0|0:0,0:0:0:0:
156,360,272746,2,2,B|149:319|149:319|156:276,1,85,10|0,0:0|0:0,0:0:0:0:
364,268,273060,69,0,0:0:0:0:
256,320,273217,1,2,0:0:0:0:
227,187,273374,1,10,0:0:0:0:
267,295,273531,1,0,0:0:0:0:
136,260,273688,1,2,0:0:0:0:
312,108,273846,1,2,0:0:0:0:
312,108,274160,6,2,B|328:144|312:188|312:188|296:232|308:276,1,170,10|0,0:0|0:0,0:0:0:0:
380,236,274552,1,0,0:0:0:0:
380,236,274631,2,0,P|396:188|400:148,1,85,12|2,0:0|0:0,0:0:0:0:
240,148,274945,1,0,0:0:0:0:
316,304,275102,1,0,0:0:0:0:
316,304,275181,1,0,0:0:0:0:
316,304,275259,2,2,P|356:320|408:324,1,85,10|0,0:0|0:0,0:0:0:0:
248,228,275573,69,6,0:2:0:0:
152,272,275730,1,0,0:0:0:0:
152,272,275809,1,0,0:0:0:0:
152,272,275887,2,2,B|136:312|136:312|136:364,1,85,10|0,0:0|0:0,0:0:0:0:
236,332,276202,1,0,0:0:0:0:
300,188,276359,1,0,0:0:0:0:
300,188,276438,1,0,0:0:0:0:
300,188,276516,2,2,B|316:228|316:228|316:280,1,85,10|0,0:0|0:0,0:0:0:0:
192,144,276830,6,0,B|196:100|196:100|224:36,1,85,0|0,0:0|0:0,0:0:0:0:
232,36,277065,1,0,0:0:0:0:
232,36,277144,2,2,L|316:40,1,85,10|0,0:0|0:0,0:0:0:0:
396,140,277458,1,0,0:0:0:0:
292,128,277615,1,2,0:0:0:0:
356,44,277772,1,12,0:0:0:0:
336,224,277929,1,0,0:0:0:0:
336,224,278008,1,0,0:0:0:0:
336,224,278086,54,0,L|332:280,3,42.5,6|0|0|0,3:2|3:0|3:0|3:0,0:0:0:0:
252,240,278401,2,0,L|248:296,3,42.5,6|0|0|0,3:2|3:0|3:0|3:0,0:0:0:0:
168,256,278715,1,12,0:0:0:0:
336,224,278872,1,12,0:0:0:0:
336,224,279186,69,10,0:0:0:0:
340,208,279264,1,0,0:0:0:0:
344,192,279343,2,0,L|356:136,3,46.7500014266968,0|0|0|0,3:0|3:0|3:0|3:0,0:0:0:0:
256,152,279657,2,0,L|268:96,3,46.7500014266968,12|0|0|0,3:1|3:0|3:0|3:0,0:0:0:0:
168,112,279971,1,12,0:0:0:0:
344,192,280128,1,12,0:0:0:0:
344,192,280442,69,10,0:0:0:0:
348,216,280521,1,0,0:0:0:0:
352,240,280599,2,0,L|360:296,3,50.9999984436036,0|0|0|0,3:0|3:0|3:0|3:0,0:0:0:0:
252,288,280914,2,0,L|260:344,3,50.9999984436036,6|0|0|0,3:2|3:0|3:0|3:0,0:0:0:0:
148,328,281228,1,12,0:0:0:0:
352,240,281385,1,12,0:0:0:0:
248,84,281542,70,0,B|256:152,1,59.4999981842042,0|6,0:0|0:2,0:0:0:0:
256,192,281856,12,4,285429,2:0:0:0:
256,192,285521,12,4,289186,3:0:0:0:
