osu file format v14

[General]
AudioFilename: audio.mp3
AudioLeadIn: 0
PreviewTime: 88348
Countdown: 1
SampleSet: Normal
StackLeniency: 0.7
Mode: 0
LetterboxInBreaks: 0
WidescreenStoryboard: 0

[Editor]
Bookmarks: 44212,88976,250442
DistanceSpacing: 1.8
BeatDivisor: 4
GridSize: 4
TimelineZoom: 2.1

[Metadata]
Title:Tsukitourou
TitleUnicode:Tsukitourou
Artist:Camellia feat. Nanahira
ArtistUnicode:Camellia feat. Nanahira
Creator:bobbybenny12
Version:Replay!
Source:
Tags:Camellia Nanahira Tech EDM ErunamoJAZZ Raose Nyquill yf_bmp moon lantern かめるかめりあ×Confetto りぷれい!Replay!
BeatmapID:1876640
BeatmapSetID:898356

[Difficulty]
HPDrainRate:5.2
CircleSize:4.3
OverallDifficulty:8.8
ApproachRate:9.6
SliderMultiplier:1.4
SliderTickRate:1

[Events]
//Background and Video events
0,0,"google images jpeg lol.jpg",0,0
//Break Periods
//Storyboard Layer 0 (Background)
//Storyboard Layer 1 (Fail)
//Storyboard Layer 2 (Pass)
//Storyboard Layer 3 (Foreground)
//Storyboard Sound Samples

[TimingPoints]
-866,314.13612565445,4,2,0,100,1,0
1647,-156.25,4,2,0,7,0,0
2903,-121.951219512195,4,2,0,43,0,0
3688,-121.951219512195,4,3,0,64,0,0
3846,-98.0392156862745,4,2,0,64,0,0
4081,-98.0392156862745,4,2,0,5,0,0
4160,-98.0392156862745,4,1,0,66,0,0
6594,-98.0392156862745,4,1,0,5,0,0
6673,-98.0392156862745,4,1,0,66,0,0
7929,-98.0392156862745,4,3,0,66,0,0
9186,-98.0392156862745,4,1,0,66,0,0
10442,-192.307692307692,4,2,0,34,0,0
10757,-138.888888888889,4,2,0,52,0,0
11071,-96.1538461538461,4,1,0,72,0,0
14212,-94.3396226415094,4,1,0,72,0,0
21751,-92.5925925925926,4,1,0,84,0,0
23715,-92.5925925925926,4,1,0,24,0,0
23793,-92.5925925925926,4,1,0,84,0,0
24264,-89.2857142857143,4,1,0,78,0,0
32746,-89.2857142857143,4,2,0,34,0,0
32903,-89.2857142857143,4,1,0,74,0,0
33374,-89.2857142857143,4,1,0,52,0,0
33610,-89.2857142857143,4,1,0,5,0,0
33688,-89.2857142857143,4,1,0,52,0,0
33924,-89.2857142857143,4,1,0,5,0,0
34003,-89.2857142857143,4,1,0,52,0,0
34238,-89.2857142857143,4,1,0,5,0,0
34317,-89.2857142857143,4,1,0,74,0,0

[HitObjects]
176,179,1647,6,0,L|282:169,3,89.6,0|0|0|0,0:2|0:2|0:2|0:2,0:2:0:0:
92,202,2903,5,0,0:0:0:0:
118,224,3217,1,0,0:0:0:0:
144,246,3531,1,0,0:0:0:0:
170,268,3688,2,0,L|170:294,3,14.3500002189636
204,238,3846,6,0,B|262:232|263:284|313:273,1,107.100000653687
365,284,4160,5,0,0:0:0:0:
432,135,4317,1,0,0:0:0:0:
478,275,4474,1,0,0:0:0:0:
166,292,6202,5,0,0:0:0:0:
117,150,6359,2,0,P|141:110|204:78,1,107.100000653687
236,74,6673,5,0,0:0:0:0:
244,273,6830,1,0,0:0:0:0:
355,169,6987,1,0,0:0:0:0:
145,95,7929,5,0,0:1:0:0:
180,319,8086,1,0,0:1:0:0:
180,319,8243,1,0,0:1:0:0:
285,109,8401,5,0,0:1:0:0:
119,273,8558,1,0,0:1:0:0:
119,273,8715,1,0,0:1:0:0:
99,120,8872,5,0,0:1:0:0:
247,295,9029,1,0,0:1:0:0:
351,102,9186,5,0,0:1:0:0:
365,305,9343,1,0,0:1:0:0:
311,141,9500,1,0,0:1:0:0:
97,297,10442,6,0,P|123:303|163:290,1,54.599999666748
182,265,10757,2,0,P|198:237|241:215,1,75.6000018457032
281,219,11071,5,0,0:0:0:0:
313,234,11149,1,0,0:0:0:0:
341,257,11228,1,0,0:0:0:0:
363,286,11306,1,0,0:0:0:0:
377,320,11385,6,0,L|327:328,1,36.399999777832
146,259,11542,2,0,L|196:267,1,36.399999777832
332,187,11699,5,0,0:0:0:0:
147,34,11856,1,0,0:0:0:0:
184,275,12013,1,0,0:0:0:0:
184,275,12170,1,0,0:0:0:0:
260,27,12327,5,0,0:0:0:0:
278,281,12484,1,0,0:0:0:0:
84,106,12641,1,0,0:0:0:0:
84,106,12798,1,0,0:0:0:0:
195,158,12955,5,0,0:0:0:0:
398,83,13113,5,0,0:0:0:0:
398,83,13191,1,0,0:0:0:0:
398,83,13270,1,0,0:0:0:0:
309,285,13427,6,0,B|239:273|240:347|157:327,1,145.599999111328
76,330,13898,2,0,P|88:285|141:237,1,107.100000653687
194,249,14212,6,0,P|233:237|275:192,1,74.2000001132202
155,67,14526,1,0,0:0:0:0:
342,153,14683,1,0,0:0:0:0:
330,19,14840,6,0,P|361:27|394:63,1,74.2000001132202
308,155,15154,1,0,0:0:0:0:
470,77,15311,1,0,0:0:0:0:
429,235,15469,6,0,P|397:226|364:190,1,74.2000001132202
465,84,15783,1,0,0:0:0:0:
316,157,15940,1,0,0:0:0:0:
429,235,16097,6,0,P|406:257|358:268,1,74.2000001132202
329,176,16411,1,0,0:0:0:0:
193,266,16568,1,0,0:0:0:0:
149,117,16725,5,0,0:0:0:0:
85,307,16882,1,0,0:0:0:0:
198,179,17039,2,0,P|216:153|262:135,1,74.2000001132202
313,217,17353,6,0,P|319:253|296:305,1,74.2000001132202
225,324,17668,2,0,P|245:354|299:375,1,74.2000001132202
367,336,17982,5,0,0:0:0:0:
313,217,18139,1,0,0:0:0:0:
185,214,18296,2,0,P|155:193|135:141,1,74.2000001132202
187,22,18610,5,0,0:0:0:0:
214,141,18767,1,0,0:0:0:0:
291,44,18924,2,0,P|323:28|378:37,1,74.2000001132202
341,120,19238,6,0,L|358:204,1,74.2000001132202
385,343,19552,1,0,0:0:0:0:
263,278,19709,1,0,0:0:0:0:
229,128,19866,6,0,P|197:112|142:121,1,74.2000001132202
111,204,20181,2,0,P|81:184|61:132,1,74.2000001132202
105,47,20495,5,0,0:0:0:0:
206,198,20652,1,0,0:0:0:0:
232,41,20809,2,0,P|267:43|311:78,1,74.2000001132202
339,220,21123,5,0,0:0:0:0:
487,140,21280,1,0,0:0:0:0:
413,333,21437,5,0,0:0:0:0:
426,121,21594,1,0,0:0:0:0:
222,280,21751,6,0,P|187:268|155:223,1,75.6000018457032
166,48,22065,1,0,0:0:0:0:
291,28,22223,6,0,P|325:39|357:84,1,75.6000018457032
341,252,22537,1,0,0:0:0:0:
131,168,22694,5,0,0:0:0:0:
380,135,22851,1,0,0:0:0:0:
115,305,23008,6,0,L|96:341,1,37.8000009228516
192,240,23165,1,0,0:0:0:0:
229,239,23243,1,0,0:0:0:0:
264,252,23322,1,0,0:0:0:0:
295,274,23400,1,0,0:0:0:0:
326,295,23479,1,0,0:0:0:0:
362,306,23557,1,0,0:0:0:0:
400,305,23636,6,0,L|448:293,1,37.8000009228516
487,184,23793,1,0,0:0:0:0:
432,198,23871,1,0,0:0:0:0:
377,212,23950,1,0,0:0:0:0:
322,226,24028,1,0,0:0:0:0:
267,240,24107,1,0,0:0:0:0:
218,211,24186,1,0,0:0:0:0:
203,155,24264,6,0,B|217:113|217:113|271:73,1,78.4000009570313
332,68,24579,5,0,0:0:0:0:
384,292,24736,1,0,0:0:0:0:
291,131,24893,2,0,B|262:87|262:87|188:58,1,117.600001435547
135,61,25207,5,0,0:0:0:0:
74,288,25364,1,0,0:0:0:0:
222,177,25521,1,0,0:0:0:0:
3,164,25678,1,0,0:0:0:0:
208,308,25835,6,0,P|265:338|317:333,1,117.600001435547
374,290,26149,1,0,0:0:0:0:
271,161,26306,1,0,0:0:0:0:
461,146,26463,1,0,0:0:0:0:
276,267,26620,1,0,0:0:0:0:
474,262,26777,5,0,0:0:0:0:
366,84,26935,1,0,0:0:0:0:
212,232,27092,1,0,0:0:0:0:
264,44,27249,1,0,0:0:0:0:
391,249,27406,6,0,P|334:279|282:274,1,117.600001435547
212,232,27720,5,0,0:0:0:0:
312,93,27877,1,0,0:0:0:0:
122,161,28034,1,0,0:0:0:0:
237,31,28191,1,0,0:0:0:0:
15,120,28348,6,0,B|77:109|76:175|150:157,1,117.600001435547
220,141,28662,5,0,0:0:0:0:
365,53,28819,1,0,0:0:0:0:
384,181,28976,1,0,0:0:0:0:
222,114,29133,1,0,0:0:0:0:
377,199,29291,5,0,0:0:0:0:
241,367,29448,1,0,0:0:0:0:
222,163,29605,1,0,0:0:0:0:
370,314,29762,1,0,0:0:0:0:
170,289,29919,6,0,P|115:254|93:207,1,117.600001435547
92,136,30233,5,0,0:0:0:0:
250,59,30390,1,0,0:0:0:0:
149,253,30547,1,0,0:0:0:0:
307,176,30704,1,0,0:0:0:0:
116,45,30861,5,0,0:0:0:0:
288,251,31018,1,0,0:0:0:0:
179,19,31175,1,0,0:0:0:0:
224,283,31332,1,0,0:0:0:0:
245,19,31490,6,0,P|299:53|321:100,1,117.600001435547
327,170,31804,5,0,0:0:0:0:
153,284,31961,1,0,0:0:0:0:
345,315,32118,1,0,0:0:0:0:
219,153,32275,1,0,0:0:0:0:
248,361,32432,6,0,P|157:376|89:346,1,156.800001914063
73,287,32903,2,0,B|78:221|78:221|86:186|86:186|91:131,1,156.800001914063
74,30,33374,6,0,P|154:37|206:78,1,117.600001435547
283,207,33688,2,0,P|220:154|154:147,1,117.600001435547
29,219,34003,2,0,B|109:226|109:226|161:267,1,117.600001435547
188,299,34317,5,0,0:0:0:0:
129,125,34474,1,0,0:0:0:0:
271,234,34631,1,0,0:0:0:0:
94,236,34788,1,0,0:0:0:0:
245,348,34945,6,0,B|325:341|377:300,1,117.600001435547
396,255,35259,5,0,0:0:0:0:
303,70,35416,2,0,B|354:58|396:73,1,78.4000009570313
483,107,35730,5,0,0:0:0:0:
305,242,35887,1,0,0:0:0:0:
503,237,36044,1,0,0:0:0:0:
359,106,36202,1,0,0:0:0:0:
410,310,36359,1,0,0:0:0:0:
231,285,36516,6,0,B|151:292|98:333,1,117.600001435547
56,350,36830,5,0,0:0:0:0:
85,162,36987,1,0,0:0:0:0:
156,344,37144,1,0,0:0:0:0:
9,210,37301,1,0,0:0:0:0:
205,207,37458,2,0,B|257:209|296:187,1,78.4000009570313
117,100,37772,5,0,0:0:0:0:
