osu file format v14

[General]
AudioFilename: audio.mp3
AudioLeadIn: 0
PreviewTime: 88874
Countdown: 0
SampleSet: Soft
StackLeniency: 0.7
Mode: 3
LetterboxInBreaks: 0
SpecialStyle: 1
WidescreenStoryboard: 1

[Editor]
DistanceSpacing: 0.8
BeatDivisor: 4
GridSize: 16
TimelineZoom: 1

[Metadata]
Title:Tsukitourou
TitleUnicode:月燈籠
Artist:Camellia feat. Nanahira
ArtistUnicode:Camellia feat. Nanahira
Creator:DevonTM
Version:Insane
Source:
Tags:かめるかめりあ×Confetto りぷれい!Replay!
BeatmapID:1921415
BeatmapSetID:920024

[Difficulty]
HPDrainRate:8.5
CircleSize:4
OverallDifficulty:8
ApproachRate:5
SliderMultiplier:1.4
SliderTickRate:1

[Events]
//Background and Video events
0,0,"background.jpg",0,0
//Break Periods
2,215357,218198
2,262792,280397
//Storyboard Layer 0 (Background)
//Storyboard Layer 1 (Fail)
//Storyboard Layer 2 (Pass)
//Storyboard Layer 3 (Foreground)
//Storyboard Sound Samples

[TimingPoints]
1545,314.13612565445,4,2,1,100,1,0
3508,-100,4,2,1,75,0,0
88874,-100,4,2,1,75,0,1
113711,-100,4,2,1,75,0,0
169293,-100,4,2,1,75,0,1
194130,-100,4,2,1,75,0,0
229607,-100,4,2,1,75,0,1
259470,-100,4,2,1,75,0,0

[HitObjects]
320,192,1545,5,8,0:0:0:0:
320,192,1859,1,8,0:0:0:0:
320,192,2173,1,8,0:0:0:0:
320,192,2487,1,8,0:0:0:0:
64,192,2801,1,4,0:0:0:0:
448,192,2801,1,4,0:0:0:0:
64,192,3115,1,4,0:0:0:0:
448,192,3115,1,4,0:0:0:0:
64,192,3429,1,4,0:0:0:0:
448,192,3429,1,4,0:0:0:0:
192,192,3586,1,0,0:0:0:0:
192,192,3665,1,0,0:0:0:0:
64,192,3743,1,0,0:0:0:0:
320,192,3743,1,0,0:0:0:0:
448,192,3743,1,0,0:0:0:0:
64,192,4058,1,0,0:0:0:0:
192,192,4058,1,0,0:0:0:0:
320,192,4215,1,0,0:0:0:0:
448,192,4215,1,0,0:0:0:0:
64,192,4372,1,0,0:0:0:0:
192,192,4372,1,0,0:0:0:0:
320,192,6099,1,0,0:0:0:0:
192,192,6099,1,0,0:0:0:0:
64,192,6257,1,0,0:0:0:0:
448,192,6257,1,0,0:0:0:0:
64,192,6571,1,0,0:0:0:0:
192,192,6571,1,0,0:0:0:0:
320,192,6728,1,0,0:0:0:0:
448,192,6728,1,0,0:0:0:0:
64,192,6885,1,0,0:0:0:0:
192,192,6885,1,0,0:0:0:0:
448,192,7827,1,0,0:0:0:0:
320,192,7827,1,0,0:0:0:0:
64,192,7827,1,4,0:0:0:0:
320,192,7984,1,0,0:0:0:0:
192,192,7984,1,0,0:0:0:0:
192,192,8141,1,0,0:0:0:0:
320,192,8141,1,0,0:0:0:0:
64,192,8298,1,0,0:0:0:0:
192,192,8298,1,0,0:0:0:0:
448,192,8298,1,4,0:0:0:0:
192,192,8455,1,0,0:0:0:0:
320,192,8455,1,0,0:0:0:0:
192,192,8613,1,0,0:0:0:0:
320,192,8613,1,0,0:0:0:0:
320,192,8770,1,0,0:0:0:0:
448,192,8770,1,0,0:0:0:0:
192,192,8927,1,0,0:0:0:0:
448,192,8927,1,0,0:0:0:0:
64,192,9084,1,0,0:0:0:0:
320,192,9084,1,0,0:0:0:0:
64,192,9241,1,0,0:0:0:0:
320,192,9241,1,0,0:0:0:0:
192,192,9398,1,0,0:0:0:0:
448,192,9398,1,0,0:0:0:0:
64,192,10969,128,8,11597:0:0:0:0:
320,192,11597,1,0,0:0:0:0:
448,192,11597,1,4,0:0:0:0:
192,192,11754,1,0,0:0:0:0:
320,192,11754,1,4,0:0:0:0:
64,192,11911,1,4,0:0:0:0:
192,192,11911,1,0,0:0:0:0:
320,192,12068,1,0,0:0:0:0:
64,192,12225,1,4,0:0:0:0:
192,192,12225,1,0,0:0:0:0:
192,192,12382,1,4,0:0:0:0:
320,192,12382,1,0,0:0:0:0:
320,192,12539,1,0,0:0:0:0:
448,192,12539,1,4,0:0:0:0:
192,192,12696,1,0,0:0:0:0:
448,192,12853,1,0,0:0:0:0:
64,192,12853,1,4,0:0:0:0:
320,192,13010,1,0,0:0:0:0:
192,192,13010,1,0,0:0:0:0:
448,192,13089,1,0,0:0:0:0:
320,192,13168,1,0,0:0:0:0:
192,192,13168,1,0,0:0:0:0:
64,192,13325,1,4,0:0:0:0:
64,192,13796,1,4,0:0:0:0:
192,192,13796,1,0,0:0:0:0:
320,192,13796,1,0,0:0:0:0:
448,192,13796,1,4,0:0:0:0:
64,192,14110,1,0,0:0:0:0:
448,192,14110,1,0,0:0:0:0:
192,192,14267,1,0,0:0:0:0:
320,192,14267,1,0,0:0:0:0:
320,192,14424,1,0,0:0:0:0:
448,192,14424,1,4,0:0:0:0:
64,192,14424,1,0,0:0:0:0:
192,192,14581,1,0,0:0:0:0:
448,192,14738,1,0,0:0:0:0:
64,192,14738,1,0,0:0:0:0:
192,192,14895,1,0,0:0:0:0:
320,192,14895,1,0,0:0:0:0:
64,192,15052,1,4,0:0:0:0:
192,192,15052,1,0,0:0:0:0:
448,192,15052,1,0,0:0:0:0:
320,192,15209,1,0,0:0:0:0:
64,192,15366,1,0,0:0:0:0:
448,192,15366,1,0,0:0:0:0:
192,192,15524,1,0,0:0:0:0:
320,192,15524,1,0,0:0:0:0:
448,192,15681,1,4,0:0:0:0:
320,192,15681,1,0,0:0:0:0:
64,192,15681,1,0,0:0:0:0:
192,192,15838,1,0,0:0:0:0:
448,192,15995,1,0,0:0:0:0:
64,192,15995,1,0,0:0:0:0:
192,192,16152,1,0,0:0:0:0:
320,192,16152,1,0,0:0:0:0:
64,192,16309,1,4,0:0:0:0:
192,192,16309,1,0,0:0:0:0:
448,192,16309,1,0,0:0:0:0:
320,192,16466,1,0,0:0:0:0:
192,192,16623,1,0,0:0:0:0:
448,192,16623,1,4,0:0:0:0:
64,192,16623,1,0,0:0:0:0:
320,192,16780,1,0,0:0:0:0:
448,192,16780,1,0,0:0:0:0:
64,192,16780,1,4,0:0:0:0:
192,192,16937,1,0,0:0:0:0:
320,192,16937,1,0,0:0:0:0:
448,192,16937,1,4,0:0:0:0:
64,192,16937,1,4,0:0:0:0:
192,192,17094,1,0,0:0:0:0:
64,192,17251,1,0,0:0:0:0:
320,192,17251,1,0,0:0:0:0:
64,192,17408,1,0,0:0:0:0:
192,192,17408,1,0,0:0:0:0:
64,192,17565,1,0,0:0:0:0:
320,192,17565,1,0,0:0:0:0:
448,192,17565,1,4,0:0:0:0:
320,192,17723,1,0,0:0:0:0:
448,192,17880,1,0,0:0:0:0:
192,192,17880,1,0,0:0:0:0:
320,192,18037,1,0,0:0:0:0:
448,192,18037,1,0,0:0:0:0:
64,192,18194,1,4,0:0:0:0:
192,192,18194,1,0,0:0:0:0:
448,192,18194,1,0,0:0:0:0:
192,192,18351,1,0,0:0:0:0:
64,192,18508,1,0,0:0:0:0:
320,192,18508,1,0,0:0:0:0:
64,192,18665,1,0,0:0:0:0:
192,192,18665,1,0,0:0:0:0:
448,192,18822,1,0,0:0:0:0:
320,192,18822,1,0,0:0:0:0:
64,192,18822,1,4,0:0:0:0:
320,192,18979,1,0,0:0:0:0:
192,192,19136,1,0,0:0:0:0:
64,192,19136,1,0,0:0:0:0:
448,192,19136,1,4,0:0:0:0:
64,192,19293,1,4,0:0:0:0:
320,192,19293,1,0,0:0:0:0:
448,192,19293,1,0,0:0:0:0:
448,192,19450,1,4,0:0:0:0:
64,192,19450,1,4,0:0:0:0:
320,192,19450,1,0,0:0:0:0:
192,192,19450,1,0,0:0:0:0:
192,192,19607,1,0,0:0:0:0:
64,192,19764,1,0,0:0:0:0:
448,192,19764,1,0,0:0:0:0:
192,192,19921,1,0,0:0:0:0:
448,192,19921,1,0,0:0:0:0:
448,192,20079,1,0,0:0:0:0:
192,192,20079,1,0,0:0:0:0:
64,192,20079,1,4,0:0:0:0:
320,192,20236,1,0,0:0:0:0:
64,192,20393,1,0,0:0:0:0:
448,192,20393,1,0,0:0:0:0:
64,192,20550,1,0,0:0:0:0:
320,192,20550,1,0,0:0:0:0:
320,192,20707,1,0,0:0:0:0:
448,192,20707,1,4,0:0:0:0:
64,192,20707,1,0,0:0:0:0:
192,192,20864,1,0,0:0:0:0:
64,192,21021,1,0,0:0:0:0:
448,192,21021,1,0,0:0:0:0:
192,192,21178,1,0,0:0:0:0:
448,192,21178,1,0,0:0:0:0:
192,192,21335,1,0,0:0:0:0:
64,192,21335,1,0,0:0:0:0:
448,192,21335,1,4,0:0:0:0:
192,192,21649,1,4,0:0:0:0:
320,192,21649,1,0,0:0:0:0:
64,192,21963,1,0,0:0:0:0:
448,192,21963,1,0,0:0:0:0:
192,192,22120,1,0,0:0:0:0:
320,192,22120,1,0,0:0:0:0:
448,192,22277,1,0,0:0:0:0:
64,192,22277,1,0,0:0:0:0:
320,192,22435,1,0,0:0:0:0:
192,192,22435,1,0,0:0:0:0:
192,192,22592,1,0,0:0:0:0:
320,192,22592,1,0,0:0:0:0:
64,192,22749,1,0,0:0:0:0:
448,192,22749,1,0,0:0:0:0:
192,192,22906,1,0,0:0:0:0:
320,192,22984,1,0,0:0:0:0:
448,192,23063,1,0,0:0:0:0:
320,192,23141,1,0,0:0:0:0:
192,192,23220,1,0,0:0:0:0:
64,192,23298,1,0,0:0:0:0:
192,192,23377,1,0,0:0:0:0:
320,192,23455,1,0,0:0:0:0:
448,192,23534,1,0,0:0:0:0:
320,192,23613,1,0,0:0:0:0:
192,192,23691,1,0,0:0:0:0:
64,192,23770,1,0,0:0:0:0:
448,192,23848,1,0,0:0:0:0:
320,192,23927,1,0,0:0:0:0:
192,192,24005,1,0,0:0:0:0:
64,192,24084,1,0,0:0:0:0:
320,192,24162,1,0,0:0:0:0:
448,192,24162,1,0,0:0:0:0:
192,192,24319,1,0,0:0:0:0:
320,192,24476,1,0,0:0:0:0:
64,192,24476,1,4,0:0:0:0:
448,192,24476,1,0,0:0:0:0:
192,192,24634,1,0,0:0:0:0:
320,192,24791,1,0,0:0:0:0:
64,192,24791,1,0,0:0:0:0:
320,192,24948,1,0,0:0:0:0:
192,192,24948,1,0,0:0:0:0:
192,192,25105,1,0,0:0:0:0:
64,192,25105,1,0,0:0:0:0:
448,192,25105,1,4,0:0:0:0:
192,192,25262,1,0,0:0:0:0:
320,192,25262,1,0,0:0:0:0:
320,192,25419,1,0,0:0:0:0:
64,192,25419,1,0,0:0:0:0:
192,192,25576,1,0,0:0:0:0:
448,192,25576,1,0,0:0:0:0:
64,192,25733,1,4,0:0:0:0:
320,192,25733,1,0,0:0:0:0:
448,192,25733,1,0,0:0:0:0:
192,192,25890,1,0,0:0:0:0:
64,192,26047,1,0,0:0:0:0:
320,192,26047,1,0,0:0:0:0:
64,192,26204,1,0,0:0:0:0:
192,192,26204,1,0,0:0:0:0:
64,192,26361,1,0,0:0:0:0:
320,192,26361,1,0,0:0:0:0:
448,192,26361,1,4,0:0:0:0:
192,192,26518,1,0,0:0:0:0:
448,192,26675,1,0,0:0:0:0:
64,192,26675,1,0,0:0:0:0:
320,192,26832,1,0,0:0:0:0:
448,192,26990,1,4,0:0:0:0:
192,192,26990,1,0,0:0:0:0:
64,192,26990,1,0,0:0:0:0:
320,192,27147,1,0,0:0:0:0:
192,192,27304,1,0,0:0:0:0:
448,192,27304,1,0,0:0:0:0:
64,192,27461,1,0,0:0:0:0:
320,192,27461,1,0,0:0:0:0:
64,192,27775,1,4,0:0:0:0:
192,192,27775,1,0,0:0:0:0:
448,192,27775,1,0,0:0:0:0:
320,192,28089,1,0,0:0:0:0:
448,192,28089,1,0,0:0:0:0:
192,192,28168,1,0,0:0:0:0:
64,192,28246,1,4,0:0:0:0:
448,192,28246,1,0,0:0:0:0:
320,192,28246,1,0,0:0:0:0:
192,192,28403,1,0,0:0:0:0:
64,192,28560,1,0,0:0:0:0:
320,192,28560,1,0,0:0:0:0:
64,192,28717,1,0,0:0:0:0:
192,192,28717,1,0,0:0:0:0:
64,192,28874,1,0,0:0:0:0:
448,192,28874,1,4,0:0:0:0:
320,192,28874,1,0,0:0:0:0:
192,192,29031,1,0,0:0:0:0:
64,192,29188,1,0,0:0:0:0:
448,192,29188,1,0,0:0:0:0:
320,192,29346,1,0,0:0:0:0:
448,192,29503,1,0,0:0:0:0:
64,192,29503,1,4,0:0:0:0:
192,192,29503,1,0,0:0:0:0:
320,192,29660,1,0,0:0:0:0:
64,192,29817,1,0,0:0:0:0:
448,192,29817,1,0,0:0:0:0:
192,192,29974,1,0,0:0:0:0:
320,192,29974,1,0,0:0:0:0:
320,192,30131,1,0,0:0:0:0:
448,192,30131,1,0,0:0:0:0:
64,192,30131,1,4,0:0:0:0:
192,192,30288,1,0,0:0:0:0:
320,192,30288,1,0,0:0:0:0:
448,192,30445,1,0,0:0:0:0:
64,192,30445,1,0,0:0:0:0:
192,192,30602,1,0,0:0:0:0:
320,192,30602,1,0,0:0:0:0:
64,192,30759,1,0,0:0:0:0:
192,192,30759,1,0,0:0:0:0:
448,192,30759,1,4,0:0:0:0:
320,192,30916,1,0,0:0:0:0:
448,192,31073,1,0,0:0:0:0:
64,192,31073,1,0,0:0:0:0:
192,192,31230,1,0,0:0:0:0:
448,192,31230,1,0,0:0:0:0:
64,192,31387,1,4,0:0:0:0:
192,192,31387,1,0,0:0:0:0:
320,192,31387,1,0,0:0:0:0:
448,192,31544,1,0,0:0:0:0:
192,192,31702,1,0,0:0:0:0:
320,192,31702,1,0,0:0:0:0:
192,192,31859,1,0,0:0:0:0:
64,192,32016,1,0,0:0:0:0:
320,192,32016,1,0,0:0:0:0:
448,192,32016,1,4,0:0:0:0:
192,192,32173,1,0,0:0:0:0:
320,192,32330,1,0,0:0:0:0:
64,192,32330,1,0,0:0:0:0:
192,192,32487,1,0,0:0:0:0:
320,192,32487,1,0,0:0:0:0:
320,192,32801,1,0,0:0:0:0:
192,192,32801,1,4,0:0:0:0:
448,192,32801,1,0,0:0:0:0:
448,192,33115,1,0,0:0:0:0:
192,192,33115,1,0,0:0:0:0:
320,192,33194,1,0,0:0:0:0:
448,192,33272,1,0,0:0:0:0:
192,192,33272,1,0,0:0:0:0:
64,192,33272,1,4,0:0:0:0:
320,192,33429,1,0,0:0:0:0:
448,192,33586,1,0,0:0:0:0:
192,192,33586,1,0,0:0:0:0:
64,192,33743,1,0,0:0:0:0:
320,192,33743,1,0,0:0:0:0:
192,192,33901,1,0,0:0:0:0:
320,192,33901,1,0,0:0:0:0:
448,192,33901,1,4,0:0:0:0:
64,192,34058,1,0,0:0:0:0:
192,192,34215,1,0,0:0:0:0:
320,192,34215,1,0,0:0:0:0:
320,192,34372,1,0,0:0:0:0:
64,192,34529,1,4,0:0:0:0:
192,192,34529,1,0,0:0:0:0:
448,192,34529,1,0,0:0:0:0:
320,192,34686,1,0,0:0:0:0:
192,192,34843,1,0,0:0:0:0:
448,192,34843,1,0,0:0:0:0:
64,192,35000,1,0,0:0:0:0:
448,192,35000,1,0,0:0:0:0:
64,192,35157,1,4,0:0:0:0:
192,192,35157,1,0,0:0:0:0:
320,192,35157,1,0,0:0:0:0:
192,192,35314,1,0,0:0:0:0:
448,192,35314,1,0,0:0:0:0:
192,192,35471,1,0,0:0:0:0:
320,192,35471,1,0,0:0:0:0:
64,192,35628,1,0,0:0:0:0:
448,192,35628,1,0,0:0:0:0:
320,192,35785,1,0,0:0:0:0:
448,192,35785,1,4,0:0:0:0:
192,192,35785,1,0,0:0:0:0:
64,192,35942,1,0,0:0:0:0:
192,192,36099,1,0,0:0:0:0:
448,192,36099,1,0,0:0:0:0:
192,192,36257,1,0,0:0:0:0:
320,192,36257,1,0,0:0:0:0:
64,192,36414,1,0,0:0:0:0:
192,192,36414,1,0,0:0:0:0:
448,192,36414,1,4,0:0:0:0:
320,192,36571,1,0,0:0:0:0:
192,192,36728,1,0,0:0:0:0:
448,192,36728,1,0,0:0:0:0:
64,192,36885,1,0,0:0:0:0:
192,192,37042,1,0,0:0:0:0:
320,192,37042,1,0,0:0:0:0:
448,192,37042,1,4,0:0:0:0:
64,192,37199,1,0,0:0:0:0:
192,192,37356,1,0,0:0:0:0:
320,192,37356,1,0,0:0:0:0:
448,192,37513,1,0,0:0:0:0:
64,192,37513,1,0,0:0:0:0:
192,192,37827,1,0,0:0:0:0:
64,192,37827,1,0,0:0:0:0:
448,192,37827,1,4,0:0:0:0:
320,192,38141,1,0,0:0:0:0:
448,192,38141,1,0,0:0:0:0:
192,192,38220,1,0,0:0:0:0:
320,192,38298,1,0,0:0:0:0:
448,192,38298,1,0,0:0:0:0:
64,192,38298,1,4,0:0:0:0:
192,192,38455,1,0,0:0:0:0:
320,192,38613,1,0,0:0:0:0:
448,192,38613,1,0,0:0:0:0:
64,192,38770,1,0,0:0:0:0:
448,192,38770,1,0,0:0:0:0:
64,192,38927,1,4,0:0:0:0:
192,192,38927,1,0,0:0:0:0:
320,192,38927,1,0,0:0:0:0:
448,192,39084,1,0,0:0:0:0:
320,192,39241,1,0,0:0:0:0:
64,192,39241,1,0,0:0:0:0:
192,192,39398,1,0,0:0:0:0:
448,192,39555,1,0,0:0:0:0:
64,192,39555,1,4,0:0:0:0:
320,192,39555,1,0,0:0:0:0:
192,192,39712,1,0,0:0:0:0:
64,192,39869,1,0,0:0:0:0:
320,192,39869,1,0,0:0:0:0:
64,192,40026,1,0,0:0:0:0:
448,192,40026,1,0,0:0:0:0:
192,192,40183,1,0,0:0:0:0:
320,192,40183,1,0,0:0:0:0:
448,192,40183,1,4,0:0:0:0:
64,192,40340,1,0,0:0:0:0:
320,192,40340,1,0,0:0:0:0:
64,192,40497,1,0,0:0:0:0:
448,192,40497,1,0,0:0:0:0:
192,192,40654,1,0,0:0:0:0:
448,192,40654,1,0,0:0:0:0:
64,192,40812,1,4,0:0:0:0:
192,192,40812,1,0,0:0:0:0:
320,192,40812,1,0,0:0:0:0:
448,192,40969,1,0,0:0:0:0:
64,192,41126,1,0,0:0:0:0:
320,192,41126,1,0,0:0:0:0:
192,192,41283,1,0,0:0:0:0:
448,192,41283,1,0,0:0:0:0:
64,192,41440,1,0,0:0:0:0:
448,192,41440,1,4,0:0:0:0:
320,192,41440,1,0,0:0:0:0:
192,192,41597,1,0,0:0:0:0:
64,192,41754,1,0,0:0:0:0:
320,192,41754,1,4,0:0:0:0:
192,192,41832,1,0,0:0:0:0:
320,192,41911,1,0,0:0:0:0:
448,192,41990,1,0,0:0:0:0:
192,192,42068,1,4,0:0:0:0:
64,192,42068,1,0,0:0:0:0:
320,192,42147,1,0,0:0:0:0:
448,192,42225,1,0,0:0:0:0:
64,192,42304,1,0,0:0:0:0:
192,192,42382,1,4,0:0:0:0:
320,192,42382,1,0,0:0:0:0:
64,192,42539,1,0,0:0:0:0:
448,192,42539,1,4,0:0:0:0:
64,192,42853,1,4,0:0:0:0:
192,192,42853,1,0,0:0:0:0:
320,192,42853,1,0,0:0:0:0:
448,192,42853,1,4,0:0:0:0:
448,192,43168,1,0,0:0:0:0:
320,192,43246,1,0,0:0:0:0:
192,192,43325,1,0,0:0:0:0:
64,192,43325,128,8,44895:0:0:0:0:
448,192,43403,1,0,0:0:0:0:
320,192,43482,1,0,0:0:0:0:
192,192,43639,1,0,0:0:0:0:
448,192,43639,1,4,0:0:0:0:
320,192,43796,1,0,0:0:0:0:
448,192,43796,1,4,0:0:0:0:
320,192,43953,1,0,0:0:0:0:
448,192,43953,1,4,0:0:0:0:
448,192,44110,1,4,0:0:0:0:
192,192,44110,1,0,0:0:0:0:
320,192,44267,1,0,0:0:0:0:
192,192,44424,1,0,0:0:0:0:
448,192,44424,1,0,0:0:0:0:
192,192,44581,1,0,0:0:0:0:
320,192,44581,1,0,0:0:0:0:
448,192,44581,1,4,0:0:0:0:
320,192,44738,1,0,0:0:0:0:
448,192,44895,1,0,0:0:0:0:
192,192,44895,1,0,0:0:0:0:
320,192,45052,1,0,0:0:0:0:
448,192,45052,1,0,0:0:0:0:
64,192,45209,1,4,0:0:0:0:
192,192,45209,1,0,0:0:0:0:
448,192,45209,1,0,0:0:0:0:
320,192,45366,1,0,0:0:0:0:
192,192,45366,1,0,0:0:0:0:
64,192,45524,1,0,0:0:0:0:
448,192,45524,1,0,0:0:0:0:
192,192,45681,1,0,0:0:0:0:
320,192,45681,1,0,0:0:0:0:
448,192,45838,1,0,0:0:0:0:
320,192,45838,1,0,0:0:0:0:
64,192,45838,1,4,0:0:0:0:
192,192,45995,1,0,0:0:0:0:
320,192,46073,1,0,0:0:0:0:
64,192,46152,1,0,0:0:0:0:
448,192,46152,1,0,0:0:0:0:
320,192,46309,1,0,0:0:0:0:
192,192,46309,1,0,0:0:0:0:
448,192,46466,1,0,0:0:0:0:
192,192,46466,1,0,0:0:0:0:
64,192,46466,1,4,0:0:0:0:
320,192,46623,1,0,0:0:0:0:
448,192,46780,1,0,0:0:0:0:
64,192,46780,1,0,0:0:0:0:
192,192,46937,1,0,0:0:0:0:
64,192,47094,1,0,0:0:0:0:
320,192,47094,1,0,0:0:0:0:
448,192,47094,1,4,0:0:0:0:
192,192,47251,1,0,0:0:0:0:
64,192,47408,1,0,0:0:0:0:
448,192,47408,1,0,0:0:0:0:
192,192,47565,1,0,0:0:0:0:
320,192,47565,1,0,0:0:0:0:
64,192,47880,1,0,0:0:0:0:
192,192,47880,1,0,0:0:0:0:
448,192,47880,1,4,0:0:0:0:
64,192,48194,1,0,0:0:0:0:
320,192,48194,1,0,0:0:0:0:
448,192,48351,1,4,0:0:0:0:
192,192,48351,1,0,0:0:0:0:
64,192,48351,1,0,0:0:0:0:
192,192,48508,1,0,0:0:0:0:
448,192,48508,1,0,0:0:0:0:
320,192,48665,1,0,0:0:0:0:
64,192,48665,1,0,0:0:0:0:
192,192,48743,1,0,0:0:0:0:
320,192,48822,1,0,0:0:0:0:
448,192,48901,1,0,0:0:0:0:
320,192,48979,1,0,0:0:0:0:
64,192,48979,128,8,49607:0:0:0:0:
448,192,49293,1,4,0:0:0:0:
192,192,49293,1,0,0:0:0:0:
320,192,49607,1,0,0:0:0:0:
448,192,49607,1,4,0:0:0:0:
64,192,49921,1,0,0:0:0:0:
448,192,49921,1,0,0:0:0:0:
192,192,50079,1,0,0:0:0:0:
320,192,50079,1,0,0:0:0:0:
192,192,50236,1,0,0:0:0:0:
64,192,50236,1,4,0:0:0:0:
448,192,50236,1,0,0:0:0:0:
320,192,50393,1,0,0:0:0:0:
448,192,50393,1,0,0:0:0:0:
192,192,50550,1,0,0:0:0:0:
64,192,50550,1,0,0:0:0:0:
192,192,50707,1,0,0:0:0:0:
320,192,50707,1,0,0:0:0:0:
64,192,50864,1,4,0:0:0:0:
320,192,50864,1,0,0:0:0:0:
448,192,50864,1,0,0:0:0:0:
192,192,51021,1,0,0:0:0:0:
448,192,51099,1,0,0:0:0:0:
64,192,51178,1,0,0:0:0:0:
320,192,51178,1,0,0:0:0:0:
192,192,51335,1,0,0:0:0:0:
320,192,51335,1,0,0:0:0:0:
64,192,51492,1,0,0:0:0:0:
192,192,51492,1,0,0:0:0:0:
448,192,51492,1,4,0:0:0:0:
320,192,51649,1,0,0:0:0:0:
64,192,51806,1,0,0:0:0:0:
448,192,51806,1,0,0:0:0:0:
192,192,51963,1,0,0:0:0:0:
448,192,52120,1,0,0:0:0:0:
320,192,52120,1,0,0:0:0:0:
64,192,52120,1,4,0:0:0:0:
192,192,52277,1,0,0:0:0:0:
192,192,52435,1,0,0:0:0:0:
320,192,52435,1,0,0:0:0:0:
64,192,52592,1,4,0:0:0:0:
192,192,52592,1,0,0:0:0:0:
320,192,52592,1,0,0:0:0:0:
448,192,52592,1,4,0:0:0:0:
64,192,52906,1,4,0:0:0:0:
192,192,52906,1,0,0:0:0:0:
320,192,52906,1,0,0:0:0:0:
448,192,52906,1,4,0:0:0:0:
64,192,53220,1,0,0:0:0:0:
448,192,53220,1,0,0:0:0:0:
192,192,53377,1,0,0:0:0:0:
320,192,53377,1,0,0:0:0:0:
448,192,53455,1,0,0:0:0:0:
64,192,53534,1,0,0:0:0:0:
320,192,53534,1,0,0:0:0:0:
192,192,53691,1,0,0:0:0:0:
320,192,53691,1,0,0:0:0:0:
192,192,53848,1,0,0:0:0:0:
448,192,53848,1,0,0:0:0:0:
320,192,54005,1,0,0:0:0:0:
64,192,54162,1,0,0:0:0:0:
192,192,54162,1,0,0:0:0:0:
448,192,54162,1,4,0:0:0:0:
320,192,54319,1,0,0:0:0:0:
192,192,54476,1,0,0:0:0:0:
64,192,54476,1,0,0:0:0:0:
192,192,54634,1,0,0:0:0:0:
320,192,54634,1,0,0:0:0:0:
448,192,54634,1,4,0:0:0:0:
64,192,54791,1,0,0:0:0:0:
192,192,54948,1,0,0:0:0:0:
320,192,54948,1,0,0:0:0:0:
192,192,55105,1,0,0:0:0:0:
448,192,55105,1,0,0:0:0:0:
64,192,55262,1,4,0:0:0:0:
192,192,55262,1,0,0:0:0:0:
320,192,55262,1,0,0:0:0:0:
448,192,55419,1,0,0:0:0:0:
320,192,55419,1,0,0:0:0:0:
320,192,55576,1,0,0:0:0:0:
64,192,55576,1,0,0:0:0:0:
192,192,55733,1,0,0:0:0:0:
64,192,55733,1,0,0:0:0:0:
192,192,55890,1,0,0:0:0:0:
448,192,55890,1,4,0:0:0:0:
320,192,55890,1,0,0:0:0:0:
64,192,56047,1,0,0:0:0:0:
320,192,56126,1,0,0:0:0:0:
192,192,56204,1,0,0:0:0:0:
448,192,56204,1,0,0:0:0:0:
320,192,56361,1,0,0:0:0:0:
192,192,56361,1,0,0:0:0:0:
64,192,56518,1,4,0:0:0:0:
192,192,56518,1,0,0:0:0:0:
448,192,56518,1,0,0:0:0:0:
320,192,56675,1,0,0:0:0:0:
448,192,56832,1,0,0:0:0:0:
64,192,56832,1,0,0:0:0:0:
192,192,56990,1,0,0:0:0:0:
64,192,57147,1,4,0:0:0:0:
448,192,57147,1,0,0:0:0:0:
320,192,57147,1,0,0:0:0:0:
192,192,57304,1,0,0:0:0:0:
64,192,57461,1,0,0:0:0:0:
448,192,57461,1,0,0:0:0:0:
64,192,57618,1,0,0:0:0:0:
320,192,57618,1,0,0:0:0:0:
192,192,57775,1,0,0:0:0:0:
64,192,57932,1,4,0:0:0:0:
448,192,57932,1,0,0:0:0:0:
320,192,57932,1,0,0:0:0:0:
192,192,58089,1,0,0:0:0:0:
64,192,58246,1,0,0:0:0:0:
320,192,58246,1,0,0:0:0:0:
192,192,58403,1,0,0:0:0:0:
320,192,58403,1,0,0:0:0:0:
64,192,58403,1,4,0:0:0:0:
448,192,58403,128,8,58717:0:0:0:0:
192,192,58560,1,0,0:0:0:0:
320,192,58560,1,0,0:0:0:0:
64,192,58717,128,8,59031:0:0:0:0:
192,192,58717,1,0,0:0:0:0:
320,192,58796,1,0,0:0:0:0:
192,192,58874,1,0,0:0:0:0:
320,192,58953,1,0,0:0:0:0:
448,192,59031,128,8,59346:0:0:0:0:
64,192,59346,1,4,0:0:0:0:
320,192,59346,1,0,0:0:0:0:
192,192,59660,1,0,0:0:0:0:
448,192,59660,1,4,0:0:0:0:
192,192,59974,1,0,0:0:0:0:
64,192,59974,1,0,0:0:0:0:
192,192,60131,1,0,0:0:0:0:
448,192,60131,1,0,0:0:0:0:
64,192,60288,1,4,0:0:0:0:
448,192,60288,1,0,0:0:0:0:
320,192,60288,1,0,0:0:0:0:
192,192,60445,1,0,0:0:0:0:
64,192,60445,1,0,0:0:0:0:
192,192,60602,1,0,0:0:0:0:
448,192,60602,1,0,0:0:0:0:
320,192,60759,1,0,0:0:0:0:
448,192,60759,1,0,0:0:0:0:
192,192,60916,1,0,0:0:0:0:
64,192,60916,1,4,0:0:0:0:
448,192,60916,1,0,0:0:0:0:
320,192,61073,1,0,0:0:0:0:
64,192,61152,1,0,0:0:0:0:
192,192,61230,1,0,0:0:0:0:
448,192,61230,1,0,0:0:0:0:
192,192,61387,1,0,0:0:0:0:
320,192,61387,1,0,0:0:0:0:
64,192,61544,1,0,0:0:0:0:
320,192,61544,1,0,0:0:0:0:
448,192,61544,1,4,0:0:0:0:
192,192,61702,1,0,0:0:0:0:
64,192,61859,1,0,0:0:0:0:
448,192,61859,1,0,0:0:0:0:
320,192,62016,1,0,0:0:0:0:
64,192,62173,1,4,0:0:0:0:
192,192,62173,1,0,0:0:0:0:
448,192,62173,1,0,0:0:0:0:
320,192,62330,1,0,0:0:0:0:
320,192,62487,1,0,0:0:0:0:
192,192,62487,1,0,0:0:0:0:
64,192,62644,1,4,0:0:0:0:
192,192,62644,1,0,0:0:0:0:
448,192,62644,1,4,0:0:0:0:
320,192,62644,1,0,0:0:0:0:
64,192,62958,1,4,0:0:0:0:
192,192,62958,1,0,0:0:0:0:
320,192,62958,1,0,0:0:0:0:
448,192,62958,1,4,0:0:0:0:
448,192,63272,1,0,0:0:0:0:
320,192,63272,1,0,0:0:0:0:
64,192,63429,1,4,0:0:0:0:
192,192,63429,1,0,0:0:0:0:
448,192,63429,1,0,0:0:0:0:
320,192,63508,1,0,0:0:0:0:
192,192,63586,1,0,0:0:0:0:
64,192,63743,1,0,0:0:0:0:
448,192,63743,1,0,0:0:0:0:
192,192,63901,1,0,0:0:0:0:
320,192,63901,1,0,0:0:0:0:
192,192,64372,1,0,0:0:0:0:
320,192,64372,1,0,0:0:0:0:
64,192,64529,1,0,0:0:0:0:
320,192,64529,1,0,0:0:0:0:
192,192,64686,1,0,0:0:0:0:
448,192,64686,1,0,0:0:0:0:
192,192,64843,1,0,0:0:0:0:
320,192,64843,1,0,0:0:0:0:
320,192,65000,1,0,0:0:0:0:
64,192,65000,1,4,0:0:0:0:
448,192,65000,1,0,0:0:0:0:
192,192,65157,1,0,0:0:0:0:
192,192,65314,1,0,0:0:0:0:
320,192,65314,1,0,0:0:0:0:
64,192,65471,1,0,0:0:0:0:
448,192,65471,1,0,0:0:0:0:
192,192,65628,1,0,0:0:0:0:
320,192,65628,1,0,0:0:0:0:
64,192,65785,1,0,0:0:0:0:
448,192,65785,1,0,0:0:0:0:
192,192,65942,1,0,0:0:0:0:
320,192,65942,1,0,0:0:0:0:
320,192,66099,1,0,0:0:0:0:
64,192,66257,1,0,0:0:0:0:
192,192,66257,1,0,0:0:0:0:
448,192,66257,1,4,0:0:0:0:
320,192,66414,1,4,0:0:0:0:
192,192,66885,1,0,0:0:0:0:
320,192,66885,1,0,0:0:0:0:
192,192,67042,1,0,0:0:0:0:
448,192,67042,1,0,0:0:0:0:
64,192,67199,1,0,0:0:0:0:
320,192,67199,1,0,0:0:0:0:
192,192,67356,1,0,0:0:0:0:
448,192,67356,1,0,0:0:0:0:
448,192,67513,1,0,0:0:0:0:
320,192,67513,1,0,0:0:0:0:
64,192,67513,1,4,0:0:0:0:
192,192,67670,1,0,0:0:0:0:
320,192,67827,1,0,0:0:0:0:
192,192,67827,1,0,0:0:0:0:
64,192,67984,1,0,0:0:0:0:
448,192,67984,1,0,0:0:0:0:
192,192,68141,1,0,0:0:0:0:
320,192,68141,1,0,0:0:0:0:
64,192,68298,1,0,0:0:0:0:
448,192,68298,1,0,0:0:0:0:
320,192,68455,1,0,0:0:0:0:
192,192,68455,1,0,0:0:0:0:
320,192,68613,1,0,0:0:0:0:
64,192,68770,1,0,0:0:0:0:
192,192,68770,1,0,0:0:0:0:
448,192,68770,1,4,0:0:0:0:
64,192,69005,1,4,0:0:0:0:
448,192,69162,1,4,0:0:0:0:
192,192,69398,1,0,0:0:0:0:
320,192,69398,1,0,0:0:0:0:
64,192,69555,1,0,0:0:0:0:
320,192,69555,1,0,0:0:0:0:
192,192,69712,1,0,0:0:0:0:
448,192,69712,1,0,0:0:0:0:
320,192,69869,1,0,0:0:0:0:
64,192,69869,1,0,0:0:0:0:
64,192,70026,1,4,0:0:0:0:
192,192,70026,1,0,0:0:0:0:
448,192,70026,1,0,0:0:0:0:
320,192,70183,1,0,0:0:0:0:
192,192,70340,1,0,0:0:0:0:
448,192,70340,1,0,0:0:0:0:
64,192,70497,1,0,0:0:0:0:
448,192,70497,1,4,0:0:0:0:
320,192,70497,1,0,0:0:0:0:
192,192,70654,1,0,0:0:0:0:
320,192,70654,1,0,0:0:0:0:
448,192,70812,1,0,0:0:0:0:
192,192,70812,1,0,0:0:0:0:
64,192,70812,1,4,0:0:0:0:
192,192,70969,1,0,0:0:0:0:
320,192,70969,1,0,0:0:0:0:
320,192,71126,1,0,0:0:0:0:
64,192,71126,1,0,0:0:0:0:
192,192,71204,1,0,0:0:0:0:
64,192,71283,1,4,0:0:0:0:
448,192,71283,1,0,0:0:0:0:
320,192,71283,1,0,0:0:0:0:
448,192,71440,1,0,0:0:0:0:
192,192,71440,1,0,0:0:0:0:
320,192,71518,1,0,0:0:0:0:
64,192,71597,1,0,0:0:0:0:
192,192,71597,1,0,0:0:0:0:
448,192,71597,1,4,0:0:0:0:
320,192,71754,1,0,0:0:0:0:
64,192,71911,1,0,0:0:0:0:
192,192,71911,1,0,0:0:0:0:
320,192,72068,1,0,0:0:0:0:
448,192,72068,1,0,0:0:0:0:
64,192,72225,1,0,0:0:0:0:
192,192,72225,1,0,0:0:0:0:
64,192,72382,1,0,0:0:0:0:
320,192,72382,1,0,0:0:0:0:
448,192,72382,1,4,0:0:0:0:
192,192,72539,1,0,0:0:0:0:
64,192,72696,1,0,0:0:0:0:
448,192,72696,1,0,0:0:0:0:
192,192,72853,1,0,0:0:0:0:
320,192,72853,1,0,0:0:0:0:
192,192,73010,1,0,0:0:0:0:
448,192,73010,1,4,0:0:0:0:
64,192,73010,1,0,0:0:0:0:
320,192,73168,1,0,0:0:0:0:
192,192,73325,1,0,0:0:0:0:
448,192,73325,1,0,0:0:0:0:
64,192,73482,1,0,0:0:0:0:
320,192,73482,1,0,0:0:0:0:
192,192,73639,1,0,0:0:0:0:
64,192,73639,1,0,0:0:0:0:
320,192,73639,1,4,0:0:0:0:
448,192,73796,1,0,0:0:0:0:
320,192,73953,1,0,0:0:0:0:
192,192,74031,1,0,0:0:0:0:
64,192,74110,1,0,0:0:0:0:
192,192,74188,1,0,0:0:0:0:
320,192,74267,1,0,0:0:0:0:
448,192,74346,1,0,0:0:0:0:
64,192,74424,1,0,0:0:0:0:
192,192,74424,1,0,0:0:0:0:
192,192,74581,1,0,0:0:0:0:
448,192,74581,1,0,0:0:0:0:
64,192,74738,1,4,0:0:0:0:
320,192,74738,1,0,0:0:0:0:
448,192,74738,1,0,0:0:0:0:
192,192,74895,1,0,0:0:0:0:
64,192,75052,1,0,0:0:0:0:
448,192,75052,1,0,0:0:0:0:
320,192,75209,1,0,0:0:0:0:
448,192,75209,1,0,0:0:0:0:
64,192,75366,1,4,0:0:0:0:
192,192,75366,1,0,0:0:0:0:
448,192,75366,1,0,0:0:0:0:
320,192,75524,1,0,0:0:0:0:
64,192,75681,1,0,0:0:0:0:
448,192,75681,1,0,0:0:0:0:
320,192,75838,1,0,0:0:0:0:
192,192,75838,1,0,0:0:0:0:
64,192,75995,1,0,0:0:0:0:
320,192,75995,1,0,0:0:0:0:
448,192,75995,1,4,0:0:0:0:
192,192,76152,1,0,0:0:0:0:
64,192,76309,1,0,0:0:0:0:
448,192,76309,1,0,0:0:0:0:
192,192,76466,1,0,0:0:0:0:
320,192,76466,1,0,0:0:0:0:
192,192,76623,1,0,0:0:0:0:
320,192,76623,1,0,0:0:0:0:
448,192,76623,1,4,0:0:0:0:
64,192,76623,1,4,0:0:0:0:
192,192,76780,1,0,0:0:0:0:
320,192,76937,1,0,0:0:0:0:
64,192,76937,1,0,0:0:0:0:
320,192,77094,1,0,0:0:0:0:
448,192,77094,1,0,0:0:0:0:
64,192,77251,1,4,0:0:0:0:
192,192,77251,1,0,0:0:0:0:
448,192,77251,1,0,0:0:0:0:
320,192,77408,1,0,0:0:0:0:
448,192,77565,1,0,0:0:0:0:
192,192,77565,1,0,0:0:0:0:
64,192,77723,1,0,0:0:0:0:
192,192,77723,1,0,0:0:0:0:
64,192,77880,1,0,0:0:0:0:
448,192,77880,1,4,0:0:0:0:
320,192,77880,1,0,0:0:0:0:
192,192,78037,1,0,0:0:0:0:
448,192,78194,1,0,0:0:0:0:
64,192,78194,1,0,0:0:0:0:
192,192,78351,1,0,0:0:0:0:
320,192,78351,1,0,0:0:0:0:
64,192,78508,1,0,0:0:0:0:
448,192,78508,1,4,0:0:0:0:
192,192,78508,1,0,0:0:0:0:
320,192,78665,1,0,0:0:0:0:
64,192,78822,1,0,0:0:0:0:
448,192,78822,1,0,0:0:0:0:
192,192,78979,1,0,0:0:0:0:
320,192,78979,1,0,0:0:0:0:
64,192,79136,1,4,0:0:0:0:
192,192,79136,1,0,0:0:0:0:
320,192,79136,1,0,0:0:0:0:
448,192,79136,1,4,0:0:0:0:
320,192,79293,1,0,0:0:0:0:
64,192,79450,1,0,0:0:0:0:
448,192,79450,1,0,0:0:0:0:
192,192,79607,1,0,0:0:0:0:
448,192,79607,1,0,0:0:0:0:
64,192,79764,1,4,0:0:0:0:
192,192,79764,1,0,0:0:0:0:
320,192,79764,1,0,0:0:0:0:
64,192,79921,1,0,0:0:0:0:
448,192,79921,1,0,0:0:0:0:
320,192,80079,1,0,0:0:0:0:
448,192,80079,1,4,0:0:0:0:
192,192,80079,1,0,0:0:0:0:
64,192,80236,1,0,0:0:0:0:
320,192,80236,1,0,0:0:0:0:
64,192,80393,1,4,0:0:0:0:
192,192,80393,1,0,0:0:0:0:
448,192,80393,1,0,0:0:0:0:
320,192,80550,1,0,0:0:0:0:
448,192,80550,1,0,0:0:0:0:
64,192,80707,1,0,0:0:0:0:
192,192,80707,1,0,0:0:0:0:
448,192,80707,1,4,0:0:0:0:
320,192,80864,1,0,0:0:0:0:
192,192,80864,1,0,0:0:0:0:
448,192,81021,1,0,0:0:0:0:
320,192,81021,1,0,0:0:0:0:
64,192,81021,1,4,0:0:0:0:
64,192,81178,1,0,0:0:0:0:
192,192,81178,1,0,0:0:0:0:
64,192,81335,1,0,0:0:0:0:
448,192,81335,1,4,0:0:0:0:
320,192,81335,1,0,0:0:0:0:
192,192,81492,1,0,0:0:0:0:
320,192,81492,1,0,0:0:0:0:
64,192,81649,1,4,0:0:0:0:
448,192,81649,1,0,0:0:0:0:
192,192,81649,1,0,0:0:0:0:
320,192,81806,1,0,0:0:0:0:
448,192,81806,1,0,0:0:0:0:
320,192,81963,1,0,0:0:0:0:
64,192,81963,1,0,0:0:0:0:
192,192,82120,1,0,0:0:0:0:
64,192,82120,1,0,0:0:0:0:
320,192,82277,1,0,0:0:0:0:
64,192,82277,1,0,0:0:0:0:
448,192,82277,1,4,0:0:0:0:
192,192,82435,1,0,0:0:0:0:
448,192,82435,1,0,0:0:0:0:
64,192,82592,1,4,0:0:0:0:
192,192,82592,1,0,0:0:0:0:
320,192,82592,1,0,0:0:0:0:
448,192,82749,1,0,0:0:0:0:
192,192,82749,1,0,0:0:0:0:
64,192,82906,1,0,0:0:0:0:
320,192,82906,1,0,0:0:0:0:
448,192,82906,1,4,0:0:0:0:
192,192,83063,1,0,0:0:0:0:
320,192,83063,1,0,0:0:0:0:
64,192,83220,1,4,0:0:0:0:
320,192,83220,1,0,0:0:0:0:
448,192,83220,1,0,0:0:0:0:
192,192,83298,1,0,0:0:0:0:
320,192,83377,1,0,0:0:0:0:
448,192,83377,1,0,0:0:0:0:
64,192,83455,1,0,0:0:0:0:
320,192,83534,1,0,0:0:0:0:
448,192,83534,1,0,0:0:0:0:
192,192,83613,1,0,0:0:0:0:
320,192,83691,1,0,0:0:0:0:
448,192,83691,1,0,0:0:0:0:
64,192,83770,1,0,0:0:0:0:
320,192,83848,1,0,0:0:0:0:
448,192,83848,1,0,0:0:0:0:
192,192,83927,1,0,0:0:0:0:
320,192,84005,1,0,0:0:0:0:
448,192,84005,1,0,0:0:0:0:
64,192,84084,1,0,0:0:0:0:
320,192,84162,1,0,0:0:0:0:
448,192,84162,1,4,0:0:0:0:
192,192,84162,1,0,0:0:0:0:
320,192,84319,1,0,0:0:0:0:
64,192,84476,1,0,0:0:0:0:
192,192,84476,1,0,0:0:0:0:
448,192,84476,1,4,0:0:0:0:
320,192,84634,1,0,0:0:0:0:
64,192,84634,1,4,0:0:0:0:
448,192,84634,1,0,0:0:0:0:
64,192,84791,1,0,0:0:0:0:
192,192,84791,1,0,0:0:0:0:
448,192,84791,1,4,0:0:0:0:
448,192,84948,1,0,0:0:0:0:
320,192,84948,1,0,0:0:0:0:
64,192,84948,1,4,0:0:0:0:
64,192,85105,1,0,0:0:0:0:
192,192,85105,1,0,0:0:0:0:
448,192,85105,1,4,0:0:0:0:
320,192,85262,1,0,0:0:0:0:
64,192,85419,1,4,0:0:0:0:
192,192,85419,1,0,0:0:0:0:
448,192,85419,1,0,0:0:0:0:
320,192,85576,1,0,0:0:0:0:
64,192,85576,1,0,0:0:0:0:
448,192,85576,1,4,0:0:0:0:
192,192,85733,1,0,0:0:0:0:
64,192,85890,1,4,0:0:0:0:
448,192,85890,1,0,0:0:0:0:
320,192,85890,1,0,0:0:0:0:
64,192,86047,1,0,0:0:0:0:
192,192,86047,1,0,0:0:0:0:
448,192,86047,1,4,0:0:0:0:
320,192,86204,1,0,0:0:0:0:
448,192,86361,1,0,0:0:0:0:
192,192,86361,1,0,0:0:0:0:
64,192,86361,1,4,0:0:0:0:
64,192,86518,1,0,0:0:0:0:
448,192,86518,1,4,0:0:0:0:
320,192,86518,1,0,0:0:0:0:
448,192,86675,1,0,0:0:0:0:
192,192,86675,1,0,0:0:0:0:
64,192,86675,1,4,0:0:0:0:
64,192,86832,1,0,0:0:0:0:
320,192,86832,1,0,0:0:0:0:
448,192,86832,1,4,0:0:0:0:
64,192,86990,1,4,0:0:0:0:
448,192,86990,1,0,0:0:0:0:
192,192,86990,1,0,0:0:0:0:
320,192,87147,1,0,0:0:0:0:
64,192,87304,1,0,0:0:0:0:
192,192,87304,1,0,0:0:0:0:
448,192,87304,1,4,0:0:0:0:
192,192,87461,1,0,0:0:0:0:
320,192,87461,1,0,0:0:0:0:
64,192,87461,1,4,0:0:0:0:
448,192,87618,1,0,0:0:0:0:
64,192,87775,1,4,0:0:0:0:
192,192,87775,1,0,0:0:0:0:
320,192,87775,1,0,0:0:0:0:
64,192,87932,1,4,0:0:0:0:
320,192,87932,1,0,0:0:0:0:
192,192,87932,1,0,0:0:0:0:
448,192,87932,128,8,88874:0:0:0:0:
64,192,88874,1,0,0:0:0:0:
192,192,88874,1,0,0:0:0:0:
192,192,89188,1,0,0:0:0:0:
320,192,89188,1,0,0:0:0:0:
64,192,89503,1,4,0:0:0:0:
192,192,89503,1,0,0:0:0:0:
320,192,89503,1,0,0:0:0:0:
448,192,89503,1,4,0:0:0:0:
320,192,89660,1,0,0:0:0:0:
448,192,89817,1,4,0:0:0:0:
192,192,89817,1,0,0:0:0:0:
64,192,89817,1,0,0:0:0:0:
320,192,89974,1,0,0:0:0:0:
64,192,90131,1,0,0:0:0:0:
448,192,90131,1,0,0:0:0:0:
320,192,90288,1,0,0:0:0:0:
192,192,90288,1,0,0:0:0:0:
64,192,90445,1,4,0:0:0:0:
320,192,90445,1,0,0:0:0:0:
448,192,90445,1,0,0:0:0:0:
192,192,90602,1,0,0:0:0:0:
320,192,90681,1,0,0:0:0:0:
64,192,90759,1,0,0:0:0:0:
448,192,90759,1,0,0:0:0:0:
192,192,90916,1,0,0:0:0:0:
320,192,90916,1,0,0:0:0:0:
448,192,91073,1,4,0:0:0:0:
192,192,91073,1,0,0:0:0:0:
64,192,91073,1,0,0:0:0:0:
320,192,91230,1,0,0:0:0:0:
448,192,91387,1,0,0:0:0:0:
64,192,91387,1,0,0:0:0:0:
320,192,91544,1,0,0:0:0:0:
192,192,91544,1,0,0:0:0:0:
64,192,91702,1,4,0:0:0:0:
320,192,91702,1,0,0:0:0:0:
448,192,91702,1,0,0:0:0:0:
192,192,91859,1,0,0:0:0:0:
448,192,92016,128,8,92330:0:0:0:0:
320,192,92016,1,0,0:0:0:0:
64,192,92016,1,0,0:0:0:0:
192,192,92173,1,0,0:0:0:0:
64,192,92330,1,4,0:0:0:0:
192,192,92330,1,0,0:0:0:0:
320,192,92330,1,0,0:0:0:0:
320,192,92487,1,0,0:0:0:0:
64,192,92644,128,8,92958:0:0:0:0:
192,192,92644,1,0,0:0:0:0:
448,192,92644,1,0,0:0:0:0:
448,192,92801,1,0,0:0:0:0:
320,192,92801,1,0,0:0:0:0:
192,192,92958,1,0,0:0:0:0:
320,192,92958,1,0,0:0:0:0:
448,192,92958,1,4,0:0:0:0:
192,192,93115,1,0,0:0:0:0:
320,192,93194,1,0,0:0:0:0:
64,192,93272,1,0,0:0:0:0:
448,192,93272,1,0,0:0:0:0:
192,192,93429,1,0,0:0:0:0:
320,192,93429,1,0,0:0:0:0:
64,192,93586,1,4,0:0:0:0:
320,192,93586,1,0,0:0:0:0:
448,192,93586,1,0,0:0:0:0:
192,192,93743,1,0,0:0:0:0:
64,192,93901,1,0,0:0:0:0:
320,192,93901,1,0,0:0:0:0:
192,192,94058,1,0,0:0:0:0:
448,192,94058,1,0,0:0:0:0:
192,192,94215,1,0,0:0:0:0:
64,192,94215,1,4,0:0:0:0:
320,192,94215,1,0,0:0:0:0:
448,192,94372,1,0,0:0:0:0:
320,192,94529,1,0,0:0:0:0:
64,192,94529,1,0,0:0:0:0:
192,192,94686,1,0,0:0:0:0:
64,192,94843,1,0,0:0:0:0:
320,192,94843,1,0,0:0:0:0:
448,192,94843,1,4,0:0:0:0:
192,192,95000,1,0,0:0:0:0:
64,192,95157,1,0,0:0:0:0:
320,192,95157,1,0,0:0:0:0:
320,192,95314,1,0,0:0:0:0:
448,192,95314,1,0,0:0:0:0:
64,192,95471,1,4,0:0:0:0:
192,192,95471,1,0,0:0:0:0:
448,192,95471,1,0,0:0:0:0:
320,192,95628,1,0,0:0:0:0:
64,192,95628,1,0,0:0:0:0:
64,192,95785,1,0,0:0:0:0:
192,192,95785,1,0,0:0:0:0:
320,192,95942,1,0,0:0:0:0:
448,192,95942,1,0,0:0:0:0:
64,192,96099,1,0,0:0:0:0:
192,192,96099,1,0,0:0:0:0:
448,192,96099,1,4,0:0:0:0:
320,192,96257,1,0,0:0:0:0:
192,192,96414,1,0,0:0:0:0:
64,192,96414,1,0,0:0:0:0:
448,192,96571,1,0,0:0:0:0:
320,192,96571,1,0,0:0:0:0:
64,192,96728,1,4,0:0:0:0:
192,192,96728,1,0,0:0:0:0:
320,192,96728,1,0,0:0:0:0:
448,192,96885,1,0,0:0:0:0:
64,192,97042,1,0,0:0:0:0:
320,192,97042,1,0,0:0:0:0:
192,192,97199,1,0,0:0:0:0:
448,192,97356,1,4,0:0:0:0:
320,192,97356,1,0,0:0:0:0:
64,192,97356,1,0,0:0:0:0:
192,192,97513,1,0,0:0:0:0:
64,192,97670,1,0,0:0:0:0:
448,192,97670,1,0,0:0:0:0:
320,192,97827,1,0,0:0:0:0:
192,192,97827,1,0,0:0:0:0:
192,192,97984,1,0,0:0:0:0:
64,192,97984,1,0,0:0:0:0:
448,192,97984,1,4,0:0:0:0:
320,192,98141,1,0,0:0:0:0:
192,192,98141,1,0,0:0:0:0:
64,192,98298,1,4,0:0:0:0:
448,192,98298,1,0,0:0:0:0:
320,192,98298,1,0,0:0:0:0:
192,192,98455,1,0,0:0:0:0:
320,192,98455,1,0,0:0:0:0:
64,192,98613,1,4,0:0:0:0:
192,192,98613,1,0,0:0:0:0:
448,192,98613,1,4,0:0:0:0:
320,192,98613,1,0,0:0:0:0:
192,192,98770,1,0,0:0:0:0:
320,192,98770,1,0,0:0:0:0:
448,192,98927,1,4,0:0:0:0:
64,192,98927,1,0,0:0:0:0:
192,192,98927,1,0,0:0:0:0:
64,192,99241,1,4,0:0:0:0:
448,192,99241,1,0,0:0:0:0:
320,192,99241,1,0,0:0:0:0:
64,192,99555,1,4,0:0:0:0:
192,192,99555,1,0,0:0:0:0:
320,192,99555,1,0,0:0:0:0:
448,192,99555,1,4,0:0:0:0:
320,192,99712,1,0,0:0:0:0:
192,192,99869,1,0,0:0:0:0:
64,192,99869,1,0,0:0:0:0:
448,192,99869,1,4,0:0:0:0:
320,192,100026,1,0,0:0:0:0:
192,192,100183,1,0,0:0:0:0:
448,192,100183,1,0,0:0:0:0:
64,192,100340,1,0,0:0:0:0:
320,192,100340,1,0,0:0:0:0:
64,192,100497,1,4,0:0:0:0:
192,192,100497,1,0,0:0:0:0:
448,192,100497,1,0,0:0:0:0:
192,192,100654,1,0,0:0:0:0:
320,192,100654,1,0,0:0:0:0:
64,192,100812,1,0,0:0:0:0:
448,192,100812,1,0,0:0:0:0:
192,192,100969,1,0,0:0:0:0:
64,192,100969,1,0,0:0:0:0:
64,192,101126,1,0,0:0:0:0:
448,192,101126,1,4,0:0:0:0:
320,192,101126,1,0,0:0:0:0:
192,192,101283,1,0,0:0:0:0:
192,192,101440,1,0,0:0:0:0:
448,192,101440,1,0,0:0:0:0:
320,192,101597,1,0,0:0:0:0:
448,192,101597,1,0,0:0:0:0:
64,192,101754,1,4,0:0:0:0:
192,192,101754,1,0,0:0:0:0:
448,192,101754,1,0,0:0:0:0:
320,192,101911,1,0,0:0:0:0:
64,192,102068,128,8,102382:0:0:0:0:
192,192,102068,1,0,0:0:0:0:
448,192,102068,1,0,0:0:0:0:
320,192,102225,1,0,0:0:0:0:
192,192,102382,1,0,0:0:0:0:
320,192,102382,1,0,0:0:0:0:
448,192,102382,1,4,0:0:0:0:
192,192,102539,1,0,0:0:0:0:
448,192,102696,128,8,103010:0:0:0:0:
320,192,102696,1,0,0:0:0:0:
64,192,102696,1,0,0:0:0:0:
64,192,102853,1,0,0:0:0:0:
192,192,102853,1,0,0:0:0:0:
320,192,103010,1,0,0:0:0:0:
64,192,103010,1,4,0:0:0:0:
192,192,103010,1,0,0:0:0:0:
320,192,103168,1,0,0:0:0:0:
192,192,103246,1,0,0:0:0:0:
448,192,103325,1,0,0:0:0:0:
64,192,103325,1,0,0:0:0:0:
192,192,103482,1,0,0:0:0:0:
320,192,103482,1,0,0:0:0:0:
448,192,103639,1,4,0:0:0:0:
320,192,103639,1,0,0:0:0:0:
64,192,103639,1,0,0:0:0:0:
192,192,103796,1,0,0:0:0:0:
64,192,103953,1,0,0:0:0:0:
448,192,103953,1,0,0:0:0:0:
192,192,104110,1,0,0:0:0:0:
320,192,104110,1,0,0:0:0:0:
64,192,104267,1,4,0:0:0:0:
192,192,104267,1,0,0:0:0:0:
448,192,104267,1,0,0:0:0:0:
320,192,104424,1,0,0:0:0:0:
64,192,104581,1,0,0:0:0:0:
448,192,104581,1,0,0:0:0:0:
192,192,104738,1,0,0:0:0:0:
448,192,104895,1,4,0:0:0:0:
320,192,104895,1,0,0:0:0:0:
64,192,104895,1,0,0:0:0:0:
192,192,105052,1,0,0:0:0:0:
64,192,105209,1,0,0:0:0:0:
448,192,105209,1,0,0:0:0:0:
320,192,105366,1,0,0:0:0:0:
192,192,105366,1,0,0:0:0:0:
64,192,105524,1,4,0:0:0:0:
192,192,105524,1,0,0:0:0:0:
448,192,105524,1,0,0:0:0:0:
320,192,105681,1,0,0:0:0:0:
448,192,105681,1,0,0:0:0:0:
192,192,105838,1,0,0:0:0:0:
448,192,105838,1,0,0:0:0:0:
192,192,105995,1,0,0:0:0:0:
64,192,105995,1,0,0:0:0:0:
448,192,106152,1,4,0:0:0:0:
320,192,106152,1,0,0:0:0:0:
64,192,106152,1,0,0:0:0:0:
192,192,106309,1,0,0:0:0:0:
64,192,106466,1,0,0:0:0:0:
448,192,106466,1,0,0:0:0:0:
320,192,106623,1,0,0:0:0:0:
192,192,106623,1,0,0:0:0:0:
64,192,106780,1,4,0:0:0:0:
192,192,106780,1,0,0:0:0:0:
448,192,106780,1,0,0:0:0:0:
320,192,106937,1,0,0:0:0:0:
448,192,107094,1,0,0:0:0:0:
64,192,107094,1,0,0:0:0:0:
192,192,107251,1,0,0:0:0:0:
448,192,107408,1,4,0:0:0:0:
320,192,107408,1,0,0:0:0:0:
64,192,107408,1,0,0:0:0:0:
192,192,107565,1,0,0:0:0:0:
64,192,107723,1,0,0:0:0:0:
448,192,107723,1,0,0:0:0:0:
448,192,107880,1,0,0:0:0:0:
320,192,107880,1,0,0:0:0:0:
448,192,108037,1,0,0:0:0:0:
192,192,108037,1,0,0:0:0:0:
64,192,108037,1,4,0:0:0:0:
320,192,108194,1,0,0:0:0:0:
192,192,108194,1,0,0:0:0:0:
448,192,108351,1,4,0:0:0:0:
320,192,108351,1,0,0:0:0:0:
64,192,108351,1,0,0:0:0:0:
192,192,108429,1,0,0:0:0:0:
64,192,108508,1,0,0:0:0:0:
192,192,108586,1,0,0:0:0:0:
320,192,108665,1,0,0:0:0:0:
448,192,108743,1,0,0:0:0:0:
320,192,108822,1,0,0:0:0:0:
192,192,108901,1,0,0:0:0:0:
448,192,108979,1,0,0:0:0:0:
64,192,108979,1,4,0:0:0:0:
320,192,108979,1,0,0:0:0:0:
192,192,109136,1,0,0:0:0:0:
320,192,109136,1,0,0:0:0:0:
448,192,109293,1,4,0:0:0:0:
192,192,109293,1,0,0:0:0:0:
64,192,109293,1,0,0:0:0:0:
320,192,109372,1,0,0:0:0:0:
64,192,109607,1,4,0:0:0:0:
192,192,109607,1,0,0:0:0:0:
320,192,109607,1,0,0:0:0:0:
448,192,109607,1,4,0:0:0:0:
192,192,109764,1,0,0:0:0:0:
448,192,109921,1,0,0:0:0:0:
320,192,109921,1,0,0:0:0:0:
64,192,109921,1,4,0:0:0:0:
192,192,110079,1,0,0:0:0:0:
320,192,110079,1,0,0:0:0:0:
64,192,110236,1,0,0:0:0:0:
192,192,110236,1,0,0:0:0:0:
448,192,110236,1,4,0:0:0:0:
192,192,110393,1,0,0:0:0:0:
320,192,110393,1,0,0:0:0:0:
448,192,110550,1,0,0:0:0:0:
320,192,110550,1,0,0:0:0:0:
64,192,110550,1,4,0:0:0:0:
192,192,110707,1,0,0:0:0:0:
320,192,110707,1,0,0:0:0:0:
64,192,110864,1,0,0:0:0:0:
192,192,110864,1,0,0:0:0:0:
448,192,110864,1,4,0:0:0:0:
192,192,111021,1,0,0:0:0:0:
320,192,111021,1,0,0:0:0:0:
448,192,111178,1,0,0:0:0:0:
320,192,111178,1,0,0:0:0:0:
64,192,111178,1,4,0:0:0:0:
192,192,111335,1,0,0:0:0:0:
320,192,111335,1,0,0:0:0:0:
64,192,111492,1,0,0:0:0:0:
192,192,111492,1,0,0:0:0:0:
448,192,111492,1,4,0:0:0:0:
192,192,111649,1,0,0:0:0:0:
320,192,111649,1,0,0:0:0:0:
448,192,111806,1,0,0:0:0:0:
320,192,111806,1,0,0:0:0:0:
64,192,111806,1,4,0:0:0:0:
192,192,111963,1,0,0:0:0:0:
320,192,111963,1,0,0:0:0:0:
64,192,112120,1,0,0:0:0:0:
192,192,112120,1,0,0:0:0:0:
448,192,112120,1,4,0:0:0:0:
192,192,112277,1,0,0:0:0:0:
320,192,112277,1,0,0:0:0:0:
448,192,112435,1,4,0:0:0:0:
320,192,112435,1,0,0:0:0:0:
64,192,112435,1,4,0:0:0:0:
192,192,112435,1,0,0:0:0:0:
192,192,112592,1,0,0:0:0:0:
320,192,112592,1,0,0:0:0:0:
64,192,112749,1,0,0:0:0:0:
448,192,112749,1,0,0:0:0:0:
192,192,112906,1,0,0:0:0:0:
320,192,112906,1,0,0:0:0:0:
448,192,113063,1,0,0:0:0:0:
64,192,113063,1,0,0:0:0:0:
192,192,113220,1,0,0:0:0:0:
320,192,113220,1,0,0:0:0:0:
64,192,113377,1,4,0:0:0:0:
192,192,113377,1,0,0:0:0:0:
320,192,113377,1,0,0:0:0:0:
448,192,113377,1,4,0:0:0:0:
64,192,113534,1,4,0:0:0:0:
192,192,113534,1,0,0:0:0:0:
320,192,113534,1,0,0:0:0:0:
448,192,113534,1,4,0:0:0:0:
448,192,113691,1,4,0:0:0:0:
320,192,113691,1,0,0:0:0:0:
192,192,113691,1,0,0:0:0:0:
64,192,113691,1,4,0:0:0:0:
448,192,114319,128,8,116832:0:0:0:0:
320,192,114634,1,4,0:0:0:0:
192,192,114634,1,4,0:0:0:0:
64,192,114634,1,0,0:0:0:0:
320,192,114948,1,0,0:0:0:0:
64,192,114948,1,4,0:0:0:0:
192,192,114948,1,0,0:0:0:0:
192,192,115105,1,0,0:0:0:0:
64,192,115262,1,0,0:0:0:0:
320,192,115262,1,0,0:0:0:0:
192,192,115419,1,0,0:0:0:0:
320,192,115419,1,0,0:0:0:0:
64,192,115576,1,4,0:0:0:0:
192,192,115576,1,0,0:0:0:0:
320,192,115576,1,0,0:0:0:0:
192,192,115733,1,0,0:0:0:0:
64,192,115733,1,0,0:0:0:0:
192,192,115890,1,0,0:0:0:0:
320,192,116047,1,0,0:0:0:0:
64,192,116047,1,0,0:0:0:0:
320,192,116204,1,0,0:0:0:0:
192,192,116204,1,0,0:0:0:0:
64,192,116204,1,4,0:0:0:0:
192,192,116361,1,0,0:0:0:0:
320,192,116518,1,0,0:0:0:0:
64,192,116518,1,0,0:0:0:0:
192,192,116675,1,0,0:0:0:0:
64,192,116675,1,0,0:0:0:0:
320,192,116832,1,0,0:0:0:0:
192,192,116832,1,0,0:0:0:0:
64,192,116832,1,4,0:0:0:0:
320,192,116990,1,0,0:0:0:0:
64,192,117147,128,8,119660:0:0:0:0:
448,192,117147,1,0,0:0:0:0:
192,192,117147,1,0,0:0:0:0:
320,192,117304,1,0,0:0:0:0:
448,192,117461,1,4,0:0:0:0:
192,192,117461,1,0,0:0:0:0:
320,192,117461,1,0,0:0:0:0:
192,192,117618,1,0,0:0:0:0:
448,192,117775,1,0,0:0:0:0:
320,192,117775,1,0,0:0:0:0:
192,192,117932,1,0,0:0:0:0:
320,192,117932,1,0,0:0:0:0:
320,192,118246,1,0,0:0:0:0:
192,192,118246,1,0,0:0:0:0:
448,192,118246,1,4,0:0:0:0:
192,192,118560,1,0,0:0:0:0:
448,192,118560,1,0,0:0:0:0:
320,192,118717,1,0,0:0:0:0:
448,192,118717,1,4,0:0:0:0:
192,192,118717,1,0,0:0:0:0:
320,192,118874,1,0,0:0:0:0:
448,192,119031,1,0,0:0:0:0:
192,192,119031,1,0,0:0:0:0:
192,192,119188,1,0,0:0:0:0:
448,192,119188,1,0,0:0:0:0:
192,192,119346,1,0,0:0:0:0:
320,192,119346,1,0,0:0:0:0:
448,192,119346,1,4,0:0:0:0:
320,192,119503,1,0,0:0:0:0:
448,192,119660,128,8,122173:0:0:0:0:
192,192,119660,1,0,0:0:0:0:
320,192,119660,1,0,0:0:0:0:
192,192,119817,1,0,0:0:0:0:
64,192,119974,1,0,0:0:0:0:
320,192,119974,1,4,0:0:0:0:
192,192,119974,1,4,0:0:0:0:
320,192,120131,1,0,0:0:0:0:
64,192,120288,1,0,0:0:0:0:
192,192,120288,1,0,0:0:0:0:
320,192,120445,1,0,0:0:0:0:
192,192,120445,1,0,0:0:0:0:
64,192,120602,1,4,0:0:0:0:
320,192,120602,1,0,0:0:0:0:
192,192,120602,1,0,0:0:0:0:
64,192,120759,1,0,0:0:0:0:
320,192,120759,1,0,0:0:0:0:
192,192,120916,1,0,0:0:0:0:
320,192,120916,1,0,0:0:0:0:
320,192,121073,1,0,0:0:0:0:
64,192,121073,1,0,0:0:0:0:
64,192,121230,1,4,0:0:0:0:
192,192,121230,1,0,0:0:0:0:
320,192,121230,1,0,0:0:0:0:
192,192,121387,1,0,0:0:0:0:
320,192,121544,1,0,0:0:0:0:
64,192,121544,1,0,0:0:0:0:
64,192,121702,1,0,0:0:0:0:
320,192,121702,1,0,0:0:0:0:
320,192,121859,1,0,0:0:0:0:
192,192,121859,1,0,0:0:0:0:
64,192,121859,1,4,0:0:0:0:
192,192,122016,1,0,0:0:0:0:
320,192,122173,1,0,0:0:0:0:
192,192,122173,1,0,0:0:0:0:
64,192,122173,1,4,0:0:0:0:
448,192,122251,1,0,0:0:0:0:
320,192,122330,1,0,0:0:0:0:
192,192,122408,1,0,0:0:0:0:
64,192,122487,1,0,0:0:0:0:
448,192,122487,1,4,0:0:0:0:
192,192,122565,1,0,0:0:0:0:
320,192,122644,1,0,0:0:0:0:
448,192,122801,1,0,0:0:0:0:
64,192,122801,1,4,0:0:0:0:
448,192,122958,1,4,0:0:0:0:
64,192,122958,1,0,0:0:0:0:
192,192,123272,1,0,0:0:0:0:
320,192,123272,1,0,0:0:0:0:
448,192,123272,1,4,0:0:0:0:
64,192,123272,1,4,0:0:0:0:
192,192,123586,1,0,0:0:0:0:
448,192,123586,1,0,0:0:0:0:
320,192,123665,1,0,0:0:0:0:
192,192,123743,1,0,0:0:0:0:
64,192,123822,1,0,0:0:0:0:
192,192,123901,1,0,0:0:0:0:
320,192,123979,1,0,0:0:0:0:
64,192,124058,1,0,0:0:0:0:
448,192,124058,1,4,0:0:0:0:
192,192,124058,1,0,0:0:0:0:
448,192,124215,1,4,0:0:0:0:
192,192,124215,1,0,0:0:0:0:
64,192,124215,1,0,0:0:0:0:
192,192,124372,1,0,0:0:0:0:
320,192,124372,1,0,0:0:0:0:
64,192,124529,1,4,0:0:0:0:
320,192,124529,1,0,0:0:0:0:
448,192,124529,1,0,0:0:0:0:
192,192,124686,1,0,0:0:0:0:
448,192,124843,1,0,0:0:0:0:
320,192,124921,1,0,0:0:0:0:
192,192,125000,1,0,0:0:0:0:
64,192,125000,1,0,0:0:0:0:
448,192,125157,1,0,0:0:0:0:
448,192,125314,1,0,0:0:0:0:
64,192,125471,1,0,0:0:0:0:
192,192,125550,1,0,0:0:0:0:
320,192,125628,1,0,0:0:0:0:
448,192,125628,1,0,0:0:0:0:
64,192,125785,1,0,0:0:0:0:
64,192,125942,1,0,0:0:0:0:
448,192,126099,1,0,0:0:0:0:
320,192,126178,1,0,0:0:0:0:
64,192,126257,1,0,0:0:0:0:
192,192,126257,1,0,0:0:0:0:
448,192,126414,1,0,0:0:0:0:
448,192,126571,1,0,0:0:0:0:
64,192,126728,1,0,0:0:0:0:
192,192,126806,1,0,0:0:0:0:
320,192,126885,1,0,0:0:0:0:
448,192,126885,1,0,0:0:0:0:
64,192,127042,1,0,0:0:0:0:
64,192,127199,1,0,0:0:0:0:
448,192,127356,1,0,0:0:0:0:
320,192,127435,1,0,0:0:0:0:
64,192,127513,1,0,0:0:0:0:
192,192,127513,1,0,0:0:0:0:
448,192,127670,1,0,0:0:0:0:
448,192,127827,1,0,0:0:0:0:
64,192,127984,1,0,0:0:0:0:
192,192,128063,1,0,0:0:0:0:
320,192,128141,1,0,0:0:0:0:
448,192,128141,1,0,0:0:0:0:
64,192,128298,1,0,0:0:0:0:
192,192,128298,1,0,0:0:0:0:
448,192,128298,1,4,0:0:0:0:
320,192,128613,1,0,0:0:0:0:
448,192,128613,1,4,0:0:0:0:
192,192,128613,1,0,0:0:0:0:
64,192,128613,1,4,0:0:0:0:
64,192,128770,1,4,0:0:0:0:
192,192,128770,1,0,0:0:0:0:
320,192,128770,1,0,0:0:0:0:
448,192,128770,1,4,0:0:0:0:
320,192,129084,1,0,0:0:0:0:
192,192,129162,1,0,0:0:0:0:
64,192,129241,1,0,0:0:0:0:
192,192,129319,1,0,0:0:0:0:
320,192,129398,1,0,0:0:0:0:
448,192,129398,128,8,129712:0:0:0:0:
64,192,129476,1,0,0:0:0:0:
192,192,129555,1,0,0:0:0:0:
320,192,129634,1,0,0:0:0:0:
64,192,129712,1,4,0:0:0:0:
192,192,129712,1,0,0:0:0:0:
320,192,129869,1,0,0:0:0:0:
64,192,130026,1,0,0:0:0:0:
192,192,130026,1,0,0:0:0:0:
448,192,130026,1,4,0:0:0:0:
320,192,130183,1,0,0:0:0:0:
64,192,130340,1,0,0:0:0:0:
448,192,130340,1,0,0:0:0:0:
192,192,130497,1,0,0:0:0:0:
320,192,130497,1,0,0:0:0:0:
64,192,130654,1,4,0:0:0:0:
192,192,130654,1,0,0:0:0:0:
448,192,130654,1,0,0:0:0:0:
320,192,130812,1,0,0:0:0:0:
448,192,130812,1,0,0:0:0:0:
320,192,130969,1,0,0:0:0:0:
64,192,130969,1,0,0:0:0:0:
192,192,131126,1,0,0:0:0:0:
64,192,131126,1,0,0:0:0:0:
320,192,131283,1,0,0:0:0:0:
448,192,131283,1,4,0:0:0:0:
64,192,131283,1,0,0:0:0:0:
192,192,131440,1,0,0:0:0:0:
320,192,131518,1,0,0:0:0:0:
448,192,131597,1,0,0:0:0:0:
64,192,131597,1,0,0:0:0:0:
192,192,131754,1,0,0:0:0:0:
320,192,131754,1,0,0:0:0:0:
448,192,131911,1,0,0:0:0:0:
64,192,131911,1,4,0:0:0:0:
192,192,131911,1,0,0:0:0:0:
320,192,132068,1,0,0:0:0:0:
64,192,132225,1,0,0:0:0:0:
448,192,132225,1,0,0:0:0:0:
192,192,132382,1,0,0:0:0:0:
64,192,132539,1,4,0:0:0:0:
448,192,132539,1,4,0:0:0:0:
320,192,132539,1,0,0:0:0:0:
192,192,132539,1,0,0:0:0:0:
320,192,132696,1,0,0:0:0:0:
64,192,132853,1,0,0:0:0:0:
448,192,132853,1,0,0:0:0:0:
192,192,133010,1,0,0:0:0:0:
320,192,133010,1,0,0:0:0:0:
448,192,133168,1,4,0:0:0:0:
320,192,133168,1,0,0:0:0:0:
192,192,133168,1,0,0:0:0:0:
64,192,133168,1,4,0:0:0:0:
320,192,133325,1,0,0:0:0:0:
192,192,133482,1,0,0:0:0:0:
448,192,133482,1,0,0:0:0:0:
64,192,133482,1,4,0:0:0:0:
320,192,133639,1,0,0:0:0:0:
448,192,133639,1,0,0:0:0:0:
192,192,133717,1,0,0:0:0:0:
64,192,133796,1,0,0:0:0:0:
320,192,133796,1,0,0:0:0:0:
192,192,133874,1,0,0:0:0:0:
64,192,133953,1,0,0:0:0:0:
448,192,133953,1,4,0:0:0:0:
320,192,133953,1,0,0:0:0:0:
448,192,134110,1,0,0:0:0:0:
192,192,134110,1,0,0:0:0:0:
320,192,134188,1,0,0:0:0:0:
64,192,134267,1,0,0:0:0:0:
448,192,134267,1,0,0:0:0:0:
320,192,134346,1,0,0:0:0:0:
448,192,134581,1,4,0:0:0:0:
192,192,134581,1,0,0:0:0:0:
64,192,134581,1,0,0:0:0:0:
320,192,134895,1,0,0:0:0:0:
448,192,134895,1,0,0:0:0:0:
320,192,135052,1,0,0:0:0:0:
64,192,135052,1,4,0:0:0:0:
192,192,135052,1,0,0:0:0:0:
448,192,135209,1,0,0:0:0:0:
320,192,135288,1,0,0:0:0:0:
192,192,135366,1,0,0:0:0:0:
64,192,135366,1,0,0:0:0:0:
448,192,135445,1,0,0:0:0:0:
320,192,135524,1,0,0:0:0:0:
192,192,135524,1,0,0:0:0:0:
64,192,135681,1,0,0:0:0:0:
448,192,135681,1,4,0:0:0:0:
320,192,135681,1,0,0:0:0:0:
192,192,135838,1,0,0:0:0:0:
320,192,135916,1,0,0:0:0:0:
448,192,135995,1,0,0:0:0:0:
64,192,135995,1,0,0:0:0:0:
192,192,136152,1,0,0:0:0:0:
320,192,136152,1,0,0:0:0:0:
64,192,136309,1,4,0:0:0:0:
192,192,136309,1,0,0:0:0:0:
448,192,136309,1,0,0:0:0:0:
320,192,136466,1,0,0:0:0:0:
192,192,136544,1,0,0:0:0:0:
448,192,136623,1,0,0:0:0:0:
64,192,136623,1,0,0:0:0:0:
192,192,136702,1,0,0:0:0:0:
448,192,136780,1,0,0:0:0:0:
320,192,136780,1,0,0:0:0:0:
64,192,136937,1,0,0:0:0:0:
320,192,136937,1,0,0:0:0:0:
448,192,136937,1,4,0:0:0:0:
192,192,137094,1,0,0:0:0:0:
64,192,137251,1,0,0:0:0:0:
448,192,137251,1,0,0:0:0:0:
320,192,137408,1,0,0:0:0:0:
320,192,137565,1,0,0:0:0:0:
64,192,137565,1,4,0:0:0:0:
448,192,137565,1,4,0:0:0:0:
192,192,137565,1,0,0:0:0:0:
192,192,137723,1,0,0:0:0:0:
320,192,137801,1,0,0:0:0:0:
64,192,137880,1,0,0:0:0:0:
448,192,137880,1,0,0:0:0:0:
192,192,137958,1,0,0:0:0:0:
64,192,138037,1,0,0:0:0:0:
320,192,138037,1,0,0:0:0:0:
64,192,138351,1,4,0:0:0:0:
192,192,138351,1,0,0:0:0:0:
448,192,138351,1,0,0:0:0:0:
320,192,138665,1,0,0:0:0:0:
192,192,138665,1,0,0:0:0:0:
192,192,138822,1,0,0:0:0:0:
64,192,138822,1,4,0:0:0:0:
320,192,138822,1,0,0:0:0:0:
448,192,138822,1,4,0:0:0:0:
192,192,139136,1,0,0:0:0:0:
320,192,139215,1,0,0:0:0:0:
448,192,139293,1,0,0:0:0:0:
320,192,139372,1,0,0:0:0:0:
64,192,139450,128,8,139764:0:0:0:0:
192,192,139450,1,0,0:0:0:0:
448,192,139529,1,0,0:0:0:0:
320,192,139607,1,0,0:0:0:0:
192,192,139686,1,0,0:0:0:0:
448,192,139764,1,4,0:0:0:0:
320,192,139764,1,0,0:0:0:0:
192,192,139921,1,0,0:0:0:0:
64,192,140079,1,4,0:0:0:0:
448,192,140079,1,0,0:0:0:0:
320,192,140079,1,0,0:0:0:0:
192,192,140236,1,0,0:0:0:0:
448,192,140393,1,0,0:0:0:0:
64,192,140393,1,0,0:0:0:0:
320,192,140550,1,0,0:0:0:0:
192,192,140550,1,0,0:0:0:0:
64,192,140707,1,0,0:0:0:0:
320,192,140707,1,0,0:0:0:0:
448,192,140707,1,4,0:0:0:0:
192,192,140864,1,0,0:0:0:0:
448,192,141021,1,0,0:0:0:0:
64,192,141021,1,0,0:0:0:0:
192,192,141178,1,0,0:0:0:0:
320,192,141178,1,0,0:0:0:0:
192,192,141335,1,0,0:0:0:0:
448,192,141335,1,0,0:0:0:0:
64,192,141335,1,4,0:0:0:0:
320,192,141492,1,0,0:0:0:0:
192,192,141571,1,0,0:0:0:0:
448,192,141649,1,0,0:0:0:0:
64,192,141649,1,0,0:0:0:0:
192,192,141806,1,0,0:0:0:0:
320,192,141806,1,0,0:0:0:0:
64,192,141963,1,0,0:0:0:0:
192,192,141963,1,0,0:0:0:0:
448,192,141963,1,4,0:0:0:0:
320,192,142120,1,0,0:0:0:0:
64,192,142277,1,0,0:0:0:0:
448,192,142277,1,0,0:0:0:0:
192,192,142435,1,0,0:0:0:0:
64,192,142592,1,4,0:0:0:0:
192,192,142592,1,0,0:0:0:0:
320,192,142592,1,0,0:0:0:0:
448,192,142592,1,4,0:0:0:0:
320,192,142749,1,0,0:0:0:0:
64,192,142906,1,0,0:0:0:0:
192,192,142906,1,0,0:0:0:0:
320,192,143063,1,0,0:0:0:0:
64,192,143063,1,4,0:0:0:0:
448,192,143063,1,0,0:0:0:0:
64,192,143377,1,0,0:0:0:0:
192,192,143377,1,0,0:0:0:0:
448,192,143377,1,4,0:0:0:0:
320,192,143691,1,0,0:0:0:0:
64,192,143770,1,0,0:0:0:0:
192,192,143848,1,0,0:0:0:0:
448,192,143848,1,0,0:0:0:0:
320,192,143927,1,0,0:0:0:0:
448,192,144005,1,0,0:0:0:0:
192,192,144162,1,0,0:0:0:0:
64,192,144162,1,0,0:0:0:0:
448,192,144319,1,0,0:0:0:0:
320,192,144319,1,0,0:0:0:0:
64,192,144476,1,4,0:0:0:0:
192,192,144476,1,0,0:0:0:0:
448,192,144476,1,0,0:0:0:0:
320,192,144634,1,0,0:0:0:0:
448,192,144791,1,0,0:0:0:0:
64,192,144791,1,0,0:0:0:0:
192,192,144948,1,0,0:0:0:0:
320,192,144948,1,0,0:0:0:0:
448,192,145105,1,0,0:0:0:0:
64,192,145105,1,0,0:0:0:0:
192,192,145262,1,0,0:0:0:0:
320,192,145262,1,0,0:0:0:0:
320,192,145419,1,0,0:0:0:0:
448,192,145419,1,4,0:0:0:0:
64,192,145419,1,0,0:0:0:0:
192,192,145576,1,0,0:0:0:0:
64,192,145733,1,0,0:0:0:0:
320,192,145733,1,0,0:0:0:0:
448,192,145890,1,0,0:0:0:0:
192,192,145890,1,0,0:0:0:0:
192,192,146047,1,0,0:0:0:0:
320,192,146047,1,0,0:0:0:0:
64,192,146204,5,0,0:0:0:0:
448,192,146204,1,0,0:0:0:0:
320,192,146361,1,0,0:0:0:0:
192,192,146361,1,0,0:0:0:0:
320,192,146518,1,0,0:0:0:0:
64,192,146675,1,4,0:0:0:0:
192,192,146675,1,0,0:0:0:0:
448,192,146675,1,0,0:0:0:0:
320,192,146832,1,0,0:0:0:0:
448,192,146832,1,4,0:0:0:0:
192,192,147304,1,0,0:0:0:0:
320,192,147304,1,0,0:0:0:0:
64,192,147461,1,0,0:0:0:0:
320,192,147461,1,0,0:0:0:0:
192,192,147618,1,0,0:0:0:0:
448,192,147618,1,0,0:0:0:0:
192,192,147775,1,0,0:0:0:0:
320,192,147775,1,0,0:0:0:0:
320,192,147932,1,0,0:0:0:0:
448,192,147932,1,4,0:0:0:0:
64,192,147932,1,0,0:0:0:0:
192,192,148089,1,0,0:0:0:0:
192,192,148246,1,0,0:0:0:0:
320,192,148246,1,0,0:0:0:0:
448,192,148403,1,0,0:0:0:0:
64,192,148403,1,0,0:0:0:0:
192,192,148560,1,0,0:0:0:0:
320,192,148560,1,0,0:0:0:0:
448,192,148717,1,0,0:0:0:0:
64,192,148717,1,0,0:0:0:0:
192,192,148874,1,0,0:0:0:0:
320,192,148874,1,0,0:0:0:0:
64,192,148953,1,0,0:0:0:0:
320,192,149031,1,0,0:0:0:0:
448,192,149031,1,0,0:0:0:0:
64,192,149188,1,4,0:0:0:0:
192,192,149188,1,0,0:0:0:0:
320,192,149188,1,0,0:0:0:0:
448,192,149267,1,0,0:0:0:0:
320,192,149346,1,0,0:0:0:0:
192,192,149424,1,0,0:0:0:0:
64,192,149503,1,0,0:0:0:0:
192,192,149581,1,0,0:0:0:0:
320,192,149660,1,0,0:0:0:0:
448,192,149738,1,0,0:0:0:0:
64,192,149817,1,0,0:0:0:0:
192,192,149817,1,0,0:0:0:0:
320,192,149974,1,0,0:0:0:0:
448,192,149974,1,0,0:0:0:0:
64,192,150131,1,0,0:0:0:0:
192,192,150131,1,0,0:0:0:0:
320,192,150288,1,0,0:0:0:0:
448,192,150288,1,0,0:0:0:0:
64,192,150445,1,0,0:0:0:0:
192,192,150445,1,0,0:0:0:0:
448,192,150445,1,4,0:0:0:0:
320,192,150602,1,0,0:0:0:0:
192,192,150759,1,0,0:0:0:0:
320,192,150759,1,0,0:0:0:0:
448,192,150916,1,0,0:0:0:0:
64,192,150916,1,0,0:0:0:0:
192,192,151073,1,0,0:0:0:0:
320,192,151073,1,0,0:0:0:0:
448,192,151230,1,0,0:0:0:0:
64,192,151230,1,0,0:0:0:0:
192,192,151387,1,0,0:0:0:0:
320,192,151387,1,0,0:0:0:0:
192,192,151544,1,0,0:0:0:0:
448,192,151702,1,4,0:0:0:0:
320,192,151702,1,0,0:0:0:0:
64,192,151702,1,4,0:0:0:0:
192,192,151702,1,0,0:0:0:0:
448,192,152016,1,4,0:0:0:0:
64,192,152016,1,4,0:0:0:0:
192,192,152016,1,0,0:0:0:0:
320,192,152016,1,0,0:0:0:0:
448,192,152330,1,0,0:0:0:0:
320,192,152330,1,0,0:0:0:0:
64,192,152330,1,4,0:0:0:0:
192,192,152487,1,0,0:0:0:0:
320,192,152487,1,0,0:0:0:0:
64,192,152644,1,0,0:0:0:0:
448,192,152644,1,0,0:0:0:0:
64,192,152801,1,0,0:0:0:0:
192,192,152801,1,0,0:0:0:0:
448,192,152801,1,4,0:0:0:0:
448,192,153115,1,0,0:0:0:0:
320,192,153115,1,0,0:0:0:0:
64,192,153115,1,4,0:0:0:0:
320,192,153272,1,0,0:0:0:0:
192,192,153272,1,0,0:0:0:0:
64,192,153429,1,0,0:0:0:0:
448,192,153429,1,0,0:0:0:0:
192,192,153743,1,0,0:0:0:0:
64,192,153743,1,0,0:0:0:0:
448,192,153743,1,4,0:0:0:0:
192,192,153901,1,0,0:0:0:0:
320,192,153901,1,0,0:0:0:0:
64,192,154058,1,4,0:0:0:0:
448,192,154058,1,0,0:0:0:0:
320,192,154058,1,0,0:0:0:0:
192,192,154372,1,0,0:0:0:0:
320,192,154450,1,0,0:0:0:0:
448,192,154529,1,0,0:0:0:0:
64,192,154607,1,0,0:0:0:0:
192,192,154686,1,0,0:0:0:0:
320,192,154764,1,0,0:0:0:0:
192,192,154843,1,0,0:0:0:0:
448,192,154843,1,0,0:0:0:0:
64,192,155000,1,0,0:0:0:0:
320,192,155000,1,0,0:0:0:0:
192,192,155157,1,0,0:0:0:0:
448,192,155157,1,4,0:0:0:0:
64,192,155157,1,0,0:0:0:0:
320,192,155314,1,0,0:0:0:0:
192,192,155393,1,0,0:0:0:0:
64,192,155471,1,0,0:0:0:0:
448,192,155471,1,0,0:0:0:0:
192,192,155628,1,0,0:0:0:0:
320,192,155628,1,0,0:0:0:0:
64,192,155785,1,4,0:0:0:0:
320,192,155785,1,0,0:0:0:0:
448,192,155785,1,0,0:0:0:0:
192,192,155942,1,0,0:0:0:0:
320,192,156021,1,0,0:0:0:0:
64,192,156099,1,0,0:0:0:0:
448,192,156099,1,0,0:0:0:0:
192,192,156257,1,0,0:0:0:0:
320,192,156257,1,0,0:0:0:0:
192,192,156414,1,0,0:0:0:0:
448,192,156414,1,4,0:0:0:0:
64,192,156414,1,0,0:0:0:0:
320,192,156571,1,0,0:0:0:0:
192,192,156649,1,0,0:0:0:0:
64,192,156728,1,0,0:0:0:0:
448,192,156728,1,0,0:0:0:0:
192,192,156885,1,0,0:0:0:0:
320,192,156885,1,0,0:0:0:0:
320,192,157042,1,0,0:0:0:0:
448,192,157042,1,4,0:0:0:0:
64,192,157042,1,4,0:0:0:0:
192,192,157042,1,0,0:0:0:0:
64,192,157199,1,0,0:0:0:0:
192,192,157277,1,0,0:0:0:0:
320,192,157356,1,0,0:0:0:0:
448,192,157356,1,0,0:0:0:0:
192,192,157513,1,0,0:0:0:0:
448,192,157513,1,0,0:0:0:0:
64,192,157670,1,4,0:0:0:0:
320,192,157670,1,0,0:0:0:0:
192,192,157670,1,0,0:0:0:0:
448,192,157827,1,0,0:0:0:0:
320,192,157906,1,0,0:0:0:0:
192,192,157984,1,0,0:0:0:0:
64,192,157984,1,0,0:0:0:0:
320,192,158141,1,0,0:0:0:0:
64,192,158141,1,0,0:0:0:0:
448,192,158298,1,4,0:0:0:0:
320,192,158298,1,0,0:0:0:0:
192,192,158298,1,0,0:0:0:0:
64,192,158455,1,0,0:0:0:0:
192,192,158534,1,0,0:0:0:0:
320,192,158613,1,0,0:0:0:0:
448,192,158613,1,0,0:0:0:0:
192,192,158770,1,0,0:0:0:0:
448,192,158770,1,0,0:0:0:0:
64,192,158927,1,4,0:0:0:0:
192,192,158927,1,0,0:0:0:0:
320,192,158927,1,0,0:0:0:0:
448,192,159084,1,0,0:0:0:0:
320,192,159162,1,0,0:0:0:0:
192,192,159241,1,0,0:0:0:0:
64,192,159241,1,0,0:0:0:0:
448,192,159398,1,0,0:0:0:0:
320,192,159398,1,0,0:0:0:0:
448,192,159555,1,4,0:0:0:0:
320,192,159555,1,0,0:0:0:0:
192,192,159555,1,0,0:0:0:0:
64,192,159555,1,4,0:0:0:0:
64,192,159712,1,0,0:0:0:0:
192,192,159712,1,0,0:0:0:0:
448,192,159869,1,4,0:0:0:0:
320,192,159869,1,0,0:0:0:0:
64,192,159869,1,0,0:0:0:0:
192,192,160026,1,0,0:0:0:0:
320,192,160026,1,0,0:0:0:0:
64,192,160183,1,4,0:0:0:0:
192,192,160183,1,0,0:0:0:0:
448,192,160183,1,0,0:0:0:0:
192,192,160340,1,0,0:0:0:0:
320,192,160340,1,0,0:0:0:0:
448,192,160497,1,4,0:0:0:0:
320,192,160497,1,0,0:0:0:0:
64,192,160497,1,0,0:0:0:0:
192,192,160654,1,0,0:0:0:0:
320,192,160654,1,0,0:0:0:0:
64,192,160812,1,4,0:0:0:0:
192,192,160812,1,0,0:0:0:0:
320,192,160812,1,0,0:0:0:0:
448,192,160812,1,4,0:0:0:0:
64,192,160969,1,0,0:0:0:0:
320,192,160969,1,0,0:0:0:0:
192,192,161126,1,0,0:0:0:0:
448,192,161126,1,0,0:0:0:0:
64,192,161283,1,0,0:0:0:0:
448,192,161283,1,0,0:0:0:0:
64,192,161440,1,4,0:0:0:0:
192,192,161440,1,0,0:0:0:0:
320,192,161440,1,0,0:0:0:0:
448,192,161597,1,0,0:0:0:0:
64,192,161597,1,0,0:0:0:0:
448,192,161754,1,4,0:0:0:0:
320,192,161754,1,0,0:0:0:0:
192,192,161754,1,0,0:0:0:0:
64,192,161911,1,0,0:0:0:0:
320,192,161911,1,0,0:0:0:0:
448,192,162068,1,0,0:0:0:0:
192,192,162068,1,0,0:0:0:0:
64,192,162068,1,4,0:0:0:0:
320,192,162225,1,0,0:0:0:0:
192,192,162225,1,0,0:0:0:0:
448,192,162382,1,0,0:0:0:0:
192,192,162382,1,0,0:0:0:0:
64,192,162539,1,0,0:0:0:0:
320,192,162539,1,0,0:0:0:0:
448,192,162696,1,4,0:0:0:0:
320,192,162696,1,0,0:0:0:0:
192,192,162696,1,0,0:0:0:0:
64,192,162853,1,0,0:0:0:0:
320,192,162853,1,0,0:0:0:0:
192,192,162932,1,0,0:0:0:0:
320,192,163010,1,0,0:0:0:0:
448,192,163010,1,0,0:0:0:0:
64,192,163089,1,0,0:0:0:0:
320,192,163168,1,0,0:0:0:0:
448,192,163168,1,0,0:0:0:0:
192,192,163246,1,0,0:0:0:0:
320,192,163325,1,0,0:0:0:0:
448,192,163325,1,0,0:0:0:0:
64,192,163403,1,0,0:0:0:0:
320,192,163482,1,0,0:0:0:0:
448,192,163482,1,0,0:0:0:0:
192,192,163560,1,0,0:0:0:0:
64,192,163639,1,4,0:0:0:0:
320,192,163639,1,0,0:0:0:0:
448,192,163639,1,0,0:0:0:0:
64,192,163953,1,0,0:0:0:0:
448,192,163953,1,0,0:0:0:0:
192,192,164031,1,0,0:0:0:0:
320,192,164110,1,0,0:0:0:0:
192,192,164188,1,0,0:0:0:0:
64,192,164267,1,0,0:0:0:0:
448,192,164267,1,0,0:0:0:0:
64,192,164424,1,0,0:0:0:0:
320,192,164424,1,0,0:0:0:0:
192,192,164581,1,0,0:0:0:0:
448,192,164581,1,0,0:0:0:0:
320,192,164660,1,0,0:0:0:0:
64,192,164738,1,0,0:0:0:0:
320,192,164817,1,0,0:0:0:0:
192,192,164895,1,0,0:0:0:0:
448,192,164895,1,0,0:0:0:0:
64,192,164895,1,4,0:0:0:0:
320,192,165052,1,0,0:0:0:0:
192,192,165052,1,0,0:0:0:0:
448,192,165052,1,4,0:0:0:0:
192,192,165209,1,0,0:0:0:0:
448,192,165209,1,0,0:0:0:0:
64,192,165209,1,4,0:0:0:0:
320,192,165366,1,0,0:0:0:0:
64,192,165366,1,0,0:0:0:0:
448,192,165366,1,4,0:0:0:0:
192,192,165524,1,0,0:0:0:0:
320,192,165524,1,0,0:0:0:0:
64,192,165524,1,4,0:0:0:0:
448,192,165681,1,0,0:0:0:0:
64,192,165838,1,4,0:0:0:0:
192,192,165838,1,0,0:0:0:0:
320,192,165838,1,0,0:0:0:0:
192,192,165995,1,0,0:0:0:0:
448,192,165995,1,0,0:0:0:0:
64,192,165995,1,4,0:0:0:0:
320,192,166152,1,0,0:0:0:0:
448,192,166309,1,4,0:0:0:0:
64,192,166309,1,0,0:0:0:0:
192,192,166309,1,0,0:0:0:0:
192,192,166466,1,0,0:0:0:0:
320,192,166466,1,0,0:0:0:0:
448,192,166466,1,4,0:0:0:0:
64,192,166623,1,0,0:0:0:0:
448,192,166780,1,4,0:0:0:0:
192,192,166780,1,0,0:0:0:0:
320,192,166780,1,0,0:0:0:0:
192,192,166937,1,0,0:0:0:0:
448,192,166937,1,4,0:0:0:0:
64,192,166937,1,0,0:0:0:0:
448,192,167094,1,0,0:0:0:0:
320,192,167094,1,0,0:0:0:0:
64,192,167094,1,4,0:0:0:0:
64,192,167251,1,0,0:0:0:0:
192,192,167251,1,0,0:0:0:0:
448,192,167251,1,4,0:0:0:0:
64,192,167408,1,4,0:0:0:0:
320,192,167408,1,0,0:0:0:0:
448,192,167408,1,0,0:0:0:0:
192,192,167565,1,0,0:0:0:0:
448,192,167723,1,4,0:0:0:0:
320,192,167723,1,0,0:0:0:0:
64,192,167723,1,0,0:0:0:0:
64,192,167880,1,4,0:0:0:0:
192,192,167880,1,0,0:0:0:0:
448,192,167880,1,0,0:0:0:0:
320,192,168037,1,0,0:0:0:0:
448,192,168194,1,4,0:0:0:0:
320,192,168194,1,0,0:0:0:0:
192,192,168194,1,0,0:0:0:0:
448,192,168351,1,4,0:0:0:0:
320,192,168351,1,0,0:0:0:0:
192,192,168351,1,0,0:0:0:0:
64,192,168351,128,8,169293:0:0:0:0:
192,192,168979,1,0,0:0:0:0:
448,192,168979,1,4,0:0:0:0:
320,192,168979,1,0,0:0:0:0:
320,192,169293,1,0,0:0:0:0:
448,192,169293,1,0,0:0:0:0:
192,192,169607,1,0,0:0:0:0:
320,192,169607,1,0,0:0:0:0:
64,192,169921,1,4,0:0:0:0:
192,192,169921,1,0,0:0:0:0:
448,192,169921,1,4,0:0:0:0:
320,192,169921,1,0,0:0:0:0:
64,192,170236,1,4,0:0:0:0:
192,192,170236,1,0,0:0:0:0:
448,192,170236,1,0,0:0:0:0:
320,192,170550,1,0,0:0:0:0:
192,192,170550,1,0,0:0:0:0:
448,192,170707,1,0,0:0:0:0:
64,192,170707,1,0,0:0:0:0:
448,192,170864,1,4,0:0:0:0:
320,192,170864,1,0,0:0:0:0:
192,192,170864,1,0,0:0:0:0:
64,192,171021,1,0,0:0:0:0:
320,192,171021,1,0,0:0:0:0:
448,192,171099,1,0,0:0:0:0:
192,192,171178,1,0,0:0:0:0:
320,192,171178,1,0,0:0:0:0:
448,192,171335,1,0,0:0:0:0:
192,192,171335,1,0,0:0:0:0:
64,192,171492,1,4,0:0:0:0:
192,192,171492,1,0,0:0:0:0:
320,192,171492,1,0,0:0:0:0:
448,192,171806,1,0,0:0:0:0:
192,192,171806,1,0,0:0:0:0:
320,192,171963,1,0,0:0:0:0:
192,192,171963,1,0,0:0:0:0:
448,192,172120,1,4,0:0:0:0:
320,192,172120,1,0,0:0:0:0:
64,192,172120,1,0,0:0:0:0:
64,192,172435,128,8,172749:0:0:0:0:
192,192,172435,1,0,0:0:0:0:
448,192,172435,1,0,0:0:0:0:
192,192,172749,1,0,0:0:0:0:
320,192,172749,1,0,0:0:0:0:
448,192,172749,1,4,0:0:0:0:
448,192,173063,128,8,173377:0:0:0:0:
320,192,173063,1,0,0:0:0:0:
64,192,173063,1,0,0:0:0:0:
64,192,173220,1,0,0:0:0:0:
192,192,173220,1,0,0:0:0:0:
64,192,173377,1,4,0:0:0:0:
192,192,173377,1,0,0:0:0:0:
320,192,173377,1,0,0:0:0:0:
320,192,173613,1,0,0:0:0:0:
448,192,173691,1,0,0:0:0:0:
64,192,173691,1,0,0:0:0:0:
192,192,173848,1,0,0:0:0:0:
320,192,173848,1,0,0:0:0:0:
448,192,174005,1,4,0:0:0:0:
320,192,174005,1,0,0:0:0:0:
64,192,174005,1,0,0:0:0:0:
192,192,174319,1,0,0:0:0:0:
320,192,174319,1,0,0:0:0:0:
448,192,174476,1,0,0:0:0:0:
64,192,174476,1,0,0:0:0:0:
64,192,174634,1,4,0:0:0:0:
192,192,174634,1,0,0:0:0:0:
320,192,174634,1,0,0:0:0:0:
448,192,174948,1,0,0:0:0:0:
192,192,174948,1,0,0:0:0:0:
448,192,175262,1,4,0:0:0:0:
320,192,175262,1,0,0:0:0:0:
64,192,175262,1,0,0:0:0:0:
448,192,175576,1,0,0:0:0:0:
192,192,175576,1,0,0:0:0:0:
64,192,175733,1,0,0:0:0:0:
192,192,175733,1,0,0:0:0:0:
320,192,175890,1,0,0:0:0:0:
448,192,175890,1,0,0:0:0:0:
64,192,175890,1,4,0:0:0:0:
448,192,176047,1,0,0:0:0:0:
192,192,176047,1,0,0:0:0:0:
320,192,176204,1,0,0:0:0:0:
448,192,176204,1,0,0:0:0:0:
64,192,176361,1,0,0:0:0:0:
192,192,176361,1,0,0:0:0:0:
320,192,176518,1,0,0:0:0:0:
64,192,176518,1,0,0:0:0:0:
448,192,176518,1,4,0:0:0:0:
192,192,176832,1,0,0:0:0:0:
320,192,176832,1,0,0:0:0:0:
320,192,176990,1,0,0:0:0:0:
64,192,176990,1,0,0:0:0:0:
192,192,177147,1,4,0:0:0:0:
320,192,177147,1,0,0:0:0:0:
448,192,177147,1,0,0:0:0:0:
448,192,177461,1,0,0:0:0:0:
64,192,177461,1,0,0:0:0:0:
448,192,177775,1,4,0:0:0:0:
64,192,177775,1,0,0:0:0:0:
192,192,177775,1,0,0:0:0:0:
192,192,178089,1,0,0:0:0:0:
320,192,178089,1,0,0:0:0:0:
448,192,178246,1,0,0:0:0:0:
192,192,178246,1,0,0:0:0:0:
64,192,178403,1,0,0:0:0:0:
320,192,178403,1,0,0:0:0:0:
448,192,178403,1,4,0:0:0:0:
192,192,178560,1,0,0:0:0:0:
320,192,178560,1,0,0:0:0:0:
192,192,178717,1,0,0:0:0:0:
448,192,178717,1,4,0:0:0:0:
64,192,178717,1,4,0:0:0:0:
320,192,178717,1,0,0:0:0:0:
320,192,178874,5,0,0:0:0:0:
192,192,178874,1,0,0:0:0:0:
64,192,179031,1,4,0:0:0:0:
448,192,179031,1,0,0:0:0:0:
192,192,179031,1,0,0:0:0:0:
320,192,179110,1,0,0:0:0:0:
192,192,179188,1,0,0:0:0:0:
448,192,179188,1,0,0:0:0:0:
64,192,179346,1,0,0:0:0:0:
320,192,179346,1,0,0:0:0:0:
192,192,179660,1,0,0:0:0:0:
448,192,179660,1,0,0:0:0:0:
448,192,179974,5,4,0:0:0:0:
320,192,179974,1,0,0:0:0:0:
192,192,179974,1,0,0:0:0:0:
64,192,179974,1,4,0:0:0:0:
64,192,180288,1,4,0:0:0:0:
192,192,180288,1,0,0:0:0:0:
448,192,180288,1,0,0:0:0:0:
192,192,180602,1,0,0:0:0:0:
320,192,180602,1,0,0:0:0:0:
64,192,180759,1,0,0:0:0:0:
320,192,180759,1,0,0:0:0:0:
192,192,180916,1,0,0:0:0:0:
448,192,180916,1,4,0:0:0:0:
320,192,180916,1,0,0:0:0:0:
64,192,181073,1,0,0:0:0:0:
192,192,181073,1,0,0:0:0:0:
192,192,181230,1,0,0:0:0:0:
448,192,181230,1,0,0:0:0:0:
320,192,181387,1,0,0:0:0:0:
448,192,181387,1,0,0:0:0:0:
64,192,181544,1,4,0:0:0:0:
192,192,181544,1,0,0:0:0:0:
320,192,181544,1,0,0:0:0:0:
448,192,181859,1,0,0:0:0:0:
64,192,181859,1,0,0:0:0:0:
320,192,182016,1,0,0:0:0:0:
192,192,182016,1,0,0:0:0:0:
64,192,182173,1,0,0:0:0:0:
320,192,182173,1,0,0:0:0:0:
448,192,182173,1,4,0:0:0:0:
448,192,182487,128,0,182801:0:0:0:0:
320,192,182487,1,0,0:0:0:0:
64,192,182487,1,0,0:0:0:0:
320,192,182801,1,0,0:0:0:0:
64,192,182801,1,4,0:0:0:0:
192,192,182801,1,0,0:0:0:0:
64,192,183115,128,0,183429:0:0:0:0:
192,192,183115,1,0,0:0:0:0:
448,192,183115,1,0,0:0:0:0:
448,192,183272,1,0,0:0:0:0:
320,192,183272,1,0,0:0:0:0:
448,192,183429,1,4,0:0:0:0:
320,192,183429,1,0,0:0:0:0:
192,192,183429,1,0,0:0:0:0:
192,192,183665,1,0,0:0:0:0:
448,192,183743,1,0,0:0:0:0:
64,192,183743,1,0,0:0:0:0:
192,192,183901,1,0,0:0:0:0:
320,192,183901,1,0,0:0:0:0:
192,192,184058,1,0,0:0:0:0:
448,192,184058,1,0,0:0:0:0:
64,192,184058,1,4,0:0:0:0:
320,192,184372,1,0,0:0:0:0:
192,192,184372,1,0,0:0:0:0:
448,192,184529,1,0,0:0:0:0:
64,192,184529,1,0,0:0:0:0:
320,192,184686,1,0,0:0:0:0:
448,192,184686,1,4,0:0:0:0:
192,192,184686,1,0,0:0:0:0:
320,192,185000,1,0,0:0:0:0:
64,192,185000,1,0,0:0:0:0:
192,192,185314,1,0,0:0:0:0:
64,192,185314,1,4,0:0:0:0:
448,192,185314,1,0,0:0:0:0:
64,192,185628,1,0,0:0:0:0:
320,192,185628,1,0,0:0:0:0:
320,192,185785,1,0,0:0:0:0:
448,192,185785,1,0,0:0:0:0:
192,192,185942,1,0,0:0:0:0:
448,192,185942,1,4,0:0:0:0:
64,192,185942,1,0,0:0:0:0:
64,192,186099,1,0,0:0:0:0:
320,192,186099,1,0,0:0:0:0:
64,192,186257,1,0,0:0:0:0:
192,192,186257,1,0,0:0:0:0:
448,192,186414,1,0,0:0:0:0:
320,192,186414,1,0,0:0:0:0:
64,192,186571,1,4,0:0:0:0:
448,192,186571,1,0,0:0:0:0:
192,192,186571,1,0,0:0:0:0:
320,192,186885,1,0,0:0:0:0:
192,192,186885,1,0,0:0:0:0:
192,192,187042,1,0,0:0:0:0:
448,192,187042,1,0,0:0:0:0:
320,192,187199,1,4,0:0:0:0:
64,192,187199,1,0,0:0:0:0:
192,192,187199,1,0,0:0:0:0:
64,192,187513,1,0,0:0:0:0:
448,192,187513,1,0,0:0:0:0:
64,192,187827,1,4,0:0:0:0:
448,192,187827,1,0,0:0:0:0:
320,192,187827,1,0,0:0:0:0:
320,192,188141,1,0,0:0:0:0:
192,192,188141,1,0,0:0:0:0:
64,192,188298,1,0,0:0:0:0:
320,192,188298,1,0,0:0:0:0:
448,192,188455,1,0,0:0:0:0:
192,192,188455,1,0,0:0:0:0:
64,192,188455,1,4,0:0:0:0:
320,192,188613,1,0,0:0:0:0:
192,192,188613,1,0,0:0:0:0:
320,192,188770,1,0,0:0:0:0:
64,192,188770,1,4,0:0:0:0:
448,192,188770,1,4,0:0:0:0:
192,192,188770,1,0,0:0:0:0:
192,192,188927,5,0,0:0:0:0:
320,192,188927,1,0,0:0:0:0:
448,192,189084,1,4,0:0:0:0:
64,192,189084,1,0,0:0:0:0:
320,192,189084,1,0,0:0:0:0:
192,192,189162,1,0,0:0:0:0:
320,192,189241,1,0,0:0:0:0:
64,192,189241,1,0,0:0:0:0:
448,192,189398,1,0,0:0:0:0:
192,192,189398,1,0,0:0:0:0:
448,192,189555,1,0,0:0:0:0:
320,192,189555,1,0,0:0:0:0:
320,192,189712,1,0,0:0:0:0:
64,192,189712,1,4,0:0:0:0:
192,192,189712,1,0,0:0:0:0:
64,192,190026,5,4,0:0:0:0:
320,192,190026,1,0,0:0:0:0:
192,192,190026,1,0,0:0:0:0:
448,192,190026,1,4,0:0:0:0:
448,192,190340,1,4,0:0:0:0:
320,192,190340,1,0,0:0:0:0:
64,192,190340,1,0,0:0:0:0:
192,192,190497,1,0,0:0:0:0:
320,192,190497,1,0,0:0:0:0:
192,192,190654,1,0,0:0:0:0:
64,192,190654,1,4,0:0:0:0:
448,192,190654,1,0,0:0:0:0:
320,192,190812,1,0,0:0:0:0:
192,192,190812,1,0,0:0:0:0:
320,192,190969,1,0,0:0:0:0:
448,192,190969,1,4,0:0:0:0:
64,192,190969,1,0,0:0:0:0:
448,192,191126,1,0,0:0:0:0:
192,192,191126,1,0,0:0:0:0:
192,192,191283,1,0,0:0:0:0:
64,192,191283,1,4,0:0:0:0:
320,192,191283,1,0,0:0:0:0:
448,192,191440,1,0,0:0:0:0:
64,192,191440,1,0,0:0:0:0:
320,192,191597,1,0,0:0:0:0:
192,192,191597,1,0,0:0:0:0:
448,192,191597,1,4,0:0:0:0:
64,192,191754,1,0,0:0:0:0:
320,192,191754,1,0,0:0:0:0:
64,192,191911,1,4,0:0:0:0:
192,192,191911,1,0,0:0:0:0:
448,192,191911,1,0,0:0:0:0:
192,192,192068,1,0,0:0:0:0:
320,192,192068,1,0,0:0:0:0:
448,192,192225,1,4,0:0:0:0:
320,192,192225,1,0,0:0:0:0:
64,192,192225,1,0,0:0:0:0:
192,192,192382,1,0,0:0:0:0:
320,192,192382,1,0,0:0:0:0:
448,192,192539,1,4,0:0:0:0:
320,192,192539,1,0,0:0:0:0:
192,192,192539,1,0,0:0:0:0:
64,192,192539,1,4,0:0:0:0:
64,192,192696,1,0,0:0:0:0:
448,192,192696,1,0,0:0:0:0:
448,192,192853,1,4,0:0:0:0:
320,192,192853,1,0,0:0:0:0:
192,192,192853,1,0,0:0:0:0:
64,192,192853,1,4,0:0:0:0:
192,192,193010,1,0,0:0:0:0:
320,192,193010,1,0,0:0:0:0:
448,192,193168,1,0,0:0:0:0:
64,192,193168,1,0,0:0:0:0:
192,192,193325,1,0,0:0:0:0:
320,192,193325,1,0,0:0:0:0:
448,192,193482,1,0,0:0:0:0:
64,192,193482,1,0,0:0:0:0:
192,192,193639,1,0,0:0:0:0:
320,192,193639,1,0,0:0:0:0:
448,192,193796,1,4,0:0:0:0:
320,192,193796,1,0,0:0:0:0:
192,192,193796,1,0,0:0:0:0:
64,192,193796,1,4,0:0:0:0:
64,192,193953,1,4,0:0:0:0:
192,192,193953,1,0,0:0:0:0:
320,192,193953,1,0,0:0:0:0:
448,192,193953,1,4,0:0:0:0:
448,192,194110,1,4,0:0:0:0:
320,192,194110,1,0,0:0:0:0:
192,192,194110,1,0,0:0:0:0:
64,192,194110,1,4,0:0:0:0:
192,192,194738,1,0,0:0:0:0:
320,192,194738,1,0,0:0:0:0:
64,192,195052,1,4,0:0:0:0:
192,192,195052,1,0,0:0:0:0:
448,192,195052,1,0,0:0:0:0:
448,192,195209,1,4,0:0:0:0:
320,192,195209,1,0,0:0:0:0:
64,192,195209,1,0,0:0:0:0:
64,192,195366,1,4,0:0:0:0:
192,192,195366,1,0,0:0:0:0:
448,192,195366,1,0,0:0:0:0:
64,192,196780,1,0,0:0:0:0:
320,192,196780,1,0,0:0:0:0:
192,192,196859,1,0,0:0:0:0:
320,192,196937,1,0,0:0:0:0:
448,192,196937,1,4,0:0:0:0:
64,192,196937,1,0,0:0:0:0:
192,192,197055,1,0,0:0:0:0:
320,192,197134,1,0,0:0:0:0:
64,192,197251,1,0,0:0:0:0:
192,192,197369,1,0,0:0:0:0:
320,192,197448,1,0,0:0:0:0:
64,192,197565,1,4,0:0:0:0:
192,192,197565,1,0,0:0:0:0:
448,192,197565,1,0,0:0:0:0:
448,192,197723,1,4,0:0:0:0:
320,192,197723,1,0,0:0:0:0:
64,192,197723,1,0,0:0:0:0:
64,192,197880,1,4,0:0:0:0:
192,192,197880,1,0,0:0:0:0:
448,192,197880,1,0,0:0:0:0:
320,192,198665,1,0,0:0:0:0:
192,192,198743,1,0,0:0:0:0:
64,192,198822,1,0,0:0:0:0:
448,192,198822,1,4,0:0:0:0:
320,192,199058,1,0,0:0:0:0:
64,192,199136,1,0,0:0:0:0:
448,192,199136,1,4,0:0:0:0:
192,192,199293,1,0,0:0:0:0:
64,192,199450,1,4,0:0:0:0:
448,192,199450,1,0,0:0:0:0:
320,192,199529,1,0,0:0:0:0:
64,192,199764,1,0,0:0:0:0:
448,192,199764,1,4,0:0:0:0:
64,192,199921,1,4,0:0:0:0:
448,192,199921,1,0,0:0:0:0:
192,192,200079,1,0,0:0:0:0:
320,192,200079,1,0,0:0:0:0:
64,192,200236,1,0,0:0:0:0:
448,192,200236,1,0,0:0:0:0:
192,192,200393,1,0,0:0:0:0:
320,192,200393,1,0,0:0:0:0:
448,192,200942,1,0,0:0:0:0:
192,192,201021,1,0,0:0:0:0:
320,192,201021,1,0,0:0:0:0:
320,192,201335,1,0,0:0:0:0:
192,192,201414,1,0,0:0:0:0:
320,192,201492,1,0,0:0:0:0:
192,192,201571,1,0,0:0:0:0:
320,192,201649,1,0,0:0:0:0:
192,192,201728,1,0,0:0:0:0:
320,192,201806,1,0,0:0:0:0:
192,192,201885,1,0,0:0:0:0:
448,192,201963,128,8,202592:0:0:0:0:
320,192,201963,1,0,0:0:0:0:
192,192,202042,1,0,0:0:0:0:
320,192,202120,1,0,0:0:0:0:
192,192,202199,1,0,0:0:0:0:
64,192,202277,1,4,0:0:0:0:
64,192,202592,1,4,0:0:0:0:
192,192,202592,1,0,0:0:0:0:
320,192,202592,1,0,0:0:0:0:
448,192,202749,1,4,0:0:0:0:
320,192,202749,1,0,0:0:0:0:
192,192,202749,1,0,0:0:0:0:
64,192,202906,1,4,0:0:0:0:
192,192,202906,1,0,0:0:0:0:
320,192,202906,1,0,0:0:0:0:
448,192,203220,1,4,0:0:0:0:
320,192,203220,1,0,0:0:0:0:
64,192,203220,1,0,0:0:0:0:
64,192,203377,1,4,0:0:0:0:
192,192,203377,1,0,0:0:0:0:
448,192,203377,1,0,0:0:0:0:
448,192,203534,1,4,0:0:0:0:
320,192,203534,1,0,0:0:0:0:
64,192,203534,1,0,0:0:0:0:
448,192,203848,1,0,0:0:0:0:
64,192,203848,1,4,0:0:0:0:
192,192,203848,1,0,0:0:0:0:
320,192,204005,1,0,0:0:0:0:
448,192,204005,1,0,0:0:0:0:
192,192,204084,1,0,0:0:0:0:
320,192,204162,1,0,0:0:0:0:
64,192,204162,1,0,0:0:0:0:
448,192,204319,1,4,0:0:0:0:
320,192,204319,1,0,0:0:0:0:
64,192,204319,1,0,0:0:0:0:
64,192,204791,1,4,0:0:0:0:
192,192,204791,1,0,0:0:0:0:
448,192,204791,1,4,0:0:0:0:
320,192,204791,1,0,0:0:0:0:
192,192,205105,1,0,0:0:0:0:
320,192,205105,1,0,0:0:0:0:
64,192,205262,1,0,0:0:0:0:
320,192,205262,1,0,0:0:0:0:
64,192,205419,1,0,0:0:0:0:
192,192,205419,1,0,0:0:0:0:
448,192,205419,1,4,0:0:0:0:
320,192,205733,1,0,0:0:0:0:
448,192,205733,1,0,0:0:0:0:
192,192,205890,1,0,0:0:0:0:
448,192,205890,1,0,0:0:0:0:
64,192,206047,1,4,0:0:0:0:
192,192,206047,1,0,0:0:0:0:
320,192,206047,1,0,0:0:0:0:
448,192,206361,1,0,0:0:0:0:
192,192,206361,1,0,0:0:0:0:
64,192,206518,1,0,0:0:0:0:
192,192,206518,1,0,0:0:0:0:
448,192,206675,1,4,0:0:0:0:
320,192,206675,1,0,0:0:0:0:
192,192,206675,1,0,0:0:0:0:
320,192,206911,1,0,0:0:0:0:
64,192,206990,1,0,0:0:0:0:
448,192,206990,1,0,0:0:0:0:
192,192,207147,1,0,0:0:0:0:
320,192,207147,1,0,0:0:0:0:
64,192,207304,1,4,0:0:0:0:
192,192,207304,1,0,0:0:0:0:
448,192,207304,1,0,0:0:0:0:
448,192,207618,1,4,0:0:0:0:
320,192,207618,1,0,0:0:0:0:
64,192,207618,1,0,0:0:0:0:
64,192,207775,1,4,0:0:0:0:
192,192,207775,1,0,0:0:0:0:
448,192,207775,1,0,0:0:0:0:
64,192,207932,1,4,0:0:0:0:
192,192,207932,1,0,0:0:0:0:
320,192,207932,1,0,0:0:0:0:
448,192,207932,1,4,0:0:0:0:
320,192,208246,1,0,0:0:0:0:
192,192,208246,1,0,0:0:0:0:
448,192,208403,1,0,0:0:0:0:
192,192,208403,1,0,0:0:0:0:
64,192,208560,1,4,0:0:0:0:
192,192,208560,1,0,0:0:0:0:
320,192,208560,1,0,0:0:0:0:
448,192,208874,1,0,0:0:0:0:
192,192,208874,1,0,0:0:0:0:
64,192,209031,1,0,0:0:0:0:
320,192,209031,1,0,0:0:0:0:
448,192,209188,1,4,0:0:0:0:
320,192,209188,1,0,0:0:0:0:
192,192,209188,1,0,0:0:0:0:
320,192,209424,1,0,0:0:0:0:
64,192,209503,1,0,0:0:0:0:
192,192,209503,1,0,0:0:0:0:
192,192,209660,1,0,0:0:0:0:
448,192,209660,1,0,0:0:0:0:
448,192,209817,1,0,0:0:0:0:
320,192,209817,1,0,0:0:0:0:
64,192,209817,1,4,0:0:0:0:
64,192,210131,1,0,0:0:0:0:
192,192,210131,1,0,0:0:0:0:
448,192,210131,1,4,0:0:0:0:
448,192,210288,1,0,0:0:0:0:
320,192,210288,1,0,0:0:0:0:
64,192,210288,1,4,0:0:0:0:
64,192,210445,1,4,0:0:0:0:
192,192,210445,1,0,0:0:0:0:
320,192,210445,1,0,0:0:0:0:
448,192,210445,1,4,0:0:0:0:
192,192,210759,1,0,0:0:0:0:
320,192,210759,1,0,0:0:0:0:
320,192,210916,1,0,0:0:0:0:
64,192,210916,1,0,0:0:0:0:
448,192,211073,1,4,0:0:0:0:
320,192,211073,1,0,0:0:0:0:
192,192,211073,1,0,0:0:0:0:
320,192,211387,1,0,0:0:0:0:
64,192,211387,1,0,0:0:0:0:
192,192,211544,1,0,0:0:0:0:
448,192,211544,1,0,0:0:0:0:
64,192,211702,1,4,0:0:0:0:
192,192,211702,1,0,0:0:0:0:
320,192,211702,1,0,0:0:0:0:
448,192,211937,1,0,0:0:0:0:
192,192,212016,1,0,0:0:0:0:
320,192,212016,1,0,0:0:0:0:
64,192,212173,1,0,0:0:0:0:
192,192,212173,1,0,0:0:0:0:
448,192,212330,1,4,0:0:0:0:
320,192,212330,1,0,0:0:0:0:
64,192,212330,1,0,0:0:0:0:
448,192,212644,1,4,0:0:0:0:
320,192,212644,1,0,0:0:0:0:
192,192,212644,1,0,0:0:0:0:
64,192,212644,1,4,0:0:0:0:
192,192,212958,1,0,0:0:0:0:
64,192,213115,1,0,0:0:0:0:
192,192,213272,1,0,0:0:0:0:
320,192,213429,1,0,0:0:0:0:
448,192,213586,1,0,0:0:0:0:
320,192,213743,1,0,0:0:0:0:
192,192,213901,1,0,0:0:0:0:
64,192,214058,1,0,0:0:0:0:
192,192,214136,1,0,0:0:0:0:
320,192,214215,1,0,0:0:0:0:
448,192,214293,1,0,0:0:0:0:
320,192,214372,1,0,0:0:0:0:
192,192,214450,1,0,0:0:0:0:
64,192,214529,1,0,0:0:0:0:
192,192,214607,1,0,0:0:0:0:
320,192,214686,1,0,0:0:0:0:
448,192,214764,1,0,0:0:0:0:
320,192,214843,1,0,0:0:0:0:
192,192,214921,1,0,0:0:0:0:
64,192,215000,1,0,0:0:0:0:
192,192,215079,1,0,0:0:0:0:
64,192,215157,5,0,0:0:0:0:
320,192,215157,1,0,0:0:0:0:
448,192,215157,1,4,0:0:0:0:
192,192,219398,5,0,0:0:0:0:
320,192,219437,1,0,0:0:0:0:
448,192,219476,1,0,0:0:0:0:
320,192,219516,1,0,0:0:0:0:
64,192,219555,1,0,0:0:0:0:
192,192,219555,1,0,0:0:0:0:
320,192,219673,1,0,0:0:0:0:
448,192,219673,1,0,0:0:0:0:
192,192,219791,1,0,0:0:0:0:
64,192,219791,1,0,0:0:0:0:
448,192,219869,1,0,0:0:0:0:
192,192,220183,1,0,0:0:0:0:
320,192,220183,1,0,0:0:0:0:
64,192,220183,1,4,0:0:0:0:
448,192,220183,1,4,0:0:0:0:
448,192,220812,1,4,0:0:0:0:
320,192,220812,1,0,0:0:0:0:
64,192,220812,1,0,0:0:0:0:
448,192,221440,1,0,0:0:0:0:
64,192,221440,1,4,0:0:0:0:
192,192,221440,1,0,0:0:0:0:
448,192,222068,1,4,0:0:0:0:
320,192,222068,1,0,0:0:0:0:
64,192,222068,1,0,0:0:0:0:
64,192,222696,1,4,0:0:0:0:
192,192,222696,1,0,0:0:0:0:
448,192,222696,1,0,0:0:0:0:
320,192,223010,1,0,0:0:0:0:
64,192,223010,1,0,0:0:0:0:
448,192,223010,1,4,0:0:0:0:
320,192,223168,1,0,0:0:0:0:
192,192,223168,1,0,0:0:0:0:
64,192,223325,1,4,0:0:0:0:
448,192,223325,1,0,0:0:0:0:
192,192,223325,1,0,0:0:0:0:
64,192,223482,1,0,0:0:0:0:
320,192,223482,1,0,0:0:0:0:
448,192,223639,1,4,0:0:0:0:
192,192,223639,1,0,0:0:0:0:
320,192,223639,1,0,0:0:0:0:
64,192,223796,1,0,0:0:0:0:
320,192,223796,1,0,0:0:0:0:
64,192,223953,1,4,0:0:0:0:
192,192,223953,1,0,0:0:0:0:
448,192,223953,1,0,0:0:0:0:
192,192,224110,1,0,0:0:0:0:
320,192,224110,1,0,0:0:0:0:
448,192,224267,1,4,0:0:0:0:
64,192,224267,1,0,0:0:0:0:
320,192,224267,1,0,0:0:0:0:
192,192,224424,1,0,0:0:0:0:
448,192,224424,1,0,0:0:0:0:
64,192,224581,1,4,0:0:0:0:
192,192,224581,1,0,0:0:0:0:
320,192,224581,1,0,0:0:0:0:
192,192,224738,1,0,0:0:0:0:
448,192,224738,1,0,0:0:0:0:
448,192,224895,1,4,0:0:0:0:
320,192,224895,1,0,0:0:0:0:
64,192,224895,1,0,0:0:0:0:
192,192,224974,1,0,0:0:0:0:
320,192,225052,1,0,0:0:0:0:
448,192,225131,1,0,0:0:0:0:
192,192,225209,1,0,0:0:0:0:
320,192,225209,1,0,0:0:0:0:
64,192,225209,1,4,0:0:0:0:
64,192,225366,1,0,0:0:0:0:
320,192,225366,1,0,0:0:0:0:
448,192,225366,1,4,0:0:0:0:
192,192,225524,1,0,0:0:0:0:
448,192,225524,1,0,0:0:0:0:
64,192,225524,1,4,0:0:0:0:
320,192,225681,1,0,0:0:0:0:
448,192,225681,1,4,0:0:0:0:
192,192,225681,1,0,0:0:0:0:
64,192,225838,1,4,0:0:0:0:
192,192,225838,1,0,0:0:0:0:
320,192,225838,1,0,0:0:0:0:
192,192,226152,1,0,0:0:0:0:
320,192,226152,1,0,0:0:0:0:
448,192,226152,1,4,0:0:0:0:
64,192,226309,1,4,0:0:0:0:
192,192,226309,1,0,0:0:0:0:
448,192,226309,1,0,0:0:0:0:
320,192,226623,1,0,0:0:0:0:
192,192,226623,1,0,0:0:0:0:
64,192,226623,1,4,0:0:0:0:
448,192,226780,1,4,0:0:0:0:
320,192,226780,1,0,0:0:0:0:
64,192,226780,1,0,0:0:0:0:
448,192,227094,1,4,0:0:0:0:
320,192,227094,1,0,0:0:0:0:
192,192,227094,1,0,0:0:0:0:
64,192,227251,1,4,0:0:0:0:
192,192,227251,1,0,0:0:0:0:
448,192,227251,1,0,0:0:0:0:
448,192,227408,1,4,0:0:0:0:
320,192,227408,1,0,0:0:0:0:
64,192,227408,1,0,0:0:0:0:
64,192,227565,1,4,0:0:0:0:
192,192,227565,1,0,0:0:0:0:
320,192,227565,1,0,0:0:0:0:
448,192,227565,128,8,228351:0:0:0:0:
64,192,230236,1,4,0:0:0:0:
192,192,230236,1,0,0:0:0:0:
320,192,230236,1,0,0:0:0:0:
448,192,230236,1,4,0:0:0:0:
448,192,230550,1,4,0:0:0:0:
320,192,230550,1,0,0:0:0:0:
64,192,230550,1,0,0:0:0:0:
192,192,230864,1,0,0:0:0:0:
320,192,230864,1,0,0:0:0:0:
448,192,231021,1,0,0:0:0:0:
192,192,231021,1,0,0:0:0:0:
64,192,231178,1,4,0:0:0:0:
192,192,231178,1,0,0:0:0:0:
320,192,231178,1,0,0:0:0:0:
192,192,231335,1,0,0:0:0:0:
448,192,231335,1,0,0:0:0:0:
320,192,231414,1,0,0:0:0:0:
64,192,231492,1,0,0:0:0:0:
192,192,231492,1,0,0:0:0:0:
192,192,231649,1,0,0:0:0:0:
320,192,231649,1,0,0:0:0:0:
448,192,231806,1,4,0:0:0:0:
320,192,231806,1,0,0:0:0:0:
64,192,231806,1,0,0:0:0:0:
192,192,232120,1,0,0:0:0:0:
448,192,232120,1,0,0:0:0:0:
64,192,232277,1,0,0:0:0:0:
320,192,232277,1,0,0:0:0:0:
448,192,232435,1,0,0:0:0:0:
64,192,232435,1,4,0:0:0:0:
192,192,232435,1,0,0:0:0:0:
64,192,232749,128,8,233063:0:0:0:0:
192,192,232749,1,0,0:0:0:0:
448,192,232749,1,0,0:0:0:0:
192,192,233063,1,0,0:0:0:0:
320,192,233063,1,0,0:0:0:0:
448,192,233063,1,4,0:0:0:0:
448,192,233377,128,8,233691:0:0:0:0:
320,192,233377,1,0,0:0:0:0:
64,192,233377,1,0,0:0:0:0:
64,192,233534,1,0,0:0:0:0:
192,192,233534,1,0,0:0:0:0:
64,192,233691,1,4,0:0:0:0:
192,192,233691,1,0,0:0:0:0:
320,192,233691,1,0,0:0:0:0:
320,192,233927,1,0,0:0:0:0:
64,192,234005,1,0,0:0:0:0:
448,192,234005,1,0,0:0:0:0:
320,192,234162,1,0,0:0:0:0:
192,192,234162,1,0,0:0:0:0:
64,192,234319,1,0,0:0:0:0:
320,192,234319,1,0,0:0:0:0:
448,192,234319,1,4,0:0:0:0:
320,192,234634,1,0,0:0:0:0:
192,192,234634,1,0,0:0:0:0:
64,192,234791,1,0,0:0:0:0:
448,192,234791,1,0,0:0:0:0:
320,192,234948,1,0,0:0:0:0:
192,192,234948,1,0,0:0:0:0:
64,192,234948,1,4,0:0:0:0:
192,192,235262,1,0,0:0:0:0:
448,192,235262,1,0,0:0:0:0:
64,192,235576,1,0,0:0:0:0:
320,192,235576,1,0,0:0:0:0:
448,192,235576,1,4,0:0:0:0:
192,192,235890,1,0,0:0:0:0:
448,192,235890,1,0,0:0:0:0:
192,192,236047,1,0,0:0:0:0:
64,192,236047,1,0,0:0:0:0:
64,192,236204,1,4,0:0:0:0:
448,192,236204,1,0,0:0:0:0:
320,192,236204,1,0,0:0:0:0:
192,192,236361,1,0,0:0:0:0:
448,192,236361,1,0,0:0:0:0:
448,192,236518,1,0,0:0:0:0:
320,192,236518,1,0,0:0:0:0:
192,192,236675,1,0,0:0:0:0:
64,192,236675,1,0,0:0:0:0:
448,192,236832,1,4,0:0:0:0:
64,192,236832,1,0,0:0:0:0:
320,192,236832,1,0,0:0:0:0:
320,192,237147,1,0,0:0:0:0:
192,192,237147,1,0,0:0:0:0:
64,192,237304,1,0,0:0:0:0:
320,192,237304,1,0,0:0:0:0:
448,192,237461,1,0,0:0:0:0:
320,192,237461,1,0,0:0:0:0:
192,192,237461,1,4,0:0:0:0:
64,192,237775,1,0,0:0:0:0:
448,192,237775,1,0,0:0:0:0:
448,192,238089,1,4,0:0:0:0:
64,192,238089,1,0,0:0:0:0:
192,192,238089,1,0,0:0:0:0:
192,192,238403,1,0,0:0:0:0:
320,192,238403,1,0,0:0:0:0:
448,192,238560,1,0,0:0:0:0:
192,192,238560,1,0,0:0:0:0:
64,192,238717,1,0,0:0:0:0:
320,192,238717,1,0,0:0:0:0:
448,192,238717,1,4,0:0:0:0:
192,192,238874,1,0,0:0:0:0:
320,192,238874,1,0,0:0:0:0:
192,192,239031,1,0,0:0:0:0:
448,192,239031,1,4,0:0:0:0:
64,192,239031,1,4,0:0:0:0:
320,192,239031,1,0,0:0:0:0:
320,192,239188,5,0,0:0:0:0:
192,192,239188,1,0,0:0:0:0:
64,192,239346,1,4,0:0:0:0:
448,192,239346,1,0,0:0:0:0:
192,192,239346,1,0,0:0:0:0:
320,192,239424,1,0,0:0:0:0:
192,192,239503,1,0,0:0:0:0:
448,192,239503,1,0,0:0:0:0:
64,192,239660,1,0,0:0:0:0:
320,192,239660,1,0,0:0:0:0:
192,192,239974,1,0,0:0:0:0:
448,192,239974,1,0,0:0:0:0:
448,192,240288,5,4,0:0:0:0:
192,192,240288,1,0,0:0:0:0:
320,192,240288,1,0,0:0:0:0:
64,192,240288,1,4,0:0:0:0:
64,192,240602,1,4,0:0:0:0:
192,192,240602,1,0,0:0:0:0:
448,192,240602,1,0,0:0:0:0:
192,192,240916,1,0,0:0:0:0:
320,192,240916,1,0,0:0:0:0:
64,192,241073,1,0,0:0:0:0:
320,192,241073,1,0,0:0:0:0:
192,192,241230,1,0,0:0:0:0:
448,192,241230,1,4,0:0:0:0:
320,192,241230,1,0,0:0:0:0:
64,192,241387,1,0,0:0:0:0:
192,192,241387,1,0,0:0:0:0:
192,192,241544,1,0,0:0:0:0:
448,192,241544,1,0,0:0:0:0:
320,192,241702,1,0,0:0:0:0:
448,192,241702,1,0,0:0:0:0:
64,192,241859,1,4,0:0:0:0:
192,192,241859,1,0,0:0:0:0:
320,192,241859,1,0,0:0:0:0:
448,192,242173,1,0,0:0:0:0:
64,192,242173,1,0,0:0:0:0:
320,192,242330,1,0,0:0:0:0:
192,192,242330,1,0,0:0:0:0:
64,192,242487,1,0,0:0:0:0:
320,192,242487,1,0,0:0:0:0:
448,192,242487,1,4,0:0:0:0:
448,192,242801,128,0,243115:0:0:0:0:
320,192,242801,1,0,0:0:0:0:
64,192,242801,1,0,0:0:0:0:
320,192,243115,1,0,0:0:0:0:
64,192,243115,1,4,0:0:0:0:
192,192,243115,1,0,0:0:0:0:
64,192,243429,128,0,243743:0:0:0:0:
192,192,243429,1,0,0:0:0:0:
448,192,243429,1,0,0:0:0:0:
448,192,243586,1,0,0:0:0:0:
320,192,243586,1,0,0:0:0:0:
448,192,243743,1,4,0:0:0:0:
320,192,243743,1,0,0:0:0:0:
192,192,243743,1,0,0:0:0:0:
192,192,243979,1,0,0:0:0:0:
448,192,244058,1,0,0:0:0:0:
64,192,244058,1,0,0:0:0:0:
192,192,244215,1,0,0:0:0:0:
320,192,244215,1,0,0:0:0:0:
192,192,244372,1,0,0:0:0:0:
448,192,244372,1,0,0:0:0:0:
64,192,244372,1,4,0:0:0:0:
320,192,244686,1,0,0:0:0:0:
192,192,244686,1,0,0:0:0:0:
448,192,244843,1,0,0:0:0:0:
64,192,244843,1,0,0:0:0:0:
320,192,245000,1,0,0:0:0:0:
448,192,245000,1,4,0:0:0:0:
192,192,245000,1,0,0:0:0:0:
320,192,245314,1,0,0:0:0:0:
64,192,245314,1,0,0:0:0:0:
192,192,245628,1,0,0:0:0:0:
64,192,245628,1,4,0:0:0:0:
448,192,245628,1,0,0:0:0:0:
64,192,245942,1,0,0:0:0:0:
320,192,245942,1,0,0:0:0:0:
320,192,246099,1,0,0:0:0:0:
448,192,246099,1,0,0:0:0:0:
192,192,246257,1,0,0:0:0:0:
448,192,246257,1,4,0:0:0:0:
64,192,246257,1,0,0:0:0:0:
64,192,246414,1,0,0:0:0:0:
320,192,246414,1,0,0:0:0:0:
64,192,246571,1,0,0:0:0:0:
192,192,246571,1,0,0:0:0:0:
448,192,246728,1,0,0:0:0:0:
320,192,246728,1,0,0:0:0:0:
64,192,246885,1,4,0:0:0:0:
448,192,246885,1,0,0:0:0:0:
192,192,246885,1,0,0:0:0:0:
320,192,247199,1,0,0:0:0:0:
192,192,247199,1,0,0:0:0:0:
192,192,247356,1,0,0:0:0:0:
448,192,247356,1,0,0:0:0:0:
64,192,247513,1,4,0:0:0:0:
320,192,247513,1,0,0:0:0:0:
192,192,247513,1,0,0:0:0:0:
64,192,247827,1,0,0:0:0:0:
448,192,247827,1,0,0:0:0:0:
320,192,247906,1,0,0:0:0:0:
192,192,247984,1,0,0:0:0:0:
64,192,248063,1,0,0:0:0:0:
192,192,248141,1,4,0:0:0:0:
448,192,248141,1,4,0:0:0:0:
320,192,248141,1,0,0:0:0:0:
64,192,248298,1,0,0:0:0:0:
192,192,248377,1,0,0:0:0:0:
448,192,248455,1,0,0:0:0:0:
320,192,248455,1,0,0:0:0:0:
64,192,248613,1,0,0:0:0:0:
320,192,248613,1,0,0:0:0:0:
448,192,248770,1,0,0:0:0:0:
192,192,248770,1,0,0:0:0:0:
64,192,248770,1,4,0:0:0:0:
320,192,248927,1,0,0:0:0:0:
192,192,248927,1,0,0:0:0:0:
320,192,249084,1,0,0:0:0:0:
64,192,249084,1,4,0:0:0:0:
448,192,249084,1,4,0:0:0:0:
192,192,249084,1,0,0:0:0:0:
192,192,249241,5,0,0:0:0:0:
320,192,249241,1,0,0:0:0:0:
448,192,249398,1,4,0:0:0:0:
64,192,249398,1,0,0:0:0:0:
320,192,249398,1,0,0:0:0:0:
192,192,249476,1,0,0:0:0:0:
320,192,249555,1,0,0:0:0:0:
64,192,249555,1,0,0:0:0:0:
448,192,249712,1,0,0:0:0:0:
192,192,249712,1,0,0:0:0:0:
448,192,249869,1,0,0:0:0:0:
320,192,249869,1,0,0:0:0:0:
320,192,250026,1,0,0:0:0:0:
64,192,250026,1,4,0:0:0:0:
192,192,250026,1,0,0:0:0:0:
448,192,250105,1,0,0:0:0:0:
64,192,250340,5,4,0:0:0:0:
192,192,250340,1,0,0:0:0:0:
320,192,250340,1,0,0:0:0:0:
448,192,250340,1,4,0:0:0:0:
448,192,250654,1,4,0:0:0:0:
320,192,250654,1,0,0:0:0:0:
64,192,250654,1,0,0:0:0:0:
192,192,250812,1,0,0:0:0:0:
320,192,250812,1,0,0:0:0:0:
192,192,250969,1,0,0:0:0:0:
64,192,250969,1,4,0:0:0:0:
448,192,250969,1,0,0:0:0:0:
320,192,251126,1,0,0:0:0:0:
192,192,251126,1,0,0:0:0:0:
320,192,251283,1,0,0:0:0:0:
448,192,251283,1,4,0:0:0:0:
64,192,251283,1,0,0:0:0:0:
448,192,251440,1,0,0:0:0:0:
192,192,251440,1,0,0:0:0:0:
192,192,251597,1,0,0:0:0:0:
64,192,251597,1,4,0:0:0:0:
320,192,251597,1,0,0:0:0:0:
448,192,251754,1,0,0:0:0:0:
64,192,251754,1,0,0:0:0:0:
320,192,251911,1,0,0:0:0:0:
192,192,251911,1,0,0:0:0:0:
448,192,251911,1,4,0:0:0:0:
64,192,252068,1,0,0:0:0:0:
320,192,252068,1,0,0:0:0:0:
64,192,252225,1,4,0:0:0:0:
192,192,252225,1,0,0:0:0:0:
448,192,252225,1,0,0:0:0:0:
192,192,252382,1,0,0:0:0:0:
320,192,252382,1,0,0:0:0:0:
448,192,252539,1,4,0:0:0:0:
320,192,252539,1,0,0:0:0:0:
64,192,252539,1,0,0:0:0:0:
192,192,252696,1,0,0:0:0:0:
320,192,252696,1,0,0:0:0:0:
448,192,252853,1,0,0:0:0:0:
192,192,252853,1,0,0:0:0:0:
64,192,252853,1,4,0:0:0:0:
192,192,253010,1,0,0:0:0:0:
320,192,253010,1,0,0:0:0:0:
448,192,253168,1,4,0:0:0:0:
320,192,253168,1,0,0:0:0:0:
64,192,253168,1,0,0:0:0:0:
192,192,253325,1,0,0:0:0:0:
448,192,253325,1,0,0:0:0:0:
320,192,253482,1,0,0:0:0:0:
64,192,253482,1,4,0:0:0:0:
192,192,253482,1,0,0:0:0:0:
64,192,253639,1,0,0:0:0:0:
448,192,253639,1,0,0:0:0:0:
448,192,253796,1,4,0:0:0:0:
192,192,253796,1,0,0:0:0:0:
320,192,253796,1,0,0:0:0:0:
64,192,253953,1,0,0:0:0:0:
320,192,253953,1,0,0:0:0:0:
64,192,254110,1,4,0:0:0:0:
192,192,254110,1,0,0:0:0:0:
448,192,254110,1,0,0:0:0:0:
320,192,254188,1,0,0:0:0:0:
64,192,254267,1,0,0:0:0:0:
192,192,254267,1,0,0:0:0:0:
320,192,254346,1,0,0:0:0:0:
64,192,254424,1,4,0:0:0:0:
192,192,254424,1,0,0:0:0:0:
320,192,254503,1,0,0:0:0:0:
64,192,254581,1,0,0:0:0:0:
192,192,254581,1,0,0:0:0:0:
320,192,254660,1,0,0:0:0:0:
192,192,254738,1,0,0:0:0:0:
64,192,254738,1,4,0:0:0:0:
320,192,254817,1,0,0:0:0:0:
192,192,254895,1,0,0:0:0:0:
64,192,254895,1,0,0:0:0:0:
320,192,254974,1,0,0:0:0:0:
64,192,255052,1,4,0:0:0:0:
192,192,255052,1,0,0:0:0:0:
448,192,255052,1,4,0:0:0:0:
448,192,255366,1,4,0:0:0:0:
320,192,255366,1,0,0:0:0:0:
192,192,255366,1,0,0:0:0:0:
64,192,255366,1,4,0:0:0:0:
320,192,255681,1,0,0:0:0:0:
448,192,255681,1,4,0:0:0:0:
192,192,255681,1,0,0:0:0:0:
64,192,255838,1,0,0:0:0:0:
448,192,255838,1,0,0:0:0:0:
320,192,255995,1,0,0:0:0:0:
192,192,255995,1,0,0:0:0:0:
64,192,255995,1,4,0:0:0:0:
448,192,256152,1,0,0:0:0:0:
192,192,256152,1,0,0:0:0:0:
64,192,256309,1,0,0:0:0:0:
320,192,256309,1,0,0:0:0:0:
448,192,256309,1,4,0:0:0:0:
192,192,256466,1,0,0:0:0:0:
320,192,256466,1,0,0:0:0:0:
64,192,256623,1,4,0:0:0:0:
192,192,256623,1,0,0:0:0:0:
448,192,256623,1,0,0:0:0:0:
320,192,256780,1,0,0:0:0:0:
192,192,256780,1,0,0:0:0:0:
448,192,256937,1,4,0:0:0:0:
64,192,256937,1,0,0:0:0:0:
320,192,256937,1,0,0:0:0:0:
448,192,257094,1,0,0:0:0:0:
192,192,257094,1,0,0:0:0:0:
64,192,257251,1,4,0:0:0:0:
192,192,257251,1,0,0:0:0:0:
320,192,257251,1,0,0:0:0:0:
448,192,257408,1,0,0:0:0:0:
64,192,257408,1,0,0:0:0:0:
448,192,257565,1,4,0:0:0:0:
320,192,257565,1,0,0:0:0:0:
192,192,257565,1,0,0:0:0:0:
64,192,257723,1,0,0:0:0:0:
320,192,257723,1,0,0:0:0:0:
64,192,257880,1,4,0:0:0:0:
192,192,257880,1,0,0:0:0:0:
320,192,257880,1,0,0:0:0:0:
448,192,257880,1,4,0:0:0:0:
192,192,258037,1,0,0:0:0:0:
448,192,258037,1,0,0:0:0:0:
64,192,258194,1,4,0:0:0:0:
192,192,258194,1,0,0:0:0:0:
320,192,258194,1,0,0:0:0:0:
64,192,258351,1,0,0:0:0:0:
448,192,258351,1,0,0:0:0:0:
448,192,258508,1,4,0:0:0:0:
320,192,258508,1,0,0:0:0:0:
192,192,258508,1,0,0:0:0:0:
64,192,258665,1,0,0:0:0:0:
448,192,258665,1,0,0:0:0:0:
192,192,258822,1,0,0:0:0:0:
320,192,258822,1,0,0:0:0:0:
64,192,258979,1,0,0:0:0:0:
448,192,258979,1,0,0:0:0:0:
64,192,259136,1,4,0:0:0:0:
192,192,259136,1,0,0:0:0:0:
320,192,259136,1,0,0:0:0:0:
448,192,259136,1,4,0:0:0:0:
448,192,259293,1,4,0:0:0:0:
320,192,259293,1,0,0:0:0:0:
192,192,259293,1,0,0:0:0:0:
64,192,259293,1,4,0:0:0:0:
64,192,259450,1,4,0:0:0:0:
192,192,259450,1,0,0:0:0:0:
320,192,259450,1,0,0:0:0:0:
448,192,259450,1,4,0:0:0:0:
64,192,260393,1,4,0:0:0:0:
192,192,260393,1,0,0:0:0:0:
320,192,260393,1,0,0:0:0:0:
448,192,260393,1,4,0:0:0:0:
64,192,260707,1,4,0:0:0:0:
192,192,260707,1,0,0:0:0:0:
448,192,260707,1,0,0:0:0:0:
320,192,261021,1,0,0:0:0:0:
64,192,261021,1,0,0:0:0:0:
192,192,261178,1,0,0:0:0:0:
320,192,261178,1,0,0:0:0:0:
448,192,261335,1,4,0:0:0:0:
320,192,261335,1,0,0:0:0:0:
64,192,261335,1,0,0:0:0:0:
192,192,261492,1,0,0:0:0:0:
448,192,261492,1,0,0:0:0:0:
320,192,261649,1,0,0:0:0:0:
448,192,261649,1,0,0:0:0:0:
192,192,261806,1,0,0:0:0:0:
448,192,261806,1,0,0:0:0:0:
64,192,261963,1,4,0:0:0:0:
192,192,261963,1,0,0:0:0:0:
320,192,261963,1,0,0:0:0:0:
192,192,262277,1,0,0:0:0:0:
448,192,262277,1,0,0:0:0:0:
64,192,262435,1,0,0:0:0:0:
320,192,262435,1,0,0:0:0:0:
448,192,262592,1,4,0:0:0:0:
320,192,262592,1,0,0:0:0:0:
192,192,262592,1,0,0:0:0:0:
64,192,281597,132,8,288351:0:0:0:0:
320,192,288194,1,0,0:0:0:0:
448,192,288253,1,0,0:0:0:0:
320,192,288312,1,0,0:0:0:0:
192,192,288370,1,0,0:0:0:0:
320,192,288508,1,0,0:0:0:0:
448,192,288508,1,0,0:0:0:0:
320,192,288743,1,0,0:0:0:0:
192,192,288743,1,0,0:0:0:0:
192,192,289097,1,0,0:0:0:0:
320,192,289097,1,0,0:0:0:0:
64,192,289097,1,8,0:0:0:0:
448,192,289097,1,8,0:0:0:0:
