osu file format v14

[General]
AudioFilename: audio.mp3
AudioLeadIn: 0
PreviewTime: 88803
Countdown: 1
SampleSet: Soft
StackLeniency: 0.7
Mode: 1
LetterboxInBreaks: 0
WidescreenStoryboard: 1

[Editor]
Bookmarks: 213908
DistanceSpacing: 0.7
BeatDivisor: 4
GridSize: 32
TimelineZoom: 2.1

[Metadata]
Title:Tsukitourou
TitleUnicode:月燈籠
Artist:Camellia feat. Nanahira
ArtistUnicode:かめりあ feat. ななひら
Creator:Cynplytholowazy
Version:Lite Inner Oni
Source:osu!
Tags:Featured Artist FA Moon Lantern かめるかめりあ confetto C88 りぷれい! Replay! KamelCamellia Cametek
BeatmapID:2167677
BeatmapSetID:1036751

[Difficulty]
HPDrainRate:6
CircleSize:10
OverallDifficulty:6.5
ApproachRate:10
SliderMultiplier:1.4
SliderTickRate:1

[Events]
//Background and Video events
0,0,"50353513_p0.jpg",0,130
//Break Periods
//Storyboard Layer 0 (Background)
//Storyboard Layer 1 (Fail)
//Storyboard Layer 2 (Pass)
//Storyboard Layer 3 (Foreground)
//Storyboard Layer 4 (Overlay)
//Storyboard Sound Samples

[TimingPoints]
-961,314.13612565445,4,2,0,50,1,0
1395,-133.333333333333,4,2,0,65,0,0
3751,-133.333333333333,4,2,0,65,0,0
3908,-111.111111111111,4,1,0,80,0,0
4693,-111.111111111111,4,1,0,65,0,0
6421,-111.111111111111,4,1,0,80,0,0
7206,-111.111111111111,4,1,0,65,0,0
9012,-111.111111111111,4,1,0,80,0,0
9719,-111.111111111111,4,1,0,65,0,0
11447,-111.111111111111,4,1,0,80,0,0
14117,-117.647058823529,4,1,0,80,0,0
21656,-117.647058823529,4,1,0,80,0,0
21813,-116.363636363636,4,1,0,80,0,0
21970,-115.107913669065,4,1,0,80,0,0
22128,-113.879003558719,4,1,0,80,0,0
22285,-112.676056338028,4,1,0,80,0,0
22442,-111.498257839721,4,1,0,80,0,0
22599,-110.344827586207,4,1,0,80,0,0
22756,-109.215017064846,4,1,0,80,0,0
22913,-108.108108108108,4,1,0,80,0,0
23070,-107.023411371237,4,1,0,80,0,0
23148,-106.489241391942,4,1,0,80,0,0
23227,-105.960264900662,4,1,0,80,0,0
23306,-105.436517727042,4,1,0,80,0,0
23384,-104.918032786885,4,1,0,80,0,0
23463,-104.404622201434,4,1,0,80,0,0
23541,-103.896103896104,4,1,0,80,0,0
23620,-103.392515209039,4,1,0,80,0,0
23698,-102.893890675241,4,1,0,80,0,0
23777,-102.400052428827,4,1,0,80,0,0
23855,-101.910828025478,4,1,0,80,0,0
23934,-101.426256012041,4,1,0,80,0,0
24012,-100.946372239748,4,1,0,80,0,0
24091,-100.471008085907,4,1,0,80,0,0
24169,-100,4,1,0,90,0,0
43175,-100,4,1,0,90,0,0
43253,-100.840302238554,4,1,0,90,0,0
43332,-101.694949727102,4,1,0,90,0,0
43410,-102.564102564103,4,1,0,90,0,0
43489,-103.448240190262,4,1,0,90,0,0
43646,-105.263157894737,4,1,0,90,0,0
43803,-107.142895408177,4,1,0,90,0,0
43960,-109.090869421502,4,1,0,90,0,0
44117,-111.111111111111,4,1,0,80,0,0
49300,-105.263157894737,4,1,0,80,0,0
54326,-111.111111111111,4,1,0,80,0,0
59353,-105.263157894737,4,1,0,80,0,0
63122,-105.263157894737,4,1,0,80,0,0
63279,-106.659271623834,4,1,0,80,0,0
63436,-108.092916671171,4,1,0,80,0,0
63515,-108.824348795097,4,1,0,80,0,0
63593,-109.565747117873,4,1,0,80,0,0
63751,-111.079145001605,4,1,0,80,0,0
63908,-112.634936654112,4,1,0,80,0,0
63986,-113.429355063373,4,1,0,80,0,0
64065,-114.234928700269,4,1,0,80,0,0
64222,-115.881166181704,4,1,0,80,0,0
64379,-117.575406987271,4,1,0,80,0,0
71918,-117.647058823529,4,1,0,80,0,0
72075,-117.216117216117,4,1,0,80,0,0
72232,-116.788321167883,4,1,0,80,0,0
72389,-116.363636363636,4,1,0,80,0,0
72703,-115.523465703971,4,1,0,80,0,0
72860,-115.107913669065,4,1,0,80,0,0
73018,-114.695340501792,4,1,0,80,0,0
73332,-113.879003558719,4,1,0,80,0,0
73489,-113.475177304965,4,1,0,80,0,0
73646,-113.074204946996,4,1,0,80,0,0
73803,-112.676056338028,4,1,0,80,0,0
73960,-112.280701754386,4,1,0,80,0,0
74038,-112.084000233135,4,1,0,80,0,0
74117,-111.888111888112,4,1,0,80,0,0
74196,-111.69290705363,4,1,0,80,0,0
74274,-111.498257839721,4,1,0,80,0,0
74353,-111.308993766696,4,1,0,80,0,0
74431,-111.111111111111,4,1,0,80,0,0
83227,-111.111111111111,4,1,0,80,0,0
83306,-111.627948512725,4,1,0,80,0,0
83384,-112.149490785237,4,1,0,80,0,0
83436,-112.499985937502,4,1,0,80,0,0
83489,-112.852678727609,4,1,0,80,0,0
83541,-113.207589889657,4,1,0,80,0,0
83620,-113.744032703684,4,1,0,80,0,0
83698,-114.285714285714,4,1,0,80,0,0
83751,-114.64971073878,4,1,0,80,0,0
83803,-115.016033235033,4,1,0,80,0,0
83855,-115.384571005934,4,1,0,80,0,0
83934,-115.942028985507,4,1,0,80,0,0
84012,-116.504899613553,4,1,0,80,0,0
84065,-116.883056164646,4,1,0,80,0,0
84117,-117.263813090863,4,1,0,80,0,0
84169,-117.647058823529,4,1,0,80,0,0
84484,-105.263157894737,4,1,0,80,0,0
88253,-133.333333333333,4,1,0,80,0,0
89510,-90.9090909090909,4,1,0,90,0,1
113855,-100,4,1,0,80,0,0
123593,-100,4,1,0,80,0,0
123672,-101.257004453283,4,1,0,80,0,0
123751,-102.546012395762,4,1,0,80,0,0
123829,-103.86815392014,4,1,0,80,0,0
123908,-105.224944625373,4,1,0,80,0,0
124065,-108.047718194263,4,1,0,80,0,0
124222,-111.025991184536,4,1,0,80,0,0
124379,-114.173237336475,4,1,0,80,0,0
124536,-117.504118519354,4,1,0,75,0,0
128306,-117.647058823529,4,1,0,75,0,0
128463,-116.130530716525,4,1,0,75,0,0
128620,-114.64971073878,4,1,0,75,0,0
128777,-113.207589889657,4,1,0,75,0,0
129091,-110.429393654285,4,1,0,75,0,0
129169,-109.756110945867,4,1,0,75,0,0
129248,-109.090869421502,4,1,0,75,0,0
129326,-108.433761068376,4,1,0,75,0,0
129405,-107.784405321101,4,1,0,75,0,0
129484,-107.146683810136,4,1,0,75,0,0
129562,-106.508863135046,4,1,0,75,0,0
129641,-105.88240276819,4,1,0,75,0,0
129719,-105.263157894737,4,1,0,80,0,0
133489,-105.263157894737,4,1,0,80,0,0
133646,-106.060622130397,4,1,0,80,0,0
133724,-106.463845942556,4,1,0,80,0,0
133803,-106.870261639775,4,1,0,80,0,0
133881,-107.27967704526,4,1,0,80,0,0
133960,-107.692357396473,4,1,0,80,0,0
134117,-108.527081305233,4,1,0,80,0,0
134196,-108.949433299523,4,1,0,80,0,0
134274,-109.374965820323,4,1,0,80,0,0
134353,-109.803956016927,4,1,0,80,0,0
134431,-110.236203112409,4,1,0,80,0,0
134510,-110.680686220255,4,1,0,80,0,0
134588,-111.111111111111,4,1,0,80,0,0
139143,-111.111111111111,4,1,0,80,0,0
139222,-110.344827586207,4,1,0,80,0,0
139300,-109.58904109589,4,1,0,80,0,0
139379,-108.843537414966,4,1,0,80,0,0
139457,-108.108108108108,4,1,0,80,0,0
139536,-107.38255033557,4,1,0,80,0,0
139614,-106.666666666667,4,1,0,80,0,0
139693,-105.960264900662,4,1,0,80,0,0
139771,-105.263157894737,4,1,0,80,0,0
143541,-105.263157894737,4,1,0,80,0,0
143698,-106.659271623834,4,1,0,80,0,0
143855,-108.092916671171,4,1,0,80,0,0
143934,-108.824348795097,4,1,0,80,0,0
144012,-109.565747117873,4,1,0,80,0,0
144169,-111.079145001605,4,1,0,80,0,0
144326,-112.634936654112,4,1,0,80,0,0
144405,-113.429355063373,4,1,0,80,0,0
144484,-114.234928700269,4,1,0,80,0,0
144641,-115.881166181704,4,1,0,80,0,0
144798,-117.575406987271,4,1,0,80,0,0
152337,-117.647058823529,4,1,0,80,0,0
152494,-117.216117216117,4,1,0,80,0,0
152651,-116.788321167883,4,1,0,80,0,0
152808,-116.363636363636,4,1,0,80,0,0
153122,-115.523465703971,4,1,0,80,0,0
153279,-115.107913669065,4,1,0,80,0,0
153436,-114.695340501792,4,1,0,80,0,0
153751,-113.879003558719,4,1,0,80,0,0
153908,-113.475177304965,4,1,0,80,0,0
154065,-113.074204946996,4,1,0,80,0,0
154222,-112.676056338028,4,1,0,80,0,0
154379,-112.280701754386,4,1,0,80,0,0
154457,-112.084000233135,4,1,0,80,0,0
154536,-111.888111888112,4,1,0,80,0,0
154614,-111.69290705363,4,1,0,80,0,0
154693,-111.498257839721,4,1,0,80,0,0
154771,-111.296605453534,4,1,0,80,0,0
154850,-111.111111111111,4,1,0,80,0,0
163646,-111.111111111111,4,1,0,80,0,0
163960,-112.810666474136,4,1,0,80,0,0
164012,-113.099014794482,4,1,0,80,0,0
164065,-113.388840950607,4,1,0,80,0,0
164117,-113.680156332951,4,1,0,80,0,0
164169,-113.972972449313,4,1,0,80,0,0
164222,-114.267300926365,4,1,0,80,0,0
164274,-114.563153511189,4,1,0,80,0,0
164431,-115.459841912384,4,1,0,80,0,0
164588,-116.370813269066,4,1,0,80,0,0
164693,-116.986155858316,4,1,0,80,0,0
164798,-117.608040626522,4,1,0,80,0,0
164902,-105.231920629877,4,1,0,80,0,0
168672,-133.333333333333,4,1,0,80,0,0
169929,-90.9090909090909,4,1,0,90,0,1
194274,-133.333333333333,4,1,0,80,0,0
195059,-111.111111111111,4,1,0,80,0,0
205112,-117.647058823529,4,1,0,80,0,0
213908,-117.647058823529,4,1,0,80,0,0
214065,-115.107913669065,4,1,0,80,0,0
214143,-113.879003558719,4,1,0,80,0,0
214222,-112.676056338028,4,1,0,80,0,0
214300,-111.507582515611,4,1,0,80,0,0
214379,-110.344827586207,4,1,0,80,0,0
214457,-109.215017064846,4,1,0,80,0,0
214536,-108.108108108108,4,1,0,80,0,0
214614,-107.020547945205,4,1,0,80,0,0
214693,-105.960264900662,4,1,0,80,0,0
214771,-104.918032786885,4,1,0,80,0,0
214850,-103.896103896104,4,1,0,80,0,0
214929,-102.893890675241,4,1,0,80,0,0
215007,-101.910828025478,4,1,0,80,0,0
215086,-100.948919846558,4,1,0,80,0,0
215164,-100,4,1,0,80,0,0
215792,-106.666666666667,4,1,0,65,0,0
216421,-114.285714285714,4,1,0,65,0,0
217049,-123.076923076923,4,1,0,65,0,0
217677,-133.333333333333,4,1,0,65,0,0
219405,-133.333333333333,4,1,0,65,0,0
219484,-130.434725897945,4,1,0,65,0,0
219562,-127.659628791331,4,1,0,65,0,0
219667,-124.137862544628,4,1,0,65,0,0
219771,-120.805336696554,4,1,0,65,0,0
219876,-117.647058823529,4,1,0,65,0,0
220190,-117.647058823529,4,1,0,75,0,0
222703,-117.647058823529,4,1,0,80,0,0
223018,-115.114406452853,4,1,0,80,0,0
223175,-113.888471297827,4,1,0,80,0,0
223332,-112.688372701016,4,1,0,80,0,0
223489,-111.513426774151,4,1,0,80,0,0
223646,-110.362607382817,4,1,0,80,0,0
223803,-109.235298294291,4,1,0,80,0,0
223960,-108.1309032715,4,1,0,80,0,0
224117,-107.048501535076,4,1,0,80,0,0
224274,-105.987667275036,4,1,0,80,0,0
224431,-104.947541971146,4,1,0,80,0,0
224588,-103.927633110512,4,1,0,80,0,0
224745,-102.927462899796,4,1,0,80,0,0
224902,-101.946255972776,4,1,0,80,0,0
225059,-100.983580069881,4,1,0,80,0,0
225138,-100.509078482514,4,1,0,80,0,0
225217,-100.039015215934,4,1,0,80,0,0
230243,-100,4,1,0,90,0,1
259614,-100,4,1,0,80,0,0
260400,-100,4,1,0,90,0,1
279091,-100,4,1,0,90,0,1
279248,-98.7343246917761,4,1,0,90,0,1
279326,-98.1134741196278,4,1,0,90,0,1
279405,-97.5002876258485,4,1,0,90,0,1
279484,-96.8992248062015,4,1,0,90,0,1
279562,-96.2967171486157,4,1,0,90,0,1
279641,-95.7060522593328,4,1,0,90,0,1
279719,-95.1224987538953,4,1,0,90,0,1
279798,-94.5447669471495,4,1,0,90,0,1
279876,-93.97657164069,4,1,0,90,0,1
279955,-93.4139433388385,4,1,0,90,0,1
280033,-92.8579255168008,4,1,0,90,0,1
280112,-92.3085727894635,4,1,0,90,0,1
280347,-90.6986699947032,4,1,0,90,0,1
280504,-89.6562668385676,4,1,0,90,0,1
280583,-89.1440389381162,4,1,0,90,0,1
280662,-88.6375521853588,4,1,0,90,0,1
280740,-88.1368659764375,4,1,0,90,0,1
280819,-87.6417276287917,4,1,0,90,0,1
280897,-87.1521973683522,4,1,0,90,0,1
280976,-86.6680302436758,4,1,0,90,0,1
281054,-86.1920358558869,4,1,0,90,0,1
281133,-85.7157306366022,4,1,0,90,0,1
281290,-84.7841311237458,4,1,0,90,0,1
281447,-100,4,1,0,80,0,0
281604,-83.3333333333333,4,1,0,90,0,1
281761,-84,4,1,0,80,0,1
282075,-84.6774193548387,4,1,0,80,0,1
282389,-85.3658536585366,4,1,0,80,0,1
282703,-86.0655737704918,4,1,0,80,0,1
283017,-86.7768595041322,4,1,0,80,0,1
283331,-87.5,4,1,0,80,0,1
283645,-88.2352941176471,4,1,0,80,0,1
283959,-88.9830508474576,4,1,0,80,0,1
284274,-89.7435897435897,4,1,0,80,0,1
284588,-90.5172413793103,4,1,0,80,0,1
284902,-91.304347826087,4,1,0,80,0,1
285216,-92.1052631578947,4,1,0,80,0,1
285530,-92.9203539823009,4,1,0,80,0,1
285844,-93.75,4,1,0,80,0,1
286158,-94.5945945945946,4,1,0,80,0,1
286473,-95.4545454545455,4,1,0,80,0,1
286787,-96.3302752293578,4,1,0,80,0,1
287101,-97.2222222222222,4,1,0,80,0,1
287415,-98.1308411214953,4,1,0,80,0,1
287729,-99.0566037735849,4,1,0,80,0,1
288043,-100,4,1,0,80,0,1
288201,-97.5843006377134,4,1,0,80,0,1
288253,-97.7326035965598,4,1,0,80,0,1
288306,-97.8856695379796,4,1,0,80,0,1
288358,-97.9930052592846,4,1,0,80,0,1
288515,-98.4051477700901,4,1,0,80,0,1
288751,-99.030001138845,4,1,0,80,0,1
289104,-99.9822031678361,4,1,0,80,0,1
289457,-100,4,1,0,80,0,0

[HitObjects]
256,192,1552,5,0,0:0:0:0:
256,192,1866,1,0,0:0:0:0:
256,192,2180,1,0,0:0:0:0:
256,192,2494,1,0,0:0:0:0:
256,192,2808,1,2,0:0:0:0:
256,192,3122,1,2,0:0:0:0:
256,192,3436,1,2,0:0:0:0:
256,192,3593,1,0,0:0:0:0:
256,192,3646,1,0,0:0:0:0:
256,192,3698,1,0,0:0:0:0:
256,192,3751,1,2,0:0:0:0:
256,192,4065,1,4,0:0:0:0:
256,192,4222,1,4,0:0:0:0:
256,192,4379,1,4,0:0:0:0:
256,192,6107,1,0,0:0:0:0:
256,192,6264,1,2,0:0:0:0:
256,192,6578,1,4,0:0:0:0:
256,192,6735,1,4,0:0:0:0:
256,192,6892,1,4,0:0:0:0:
256,192,7834,1,2,0:0:0:0:
256,192,7991,1,0,0:0:0:0:
256,192,8148,1,0,0:0:0:0:
256,192,8306,1,2,0:0:0:0:
256,192,8463,1,0,0:0:0:0:
256,192,8620,1,0,0:0:0:0:
256,192,8777,1,2,0:0:0:0:
256,192,8934,1,0,0:0:0:0:
256,192,9091,1,4,0:0:0:0:
256,192,9248,1,4,0:0:0:0:
256,192,9405,1,4,0:0:0:0:
256,192,10347,1,0,0:0:0:0:
256,192,10976,1,2,0:0:0:0:
256,192,11080,1,2,0:0:0:0:
256,192,11185,1,2,0:0:0:0:
256,192,11290,1,2,0:0:0:0:
256,192,11395,1,2,0:0:0:0:
256,192,11499,1,2,0:0:0:0:
256,192,11604,1,4,0:0:0:0:
256,192,11761,1,4,0:0:0:0:
256,192,11918,1,4,0:0:0:0:
256,192,12232,1,4,0:0:0:0:
256,192,12389,1,4,0:0:0:0:
256,192,12546,1,4,0:0:0:0:
256,192,12860,1,4,0:0:0:0:
256,192,13018,1,2,0:0:0:0:
256,192,13096,1,2,0:0:0:0:
256,192,13175,1,2,0:0:0:0:
256,192,13332,1,0,0:0:0:0:
256,192,13489,1,0,0:0:0:0:
256,192,13567,1,0,0:0:0:0:
256,192,13646,1,0,0:0:0:0:
256,192,13724,1,0,0:0:0:0:
256,192,13803,1,6,0:0:0:0:
256,192,14117,1,4,0:0:0:0:
256,192,14274,1,4,0:0:0:0:
256,192,14431,1,4,0:0:0:0:
256,192,14745,1,0,0:0:0:0:
256,192,14902,1,0,0:0:0:0:
256,192,15059,1,2,0:0:0:0:
256,192,15217,1,2,0:0:0:0:
256,192,15374,1,0,0:0:0:0:
256,192,15531,1,0,0:0:0:0:
256,192,15688,1,2,0:0:0:0:
256,192,15845,1,0,0:0:0:0:
256,192,16002,1,0,0:0:0:0:
256,192,16159,1,0,0:0:0:0:
256,192,16316,1,2,0:0:0:0:
256,192,16630,1,2,0:0:0:0:
256,192,16787,1,2,0:0:0:0:
256,192,16944,1,2,0:0:0:0:
256,192,17258,1,0,0:0:0:0:
256,192,17415,1,0,0:0:0:0:
256,192,17573,1,2,0:0:0:0:
256,192,17730,1,2,0:0:0:0:
256,192,17887,1,0,0:0:0:0:
256,192,18044,1,0,0:0:0:0:
256,192,18201,1,2,0:0:0:0:
256,192,18358,1,0,0:0:0:0:
256,192,18515,1,0,0:0:0:0:
256,192,18672,1,0,0:0:0:0:
256,192,18829,1,6,0:0:0:0:
256,192,19143,1,4,0:0:0:0:
256,192,19300,1,4,0:0:0:0:
256,192,19457,1,4,0:0:0:0:
256,192,19771,1,0,0:0:0:0:
256,192,19929,1,0,0:0:0:0:
256,192,20086,1,2,0:0:0:0:
256,192,20243,1,0,0:0:0:0:
256,192,20400,1,0,0:0:0:0:
256,192,20557,1,0,0:0:0:0:
256,192,20714,1,2,0:0:0:0:
256,192,20871,1,2,0:0:0:0:
256,192,21028,1,0,0:0:0:0:
256,192,21185,1,0,0:0:0:0:
256,192,21342,1,6,0:0:0:0:
256,192,21499,1,2,0:0:0:0:
256,192,21656,1,4,0:0:0:0:
256,192,21970,1,0,0:0:0:0:
256,192,22128,1,2,0:0:0:0:
256,192,22285,1,0,0:0:0:0:
256,192,22442,1,0,0:0:0:0:
256,192,22599,1,2,0:0:0:0:
256,192,22756,1,2,0:0:0:0:
256,192,22913,1,0,0:0:0:0:
256,192,23070,1,2,0:0:0:0:
256,192,23148,1,2,0:0:0:0:
256,192,23227,1,0,0:0:0:0:
256,192,23306,1,0,0:0:0:0:
256,192,23384,1,2,0:0:0:0:
256,192,23463,1,2,0:0:0:0:
256,192,23541,1,0,0:0:0:0:
256,192,23698,1,2,0:0:0:0:
256,192,23777,1,2,0:0:0:0:
256,192,23855,1,0,0:0:0:0:
256,192,23934,1,2,0:0:0:0:
256,192,24012,1,0,0:0:0:0:
256,192,24091,1,0,0:0:0:0:
256,192,24169,1,6,0:0:0:0:
256,192,24484,1,0,0:0:0:0:
256,192,24641,1,2,0:0:0:0:
256,192,24798,1,0,0:0:0:0:
256,192,24955,1,0,0:0:0:0:
256,192,25112,1,2,0:0:0:0:
256,192,25426,1,0,0:0:0:0:
256,192,25583,1,0,0:0:0:0:
256,192,25740,1,2,0:0:0:0:
256,192,25897,1,2,0:0:0:0:
256,192,26054,1,0,0:0:0:0:
256,192,26211,1,0,0:0:0:0:
256,192,26368,1,2,0:0:0:0:
256,192,26682,1,0,0:0:0:0:
256,192,26840,1,2,0:0:0:0:
256,192,26997,1,2,0:0:0:0:
256,192,27154,1,0,0:0:0:0:
256,192,27311,1,2,0:0:0:0:
256,192,27625,1,0,0:0:0:0:
256,192,27782,1,2,0:0:0:0:
256,192,27939,1,0,0:0:0:0:
256,192,28096,1,0,0:0:0:0:
256,192,28175,1,0,0:0:0:0:
256,192,28253,1,2,0:0:0:0:
256,192,28410,1,2,0:0:0:0:
256,192,28567,1,0,0:0:0:0:
256,192,28724,1,2,0:0:0:0:
256,192,28803,1,2,0:0:0:0:
256,192,28881,1,0,0:0:0:0:
256,192,29196,1,0,0:0:0:0:
256,192,29353,1,2,0:0:0:0:
256,192,29510,1,2,0:0:0:0:
256,192,29667,1,0,0:0:0:0:
256,192,29824,1,2,0:0:0:0:
256,192,30138,1,0,0:0:0:0:
256,192,30295,1,2,0:0:0:0:
256,192,30452,1,0,0:0:0:0:
256,192,30609,1,2,0:0:0:0:
256,192,30766,1,2,0:0:0:0:
256,192,30923,1,0,0:0:0:0:
256,192,31080,1,2,0:0:0:0:
256,192,31237,1,0,0:0:0:0:
256,192,31395,1,0,0:0:0:0:
256,192,31709,1,0,0:0:0:0:
256,192,31866,1,2,0:0:0:0:
256,192,32023,1,2,0:0:0:0:
256,192,32180,1,0,0:0:0:0:
256,192,32337,1,2,0:0:0:0:
256,192,32651,1,0,0:0:0:0:
256,192,32808,1,6,0:0:0:0:
256,192,32965,1,0,0:0:0:0:
256,192,33122,1,2,0:0:0:0:
256,192,33201,1,2,0:0:0:0:
256,192,33279,1,2,0:0:0:0:
256,192,33436,1,2,0:0:0:0:
256,192,33593,1,0,0:0:0:0:
256,192,33751,1,2,0:0:0:0:
256,192,33829,1,2,0:0:0:0:
256,192,33908,1,2,0:0:0:0:
256,192,34222,1,0,0:0:0:0:
256,192,34379,1,2,0:0:0:0:
256,192,34536,1,2,0:0:0:0:
256,192,34693,1,0,0:0:0:0:
256,192,34850,1,2,0:0:0:0:
256,192,35164,1,0,0:0:0:0:
256,192,35321,1,2,0:0:0:0:
256,192,35478,1,0,0:0:0:0:
256,192,35635,1,2,0:0:0:0:
256,192,35792,1,2,0:0:0:0:
256,192,35949,1,2,0:0:0:0:
256,192,36107,1,0,0:0:0:0:
256,192,36264,1,2,0:0:0:0:
256,192,36421,1,0,0:0:0:0:
256,192,36735,1,0,0:0:0:0:
256,192,36892,1,2,0:0:0:0:
256,192,37049,1,2,0:0:0:0:
256,192,37206,1,0,0:0:0:0:
256,192,37363,1,2,0:0:0:0:
256,192,37677,1,0,0:0:0:0:
256,192,37834,1,2,0:0:0:0:
256,192,37991,1,0,0:0:0:0:
256,192,38148,1,0,0:0:0:0:
256,192,38227,1,0,0:0:0:0:
256,192,38306,1,2,0:0:0:0:
256,192,38463,1,2,0:0:0:0:
256,192,38620,1,0,0:0:0:0:
256,192,38777,1,0,0:0:0:0:
256,192,38934,1,2,0:0:0:0:
256,192,39248,1,0,0:0:0:0:
256,192,39405,1,2,0:0:0:0:
256,192,39562,1,2,0:0:0:0:
256,192,39719,1,0,0:0:0:0:
256,192,39876,1,2,0:0:0:0:
256,192,40190,1,0,0:0:0:0:
256,192,40347,1,2,0:0:0:0:
256,192,40504,1,0,0:0:0:0:
256,192,40662,1,2,0:0:0:0:
256,192,40819,1,2,0:0:0:0:
256,192,40976,1,0,0:0:0:0:
256,192,41133,1,2,0:0:0:0:
256,192,41290,1,0,0:0:0:0:
256,192,41447,1,2,0:0:0:0:
256,192,41761,1,2,0:0:0:0:
256,192,41840,1,2,0:0:0:0:
256,192,41918,1,0,0:0:0:0:
256,192,41997,1,0,0:0:0:0:
256,192,42075,1,2,0:0:0:0:
256,192,42154,1,0,0:0:0:0:
256,192,42232,1,0,0:0:0:0:
256,192,42311,1,0,0:0:0:0:
256,192,42389,1,2,0:0:0:0:
256,192,42546,1,2,0:0:0:0:
256,192,42860,1,6,0:0:0:0:
256,192,43175,1,2,0:0:0:0:
256,192,43253,1,2,0:0:0:0:
256,192,43332,1,0,0:0:0:0:
256,192,43410,1,0,0:0:0:0:
256,192,43489,1,0,0:0:0:0:
256,192,43646,1,2,0:0:0:0:
256,192,43803,1,2,0:0:0:0:
256,192,43960,1,2,0:0:0:0:
256,192,44117,1,4,0:0:0:0:
256,192,44431,1,0,0:0:0:0:
256,192,44588,1,2,0:0:0:0:
256,192,44902,1,2,0:0:0:0:
256,192,45059,1,0,0:0:0:0:
256,192,45217,1,2,0:0:0:0:
256,192,45374,1,0,0:0:0:0:
256,192,45531,1,0,0:0:0:0:
256,192,45688,1,0,0:0:0:0:
256,192,45845,1,2,0:0:0:0:
256,192,46080,1,2,0:0:0:0:
256,192,46159,1,0,0:0:0:0:
256,192,46316,1,0,0:0:0:0:
256,192,46473,1,2,0:0:0:0:
256,192,46630,1,0,0:0:0:0:
256,192,46787,1,2,0:0:0:0:
256,192,47101,1,2,0:0:0:0:
256,192,47258,1,0,0:0:0:0:
256,192,47415,1,2,0:0:0:0:
256,192,47573,1,0,0:0:0:0:
256,192,47730,1,0,0:0:0:0:
256,192,47887,1,2,0:0:0:0:
256,192,48201,1,0,0:0:0:0:
256,192,48358,1,2,0:0:0:0:
256,192,48515,1,0,0:0:0:0:
256,192,48672,1,0,0:0:0:0:
256,192,48751,1,2,0:0:0:0:
256,192,48829,1,0,0:0:0:0:
256,192,48908,1,0,0:0:0:0:
256,192,48986,1,2,0:0:0:0:
256,192,49143,1,0,0:0:0:0:
256,192,49222,1,0,0:0:0:0:
256,192,49300,1,6,0:0:0:0:
256,192,49614,1,2,0:0:0:0:
256,192,49929,1,0,0:0:0:0:
256,192,50086,1,0,0:0:0:0:
256,192,50243,1,2,0:0:0:0:
256,192,50400,1,0,0:0:0:0:
256,192,50557,1,0,0:0:0:0:
256,192,50714,1,0,0:0:0:0:
256,192,50871,1,2,0:0:0:0:
256,192,51107,1,2,0:0:0:0:
256,192,51185,1,0,0:0:0:0:
256,192,51342,1,0,0:0:0:0:
256,192,51499,1,2,0:0:0:0:
256,192,51813,1,0,0:0:0:0:
256,192,52128,1,2,0:0:0:0:
256,192,52285,1,0,0:0:0:0:
256,192,52442,1,0,0:0:0:0:
256,192,52599,1,6,0:0:0:0:
256,192,52756,1,0,0:0:0:0:
256,192,52913,1,6,0:0:0:0:
256,192,53070,1,0,0:0:0:0:
256,192,53227,1,0,0:0:0:0:
256,192,53384,1,2,0:0:0:0:
256,192,53463,1,2,0:0:0:0:
256,192,53541,1,0,0:0:0:0:
256,192,53698,1,2,0:0:0:0:
256,192,53855,1,0,0:0:0:0:
256,192,54012,1,0,0:0:0:0:
256,192,54169,1,4,0:0:0:0:
256,192,54484,1,0,0:0:0:0:
256,192,54641,1,2,0:0:0:0:
256,192,54955,1,2,0:0:0:0:
256,192,55112,1,0,0:0:0:0:
256,192,55269,1,2,0:0:0:0:
256,192,55426,1,0,0:0:0:0:
256,192,55583,1,0,0:0:0:0:
256,192,55740,1,0,0:0:0:0:
256,192,55897,1,2,0:0:0:0:
256,192,56133,1,2,0:0:0:0:
256,192,56211,1,0,0:0:0:0:
256,192,56368,1,0,0:0:0:0:
256,192,56525,1,2,0:0:0:0:
256,192,56682,1,0,0:0:0:0:
256,192,56840,1,2,0:0:0:0:
256,192,56997,1,0,0:0:0:0:
256,192,57154,1,2,0:0:0:0:
256,192,57311,1,2,0:0:0:0:
256,192,57468,1,0,0:0:0:0:
256,192,57625,1,0,0:0:0:0:
256,192,57782,1,2,0:0:0:0:
256,192,57939,1,0,0:0:0:0:
256,192,58253,1,0,0:0:0:0:
256,192,58410,1,2,0:0:0:0:
256,192,58567,1,0,0:0:0:0:
256,192,58724,1,0,0:0:0:0:
256,192,58803,1,2,0:0:0:0:
256,192,58881,1,0,0:0:0:0:
256,192,58960,1,0,0:0:0:0:
256,192,59038,1,2,0:0:0:0:
256,192,59274,1,2,0:0:0:0:
256,192,59353,1,4,0:0:0:0:
256,192,59510,1,2,0:0:0:0:
256,192,59667,1,2,0:0:0:0:
256,192,59981,1,0,0:0:0:0:
256,192,60138,1,0,0:0:0:0:
256,192,60295,1,2,0:0:0:0:
256,192,60452,1,0,0:0:0:0:
256,192,60609,1,2,0:0:0:0:
256,192,60766,1,0,0:0:0:0:
256,192,60923,1,2,0:0:0:0:
256,192,61080,1,2,0:0:0:0:
256,192,61159,1,0,0:0:0:0:
256,192,61237,1,0,0:0:0:0:
256,192,61395,1,0,0:0:0:0:
256,192,61552,1,2,0:0:0:0:
256,192,61709,1,0,0:0:0:0:
256,192,61866,1,0,0:0:0:0:
256,192,62180,1,2,0:0:0:0:
256,192,62337,1,2,0:0:0:0:
256,192,62494,1,0,0:0:0:0:
256,192,62651,1,6,0:0:0:0:
256,192,62808,1,0,0:0:0:0:
256,192,62965,1,6,0:0:0:0:
256,192,63122,1,0,0:0:0:0:
256,192,63279,1,0,0:0:0:0:
256,192,63436,1,2,0:0:0:0:
256,192,63515,1,2,0:0:0:0:
256,192,63593,1,0,0:0:0:0:
256,192,63751,1,2,0:0:0:0:
256,192,63908,1,0,0:0:0:0:
256,192,63986,1,0,0:0:0:0:
256,192,64065,1,0,0:0:0:0:
256,192,64222,1,2,0:0:0:0:
256,192,64379,1,4,0:0:0:0:
256,192,64536,1,2,0:0:0:0:
256,192,64693,1,2,0:0:0:0:
256,192,64850,1,0,0:0:0:0:
256,192,65007,1,2,0:0:0:0:
256,192,65321,1,2,0:0:0:0:
256,192,65478,1,0,0:0:0:0:
256,192,65635,1,2,0:0:0:0:
256,192,65792,1,0,0:0:0:0:
256,192,65949,1,2,0:0:0:0:
256,192,66107,1,0,0:0:0:0:
256,192,66185,1,0,0:0:0:0:
256,192,66264,1,2,0:0:0:0:
256,192,66421,1,2,0:0:0:0:
256,192,66735,1,2,0:0:0:0:
256,192,66892,1,0,0:0:0:0:
256,192,67049,1,0,0:0:0:0:
256,192,67206,1,2,0:0:0:0:
256,192,67363,1,0,0:0:0:0:
256,192,67520,1,2,0:0:0:0:
256,192,67834,1,0,0:0:0:0:
256,192,67991,1,2,0:0:0:0:
256,192,68148,1,0,0:0:0:0:
256,192,68306,1,2,0:0:0:0:
256,192,68463,1,0,0:0:0:0:
256,192,68620,1,0,0:0:0:0:
256,192,68698,1,0,0:0:0:0:
256,192,68777,1,2,0:0:0:0:
256,192,68986,1,2,0:0:0:0:
256,192,69196,1,2,0:0:0:0:
256,192,69405,1,0,0:0:0:0:
256,192,69562,1,0,0:0:0:0:
256,192,69719,1,2,0:0:0:0:
256,192,69876,1,0,0:0:0:0:
256,192,70033,1,2,0:0:0:0:
256,192,70347,1,0,0:0:0:0:
256,192,70504,1,2,0:0:0:0:
256,192,70819,1,2,0:0:0:0:
256,192,70976,1,0,0:0:0:0:
256,192,71133,1,0,0:0:0:0:
256,192,71211,1,0,0:0:0:0:
256,192,71290,1,2,0:0:0:0:
256,192,71447,1,0,0:0:0:0:
256,192,71499,1,0,0:0:0:0:
256,192,71552,1,0,0:0:0:0:
256,192,71604,1,2,0:0:0:0:
256,192,71918,1,6,0:0:0:0:
256,192,72075,1,2,0:0:0:0:
256,192,72232,1,0,0:0:0:0:
256,192,72389,1,2,0:0:0:0:
256,192,72703,1,2,0:0:0:0:
256,192,72860,1,0,0:0:0:0:
256,192,73018,1,2,0:0:0:0:
256,192,73332,1,2,0:0:0:0:
256,192,73489,1,0,0:0:0:0:
256,192,73646,1,2,0:0:0:0:
256,192,73803,1,2,0:0:0:0:
256,192,73960,1,0,0:0:0:0:
256,192,74038,1,0,0:0:0:0:
256,192,74117,1,0,0:0:0:0:
256,192,74196,1,0,0:0:0:0:
256,192,74274,1,2,0:0:0:0:
256,192,74353,1,2,0:0:0:0:
256,192,74431,1,4,0:0:0:0:
256,192,74588,1,2,0:0:0:0:
256,192,74745,1,2,0:0:0:0:
256,192,74902,1,0,0:0:0:0:
256,192,75059,1,2,0:0:0:0:
256,192,75374,1,2,0:0:0:0:
256,192,75531,1,0,0:0:0:0:
256,192,75688,1,2,0:0:0:0:
256,192,75845,1,0,0:0:0:0:
256,192,76002,1,2,0:0:0:0:
256,192,76159,1,2,0:0:0:0:
256,192,76316,1,0,0:0:0:0:
256,192,76473,1,0,0:0:0:0:
256,192,76630,1,6,0:0:0:0:
256,192,76944,1,0,0:0:0:0:
256,192,77101,1,0,0:0:0:0:
256,192,77258,1,2,0:0:0:0:
256,192,77415,1,0,0:0:0:0:
256,192,77573,1,2,0:0:0:0:
256,192,77887,1,0,0:0:0:0:
256,192,78044,1,2,0:0:0:0:
256,192,78201,1,0,0:0:0:0:
256,192,78358,1,0,0:0:0:0:
256,192,78515,1,2,0:0:0:0:
256,192,78672,1,2,0:0:0:0:
256,192,78829,1,0,0:0:0:0:
256,192,78986,1,0,0:0:0:0:
256,192,79143,1,6,0:0:0:0:
256,192,79457,1,0,0:0:0:0:
256,192,79614,1,0,0:0:0:0:
256,192,79771,1,2,0:0:0:0:
256,192,79929,1,0,0:0:0:0:
256,192,80007,1,0,0:0:0:0:
256,192,80086,1,2,0:0:0:0:
256,192,80243,1,0,0:0:0:0:
256,192,80321,1,0,0:0:0:0:
256,192,80400,1,2,0:0:0:0:
256,192,80714,1,0,0:0:0:0:
256,192,80871,1,0,0:0:0:0:
256,192,81028,1,2,0:0:0:0:
256,192,81185,1,0,0:0:0:0:
256,192,81264,1,0,0:0:0:0:
256,192,81342,1,2,0:0:0:0:
256,192,81499,1,0,0:0:0:0:
256,192,81578,1,0,0:0:0:0:
256,192,81656,1,2,0:0:0:0:
256,192,81970,1,0,0:0:0:0:
256,192,82128,1,0,0:0:0:0:
256,192,82285,1,2,0:0:0:0:
256,192,82442,1,0,0:0:0:0:
256,192,82599,1,2,0:0:0:0:
256,192,82677,1,2,0:0:0:0:
256,192,82756,1,0,0:0:0:0:
256,192,82834,1,0,0:0:0:0:
256,192,82913,1,2,0:0:0:0:
256,192,83070,1,0,0:0:0:0:
256,192,83227,1,2,0:0:0:0:
256,192,83384,1,0,0:0:0:0:
256,192,83436,1,0,0:0:0:0:
256,192,83489,1,0,0:0:0:0:
256,192,83541,1,2,0:0:0:0:
256,192,83698,1,0,0:0:0:0:
256,192,83751,1,0,0:0:0:0:
256,192,83803,1,0,0:0:0:0:
256,192,83855,1,2,0:0:0:0:
256,192,84012,1,0,0:0:0:0:
256,192,84065,1,0,0:0:0:0:
256,192,84117,1,0,0:0:0:0:
256,192,84169,1,2,0:0:0:0:
256,192,84484,1,4,0:0:0:0:
256,192,84641,1,4,0:0:0:0:
256,192,84798,1,4,0:0:0:0:
256,192,84955,1,4,0:0:0:0:
256,192,85112,1,4,0:0:0:0:
256,192,85426,1,4,0:0:0:0:
256,192,85583,1,6,0:0:0:0:
256,192,85897,1,6,0:0:0:0:
256,192,86054,1,4,0:0:0:0:
256,192,86368,1,4,0:0:0:0:
256,192,86525,1,6,0:0:0:0:
256,192,86682,1,6,0:0:0:0:
256,192,86840,1,6,0:0:0:0:
256,192,86997,1,6,0:0:0:0:
256,192,87311,1,6,0:0:0:0:
256,192,87468,1,4,0:0:0:0:
256,192,87782,1,4,0:0:0:0:
256,192,87939,1,6,0:0:0:0:
256,192,88881,1,0,0:0:0:0:
256,192,89196,1,0,0:0:0:0:
256,192,89510,1,6,0:0:0:0:
256,192,89824,1,0,0:0:0:0:
256,192,89981,1,0,0:0:0:0:
256,192,90138,1,2,0:0:0:0:
256,192,90295,1,0,0:0:0:0:
256,192,90452,1,2,0:0:0:0:
256,192,90609,1,0,0:0:0:0:
256,192,90688,1,2,0:0:0:0:
256,192,90766,1,2,0:0:0:0:
256,192,90923,1,2,0:0:0:0:
256,192,91080,1,0,0:0:0:0:
256,192,91237,1,2,0:0:0:0:
256,192,91395,1,0,0:0:0:0:
256,192,91552,1,0,0:0:0:0:
256,192,91709,1,2,0:0:0:0:
256,192,92023,1,0,0:0:0:0:
256,192,92180,1,0,0:0:0:0:
256,192,92337,1,2,0:0:0:0:
256,192,92494,1,2,0:0:0:0:
256,192,92651,1,0,0:0:0:0:
256,192,92808,1,0,0:0:0:0:
256,192,92965,1,2,0:0:0:0:
256,192,93122,1,0,0:0:0:0:
256,192,93201,1,2,0:0:0:0:
256,192,93279,1,2,0:0:0:0:
256,192,93436,1,2,0:0:0:0:
256,192,93593,1,0,0:0:0:0:
256,192,93751,1,2,0:0:0:0:
256,192,93908,1,2,0:0:0:0:
256,192,94222,1,2,0:0:0:0:
256,192,94379,1,0,0:0:0:0:
256,192,94536,1,2,0:0:0:0:
256,192,94693,1,2,0:0:0:0:
256,192,94850,1,0,0:0:0:0:
256,192,95007,1,2,0:0:0:0:
256,192,95164,1,0,0:0:0:0:
256,192,95321,1,0,0:0:0:0:
256,192,95478,1,2,0:0:0:0:
256,192,95792,1,0,0:0:0:0:
256,192,95949,1,0,0:0:0:0:
256,192,96107,1,2,0:0:0:0:
256,192,96264,1,0,0:0:0:0:
256,192,96421,1,2,0:0:0:0:
256,192,96578,1,2,0:0:0:0:
256,192,96735,1,0,0:0:0:0:
256,192,96892,1,0,0:0:0:0:
256,192,97049,1,2,0:0:0:0:
256,192,97363,1,2,0:0:0:0:
256,192,97520,1,0,0:0:0:0:
256,192,97677,1,2,0:0:0:0:
256,192,97834,1,2,0:0:0:0:
256,192,97913,1,0,0:0:0:0:
256,192,97991,1,0,0:0:0:0:
256,192,98148,1,0,0:0:0:0:
256,192,98306,1,2,0:0:0:0:
256,192,98463,1,0,0:0:0:0:
256,192,98541,1,0,0:0:0:0:
256,192,98620,1,2,0:0:0:0:
256,192,98777,1,0,0:0:0:0:
256,192,98855,1,0,0:0:0:0:
256,192,98934,1,2,0:0:0:0:
256,192,99091,1,0,0:0:0:0:
256,192,99143,1,0,0:0:0:0:
256,192,99196,1,0,0:0:0:0:
256,192,99248,1,2,0:0:0:0:
256,192,99405,1,0,0:0:0:0:
256,192,99562,1,6,0:0:0:0:
256,192,99876,1,0,0:0:0:0:
256,192,100033,1,2,0:0:0:0:
256,192,100190,1,2,0:0:0:0:
256,192,100347,1,0,0:0:0:0:
256,192,100504,1,2,0:0:0:0:
256,192,100662,1,0,0:0:0:0:
256,192,100740,1,2,0:0:0:0:
256,192,100819,1,2,0:0:0:0:
256,192,100976,1,2,0:0:0:0:
256,192,101133,1,0,0:0:0:0:
256,192,101290,1,2,0:0:0:0:
256,192,101447,1,0,0:0:0:0:
256,192,101604,1,0,0:0:0:0:
256,192,101761,1,2,0:0:0:0:
256,192,102075,1,0,0:0:0:0:
256,192,102389,1,0,0:0:0:0:
256,192,102546,1,2,0:0:0:0:
256,192,102703,1,2,0:0:0:0:
256,192,102860,1,0,0:0:0:0:
256,192,103018,1,2,0:0:0:0:
256,192,103175,1,0,0:0:0:0:
256,192,103253,1,2,0:0:0:0:
256,192,103332,1,2,0:0:0:0:
256,192,103489,1,2,0:0:0:0:
256,192,103646,1,0,0:0:0:0:
256,192,103803,1,2,0:0:0:0:
256,192,103960,1,2,0:0:0:0:
256,192,104274,1,2,0:0:0:0:
256,192,104431,1,0,0:0:0:0:
256,192,104588,1,2,0:0:0:0:
256,192,104745,1,2,0:0:0:0:
256,192,104902,1,0,0:0:0:0:
256,192,105059,1,2,0:0:0:0:
256,192,105217,1,0,0:0:0:0:
256,192,105374,1,0,0:0:0:0:
256,192,105531,1,2,0:0:0:0:
256,192,105845,1,0,0:0:0:0:
256,192,106002,1,0,0:0:0:0:
256,192,106159,1,2,0:0:0:0:
256,192,106316,1,0,0:0:0:0:
256,192,106473,1,2,0:0:0:0:
256,192,106630,1,2,0:0:0:0:
256,192,106787,1,0,0:0:0:0:
256,192,106944,1,0,0:0:0:0:
256,192,107101,1,2,0:0:0:0:
256,192,107415,1,2,0:0:0:0:
256,192,107573,1,0,0:0:0:0:
256,192,107730,1,2,0:0:0:0:
256,192,107887,1,2,0:0:0:0:
256,192,108044,1,0,0:0:0:0:
256,192,108201,1,2,0:0:0:0:
256,192,108358,1,0,0:0:0:0:
256,192,108515,1,2,0:0:0:0:
256,192,108593,1,2,0:0:0:0:
256,192,108672,1,0,0:0:0:0:
256,192,108751,1,0,0:0:0:0:
256,192,108829,1,0,0:0:0:0:
256,192,108908,1,0,0:0:0:0:
256,192,108986,1,2,0:0:0:0:
256,192,109143,1,2,0:0:0:0:
256,192,109222,1,2,0:0:0:0:
256,192,109300,1,0,0:0:0:0:
256,192,109379,1,0,0:0:0:0:
256,192,109457,1,2,0:0:0:0:
256,192,109614,1,4,0:0:0:0:
256,192,109771,1,0,0:0:0:0:
256,192,109929,1,2,0:0:0:0:
256,192,110086,1,0,0:0:0:0:
256,192,110243,1,2,0:0:0:0:
256,192,110400,1,0,0:0:0:0:
256,192,110557,1,2,0:0:0:0:
256,192,110714,1,0,0:0:0:0:
256,192,110871,1,4,0:0:0:0:
256,192,111028,1,0,0:0:0:0:
256,192,111185,1,2,0:0:0:0:
256,192,111342,1,0,0:0:0:0:
256,192,111499,1,2,0:0:0:0:
256,192,111656,1,0,0:0:0:0:
256,192,111735,1,0,0:0:0:0:
256,192,111813,1,2,0:0:0:0:
256,192,111970,1,0,0:0:0:0:
256,192,112128,1,4,0:0:0:0:
256,192,112285,1,0,0:0:0:0:
256,192,112442,1,6,0:0:0:0:
256,192,112599,1,0,0:0:0:0:
256,192,112756,1,2,0:0:0:0:
256,192,112913,1,0,0:0:0:0:
256,192,112991,1,0,0:0:0:0:
256,192,113070,1,2,0:0:0:0:
256,192,113227,1,0,0:0:0:0:
256,192,113306,1,0,0:0:0:0:
256,192,113384,1,6,0:0:0:0:
256,192,113541,1,6,0:0:0:0:
256,192,113698,1,6,0:0:0:0:
256,192,114641,1,4,0:0:0:0:
256,192,114798,1,2,0:0:0:0:
256,192,114955,1,2,0:0:0:0:
256,192,115112,1,0,0:0:0:0:
256,192,115269,1,2,0:0:0:0:
256,192,115583,1,0,0:0:0:0:
256,192,115740,1,2,0:0:0:0:
256,192,115897,1,0,0:0:0:0:
256,192,116054,1,2,0:0:0:0:
256,192,116211,1,2,0:0:0:0:
256,192,116368,1,2,0:0:0:0:
256,192,116526,1,0,0:0:0:0:
256,192,116683,1,2,0:0:0:0:
256,192,116840,1,0,0:0:0:0:
256,192,117154,1,0,0:0:0:0:
256,192,117311,1,2,0:0:0:0:
256,192,117468,1,2,0:0:0:0:
256,192,117625,1,0,0:0:0:0:
256,192,117782,1,2,0:0:0:0:
256,192,118096,1,0,0:0:0:0:
256,192,118253,1,2,0:0:0:0:
256,192,118410,1,0,0:0:0:0:
256,192,118567,1,0,0:0:0:0:
256,192,118646,1,0,0:0:0:0:
256,192,118725,1,2,0:0:0:0:
256,192,118882,1,2,0:0:0:0:
256,192,119039,1,0,0:0:0:0:
256,192,119196,1,0,0:0:0:0:
256,192,119353,1,2,0:0:0:0:
256,192,119667,1,0,0:0:0:0:
256,192,119824,1,2,0:0:0:0:
256,192,119981,1,2,0:0:0:0:
256,192,120138,1,0,0:0:0:0:
256,192,120295,1,2,0:0:0:0:
256,192,120609,1,2,0:0:0:0:
256,192,120766,1,2,0:0:0:0:
256,192,120923,1,0,0:0:0:0:
256,192,121081,1,2,0:0:0:0:
256,192,121238,1,2,0:0:0:0:
256,192,121395,1,0,0:0:0:0:
256,192,121552,1,2,0:0:0:0:
256,192,121709,1,0,0:0:0:0:
256,192,121866,1,2,0:0:0:0:
256,192,122180,1,2,0:0:0:0:
256,192,122259,1,2,0:0:0:0:
256,192,122337,1,0,0:0:0:0:
256,192,122416,1,0,0:0:0:0:
256,192,122494,1,2,0:0:0:0:
256,192,122573,1,0,0:0:0:0:
256,192,122651,1,0,0:0:0:0:
256,192,122730,1,0,0:0:0:0:
256,192,122808,1,2,0:0:0:0:
256,192,122965,1,2,0:0:0:0:
256,192,123279,1,6,0:0:0:0:
256,192,123594,1,2,0:0:0:0:
256,192,123672,1,2,0:0:0:0:
256,192,123751,1,0,0:0:0:0:
256,192,123829,1,0,0:0:0:0:
256,192,123908,1,0,0:0:0:0:
256,192,124065,1,2,0:0:0:0:
256,192,124222,1,2,0:0:0:0:
256,192,124379,1,2,0:0:0:0:
256,192,124536,1,4,0:0:0:0:
256,192,125007,1,0,0:0:0:0:
256,192,125164,1,0,0:0:0:0:
256,192,125321,1,0,0:0:0:0:
256,192,125478,1,0,0:0:0:0:
256,192,125557,1,0,0:0:0:0:
256,192,125635,1,0,0:0:0:0:
256,192,125792,1,2,0:0:0:0:
256,192,125949,1,0,0:0:0:0:
256,192,126264,1,0,0:0:0:0:
256,192,126421,1,0,0:0:0:0:
256,192,126499,1,0,0:0:0:0:
256,192,126578,1,0,0:0:0:0:
256,192,126735,1,0,0:0:0:0:
256,192,126813,1,0,0:0:0:0:
256,192,126892,1,0,0:0:0:0:
256,192,127049,1,0,0:0:0:0:
256,192,127206,1,2,0:0:0:0:
256,192,127520,1,0,0:0:0:0:
256,192,127677,1,0,0:0:0:0:
256,192,127756,1,0,0:0:0:0:
256,192,127834,1,0,0:0:0:0:
256,192,127991,1,0,0:0:0:0:
256,192,128070,1,0,0:0:0:0:
256,192,128148,1,0,0:0:0:0:
256,192,128306,1,6,0:0:0:0:
256,192,128620,1,6,0:0:0:0:
256,192,128777,1,4,0:0:0:0:
256,192,129091,1,2,0:0:0:0:
256,192,129169,1,2,0:0:0:0:
256,192,129248,1,2,0:0:0:0:
256,192,129326,1,2,0:0:0:0:
256,192,129405,1,0,0:0:0:0:
256,192,129484,1,0,0:0:0:0:
256,192,129562,1,0,0:0:0:0:
256,192,129641,1,0,0:0:0:0:
256,192,129719,1,6,0:0:0:0:
256,192,130033,1,2,0:0:0:0:
256,192,130348,1,0,0:0:0:0:
256,192,130505,1,0,0:0:0:0:
256,192,130662,1,2,0:0:0:0:
256,192,130819,1,0,0:0:0:0:
256,192,130976,1,0,0:0:0:0:
256,192,131133,1,0,0:0:0:0:
256,192,131290,1,2,0:0:0:0:
256,192,131526,1,2,0:0:0:0:
256,192,131604,1,0,0:0:0:0:
256,192,131761,1,0,0:0:0:0:
256,192,131918,1,2,0:0:0:0:
256,192,132232,1,0,0:0:0:0:
256,192,132547,1,2,0:0:0:0:
256,192,132704,1,0,0:0:0:0:
256,192,132861,1,0,0:0:0:0:
256,192,133018,1,2,0:0:0:0:
256,192,133175,1,0,0:0:0:0:
256,192,133332,1,2,0:0:0:0:
256,192,133489,1,4,0:0:0:0:
256,192,133646,1,0,0:0:0:0:
256,192,133724,1,0,0:0:0:0:
256,192,133803,1,2,0:0:0:0:
256,192,133882,1,2,0:0:0:0:
256,192,133960,1,0,0:0:0:0:
256,192,134117,1,2,0:0:0:0:
256,192,134196,1,2,0:0:0:0:
256,192,134274,1,0,0:0:0:0:
256,192,134353,1,2,0:0:0:0:
256,192,134431,1,0,0:0:0:0:
256,192,134510,1,0,0:0:0:0:
256,192,134588,1,6,0:0:0:0:
256,192,134903,1,0,0:0:0:0:
256,192,135060,1,2,0:0:0:0:
256,192,135217,1,2,0:0:0:0:
256,192,135295,1,0,0:0:0:0:
256,192,135374,1,2,0:0:0:0:
256,192,135452,1,0,0:0:0:0:
256,192,135531,1,2,0:0:0:0:
256,192,135688,1,2,0:0:0:0:
256,192,135845,1,0,0:0:0:0:
256,192,135923,1,2,0:0:0:0:
256,192,136002,1,0,0:0:0:0:
256,192,136159,1,0,0:0:0:0:
256,192,136316,1,2,0:0:0:0:
256,192,136552,1,2,0:0:0:0:
256,192,136630,1,0,0:0:0:0:
256,192,136709,1,2,0:0:0:0:
256,192,136787,1,0,0:0:0:0:
256,192,136944,1,2,0:0:0:0:
256,192,137101,1,0,0:0:0:0:
256,192,137259,1,2,0:0:0:0:
256,192,137416,1,0,0:0:0:0:
256,192,137573,1,2,0:0:0:0:
256,192,137730,1,2,0:0:0:0:
256,192,137808,1,0,0:0:0:0:
256,192,137887,1,2,0:0:0:0:
256,192,137965,1,0,0:0:0:0:
256,192,138044,1,2,0:0:0:0:
256,192,138201,1,2,0:0:0:0:
256,192,138358,1,4,0:0:0:0:
256,192,138672,1,0,0:0:0:0:
256,192,138829,1,6,0:0:0:0:
256,192,138986,1,0,0:0:0:0:
256,192,139143,1,0,0:0:0:0:
256,192,139222,1,2,0:0:0:0:
256,192,139300,1,0,0:0:0:0:
256,192,139379,1,0,0:0:0:0:
256,192,139457,1,2,0:0:0:0:
256,192,139536,1,2,0:0:0:0:
256,192,139614,1,2,0:0:0:0:
256,192,139693,1,2,0:0:0:0:
256,192,139772,1,4,0:0:0:0:
256,192,139929,1,2,0:0:0:0:
256,192,140086,1,2,0:0:0:0:
256,192,140400,1,0,0:0:0:0:
256,192,140557,1,0,0:0:0:0:
256,192,140714,1,2,0:0:0:0:
256,192,140871,1,0,0:0:0:0:
256,192,141028,1,2,0:0:0:0:
256,192,141185,1,0,0:0:0:0:
256,192,141342,1,2,0:0:0:0:
256,192,141499,1,2,0:0:0:0:
256,192,141578,1,0,0:0:0:0:
256,192,141656,1,0,0:0:0:0:
256,192,141814,1,0,0:0:0:0:
256,192,141971,1,2,0:0:0:0:
256,192,142128,1,0,0:0:0:0:
256,192,142285,1,0,0:0:0:0:
256,192,142599,1,2,0:0:0:0:
256,192,142756,1,2,0:0:0:0:
256,192,142913,1,0,0:0:0:0:
256,192,143070,1,6,0:0:0:0:
256,192,143227,1,0,0:0:0:0:
256,192,143384,1,6,0:0:0:0:
256,192,143541,1,0,0:0:0:0:
256,192,143698,1,0,0:0:0:0:
256,192,143855,1,2,0:0:0:0:
256,192,143934,1,2,0:0:0:0:
256,192,144012,1,0,0:0:0:0:
256,192,144170,1,2,0:0:0:0:
256,192,144327,1,0,0:0:0:0:
256,192,144405,1,0,0:0:0:0:
256,192,144484,1,0,0:0:0:0:
256,192,144641,1,2,0:0:0:0:
256,192,144798,1,4,0:0:0:0:
256,192,144955,1,2,0:0:0:0:
256,192,145112,1,2,0:0:0:0:
256,192,145269,1,0,0:0:0:0:
256,192,145426,1,2,0:0:0:0:
256,192,145740,1,2,0:0:0:0:
256,192,145897,1,0,0:0:0:0:
256,192,146054,1,2,0:0:0:0:
256,192,146211,1,0,0:0:0:0:
256,192,146368,1,2,0:0:0:0:
256,192,146526,1,0,0:0:0:0:
256,192,146604,1,0,0:0:0:0:
256,192,146683,1,2,0:0:0:0:
256,192,146840,1,2,0:0:0:0:
256,192,147154,1,2,0:0:0:0:
256,192,147311,1,0,0:0:0:0:
256,192,147468,1,0,0:0:0:0:
256,192,147625,1,2,0:0:0:0:
256,192,147782,1,0,0:0:0:0:
256,192,147939,1,2,0:0:0:0:
256,192,148253,1,0,0:0:0:0:
256,192,148410,1,2,0:0:0:0:
256,192,148567,1,0,0:0:0:0:
256,192,148725,1,2,0:0:0:0:
256,192,148882,1,0,0:0:0:0:
256,192,148960,1,2,0:0:0:0:
256,192,149039,1,0,0:0:0:0:
256,192,149196,1,2,0:0:0:0:
256,192,149300,1,2,0:0:0:0:
256,192,149405,1,2,0:0:0:0:
256,192,149510,1,2,0:0:0:0:
256,192,149615,1,2,0:0:0:0:
256,192,149719,1,2,0:0:0:0:
256,192,149824,1,0,0:0:0:0:
256,192,149981,1,0,0:0:0:0:
256,192,150138,1,2,0:0:0:0:
256,192,150295,1,0,0:0:0:0:
256,192,150452,1,2,0:0:0:0:
256,192,150766,1,0,0:0:0:0:
256,192,150923,1,2,0:0:0:0:
256,192,151238,1,2,0:0:0:0:
256,192,151395,1,0,0:0:0:0:
256,192,151552,1,0,0:0:0:0:
256,192,151630,1,0,0:0:0:0:
256,192,151709,1,2,0:0:0:0:
256,192,151866,1,0,0:0:0:0:
256,192,151918,1,0,0:0:0:0:
256,192,151971,1,0,0:0:0:0:
256,192,152023,1,2,0:0:0:0:
256,192,152337,1,6,0:0:0:0:
256,192,152494,1,2,0:0:0:0:
256,192,152651,1,0,0:0:0:0:
256,192,152808,1,2,0:0:0:0:
256,192,153122,1,2,0:0:0:0:
256,192,153279,1,0,0:0:0:0:
256,192,153437,1,2,0:0:0:0:
256,192,153751,1,2,0:0:0:0:
256,192,153908,1,0,0:0:0:0:
256,192,154065,1,2,0:0:0:0:
256,192,154222,1,2,0:0:0:0:
256,192,154379,1,0,0:0:0:0:
256,192,154457,1,0,0:0:0:0:
256,192,154536,1,0,0:0:0:0:
256,192,154615,1,0,0:0:0:0:
256,192,154693,1,2,0:0:0:0:
256,192,154772,1,2,0:0:0:0:
256,192,154850,1,4,0:0:0:0:
256,192,155007,1,2,0:0:0:0:
256,192,155164,1,2,0:0:0:0:
256,192,155321,1,0,0:0:0:0:
256,192,155478,1,2,0:0:0:0:
256,192,155793,1,2,0:0:0:0:
256,192,155950,1,0,0:0:0:0:
256,192,156107,1,2,0:0:0:0:
256,192,156264,1,0,0:0:0:0:
256,192,156421,1,2,0:0:0:0:
256,192,156578,1,2,0:0:0:0:
256,192,156735,1,0,0:0:0:0:
256,192,156892,1,0,0:0:0:0:
256,192,157049,1,6,0:0:0:0:
256,192,157363,1,0,0:0:0:0:
256,192,157520,1,0,0:0:0:0:
256,192,157677,1,2,0:0:0:0:
256,192,157834,1,0,0:0:0:0:
256,192,157992,1,2,0:0:0:0:
256,192,158306,1,0,0:0:0:0:
256,192,158463,1,2,0:0:0:0:
256,192,158620,1,0,0:0:0:0:
256,192,158777,1,0,0:0:0:0:
256,192,158934,1,2,0:0:0:0:
256,192,159091,1,2,0:0:0:0:
256,192,159248,1,0,0:0:0:0:
256,192,159405,1,0,0:0:0:0:
256,192,159562,1,6,0:0:0:0:
256,192,159876,1,0,0:0:0:0:
256,192,160033,1,0,0:0:0:0:
256,192,160190,1,2,0:0:0:0:
256,192,160348,1,0,0:0:0:0:
256,192,160426,1,0,0:0:0:0:
256,192,160505,1,2,0:0:0:0:
256,192,160662,1,0,0:0:0:0:
256,192,160740,1,0,0:0:0:0:
256,192,160819,1,2,0:0:0:0:
256,192,161133,1,0,0:0:0:0:
256,192,161290,1,0,0:0:0:0:
256,192,161447,1,2,0:0:0:0:
256,192,161604,1,0,0:0:0:0:
256,192,161683,1,0,0:0:0:0:
256,192,161761,1,2,0:0:0:0:
256,192,161918,1,0,0:0:0:0:
256,192,161997,1,0,0:0:0:0:
256,192,162075,1,2,0:0:0:0:
256,192,162389,1,0,0:0:0:0:
256,192,162547,1,0,0:0:0:0:
256,192,162704,1,2,0:0:0:0:
256,192,162861,1,0,0:0:0:0:
256,192,162939,1,0,0:0:0:0:
256,192,163018,1,2,0:0:0:0:
256,192,163096,1,2,0:0:0:0:
256,192,163175,1,0,0:0:0:0:
256,192,163253,1,0,0:0:0:0:
256,192,163332,1,2,0:0:0:0:
256,192,163489,1,0,0:0:0:0:
256,192,163541,1,0,0:0:0:0:
256,192,163593,1,0,0:0:0:0:
256,192,163646,1,2,0:0:0:0:
256,192,163960,1,0,0:0:0:0:
256,192,164012,1,2,0:0:0:0:
256,192,164065,1,2,0:0:0:0:
256,192,164117,1,0,0:0:0:0:
256,192,164274,1,0,0:0:0:0:
256,192,164431,1,0,0:0:0:0:
256,192,164588,1,2,0:0:0:0:
256,192,164693,1,2,0:0:0:0:
256,192,164798,1,2,0:0:0:0:
256,192,164903,1,4,0:0:0:0:
256,192,165060,1,4,0:0:0:0:
256,192,165217,1,4,0:0:0:0:
256,192,165374,1,4,0:0:0:0:
256,192,165531,1,4,0:0:0:0:
256,192,165845,1,4,0:0:0:0:
256,192,166002,1,6,0:0:0:0:
256,192,166316,1,6,0:0:0:0:
256,192,166473,1,4,0:0:0:0:
256,192,166787,1,4,0:0:0:0:
256,192,166944,1,6,0:0:0:0:
256,192,167101,1,6,0:0:0:0:
256,192,167259,1,6,0:0:0:0:
256,192,167416,1,6,0:0:0:0:
256,192,167730,1,6,0:0:0:0:
256,192,167887,1,4,0:0:0:0:
256,192,168201,1,4,0:0:0:0:
256,192,168358,1,6,0:0:0:0:
256,192,168829,1,0,0:0:0:0:
256,192,168986,1,2,0:0:0:0:
256,192,169143,1,0,0:0:0:0:
256,192,169300,1,0,0:0:0:0:
256,192,169614,1,0,0:0:0:0:
256,192,169929,1,6,0:0:0:0:
256,192,170243,1,0,0:0:0:0:
256,192,170400,1,0,0:0:0:0:
256,192,170557,1,2,0:0:0:0:
256,192,170714,1,0,0:0:0:0:
256,192,170871,1,2,0:0:0:0:
256,192,171028,1,0,0:0:0:0:
256,192,171107,1,2,0:0:0:0:
256,192,171185,1,2,0:0:0:0:
256,192,171342,1,2,0:0:0:0:
256,192,171499,1,0,0:0:0:0:
256,192,171656,1,2,0:0:0:0:
256,192,171814,1,0,0:0:0:0:
256,192,171971,1,0,0:0:0:0:
256,192,172128,1,2,0:0:0:0:
256,192,172442,1,0,0:0:0:0:
256,192,172599,1,0,0:0:0:0:
256,192,172756,1,2,0:0:0:0:
256,192,172913,1,2,0:0:0:0:
256,192,173070,1,0,0:0:0:0:
256,192,173227,1,0,0:0:0:0:
256,192,173384,1,2,0:0:0:0:
256,192,173541,1,0,0:0:0:0:
256,192,173620,1,2,0:0:0:0:
256,192,173698,1,2,0:0:0:0:
256,192,173855,1,2,0:0:0:0:
256,192,174012,1,0,0:0:0:0:
256,192,174170,1,2,0:0:0:0:
256,192,174327,1,2,0:0:0:0:
256,192,174641,1,2,0:0:0:0:
256,192,174798,1,0,0:0:0:0:
256,192,174955,1,2,0:0:0:0:
256,192,175112,1,2,0:0:0:0:
256,192,175269,1,0,0:0:0:0:
256,192,175426,1,2,0:0:0:0:
256,192,175583,1,0,0:0:0:0:
256,192,175740,1,0,0:0:0:0:
256,192,175897,1,2,0:0:0:0:
256,192,176211,1,0,0:0:0:0:
256,192,176368,1,0,0:0:0:0:
256,192,176526,1,2,0:0:0:0:
256,192,176683,1,0,0:0:0:0:
256,192,176840,1,2,0:0:0:0:
256,192,176997,1,2,0:0:0:0:
256,192,177154,1,0,0:0:0:0:
256,192,177311,1,0,0:0:0:0:
256,192,177468,1,2,0:0:0:0:
256,192,177782,1,2,0:0:0:0:
256,192,177939,1,0,0:0:0:0:
256,192,178096,1,2,0:0:0:0:
256,192,178253,1,2,0:0:0:0:
256,192,178332,1,0,0:0:0:0:
256,192,178410,1,0,0:0:0:0:
256,192,178567,1,0,0:0:0:0:
256,192,178725,1,2,0:0:0:0:
256,192,178882,1,0,0:0:0:0:
256,192,178960,1,0,0:0:0:0:
256,192,179039,1,2,0:0:0:0:
256,192,179196,1,0,0:0:0:0:
256,192,179274,1,0,0:0:0:0:
256,192,179353,1,2,0:0:0:0:
256,192,179510,1,0,0:0:0:0:
256,192,179562,1,0,0:0:0:0:
256,192,179615,1,0,0:0:0:0:
256,192,179667,1,2,0:0:0:0:
256,192,179824,1,0,0:0:0:0:
256,192,179981,1,6,0:0:0:0:
256,192,180295,1,0,0:0:0:0:
256,192,180452,1,2,0:0:0:0:
256,192,180609,1,2,0:0:0:0:
256,192,180766,1,0,0:0:0:0:
256,192,180923,1,0,0:0:0:0:
256,192,181081,1,0,0:0:0:0:
256,192,181159,1,2,0:0:0:0:
256,192,181238,1,2,0:0:0:0:
256,192,181395,1,2,0:0:0:0:
256,192,181552,1,0,0:0:0:0:
256,192,181709,1,2,0:0:0:0:
256,192,181866,1,0,0:0:0:0:
256,192,182023,1,0,0:0:0:0:
256,192,182180,1,2,0:0:0:0:
256,192,182494,1,0,0:0:0:0:
256,192,182808,1,0,0:0:0:0:
256,192,182965,1,2,0:0:0:0:
256,192,183122,1,2,0:0:0:0:
256,192,183279,1,0,0:0:0:0:
256,192,183437,1,2,0:0:0:0:
256,192,183594,1,0,0:0:0:0:
256,192,183672,1,2,0:0:0:0:
256,192,183751,1,2,0:0:0:0:
256,192,183908,1,2,0:0:0:0:
256,192,184065,1,0,0:0:0:0:
256,192,184222,1,2,0:0:0:0:
256,192,184379,1,2,0:0:0:0:
256,192,184693,1,2,0:0:0:0:
256,192,184850,1,0,0:0:0:0:
256,192,185007,1,2,0:0:0:0:
256,192,185164,1,2,0:0:0:0:
256,192,185321,1,0,0:0:0:0:
256,192,185478,1,2,0:0:0:0:
256,192,185636,1,0,0:0:0:0:
256,192,185793,1,0,0:0:0:0:
256,192,185950,1,2,0:0:0:0:
256,192,186264,1,0,0:0:0:0:
256,192,186421,1,0,0:0:0:0:
256,192,186578,1,2,0:0:0:0:
256,192,186735,1,0,0:0:0:0:
256,192,186892,1,2,0:0:0:0:
256,192,187049,1,2,0:0:0:0:
256,192,187206,1,0,0:0:0:0:
256,192,187363,1,0,0:0:0:0:
256,192,187520,1,2,0:0:0:0:
256,192,187834,1,2,0:0:0:0:
256,192,187992,1,0,0:0:0:0:
256,192,188149,1,2,0:0:0:0:
256,192,188306,1,2,0:0:0:0:
256,192,188384,1,0,0:0:0:0:
256,192,188463,1,0,0:0:0:0:
256,192,188620,1,2,0:0:0:0:
256,192,188777,1,0,0:0:0:0:
256,192,188934,1,2,0:0:0:0:
256,192,189012,1,2,0:0:0:0:
256,192,189091,1,0,0:0:0:0:
256,192,189248,1,0,0:0:0:0:
256,192,189327,1,0,0:0:0:0:
256,192,189405,1,2,0:0:0:0:
256,192,189484,1,0,0:0:0:0:
256,192,189562,1,2,0:0:0:0:
256,192,189641,1,2,0:0:0:0:
256,192,189719,1,0,0:0:0:0:
256,192,189876,1,2,0:0:0:0:
256,192,190033,1,4,0:0:0:0:
256,192,190190,1,0,0:0:0:0:
256,192,190348,1,2,0:0:0:0:
256,192,190505,1,0,0:0:0:0:
256,192,190662,1,2,0:0:0:0:
256,192,190819,1,0,0:0:0:0:
256,192,190976,1,2,0:0:0:0:
256,192,191133,1,0,0:0:0:0:
256,192,191290,1,4,0:0:0:0:
256,192,191447,1,0,0:0:0:0:
256,192,191604,1,2,0:0:0:0:
256,192,191761,1,0,0:0:0:0:
256,192,191918,1,2,0:0:0:0:
256,192,192075,1,0,0:0:0:0:
256,192,192154,1,0,0:0:0:0:
256,192,192232,1,2,0:0:0:0:
256,192,192389,1,0,0:0:0:0:
256,192,192547,1,4,0:0:0:0:
256,192,192704,1,0,0:0:0:0:
256,192,192861,1,6,0:0:0:0:
256,192,193018,1,0,0:0:0:0:
256,192,193175,1,2,0:0:0:0:
256,192,193332,1,0,0:0:0:0:
256,192,193410,1,0,0:0:0:0:
256,192,193489,1,2,0:0:0:0:
256,192,193646,1,0,0:0:0:0:
256,192,193724,1,0,0:0:0:0:
256,192,193803,1,6,0:0:0:0:
256,192,193960,1,6,0:0:0:0:
256,192,194117,1,6,0:0:0:0:
256,192,194745,1,0,0:0:0:0:
256,192,195059,1,6,0:0:0:0:
256,192,195217,1,6,0:0:0:0:
256,192,195374,1,6,0:0:0:0:
256,192,196787,1,0,0:0:0:0:
256,192,196866,1,0,0:0:0:0:
256,192,196944,1,2,0:0:0:0:
256,192,197049,1,2,0:0:0:0:
256,192,197154,1,2,0:0:0:0:
256,192,197258,1,2,0:0:0:0:
256,192,197363,1,2,0:0:0:0:
256,192,197468,1,2,0:0:0:0:
256,192,197573,1,4,0:0:0:0:
256,192,197730,1,4,0:0:0:0:
256,192,197887,1,4,0:0:0:0:
256,192,198672,1,0,0:0:0:0:
256,192,198751,1,0,0:0:0:0:
256,192,198829,1,2,0:0:0:0:
256,192,199065,1,2,0:0:0:0:
256,192,199300,1,2,0:0:0:0:
256,192,199536,1,2,0:0:0:0:
256,192,199771,1,0,0:0:0:0:
256,192,199929,1,0,0:0:0:0:
256,192,200007,1,0,0:0:0:0:
256,192,200086,1,6,0:0:0:0:
256,192,200243,1,6,0:0:0:0:
256,192,200400,1,6,0:0:0:0:
256,192,200871,1,0,0:0:0:0:
256,192,200949,1,0,0:0:0:0:
256,192,201028,1,2,0:0:0:0:
256,192,201185,1,0,0:0:0:0:
256,192,201342,1,2,0:0:0:0:
256,192,201421,1,2,0:0:0:0:
256,192,201499,1,0,0:0:0:0:
256,192,201578,1,0,0:0:0:0:
256,192,201656,1,2,0:0:0:0:
256,192,201813,1,2,0:0:0:0:
256,192,201892,1,2,0:0:0:0:
256,192,201970,1,0,0:0:0:0:
256,192,202049,1,0,0:0:0:0:
256,192,202128,1,0,0:0:0:0:
256,192,202206,1,0,0:0:0:0:
256,192,202285,1,2,0:0:0:0:
256,192,202599,1,4,0:0:0:0:
256,192,202756,1,4,0:0:0:0:
256,192,202913,1,4,0:0:0:0:
256,192,203227,1,4,0:0:0:0:
256,192,203384,1,4,0:0:0:0:
256,192,203541,1,4,0:0:0:0:
256,192,203855,1,4,0:0:0:0:
256,192,204012,1,0,0:0:0:0:
256,192,204091,1,0,0:0:0:0:
256,192,204169,1,2,0:0:0:0:
256,192,204326,1,0,0:0:0:0:
256,192,204484,1,0,0:0:0:0:
256,192,204562,1,0,0:0:0:0:
256,192,204641,1,0,0:0:0:0:
256,192,204719,1,0,0:0:0:0:
256,192,204798,1,6,0:0:0:0:
256,192,205112,1,4,0:0:0:0:
256,192,205269,1,4,0:0:0:0:
256,192,205426,1,4,0:0:0:0:
256,192,205740,1,0,0:0:0:0:
256,192,205897,1,0,0:0:0:0:
256,192,206054,1,2,0:0:0:0:
256,192,206212,1,2,0:0:0:0:
256,192,206369,1,0,0:0:0:0:
256,192,206526,1,0,0:0:0:0:
256,192,206683,1,2,0:0:0:0:
256,192,206840,1,0,0:0:0:0:
256,192,206997,1,0,0:0:0:0:
256,192,207154,1,0,0:0:0:0:
256,192,207311,1,2,0:0:0:0:
256,192,207625,1,2,0:0:0:0:
256,192,207782,1,2,0:0:0:0:
256,192,207939,1,2,0:0:0:0:
256,192,208253,1,0,0:0:0:0:
256,192,208410,1,0,0:0:0:0:
256,192,208568,1,2,0:0:0:0:
256,192,208725,1,2,0:0:0:0:
256,192,208882,1,0,0:0:0:0:
256,192,209039,1,0,0:0:0:0:
256,192,209196,1,2,0:0:0:0:
256,192,209353,1,0,0:0:0:0:
256,192,209510,1,0,0:0:0:0:
256,192,209667,1,0,0:0:0:0:
256,192,209824,1,6,0:0:0:0:
256,192,210138,1,4,0:0:0:0:
256,192,210295,1,4,0:0:0:0:
256,192,210452,1,4,0:0:0:0:
256,192,210766,1,0,0:0:0:0:
256,192,210924,1,0,0:0:0:0:
256,192,211081,1,2,0:0:0:0:
256,192,211238,1,0,0:0:0:0:
256,192,211395,1,0,0:0:0:0:
256,192,211552,1,0,0:0:0:0:
256,192,211709,1,2,0:0:0:0:
256,192,211866,1,2,0:0:0:0:
256,192,212023,1,0,0:0:0:0:
256,192,212180,1,0,0:0:0:0:
256,192,212337,1,6,0:0:0:0:
256,192,212651,1,4,0:0:0:0:
256,192,212808,1,0,0:0:0:0:
256,192,212965,1,0,0:0:0:0:
256,192,213123,1,2,0:0:0:0:
256,192,213280,1,0,0:0:0:0:
256,192,213437,1,0,0:0:0:0:
256,192,213594,1,2,0:0:0:0:
256,192,213751,1,2,0:0:0:0:
256,192,213908,1,0,0:0:0:0:
256,192,214065,1,2,0:0:0:0:
256,192,214143,1,2,0:0:0:0:
256,192,214222,1,0,0:0:0:0:
256,192,214301,1,0,0:0:0:0:
256,192,214379,1,2,0:0:0:0:
256,192,214458,1,2,0:0:0:0:
256,192,214536,1,0,0:0:0:0:
256,192,214693,1,2,0:0:0:0:
256,192,214772,1,2,0:0:0:0:
256,192,214850,1,0,0:0:0:0:
256,192,214929,1,2,0:0:0:0:
256,192,215007,1,0,0:0:0:0:
256,192,215086,1,0,0:0:0:0:
256,192,215164,1,6,0:0:0:0:
256,192,215792,1,2,0:0:0:0:
256,192,216421,1,2,0:0:0:0:
256,192,217049,1,2,0:0:0:0:
256,192,217677,1,2,0:0:0:0:
256,192,218306,1,2,0:0:0:0:
256,192,218934,1,2,0:0:0:0:
256,192,219405,1,2,0:0:0:0:
256,192,219484,1,2,0:0:0:0:
256,192,219562,1,0,0:0:0:0:
256,192,219667,1,0,0:0:0:0:
256,192,219771,1,0,0:0:0:0:
256,192,219876,1,2,0:0:0:0:
256,192,220190,1,4,0:0:0:0:
256,192,220819,1,2,0:0:0:0:
256,192,221447,1,4,0:0:0:0:
256,192,222075,1,2,0:0:0:0:
256,192,222703,1,4,0:0:0:0:
256,192,223018,1,0,0:0:0:0:
256,192,223175,1,0,0:0:0:0:
256,192,223332,1,0,0:0:0:0:
256,192,223489,1,0,0:0:0:0:
256,192,223646,1,0,0:0:0:0:
256,192,223803,1,0,0:0:0:0:
256,192,223960,1,0,0:0:0:0:
256,192,224117,1,0,0:0:0:0:
256,192,224274,1,0,0:0:0:0:
256,192,224431,1,0,0:0:0:0:
256,192,224588,1,0,0:0:0:0:
256,192,224745,1,0,0:0:0:0:
256,192,224902,1,2,0:0:0:0:
256,192,225059,1,0,0:0:0:0:
256,192,225138,1,0,0:0:0:0:
256,192,225217,1,6,0:0:0:0:
256,192,225374,1,6,0:0:0:0:
256,192,225531,1,6,0:0:0:0:
256,192,225688,1,6,0:0:0:0:
256,192,225845,1,6,0:0:0:0:
256,192,226159,1,4,0:0:0:0:
256,192,226316,1,6,0:0:0:0:
256,192,226630,1,4,0:0:0:0:
256,192,226787,1,6,0:0:0:0:
256,192,227101,1,4,0:0:0:0:
256,192,227258,1,6,0:0:0:0:
256,192,227415,1,6,0:0:0:0:
256,192,227573,1,6,0:0:0:0:
256,192,228358,2,0,L|416:192,3,140
256,192,229614,1,0,0:0:0:0:
256,192,229929,1,0,0:0:0:0:
256,192,230243,1,6,0:0:0:0:
256,192,230557,1,0,0:0:0:0:
256,192,230714,1,0,0:0:0:0:
256,192,230871,1,2,0:0:0:0:
256,192,231028,1,0,0:0:0:0:
256,192,231185,1,2,0:0:0:0:
256,192,231342,1,0,0:0:0:0:
256,192,231421,1,2,0:0:0:0:
256,192,231499,1,2,0:0:0:0:
256,192,231656,1,2,0:0:0:0:
256,192,231813,1,0,0:0:0:0:
256,192,231970,1,2,0:0:0:0:
256,192,232128,1,0,0:0:0:0:
256,192,232285,1,0,0:0:0:0:
256,192,232442,1,2,0:0:0:0:
256,192,232756,1,0,0:0:0:0:
256,192,232913,1,0,0:0:0:0:
256,192,233070,1,2,0:0:0:0:
256,192,233227,1,2,0:0:0:0:
256,192,233384,1,0,0:0:0:0:
256,192,233541,1,0,0:0:0:0:
256,192,233698,1,2,0:0:0:0:
256,192,233855,1,0,0:0:0:0:
256,192,233934,1,2,0:0:0:0:
256,192,234012,1,2,0:0:0:0:
256,192,234169,1,2,0:0:0:0:
256,192,234248,1,0,0:0:0:0:
256,192,234326,1,2,0:0:0:0:
256,192,234484,1,2,0:0:0:0:
256,192,234641,1,2,0:0:0:0:
256,192,234955,1,2,0:0:0:0:
256,192,235112,1,0,0:0:0:0:
256,192,235269,1,2,0:0:0:0:
256,192,235426,1,2,0:0:0:0:
256,192,235583,1,0,0:0:0:0:
256,192,235740,1,2,0:0:0:0:
256,192,235897,1,0,0:0:0:0:
256,192,236054,1,0,0:0:0:0:
256,192,236211,1,2,0:0:0:0:
256,192,236525,1,0,0:0:0:0:
256,192,236682,1,0,0:0:0:0:
256,192,236840,1,2,0:0:0:0:
256,192,236997,1,0,0:0:0:0:
256,192,237154,1,2,0:0:0:0:
256,192,237311,1,2,0:0:0:0:
256,192,237468,1,0,0:0:0:0:
256,192,237625,1,0,0:0:0:0:
256,192,237782,1,2,0:0:0:0:
256,192,238096,1,2,0:0:0:0:
256,192,238253,1,0,0:0:0:0:
256,192,238410,1,2,0:0:0:0:
256,192,238567,1,2,0:0:0:0:
256,192,238646,1,0,0:0:0:0:
256,192,238724,1,0,0:0:0:0:
256,192,238881,1,0,0:0:0:0:
256,192,239039,1,2,0:0:0:0:
256,192,239117,1,0,0:0:0:0:
256,192,239196,1,0,0:0:0:0:
256,192,239274,1,0,0:0:0:0:
256,192,239353,1,2,0:0:0:0:
256,192,239510,1,2,0:0:0:0:
256,192,239588,1,2,0:0:0:0:
256,192,239667,1,0,0:0:0:0:
256,192,239824,1,0,0:0:0:0:
256,192,239876,1,0,0:0:0:0:
256,192,239929,1,0,0:0:0:0:
256,192,239981,1,2,0:0:0:0:
256,192,240138,1,0,0:0:0:0:
256,192,240295,1,6,0:0:0:0:
256,192,240609,1,0,0:0:0:0:
256,192,240766,1,2,0:0:0:0:
256,192,240923,1,2,0:0:0:0:
256,192,241080,1,0,0:0:0:0:
256,192,241237,1,2,0:0:0:0:
256,192,241395,1,0,0:0:0:0:
256,192,241473,1,2,0:0:0:0:
256,192,241552,1,2,0:0:0:0:
256,192,241709,1,2,0:0:0:0:
256,192,241866,1,0,0:0:0:0:
256,192,242023,1,2,0:0:0:0:
256,192,242180,1,0,0:0:0:0:
256,192,242337,1,0,0:0:0:0:
256,192,242494,1,2,0:0:0:0:
256,192,242808,1,0,0:0:0:0:
256,192,243122,1,0,0:0:0:0:
256,192,243279,1,2,0:0:0:0:
256,192,243436,1,2,0:0:0:0:
256,192,243593,1,0,0:0:0:0:
256,192,243751,1,2,0:0:0:0:
256,192,243908,1,0,0:0:0:0:
256,192,243986,1,2,0:0:0:0:
256,192,244065,1,2,0:0:0:0:
256,192,244222,1,2,0:0:0:0:
256,192,244300,1,0,0:0:0:0:
256,192,244379,1,2,0:0:0:0:
256,192,244536,1,2,0:0:0:0:
256,192,244693,1,2,0:0:0:0:
256,192,245007,1,2,0:0:0:0:
256,192,245164,1,0,0:0:0:0:
256,192,245321,1,2,0:0:0:0:
256,192,245478,1,2,0:0:0:0:
256,192,245635,1,0,0:0:0:0:
256,192,245792,1,2,0:0:0:0:
256,192,245950,1,0,0:0:0:0:
256,192,246107,1,0,0:0:0:0:
256,192,246264,1,2,0:0:0:0:
256,192,246578,1,0,0:0:0:0:
256,192,246735,1,0,0:0:0:0:
256,192,246892,1,2,0:0:0:0:
256,192,247049,1,0,0:0:0:0:
256,192,247206,1,2,0:0:0:0:
256,192,247363,1,2,0:0:0:0:
256,192,247520,1,0,0:0:0:0:
256,192,247677,1,0,0:0:0:0:
256,192,247834,1,2,0:0:0:0:
256,192,247913,1,2,0:0:0:0:
256,192,247991,1,0,0:0:0:0:
256,192,248070,1,2,0:0:0:0:
256,192,248148,1,0,0:0:0:0:
256,192,248306,1,2,0:0:0:0:
256,192,248384,1,2,0:0:0:0:
256,192,248463,1,0,0:0:0:0:
256,192,248620,1,2,0:0:0:0:
256,192,248698,1,2,0:0:0:0:
256,192,248777,1,0,0:0:0:0:
256,192,248934,1,2,0:0:0:0:
256,192,249091,1,0,0:0:0:0:
256,192,249248,1,2,0:0:0:0:
256,192,249326,1,2,0:0:0:0:
256,192,249405,1,0,0:0:0:0:
256,192,249562,1,0,0:0:0:0:
256,192,249641,1,0,0:0:0:0:
256,192,249719,1,2,0:0:0:0:
256,192,249798,1,0,0:0:0:0:
256,192,249876,1,2,0:0:0:0:
256,192,249955,1,2,0:0:0:0:
256,192,250033,1,0,0:0:0:0:
256,192,250190,1,2,0:0:0:0:
256,192,250347,1,4,0:0:0:0:
256,192,250504,1,0,0:0:0:0:
256,192,250662,1,2,0:0:0:0:
256,192,250819,1,0,0:0:0:0:
256,192,250976,1,2,0:0:0:0:
256,192,251133,1,0,0:0:0:0:
256,192,251290,1,2,0:0:0:0:
256,192,251447,1,0,0:0:0:0:
256,192,251604,1,4,0:0:0:0:
256,192,251761,1,0,0:0:0:0:
256,192,251918,1,2,0:0:0:0:
256,192,252075,1,0,0:0:0:0:
256,192,252232,1,2,0:0:0:0:
256,192,252389,1,0,0:0:0:0:
256,192,252468,1,0,0:0:0:0:
256,192,252546,1,2,0:0:0:0:
256,192,252703,1,0,0:0:0:0:
256,192,252861,1,4,0:0:0:0:
256,192,253018,1,2,0:0:0:0:
256,192,253096,1,2,0:0:0:0:
256,192,253175,1,0,0:0:0:0:
256,192,253253,1,0,0:0:0:0:
256,192,253332,1,2,0:0:0:0:
256,192,253489,1,0,0:0:0:0:
256,192,253646,1,2,0:0:0:0:
256,192,253724,1,2,0:0:0:0:
256,192,253803,1,0,0:0:0:0:
256,192,253960,1,0,0:0:0:0:
256,192,254039,1,0,0:0:0:0:
256,192,254117,1,2,0:0:0:0:
256,192,254196,1,2,0:0:0:0:
256,192,254274,1,0,0:0:0:0:
256,192,254431,1,2,0:0:0:0:
256,192,254510,1,0,0:0:0:0:
256,192,254588,1,0,0:0:0:0:
256,192,254667,1,0,0:0:0:0:
256,192,254745,1,2,0:0:0:0:
256,192,254824,1,0,0:0:0:0:
256,192,254902,1,2,0:0:0:0:
256,192,255059,1,6,0:0:0:0:
256,192,255374,1,4,0:0:0:0:
256,192,255531,1,0,0:0:0:0:
256,192,255689,1,2,0:0:0:0:
256,192,255846,1,0,0:0:0:0:
256,192,256003,1,2,0:0:0:0:
256,192,256160,1,0,0:0:0:0:
256,192,256317,1,2,0:0:0:0:
256,192,256474,1,0,0:0:0:0:
256,192,256631,1,4,0:0:0:0:
256,192,256788,1,0,0:0:0:0:
256,192,256945,1,2,0:0:0:0:
256,192,257102,1,0,0:0:0:0:
256,192,257259,1,2,0:0:0:0:
256,192,257416,1,0,0:0:0:0:
256,192,257495,1,0,0:0:0:0:
256,192,257573,1,2,0:0:0:0:
256,192,257730,1,0,0:0:0:0:
256,192,257888,1,4,0:0:0:0:
256,192,258044,1,2,0:0:0:0:
256,192,258122,1,2,0:0:0:0:
256,192,258201,1,0,0:0:0:0:
256,192,258279,1,0,0:0:0:0:
256,192,258358,1,2,0:0:0:0:
256,192,258515,1,2,0:0:0:0:
256,192,258593,1,2,0:0:0:0:
256,192,258673,1,0,0:0:0:0:
256,192,258751,1,0,0:0:0:0:
256,192,258830,1,2,0:0:0:0:
256,192,258987,1,0,0:0:0:0:
256,192,259066,1,0,0:0:0:0:
256,192,259143,1,6,0:0:0:0:
256,192,259300,1,6,0:0:0:0:
256,192,259457,1,6,0:0:0:0:
256,192,260400,1,4,0:0:0:0:
256,192,260557,1,0,0:0:0:0:
256,192,260714,1,2,0:0:0:0:
256,192,261028,1,0,0:0:0:0:
256,192,261185,1,0,0:0:0:0:
256,192,261342,1,2,0:0:0:0:
256,192,261499,1,0,0:0:0:0:
256,192,261656,1,0,0:0:0:0:
256,192,261813,1,0,0:0:0:0:
256,192,261970,1,2,0:0:0:0:
256,192,262128,1,0,0:0:0:0:
256,192,262206,1,2,0:0:0:0:
256,192,262285,1,0,0:0:0:0:
256,192,262442,1,0,0:0:0:0:
256,192,262599,1,2,0:0:0:0:
256,192,262677,1,2,0:0:0:0:
256,192,262756,1,0,0:0:0:0:
256,192,262834,1,0,0:0:0:0:
256,192,262913,1,2,0:0:0:0:
256,192,263070,1,2,0:0:0:0:
256,192,263227,1,2,0:0:0:0:
256,192,263384,1,0,0:0:0:0:
256,192,263541,1,0,0:0:0:0:
256,192,263698,1,0,0:0:0:0:
256,192,263777,1,0,0:0:0:0:
256,192,263855,1,2,0:0:0:0:
256,192,263934,1,2,0:0:0:0:
256,192,264012,1,0,0:0:0:0:
256,192,264169,1,0,0:0:0:0:
256,192,264326,1,0,0:0:0:0:
256,192,264484,1,2,0:0:0:0:
256,192,264641,1,0,0:0:0:0:
256,192,264798,1,2,0:0:0:0:
256,192,265112,1,0,0:0:0:0:
256,192,265426,1,6,0:0:0:0:
256,192,265583,1,0,0:0:0:0:
256,192,265740,1,2,0:0:0:0:
256,192,266054,1,0,0:0:0:0:
256,192,266211,1,0,0:0:0:0:
256,192,266368,1,2,0:0:0:0:
256,192,266525,1,0,0:0:0:0:
256,192,266682,1,2,0:0:0:0:
256,192,266840,1,2,0:0:0:0:
256,192,266997,1,0,0:0:0:0:
256,192,267075,1,2,0:0:0:0:
256,192,267154,1,0,0:0:0:0:
256,192,267232,1,2,0:0:0:0:
256,192,267311,1,0,0:0:0:0:
256,192,267468,1,0,0:0:0:0:
256,192,267625,1,2,0:0:0:0:
256,192,267782,1,0,0:0:0:0:
256,192,267939,1,2,0:0:0:0:
256,192,268018,1,0,0:0:0:0:
256,192,268096,1,2,0:0:0:0:
256,192,268175,1,0,0:0:0:0:
256,192,268253,1,2,0:0:0:0:
256,192,268410,1,2,0:0:0:0:
256,192,268489,1,2,0:0:0:0:
256,192,268567,1,0,0:0:0:0:
256,192,268724,1,2,0:0:0:0:
256,192,268881,1,0,0:0:0:0:
256,192,268960,1,0,0:0:0:0:
256,192,269038,1,6,0:0:0:0:
256,192,269274,1,2,0:0:0:0:
256,192,269353,1,0,0:0:0:0:
256,192,269431,1,2,0:0:0:0:
256,192,269510,1,2,0:0:0:0:
256,192,269588,1,2,0:0:0:0:
256,192,269667,1,0,0:0:0:0:
256,192,269745,1,2,0:0:0:0:
256,192,269824,1,2,0:0:0:0:
256,192,269981,1,0,0:0:0:0:
256,192,270059,1,2,0:0:0:0:
256,192,270138,1,2,0:0:0:0:
256,192,270217,1,2,0:0:0:0:
256,192,270295,1,0,0:0:0:0:
256,192,270374,1,2,0:0:0:0:
256,192,270452,1,4,0:0:0:0:
256,192,270609,1,2,0:0:0:0:
256,192,270766,1,2,0:0:0:0:
256,192,270923,1,0,0:0:0:0:
256,192,271080,1,2,0:0:0:0:
256,192,271395,1,2,0:0:0:0:
256,192,271552,1,0,0:0:0:0:
256,192,271709,1,0,0:0:0:0:
256,192,271866,1,0,0:0:0:0:
256,192,272023,1,2,0:0:0:0:
256,192,272180,1,0,0:0:0:0:
256,192,272337,1,0,0:0:0:0:
256,192,272494,1,0,0:0:0:0:
256,192,272651,1,2,0:0:0:0:
256,192,272965,1,2,0:0:0:0:
256,192,273122,1,2,0:0:0:0:
256,192,273279,1,2,0:0:0:0:
256,192,273436,1,0,0:0:0:0:
256,192,273593,1,2,0:0:0:0:
256,192,273751,1,0,0:0:0:0:
256,192,274065,1,6,0:0:0:0:
256,192,274222,1,0,0:0:0:0:
256,192,274379,1,2,0:0:0:0:
256,192,274457,1,2,0:0:0:0:
256,192,274536,1,4,0:0:0:0:
256,192,274693,1,2,0:0:0:0:
256,192,274850,1,0,0:0:0:0:
256,192,275007,1,0,0:0:0:0:
256,192,275164,1,6,0:0:0:0:
256,192,275478,1,0,0:0:0:0:
256,192,275635,1,0,0:0:0:0:
256,192,275714,1,2,0:0:0:0:
256,192,275792,1,2,0:0:0:0:
256,192,275949,1,2,0:0:0:0:
256,192,276107,1,0,0:0:0:0:
256,192,276264,1,2,0:0:0:0:
256,192,276342,1,2,0:0:0:0:
256,192,276421,1,2,0:0:0:0:
256,192,276578,1,0,0:0:0:0:
256,192,276735,1,0,0:0:0:0:
256,192,276892,1,2,0:0:0:0:
256,192,276970,1,2,0:0:0:0:
256,192,277049,1,2,0:0:0:0:
256,192,277206,1,0,0:0:0:0:
256,192,277363,1,0,0:0:0:0:
256,192,277520,1,2,0:0:0:0:
256,192,277677,1,2,0:0:0:0:
256,192,277991,1,6,0:0:0:0:
256,192,278148,1,0,0:0:0:0:
256,192,278227,1,0,0:0:0:0:
256,192,278306,1,2,0:0:0:0:
256,192,278463,1,0,0:0:0:0:
256,192,278541,1,0,0:0:0:0:
256,192,278620,1,6,0:0:0:0:
256,192,278777,1,6,0:0:0:0:
256,192,279091,1,6,0:0:0:0:
256,192,279248,1,0,0:0:0:0:
256,192,279326,1,0,0:0:0:0:
256,192,279405,1,2,0:0:0:0:
256,192,279484,1,2,0:0:0:0:
256,192,279562,1,0,0:0:0:0:
256,192,279641,1,2,0:0:0:0:
256,192,279719,1,2,0:0:0:0:
256,192,279876,1,2,0:0:0:0:
256,192,279955,1,2,0:0:0:0:
256,192,280033,1,0,0:0:0:0:
256,192,280112,1,2,0:0:0:0:
256,192,280347,1,4,0:0:0:0:
256,192,280504,1,0,0:0:0:0:
256,192,280583,1,2,0:0:0:0:
256,192,280662,1,0,0:0:0:0:
256,192,280740,1,2,0:0:0:0:
256,192,280819,1,0,0:0:0:0:
256,192,280897,1,2,0:0:0:0:
256,192,280976,1,0,0:0:0:0:
256,192,281054,1,2,0:0:0:0:
256,192,281133,1,4,0:0:0:0:
256,192,281290,1,4,0:0:0:0:
256,192,281604,1,6,0:0:0:0:
256,192,281761,8,0,288044,0:0:0:0:
256,192,288201,5,0,0:0:0:0:
256,192,288253,1,0,0:0:0:0:
256,192,288306,1,0,0:0:0:0:
256,192,288358,1,2,0:0:0:0:
256,192,288515,1,2,0:0:0:0:
256,192,288751,1,2,0:0:0:0:
256,192,289104,1,0,0:0:0:0:
