osu file format v14

[General]
AudioFilename: audio.mp3
AudioLeadIn: 0
PreviewTime: 149442
Countdown: 0
SampleSet: Soft
StackLeniency: 0.4
Mode: 0
LetterboxInBreaks: 0
WidescreenStoryboard: 0

[Editor]
Bookmarks: 168417,175917
DistanceSpacing: 1
BeatDivisor: 4
GridSize: 4
TimelineZoom: 1.8

[Metadata]
Title:Touryouka
TitleUnicode:透靈蕐
Artist:Camellia feat. Nanahira
ArtistUnicode:かめりあ feat. ななひら
Creator:jonathanlfj
Version:Ascension
Source:
Tags:Toryoka Toureika captin1 apaffy kisata Giralda Nyquill Raose Rock Japanese ごーいん! Go-In! Go In Confetto かめるかめりあ×Confetto
BeatmapID:2138577
BeatmapSetID:1022167

[Difficulty]
HPDrainRate:6.5
CircleSize:4
OverallDifficulty:9.6
ApproachRate:10
SliderMultiplier:1.8
SliderTickRate:1

[Events]
//Background and Video events
0,0,"anime.jpg",0,0
//Break Periods
2,172377,174539
//Storyboard Layer 0 (Background)
//Storyboard Layer 1 (Fail)
//Storyboard Layer 2 (Pass)
//Storyboard Layer 3 (Foreground)
//Storyboard Layer 4 (Overlay)
//Storyboard Sound Samples

[TimingPoints]
2025,234.375,4,2,1,40,1,0
2025,-142.857142857143,4,2,1,40,0,0
9525,-125,4,2,1,45,0,0
13275,-111.111111111111,4,2,1,50,0,0
17962,-100,4,1,1,60,0,0
18314,-90.9090909090909,4,1,1,65,0,0
18665,-83.3333333333333,4,1,1,70,0,0
19017,-76.9230769230769,4,1,1,75,0,0
19368,-76.9230769230769,4,3,1,30,0,0
19720,-90.9090909090909,4,1,1,70,0,0
19837,234.375,4,1,1,70,1,0
19837,-90.9090909090909,4,1,1,70,0,0
25813,-83.3333333333333,4,1,1,70,0,0
26165,-76.9230769230769,4,1,1,70,0,0
26516,-71.4285714285714,4,1,1,70,0,0
26868,-200,4,2,1,30,0,0
26926,-200,4,2,1,35,0,0
26985,-200,4,2,1,40,0,0
27044,-200,4,2,1,45,0,0
27102,-200,4,2,1,50,0,0
27161,-200,4,2,1,5,0,0
27219,-90.9090909090909,4,1,1,70,0,0
33079,-76.9230769230769,4,1,1,70,0,0
33313,-66.6666666666667,4,1,1,70,0,0
33782,-200,4,1,1,70,0,0
33899,234.375,6,2,1,30,1,0
34719,-100,6,3,0,20,0,0
35070,-100,6,3,0,25,0,0
35188,-100,6,3,0,30,0,0
35305,234.375,3,2,1,40,1,0
35305,-142.857142857143,3,2,1,40,0,0
37648,-117.647058823529,3,2,1,40,0,0
37883,-100,3,1,1,60,0,0
38117,234.375,4,1,1,60,1,0
38117,-100,4,1,1,60,0,0
41808,-100,4,1,1,5,0,0
41867,-100,4,1,1,60,0,0
51945,-100,4,1,1,70,0,0
52179,234.375,4,1,1,50,1,0
52179,-142.857142857143,4,1,1,50,0,0
52999,-188.679245283019,4,1,1,50,0,0
53585,-188.679245283019,4,1,1,60,0,0
54874,-142.857142857143,4,1,1,60,0,0
55225,-142.857142857143,4,1,1,50,0,0
55929,-83.3333333333333,4,1,1,60,0,0
56397,-166.666666666667,4,1,1,60,0,0
56749,-100,4,1,1,60,0,0
57335,-166.666666666667,4,1,1,60,0,0
57804,-83.3333333333333,4,1,1,60,0,0
58272,-166.666666666667,4,1,1,60,0,0
58624,-100,4,1,1,60,0,0
59210,-166.666666666667,4,1,1,60,0,0
59679,-83.3333333333333,4,1,1,60,0,0
60147,-166.666666666667,4,1,1,60,0,0
60499,-100,4,1,1,60,0,0
61085,-166.666666666667,4,1,1,60,0,0
61554,-83.3333333333333,4,1,1,60,0,0
62022,-166.666666666667,4,1,1,60,0,0
62374,-100,4,1,1,60,0,0
62960,-166.666666666667,4,1,1,60,0,0
63429,-142.857142857143,4,2,1,50,0,0
69054,234.375,4,1,1,70,1,0
69054,-90.9090909090909,4,1,1,70,0,0
69288,-90.9090909090909,4,1,1,5,0,0
69405,-90.9090909090909,4,1,1,70,0,0
69522,-90.9090909090909,4,1,1,5,0,0
69639,-90.9090909090909,4,1,1,70,0,0
69757,-90.9090909090909,4,1,1,5,0,0
69874,-90.9090909090909,4,1,1,70,0,0
69991,-90.9090909090909,4,1,1,5,0,0
70108,-90.9090909090909,4,1,1,70,0,0
70225,-90.9090909090909,4,1,1,5,0,0
70343,-90.9090909090909,4,1,1,70,0,0
70460,-90.9090909090909,4,1,1,5,0,0
70577,-90.9090909090909,4,1,1,70,0,0
71163,-90.9090909090909,4,1,1,5,0,0
71280,-90.9090909090909,4,1,1,70,0,0
71397,-90.9090909090909,4,1,1,5,0,0
71514,-90.9090909090909,4,1,1,70,0,0
71632,-90.9090909090909,4,1,1,5,0,0
71749,-90.9090909090909,4,1,1,70,0,0
71866,-90.9090909090909,4,1,1,5,0,0
71983,-90.9090909090909,4,1,1,70,0,0
72100,-90.9090909090909,4,1,1,5,0,0
72218,-90.9090909090909,4,1,1,70,0,0
72335,-90.9090909090909,4,1,1,5,0,0
72452,-90.9090909090909,4,1,1,70,0,0
72804,-83.3333333333333,4,1,1,80,0,0
73038,-90.9090909090909,4,1,1,5,0,0
73155,-83.3333333333333,4,1,1,80,0,0
73272,-90.9090909090909,4,1,1,5,0,0
73389,-83.3333333333333,4,1,1,80,0,0
73507,-90.9090909090909,4,1,1,5,0,0
73624,-83.3333333333333,4,1,1,80,0,0
73741,-90.9090909090909,4,1,1,5,0,0
73858,-83.3333333333333,4,1,1,80,0,0
73975,-90.9090909090909,4,1,1,5,0,0
74093,-83.3333333333333,4,1,1,80,0,0
74210,-90.9090909090909,4,1,1,5,0,0
74327,-83.3333333333333,4,1,1,80,0,0
74679,-200,4,2,1,20,0,0
75616,-200,4,3,0,20,0,0
76202,-400,4,3,0,20,0,0
76378,-400,4,3,0,5,0,0
76436,-83.3333333333333,4,1,1,80,0,1
81944,-71.4285714285714,4,1,1,80,0,1
82179,-100,4,1,1,80,0,1
82531,-83.3333333333333,4,1,1,80,0,1
82882,-71.4285714285714,4,1,1,80,0,1
83233,-62.5,4,1,1,80,0,1
83585,-166.666666666667,4,1,1,30,0,0
83643,-166.666666666667,4,1,1,35,0,0
83702,-166.666666666667,4,1,1,40,0,0
83761,-166.666666666667,4,1,1,45,0,0
83819,-166.666666666667,4,1,1,50,0,0
83878,-166.666666666667,4,1,1,5,0,0
83936,-83.3333333333333,4,1,1,80,0,1
87686,-100,4,1,1,70,0,0
91436,-83.3333333333333,4,1,1,80,0,1
94249,-500,4,1,1,80,0,0
94366,234.375,6,1,1,50,1,0
95303,-200,4,2,1,80,0,0
95596,-200,4,2,1,5,0,0
95655,-90.9090909090909,4,1,1,70,0,0
95772,234.375,4,1,1,70,1,0
95772,-90.9090909090909,4,1,1,70,0,0
101397,-90.9090909090909,4,1,1,70,0,0
101748,-83.3333333333333,4,1,1,70,0,0
102100,-76.9230769230769,4,1,1,70,0,0
102451,-71.4285714285714,4,1,1,70,0,0
102803,-200,4,2,1,30,0,0
102861,-200,4,2,1,35,0,0
102920,-200,4,2,1,40,0,0
102979,-200,4,2,1,45,0,0
103037,-200,4,2,1,50,0,0
103096,-200,4,2,1,5,0,0
103154,-90.9090909090909,4,1,1,70,0,0
109014,-76.9230769230769,4,1,1,70,0,0
109248,-66.6666666666667,4,1,1,70,0,0
109717,-166.666666666667,4,1,1,70,0,0
109834,234.375,6,1,1,40,1,0
110537,-100,6,3,0,30,0,0
110771,-100,6,1,1,40,0,0
111005,-100,6,1,1,50,0,0
111240,234.375,4,1,1,60,1,0
111240,-100,4,1,1,60,0,0
111708,-142.857142857143,4,2,1,40,0,0
113115,-100,4,1,1,60,0,0
115165,-100,4,1,1,5,0,0
115224,-100,4,1,1,60,0,0
115458,-142.857142857143,4,2,1,40,0,0
116865,-100,4,1,1,60,0,0
118622,-400,4,1,1,60,0,0
118857,-100,4,1,1,5,0,0
118974,-125,4,1,1,60,0,0
119677,-111.111111111111,4,1,1,60,0,0
120615,-100,4,1,1,60,0,0
125302,234.375,4,1,1,50,1,0
125302,-142.857142857143,4,1,1,50,0,0
126122,-188.679245283019,4,1,1,50,0,0
126708,-188.679245283019,4,1,1,60,0,0
127997,-142.857142857143,4,1,1,60,0,0
128348,-142.857142857143,4,1,1,50,0,0
129052,-83.3333333333333,4,1,1,60,0,0
129520,-166.666666666667,4,1,1,60,0,0
129872,-100,4,1,1,60,0,0
130458,-166.666666666667,4,1,1,60,0,0
130927,-83.3333333333333,4,1,1,60,0,0
131395,-166.666666666667,4,1,1,60,0,0
131747,-100,4,1,1,60,0,0
132333,-166.666666666667,4,1,1,60,0,0
132802,-83.3333333333333,4,1,1,60,0,0
133270,-166.666666666667,4,1,1,60,0,0
133622,-100,4,1,1,60,0,0
134208,-166.666666666667,4,1,1,60,0,0
134677,-83.3333333333333,4,1,1,60,0,0
135145,-166.666666666667,4,1,1,60,0,0
135497,-100,4,1,1,60,0,0
136083,-166.666666666667,4,1,1,60,0,0
136552,-142.857142857143,4,2,1,40,0,0
141708,-125,4,2,1,60,0,0
142118,-125,4,2,1,5,0,0
142177,234.375,4,1,1,70,1,0
142177,-90.9090909090909,4,1,1,70,0,0
142411,-90.9090909090909,4,1,1,5,0,0
142528,-90.9090909090909,4,1,1,70,0,0
142645,-90.9090909090909,4,1,1,5,0,0
142762,-90.9090909090909,4,1,1,70,0,0
142880,-90.9090909090909,4,1,1,5,0,0
142997,-90.9090909090909,4,1,1,70,0,0
143114,-90.9090909090909,4,1,1,5,0,0
143231,-90.9090909090909,4,1,1,70,0,0
143348,-90.9090909090909,4,1,1,5,0,0
143466,-90.9090909090909,4,1,1,70,0,0
143583,-90.9090909090909,4,1,1,5,0,0
143700,-90.9090909090909,4,1,1,70,0,0
144286,-90.9090909090909,4,1,1,5,0,0
144403,-90.9090909090909,4,1,1,70,0,0
144520,-90.9090909090909,4,1,1,5,0,0
144637,-90.9090909090909,4,1,1,70,0,0
144755,-90.9090909090909,4,1,1,5,0,0
144872,-90.9090909090909,4,1,1,70,0,0
144989,-90.9090909090909,4,1,1,5,0,0
145106,-90.9090909090909,4,1,1,70,0,0
145223,-90.9090909090909,4,1,1,5,0,0
145341,-90.9090909090909,4,1,1,70,0,0
145458,-90.9090909090909,4,1,1,5,0,0
145575,-90.9090909090909,4,1,1,70,0,0
145927,-83.3333333333333,4,1,1,80,0,0
146161,-90.9090909090909,4,1,1,5,0,0
146278,-83.3333333333333,4,1,1,80,0,0
146395,-90.9090909090909,4,1,1,5,0,0
146512,-83.3333333333333,4,1,1,80,0,0
146630,-90.9090909090909,4,1,1,5,0,0
146747,-83.3333333333333,4,1,1,80,0,0
146864,-90.9090909090909,4,1,1,5,0,0
146981,-83.3333333333333,4,1,1,80,0,0
147098,-90.9090909090909,4,1,1,5,0,0
147216,-83.3333333333333,4,1,1,80,0,0
147333,-90.9090909090909,4,1,1,5,0,0
147450,-83.3333333333333,4,1,1,80,0,0
147743,-83.3333333333333,4,1,1,5,0,0
147802,-200,4,3,0,20,0,0
148153,-166.666666666667,4,3,0,20,0,0
148505,-142.857142857143,4,3,0,20,0,0
148856,-125,4,3,0,20,0,0
149325,-400,4,3,0,20,0,0
149501,-400,4,3,0,5,0,0
149559,-83.3333333333333,4,1,1,80,0,1
155067,-71.4285714285714,4,1,1,80,0,1
155301,-100,4,1,1,80,0,1
155652,-83.3333333333333,4,1,1,80,0,1
156004,-71.4285714285714,4,1,1,80,0,1
156355,-62.5,4,1,1,80,0,1
156708,-166.666666666667,4,1,1,30,0,0
156765,-166.666666666667,4,1,1,35,0,0
156824,-166.666666666667,4,1,1,40,0,0
156883,-166.666666666667,4,1,1,45,0,0
156941,-166.666666666667,4,1,1,50,0,0
157000,-166.666666666667,4,1,1,5,0,0
157059,-83.3333333333333,4,1,1,80,0,1
160809,-100,4,1,1,70,0,0
164559,-83.3333333333333,4,1,1,80,0,1
165261,-76.9230769230769,4,1,1,80,0,1
165496,-71.4285714285714,4,1,1,80,0,1
165613,-83.3333333333333,4,1,1,80,0,1
167372,-500,4,1,1,80,0,0
168426,-125,4,2,1,70,0,0
172176,-125,4,2,1,50,0,0
174989,-142.857142857143,4,1,1,50,0,0
179677,-125,4,1,1,50,0,0
180145,-100,4,1,1,55,0,0
180614,-83.3333333333333,4,1,1,60,0,0
181083,-71.4285714285714,4,1,1,65,0,0
181552,-100,4,1,1,70,0,0
182489,-200,4,2,1,50,0,0
183368,-200,4,2,1,5,0,0
183427,-100,4,1,1,70,0,0
187177,234.375,6,1,1,70,1,0
188114,-100,6,1,1,80,0,0
188583,234.375,4,1,1,70,1,0
192333,234.375,6,1,1,70,1,0
193504,-76.9230769230769,6,1,1,80,0,0
193563,-76.9230769230769,6,1,1,5,0,0
193622,-76.9230769230769,6,1,1,80,0,0
193680,-76.9230769230769,6,1,1,5,0,0
193739,234.375,4,1,1,70,1,0
197489,234.375,6,1,1,70,1,0
198426,-100,6,1,1,80,0,0
198895,234.375,4,1,1,70,1,0
202645,234.375,6,1,1,70,1,0
203816,-76.9230769230769,6,1,1,80,0,0
203875,-76.9230769230769,6,1,1,5,0,0
203934,-76.9230769230769,6,1,1,80,0,0
203992,-76.9230769230769,6,1,1,5,0,0
204051,234.375,6,1,1,70,1,0
205457,-86.9565217391304,6,1,1,70,0,0
205808,-76.9230769230769,6,1,1,70,0,0
206160,-68.9655172413793,6,1,1,70,0,0
206511,-62.5,6,1,1,70,0,0
206863,-200,6,2,1,40,0,0
207215,-200,6,2,1,5,0,0
207332,234.375,6,1,1,70,1,0
208738,-86.9565217391304,6,1,1,70,0,0
209089,-76.9230769230769,6,1,1,70,0,0
209441,-68.9655172413793,6,1,1,70,0,0
209792,-62.5,6,1,1,70,0,0
210144,-100,6,1,1,70,0,0
210613,234.375,4,2,1,70,1,0
213894,-100,4,2,1,30,0,0
214363,-142.857142857143,4,2,1,40,0,0
219988,-100,4,1,1,60,0,0
220340,-90.9090909090909,4,1,1,65,0,0
220691,-83.3333333333333,4,1,1,70,0,0
221043,-76.9230769230769,4,1,1,75,0,0
221394,-200,4,2,1,40,0,0
221863,-100,4,1,1,60,0,0
222215,-90.9090909090909,4,1,1,65,0,0
222566,-83.3333333333333,4,1,1,70,0,0
222918,-76.9230769230769,4,1,1,75,0,0
223620,-200,4,2,1,50,0,0
223738,234.375,4,1,1,50,1,0
223972,-76.9230769230769,4,1,1,80,0,1
229128,-66.6666666666667,4,1,1,80,0,1
229363,-90.9090909090909,4,1,1,80,0,1
229715,-76.9230769230769,4,1,1,80,0,1
230066,-66.6666666666667,4,1,1,80,0,1
230417,-58.8235294117647,4,1,1,80,0,1
230769,-166.666666666667,4,1,1,30,0,0
230827,-166.666666666667,4,1,1,35,0,0
230886,-166.666666666667,4,1,1,40,0,0
230945,-166.666666666667,4,1,1,45,0,0
231003,-166.666666666667,4,1,1,50,0,0
231062,-166.666666666667,4,1,1,5,0,0
231120,-76.9230769230769,4,1,1,80,0,1
234870,-90.9090909090909,4,1,1,70,0,0
242370,-76.9230769230769,4,1,1,80,0,1
243072,-71.4285714285714,4,1,1,80,0,1
243307,-66.6666666666667,4,1,1,80,0,1
243424,-76.9230769230769,4,1,1,80,0,1
245183,-500,4,1,1,80,0,0
246238,234.375,6,1,1,70,1,0
247175,-100,6,1,1,40,0,0
247527,-83.3333333333333,6,1,1,70,0,0
247644,234.375,4,1,1,70,1,0
247644,-83.3333333333333,4,1,1,70,0,0
253620,-83.3333333333333,4,1,1,70,0,0
253972,-76.9230769230769,4,1,1,70,0,0
254323,-71.4285714285714,4,1,1,70,0,0
254675,-200,4,2,1,30,0,0
254733,-200,4,2,1,35,0,0
254792,-200,4,2,1,40,0,0
254851,-200,4,2,1,45,0,0
254909,-200,4,2,1,50,0,0
254968,-200,4,2,1,5,0,0
255026,-83.3333333333333,4,1,1,70,0,0
260886,-71.4285714285714,4,1,1,70,0,0
261120,-62.5,4,1,1,70,0,0
261589,-166.666666666667,4,1,1,70,0,0
261706,234.375,6,1,1,70,1,0
262409,-100,6,3,0,20,0,0
262643,-100,6,3,0,25,0,0
262877,-100,6,3,0,30,0,0
263112,234.375,3,2,1,40,1,0
263112,-142.857142857143,3,2,1,40,0,0

[Colours]
Combo1 : 255,210,74
Combo2 : 47,253,108
Combo3 : 62,201,253
Combo4 : 255,125,47

[HitObjects]
399,119,2025,5,2,0:0:0:0:
399,119,2142,2,0,P|380:177|373:244,1,125.999996154785,0|2,0:0|0:0,0:0:0:0:
373,241,2610,1,2,0:0:0:0:
272,232,2728,1,0,0:0:0:0:
189,289,2845,2,0,L|41:267,2,125.999996154785,2|0|0,0:0|0:0|0:0,0:0:0:0:
135,182,3431,2,0,L|54:172,1,62.9999980773926,2|0,0:0|0:0,0:0:0:0:
222,117,3665,2,0,P|232:80|232:50,1,62.9999980773926
292,195,3900,5,2,0:0:0:0:
292,195,4017,2,0,P|279:258|292:335,1,125.999996154785,0|2,0:0|0:0,0:0:0:0:
286,318,4485,1,0,0:0:0:0:
382,264,4603,1,2,0:0:0:0:
467,334,4720,2,0,L|485:200,1,125.999996154785,2|0,0:0|0:0,0:0:0:0:
377,79,5071,2,0,P|390:121|402:148,1,62.9999980773926,0|2,0:0|0:0,0:0:0:0:
260,235,5306,2,0,P|294:195|318:177,1,62.9999980773926,2|0,0:0|0:0,0:0:0:0:
180,85,5540,2,0,P|214:101|249:110,1,62.9999980773926,2|0,0:0|0:0,0:0:0:0:
126,195,5775,5,2,0:0:0:0:
126,195,5892,2,0,B|86:191|86:191|48:213|48:213|4:209,2,125.999996154785,0|2|0,0:0|0:0|0:0,0:0:0:0:
211,271,6478,1,2,0:0:0:0:
304,206,6595,2,0,L|292:71,1,125.999996154785,0|2,0:0|0:0,0:0:0:0:
292,80,7064,1,2,0:0:0:0:
404,186,7181,2,0,L|394:265,1,62.9999980773926,2|0,0:0|0:0,0:0:0:0:
187,248,7415,2,0,L|199:319,1,62.9999980773926,2|0,0:0|0:0,0:0:0:0:
345,363,7650,5,2,0:0:0:0:
345,363,7767,2,0,P|402:346|479:345,1,125.999996154785,0|2,0:0|0:0,0:0:0:0:
474,281,8235,2,0,P|468:324|468:355,1,62.9999980773926,2|0,0:0|0:0,0:0:0:0:
393,182,8470,2,0,P|366:216|350:243,1,62.9999980773926,2|0,0:0|0:0,0:0:0:0:
411,44,8704,2,0,P|350:56|289:94,1,125.999996154785,2|0,0:0|0:0,0:0:0:0:
237,214,9056,5,2,0:0:0:0:
329,181,9173,1,0,0:0:0:0:
202,124,9290,1,2,0:0:0:0:
142,250,9407,1,0,0:0:0:0:
269,307,9525,5,2,0:0:0:0:
269,307,9642,2,0,B|311:262|311:262|329:182,1,144,0|2,0:0|0:0,0:0:0:0:
329,181,10110,1,2,0:0:0:0:
217,210,10228,1,0,0:0:0:0:
105,240,10345,2,0,B|74:84,1,144,2|0,0:0|0:0,0:0:0:0:
229,38,10696,2,0,B|221:73|221:73|196:106,1,72,0|2,0:0|0:0,0:0:0:0:
6,104,10931,2,0,B|40:93|40:93|81:98,1,72,2|0,0:0|0:0,0:0:0:0:
217,210,11165,2,0,B|252:214|252:214|287:203,1,72
432,63,11400,5,2,0:0:0:0:
432,63,11517,2,0,P|417:144|426:210,2,144,0|2|0,0:0|0:0|0:0,0:0:0:0:
320,218,12103,2,0,P|335:256|360:288,1,72,2|0,0:0|0:0,0:0:0:0:
323,110,12337,1,2,0:0:0:0:
215,252,12454,2,0,P|153:269|52:265,1,144
60,94,12806,2,0,P|71:129|80:174,1,72,2|0,0:0|0:0,0:0:0:0:
196,77,13040,2,0,P|202:54|214:27,2,48,0|2|0,0:0|0:0|0:0,0:0:0:0:
184,175,13275,5,2,0:0:0:0:
184,175,13392,2,0,P|243:169|296:73,1,161.999995056153,0|2,0:0|0:0,0:0:0:0:
296,88,13860,1,0,0:0:0:0:
411,134,13978,1,2,0:0:0:0:
315,208,14095,2,0,L|300:109,1,80.9999975280763,2|0,0:0|0:0,0:0:0:0:
380,288,14329,2,0,B|337:310|337:310|215:296,1,161.999995056153,2|0,0:0|0:0,0:0:0:0:
95,158,14681,2,0,P|109:202|119:252,1,80.9999975280763
233,80,14915,2,0,P|224:118|217:170,1,80.9999975280763,2|0,0:0|0:0,0:0:0:0:
122,23,15150,5,2,0:0:0:0:
122,23,15267,2,0,P|175:40|296:47,2,161.999995056153,0|2|2,0:0|0:0|0:0,0:0:0:0:
18,100,15853,1,0,0:0:0:0:
120,179,15970,2,0,B|136:229|136:229|94:351,1,161.999995056153,2|0,0:0|0:0,0:0:0:0:
253,368,16321,2,0,L|232:277,1,80.9999975280763
298,140,16556,5,2,0:0:0:0:
321,236,16673,1,0,0:0:0:0:
156,227,16790,1,2,0:0:0:0:
194,132,16907,1,2,0:0:0:0:
321,236,17025,5,2,0:0:0:0:
156,227,17142,2,0,L|67:223,1,80.9999975280763
194,132,17376,1,2,0:0:0:0:
234,289,17493,2,0,L|254:374,1,80.9999975280763
321,236,17728,2,0,L|343:147,1,80.9999975280763,2|0,0:0|0:0,0:0:0:0:
215,10,17962,5,6,0:0:0:0:
234,289,18079,2,0,B|255:327|255:327|307:361,1,90,0|0,3:0|3:0,3:0:0:0:
126,20,18314,5,6,0:0:0:0:
326,261,18431,2,0,B|370:285|370:285|430:287,1,99.0000030212403,0|0,3:0|3:0,3:0:0:0:
67,82,18665,5,6,0:0:0:0:
394,192,18782,2,0,B|447:190|447:190|497:162,1,107.999996704102,0|0,3:0|3:0,3:0:0:0:
62,168,19017,5,6,0:0:0:0:
422,96,19134,2,0,B|471:65|471:65|499:12,1,116.999994644165,0|0,3:0|3:0,3:0:0:0:
220,104,19368,5,0,2:3:0:0:
256,192,19485,1,2,2:3:0:0:
292,280,19603,1,2,2:3:0:0:
155,181,19720,6,2,P|121:108|187:13,1,198.000006042481,4|2,0:2|0:0,0:0:0:0:
317,184,20071,2,0,P|298:243|289:299,1,99.0000030212403,8|0,0:0|2:0,0:0:0:0:
90,352,20305,2,2,P|78:304|55:243,1,99.0000030212403,0|2,0:0|0:0,0:0:0:0:
256,100,20540,1,8,0:0:0:0:
176,241,20657,6,2,P|154:167|146:24,1,198.000006042481,0|2,0:0|0:0,0:0:0:0:
298,211,21008,1,8,0:0:0:0:
123,353,21126,2,2,P|56:334|12:329,1,99.0000030212403,2|0,0:0|0:0,0:0:0:0:
259,305,21360,1,2,0:0:0:0:
380,366,21477,2,0,P|441:349|483:327,1,99.0000030212403,8|0,0:0|2:0,0:0:0:0:
259,199,21712,5,2,0:0:0:0:
229,328,21829,2,0,L|236:378,2,49.5000015106202,2|2|8,0:2|0:2|0:0,0:0:0:0:
367,220,22063,1,0,0:0:0:0:
172,119,22180,5,2,0:2:0:0:
270,237,22297,1,2,0:2:0:0:
356,50,22415,1,8,0:0:0:0:
122,28,22532,6,0,L|148:239,1,198.000006042481
35,364,22883,2,0,B|18:318|18:318|41:257,1,99.0000030212403,8|0,0:0|2:0,0:0:0:0:
265,189,23118,1,0,3:0:0:0:
261,213,23176,1,0,3:0:0:0:
258,237,23235,1,0,3:0:0:0:
255,261,23294,1,0,3:0:0:0:
252,285,23352,1,8,0:0:0:0:
126,91,23469,6,2,B|175:111|221:95|221:95|271:79|331:105,1,198.000006042481,4|2,0:2|0:0,0:0:0:0:
138,312,23821,2,0,P|125:240|136:197,1,99.0000030212403,8|0,0:0|2:0,0:0:0:0:
393,235,24055,2,2,P|382:301|358:345,1,99.0000030212403,0|2,0:0|0:0,0:0:0:0:
265,189,24290,1,8,0:0:0:0:
410,25,24407,6,2,P|492:95|483:185,1,198.000006042481,0|2,0:0|0:0,0:0:0:0:
291,73,24758,1,8,0:0:0:0:
153,39,24876,2,0,P|93:58|64:99,1,99.0000030212403,2|0,0:0|0:0,0:0:0:0:
265,189,25110,1,2,0:0:0:0:
400,110,25227,1,8,3:1:0:0:
406,85,25286,1,0,3:0:0:0:
408,60,25344,1,0,3:0:0:0:
403,35,25403,1,0,3:0:0:0:
391,13,25462,6,2,L|285:27,1,99.0000030212403,12|2,0:0|0:0,0:0:0:0:
107,262,25696,1,0,3:0:0:0:
80,46,25813,6,2,L|191:59,1,107.999996704102,12|2,0:0|0:0,0:0:0:0:
398,292,26047,1,0,3:0:0:0:
461,87,26165,6,2,L|344:101,1,116.999994644165,12|2,0:0|0:0,0:0:0:0:
114,352,26399,1,0,3:0:0:0:
13,119,26516,6,2,L|141:134,1,125.999996154785,12|2,0:0|0:0,0:0:0:0:
386,379,26750,1,0,3:0:0:0:
256,287,26868,6,2,B|261:264|261:264|247:250|247:250|256:181,1,112.5,2|0,0:0|0:0,1:0:0:0:
334,90,27219,6,2,P|420:87|462:180,1,198.000006042481,4|2,0:2|0:0,0:0:0:0:
151,244,27571,2,0,B|133:199|133:199|137:140,1,99.0000030212403,8|0,0:0|2:0,0:0:0:0:
374,257,27805,2,2,B|377:307|377:307|359:352,1,99.0000030212403,0|2,0:0|0:0,0:0:0:0:
66,310,28040,1,8,0:0:0:0:
265,112,28157,6,2,B|249:176|249:176|265:239|265:239|251:304,1,198.000006042481,0|2,0:0|0:0,0:0:0:0:
140,88,28508,1,8,0:0:0:0:
369,83,28626,2,2,L|342:190,1,99.0000030212403,2|0,0:0|0:0,0:0:0:0:
147,241,28860,1,2,0:0:0:0:
211,32,28977,1,10,0:0:0:0:
245,210,29094,1,2,0:0:0:0:
73,145,29212,5,2,0:0:0:0:
269,113,29329,2,0,L|322:107,2,49.5000015106202,2|2|12,0:2|0:2|0:0,0:0:0:0:
106,50,29563,1,0,0:0:0:0:
281,214,29680,5,2,0:2:0:0:
400,27,29797,1,2,0:2:0:0:
233,119,29915,1,8,0:0:0:0:
420,217,30032,6,0,P|458:174|435:43,1,198.000006042481,2|0,0:2|0:0,0:0:0:0:
281,214,30383,2,0,L|294:271,1,49.5000015106202,8|0,0:0|3:0,3:0:0:0:
444,351,30501,2,0,L|456:288,1,49.5000015106202,0|0,3:0|3:0,3:0:0:0:
358,124,30618,5,8,0:0:0:0:
255,369,30735,1,2,2:0:0:0:
255,369,30969,6,2,B|300:338|300:338|304:253|245:208,1,198.000006042481,4|2,0:2|0:0,0:0:0:0:
47,206,31321,1,8,0:0:0:0:
135,358,31438,1,0,3:0:0:0:
141,334,31497,1,0,3:0:0:0:
147,309,31556,1,10,0:0:0:0:
74,104,31672,2,0,L|48:39,2,49.5000015106202,0|0|8,3:0|3:0|0:0,3:0:0:0:
21,307,31907,5,2,3:1:0:0:
26,330,31965,1,0,3:0:0:0:
30,354,32024,1,8,0:0:0:0:
167,159,32141,2,0,P|172:133|185:97,2,49.5000015106202,0|0|8,3:0|3:0|0:0,3:0:0:0:
244,302,32376,5,2,3:1:0:0:
248,326,32434,1,0,3:0:0:0:
248,350,32493,1,8,0:0:0:0:
320,156,32610,2,0,P|327:128|340:93,2,49.5000015106202,2|0|8,3:1|3:0|0:0,0:0:0:0:
425,303,32844,1,0,3:0:0:0:
433,336,32903,1,0,3:0:0:0:
433,369,32962,1,10,0:0:0:0:
445,206,33079,6,0,L|427:138,1,58.4999973220826,0|0,3:0|3:0,3:0:0:0:
394,11,33196,1,8,0:0:0:0:
336,254,33313,6,0,L|317:184,1,67.5000025749208,2|0,3:1|3:0,3:0:0:0:
268,3,33430,1,10,0:0:0:0:
212,257,33547,5,8,0:0:0:0:
154,46,33665,1,10,0:0:0:0:
92,216,33782,6,2,B|68:301|131:360|131:360|149:325|133:295,1,225,6|0,0:2|0:0,1:0:0:0:
134,296,34719,5,0,0:0:0:0:
148,263,34836,1,0,0:0:0:0:
187,226,34953,1,0,0:0:0:0:
249,193,35070,1,2,0:0:0:0:
339,191,35188,1,2,0:0:0:0:
426,231,35305,6,0,P|455:261|466:295,1,62.9999980773926,2|0,0:0|0:0,0:0:0:0:
366,311,35539,1,2,0:3:0:0:
418,131,35656,2,0,L|447:71,2,62.9999980773926,2|0|2,0:0|0:0|0:3,0:0:0:0:
319,202,36008,6,0,L|295:136,1,62.9999980773926,2|0,0:0|0:0,0:0:0:0:
330,43,36242,1,2,0:3:0:0:
219,216,36359,2,0,P|210:244|207:285,2,62.9999980773926,2|0|2,0:0|0:0|0:3,0:0:0:0:
197,108,36711,6,0,P|163:82|133:69,1,62.9999980773926,2|0,0:0|0:0,0:0:0:0:
119,176,36945,1,2,0:3:0:0:
297,142,37062,2,0,L|368:135,2,62.9999980773926,2|0|2,0:0|0:0|0:3,0:0:0:0:
222,274,37414,6,0,L|145:262,1,62.9999980773926,2|0,0:0|0:0,0:0:0:0:
343,335,37648,6,0,P|346:279|343:255,1,76.5000014591217,2|2,0:3|0:3,0:0:0:0:
178,61,37883,6,0,P|175:110|183:155,1,90,0|0,3:0|3:0,0:0:0:0:
255,194,38058,1,0,3:0:0:0:
278,196,38117,6,0,P|372:171|474:162,1,180,4|8,0:2|0:0,0:0:0:0:
452,62,38468,1,0,0:0:0:0:
316,43,38585,2,0,P|322:96|337:145,1,90
412,343,38820,1,0,0:0:0:0:
475,248,38937,6,0,P|354:232|287:235,1,180,8|0,0:0|0:0,0:0:0:0:
139,347,39288,2,0,P|173:308|198:269,1,90,8|0,0:0|0:0,0:0:0:0:
272,53,39523,1,0,0:0:0:0:
147,57,39640,1,0,0:0:0:0:
209,159,39757,2,0,P|190:110|167:70,1,90,8|0,0:0|0:0,0:0:0:0:
11,229,39992,6,0,P|57:253|102:267,1,90
340,142,40226,2,0,P|354:79|357:40,1,90,8|0,0:0|0:0,0:0:0:0:
216,184,40460,1,0,0:0:0:0:
421,222,40577,2,0,P|480:207|514:192,1,90
337,332,40812,6,0,B|311:320|293:291|293:291|232:279|179:319,1,180,12|0,0:0|0:0,0:0:0:0:
47,188,41163,2,0,P|94:206|138:230,1,90,8|0,0:0|0:0,0:0:0:0:
330,110,41398,1,2,0:0:0:0:
229,56,41515,1,0,0:0:0:0:
233,171,41632,2,2,P|246:235|258:313,1,135,10|0,0:0|2:0,0:0:0:0:
290,337,41867,6,0,P|310:286|330:237,1,90,2|0,0:2|0:0,0:0:0:0:
148,238,42101,2,0,P|131:189|111:143,1,90,8|0,0:0|0:0,0:0:0:0:
371,106,42335,1,0,0:0:0:0:
281,29,42452,2,0,P|263:86|254:125,1,90
443,317,42687,6,0,P|467:221|472:137,1,180,8|0,0:0|0:0,0:0:0:0:
250,219,43038,2,0,L|350:249,1,90,8|0,0:0|0:0,0:0:0:0:
131,322,43273,1,0,0:0:0:0:
226,212,43390,1,0,0:0:0:0:
99,118,43507,2,0,P|96:183|101:222,1,90,8|0,0:0|0:0,0:0:0:0:
343,143,43742,6,0,P|315:93|284:58,1,90
52,301,43976,2,0,P|101:333|141:346,1,90,8|0,0:0|0:0,0:0:0:0:
342,237,44210,1,0,0:0:0:0:
188,125,44327,2,0,P|126:117|79:120,1,90
307,333,44562,6,0,B|378:346|426:297|426:297|455:300|474:318,1,180,12|0,0:0|0:0,0:0:0:0:
476,100,44913,2,0,P|417:116|382:137,1,90,8|0,0:0|3:0,0:0:0:0:
369,153,45089,1,0,3:0:0:0:
369,153,45148,1,8,0:0:0:0:
240,92,45265,5,0,0:0:0:0:
215,103,45324,1,0,0:0:0:0:
188,107,45382,1,8,0:0:0:0:
160,106,45441,1,0,3:0:0:0:
134,97,45499,1,0,3:0:0:0:
110,83,45558,1,0,3:0:0:0:
91,63,45617,6,0,B|107:110|107:110|79:243,1,180,4|8,0:2|0:0,0:0:0:0:
281,207,45968,1,0,0:0:0:0:
191,360,46085,2,0,B|177:319|177:319|188:261,1,90
340,118,46320,1,0,0:0:0:0:
461,303,46437,6,0,B|404:297|404:297|349:322|349:322|287:314,1,180,8|0,0:0|0:0,0:0:0:0:
152,168,46788,2,0,B|202:165|202:165|252:183,1,90,8|0,0:0|0:0,0:0:0:0:
469,153,47023,1,0,0:0:0:0:
340,118,47141,1,0,0:0:0:0:
461,63,47257,2,0,L|469:165,1,90,8|0,0:0|0:0,0:0:0:0:
323,334,47492,6,0,L|350:245,1,90
190,102,47726,2,0,L|241:181,1,90,8|0,0:0|0:0,0:0:0:0:
260,18,47960,1,0,0:0:0:0:
158,256,48077,2,0,L|119:349,1,90
16,112,48312,6,0,B|69:119|69:119|132:93|132:93|189:101,1,180,12|0,0:0|0:0,0:0:0:0:
446,144,48663,2,0,L|352:156,1,90,8|0,0:0|0:0,0:0:0:0:
147,206,48898,1,2,0:0:0:0:
257,279,49015,1,0,0:0:0:0:
328,158,49132,1,10,0:0:0:0:
457,247,49249,6,2,P|475:156|475:55,1,180,2|0,0:0|0:0,0:0:0:0:
188,44,49601,2,0,P|201:118|212:149,1,90,8|0,0:0|0:0,0:0:0:0:
305,282,49835,2,0,P|321:226|326:182,1,90
98,170,50070,2,0,P|127:206|173:238,1,90,0|8,0:0|0:0,0:0:0:0:
400,109,50304,2,0,P|360:90|303:79,1,90
128,331,50538,6,0,P|170:332|223:321,1,90,8|0,0:0|0:0,0:0:0:0:
199,11,50773,2,0,P|177:47|160:98,1,90
440,233,51007,2,0,P|420:196|384:156,1,90,8|0,0:0|0:0,0:0:0:0:
162,92,51242,5,0,0:0:0:0:
161,231,51359,1,0,0:0:0:0:
282,162,51476,2,0,B|300:119|300:119|300:64,1,90,8|0,0:0|0:0,0:0:0:0:
59,110,51710,5,8,0:0:0:0:
63,132,51769,1,0,3:0:0:0:
67,153,51827,1,0,3:0:0:0:
71,175,51886,1,0,3:0:0:0:
100,188,51945,5,8,0:0:0:0:
93,222,52003,1,0,3:0:0:0:
85,257,52062,1,0,3:0:0:0:
78,292,52120,1,0,3:0:0:0:
71,327,52179,6,0,B|118:311|165:324|165:324|215:334|258:311,1,188.999994232178,4|0,0:2|2:0,0:0:0:0:
280,219,52647,1,0,0:0:0:0:
367,176,52764,1,0,0:0:0:0:
446,231,52882,1,8,0:0:0:0:
442,327,52999,6,0,B|395:311|348:324|348:324|298:334|256:312,1,190.800000291138,2|8,2:2|0:0,0:0:0:0:
246,206,53585,1,2,0:2:0:0:
151,161,53702,1,0,0:0:0:0:
65,222,53819,1,8,0:0:0:0:
70,327,53936,6,0,B|117:311|164:324|164:324|214:334|256:312,1,190.800000291138,4|0,1:0|3:0,1:2:0:0:
285,281,54483,1,0,3:0:0:0:
298,241,54561,1,0,3:0:0:0:
293,199,54639,1,8,0:0:0:0:
427,194,54757,1,0,0:0:0:0:
441,327,54874,6,0,B|394:311|347:324|347:324|297:334|254:311,1,188.999994232178,8|4,0:0|1:2,0:0:0:0:
199,176,55343,1,0,2:0:0:0:
314,152,55460,2,0,P|313:195|309:225,1,62.9999980773926,2|0,0:2|0:0,0:0:0:0:
145,281,55694,2,0,P|115:258|88:229,1,62.9999980773926
155,24,55929,6,0,P|188:84|198:179,1,161.999995056153,4|0,0:0|2:0,0:0:0:0:
310,214,56163,2,0,P|284:294|221:370,1,161.999995056153,4|0,0:0|2:0,0:0:0:0:
97,240,56397,2,0,P|82:194|91:124,1,107.999996704102,8|0,0:0|2:0,0:0:0:0:
277,40,56749,6,0,P|331:56|462:53,1,180,4|0,0:0|0:0,0:0:0:0:
209,128,57100,1,0,0:0:0:0:
209,128,57335,2,0,P|259:162|360:188,1,161.999995056153,12|0,0:0|2:0,0:0:0:0:
503,130,57804,6,0,L|484:304,1,161.999995056153,4|0,0:0|2:0,0:0:0:0:
385,187,58038,2,0,L|366:361,1,161.999995056153,4|0,0:0|2:0,0:0:0:0:
266,244,58272,2,0,L|253:357,1,107.999996704102,8|0,0:0|2:0,0:0:0:0:
141,195,58624,6,0,L|120:12,1,180,4|0,0:0|0:0,0:0:0:0:
75,286,58975,1,0,0:0:0:0:
75,286,59210,2,0,L|206:172,1,161.999995056153,12|0,0:0|2:0,0:0:0:0:
397,100,59679,6,0,P|401:159|313:194,1,161.999995056153,4|0,0:0|2:0,0:0:0:0:
197,179,59913,2,0,P|247:144|320:205,1,161.999995056153,4|0,0:0|2:0,0:0:0:0:
387,263,60147,2,0,P|334:241|319:192,1,107.999996704102,8|0,0:0|2:0,0:0:0:0:
500,80,60499,6,0,P|490:132|475:176,1,90,4|0,0:0|2:0,0:0:0:0:
387,263,60733,1,0,0:0:0:0:
223,135,60850,2,0,P|263:103|306:80,1,90,0|0,0:0|2:0,0:0:0:0:
239,282,61085,2,0,P|155:264|94:214,1,161.999995056153,12|0,0:0|2:0,0:0:0:0:
343,209,61554,6,0,B|366:285|366:285|335:372,1,161.999995056153,4|0,0:0|2:0,0:0:0:0:
239,282,61788,2,0,B|216:206|216:206|247:119,1,161.999995056153,4|0,0:0|2:0,0:0:0:0:
378,86,62022,2,0,B|391:138|391:138|363:194,1,107.999996704102,8|0,0:0|2:0,0:0:0:0:
121,125,62374,6,0,L|102:21,1,90,4|0,0:0|2:0,0:0:0:0:
243,128,62608,1,0,0:0:0:0:
104,239,62725,2,0,L|15:221,1,90,0|0,0:0|2:0,0:0:0:0:
243,128,62960,2,0,B|298:122|298:122|347:138|347:138|404:131,1,161.999995056153,12|0,0:0|2:0,0:0:0:0:
423,269,63429,6,0,P|366:264|299:285,1,125.999996154785,4|0,1:2|0:0,0:0:0:0:
233,355,63780,1,0,1:0:0:0:
142,320,64132,1,0,1:0:0:0:
148,222,64483,1,0,1:0:0:0:
247,201,64776,5,0,1:0:0:0:
247,201,64835,1,0,1:0:0:0:
300,283,65069,1,0,1:0:0:0:
233,355,65186,1,0,1:0:0:0:
142,320,65304,6,0,P|131:254|106:186,1,125.999996154785,2|0,1:2|0:0,0:0:0:0:
154,91,65655,1,0,1:0:0:0:
251,168,66007,1,0,1:0:0:0:
305,59,66358,1,0,1:0:0:0:
396,141,66651,5,0,1:0:0:0:
396,141,66710,1,0,1:0:0:0:
305,59,66944,1,0,1:0:0:0:
251,168,67061,1,0,1:0:0:0:
154,91,67179,6,0,L|25:75,1,125.999996154785,2|0,1:2|0:0,0:0:0:0:
164,239,67530,2,0,B|121:286|121:286|111:353,1,125.999996154785,0|0,1:0|0:0,0:0:0:0:
400,347,67882,2,0,B|391:286|391:286|348:239,1,125.999996154785,0|0,1:0|0:0,0:0:0:0:
358,91,68233,2,0,L|487:75,1,125.999996154785,0|0,1:0|0:0,0:0:0:0:
466,158,68526,1,0,1:0:0:0:
462,180,68585,2,0,L|473:247,1,62.9999980773926,0|0,1:0|0:0,0:0:0:0:
488,334,68819,5,8,1:3:0:0:
333,265,68936,1,0,1:0:0:0:
466,158,69054,1,4,0:2:0:0:
355,363,69171,6,0,P|308:350|257:342,1,99.0000030212403,8|0,0:0|2:0,0:0:0:0:
157,21,69405,2,0,P|204:34|255:42,1,99.0000030212403,8|0,0:0|2:0,0:0:0:0:
450,248,69639,6,0,P|401:251|350:261,1,99.0000030212403,8|0,0:0|2:0,0:0:0:0:
62,136,69874,2,0,P|110:132|161:122,1,99.0000030212403,8|0,0:0|2:0,0:0:0:0:
504,108,70108,6,0,P|459:128|415:154,1,99.0000030212403,8|0,0:0|2:0,0:0:0:0:
8,276,70343,2,0,P|52:254|95:229,1,99.0000030212403,8|0,0:0|2:0,0:0:0:0:
224,30,70577,5,8,0:0:0:0:
174,263,70694,1,8,0:0:0:0:
179,286,70753,1,8,0:0:0:0:
183,310,70811,1,0,3:0:0:0:
188,334,70870,1,0,3:0:0:0:
193,357,70929,1,8,0:0:0:0:
387,251,71046,6,0,P|333:239|286:211,1,99.0000030212403,8|0,0:0|2:0,0:0:0:0:
125,133,71280,2,0,P|179:145|226:173,1,99.0000030212403,8|0,0:0|2:0,0:0:0:0:
276,357,71514,6,0,P|284:308|282:259,1,99.0000030212403,8|0,0:0|2:0,0:0:0:0:
235,26,71749,2,0,P|227:75|230:125,1,99.0000030212403,8|0,0:0|2:0,0:0:0:0:
439,193,71983,6,0,P|381:212|333:215,1,99.0000030212403,8|0,0:0|2:0,0:0:0:0:
73,191,72218,2,0,P|131:172|179:169,1,99.0000030212403,8|0,0:0|2:0,0:0:0:0:
354,300,72452,5,8,0:0:0:0:
134,378,72569,1,8,0:0:0:0:
108,348,72647,1,8,0:3:0:0:
113,309,72725,1,8,0:3:0:0:
144,286,72804,1,10,0:0:0:0:
455,345,72921,6,0,L|339:325,1,107.999996704102,10|0,0:0|2:0,0:0:0:0:
57,39,73155,2,0,L|173:59,1,107.999996704102,10|0,0:0|2:0,0:0:0:0:
489,212,73389,6,0,L|377:227,1,107.999996704102,10|0,0:0|2:0,0:0:0:0:
23,172,73624,2,0,L|135:157,1,107.999996704102,10|0,0:0|2:0,0:0:0:0:
497,76,73858,6,0,L|392:123,1,107.999996704102,10|0,0:0|2:0,0:0:0:0:
15,308,74093,2,0,L|120:261,1,107.999996704102,10|0,0:0|2:0,0:0:0:0:
325,42,74327,5,10,0:0:0:0:
187,342,74444,1,10,0:0:0:0:
325,42,74679,5,2,0:0:0:0:
231,35,74796,2,0,P|234:64|243:89,1,45,2|0,0:0|0:0,0:0:0:0:
362,124,75030,2,0,P|385:109|400:91,1,45,2|0,0:0|0:0,0:0:0:0:
194,156,75264,2,0,P|231:167|254:168,1,45,2|0,0:0|0:0,0:0:0:0:
318,122,75499,1,2,0:0:0:0:
238,79,75616,5,2,3:0:0:0:
314,210,75733,1,0,3:0:0:0:
188,294,75850,1,2,3:0:0:0:
419,363,75968,5,2,3:0:0:0:
332,216,76085,1,0,3:0:0:0:
476,124,76202,2,0,L|480:163,1,33.75,2|0,0:0|2:0,0:0:0:0:
436,244,76436,6,0,P|355:219|364:88,1,215.999993408203,4|0,0:2|0:0,0:0:0:0:
207,253,76788,2,0,P|236:306|253:364,1,107.999996704102,8|0,0:0|2:0,0:0:0:0:
448,143,77022,1,2,0:2:0:0:
322,52,77139,2,0,P|331:116|329:168,1,107.999996704102,2|8,0:2|0:0,0:0:0:0:
86,313,77374,6,0,P|29:262|54:122,1,215.999993408203,2|0,0:2|0:0,0:0:0:0:
311,234,77725,2,0,P|282:287|265:345,1,107.999996704102,8|0,0:0|2:0,0:0:0:0:
43,133,77960,1,2,0:2:0:0:
186,30,78077,2,0,P|177:94|179:146,1,107.999996704102,2|8,0:2|0:0,0:0:0:0:
441,304,78311,6,0,P|498:253|473:113,1,215.999993408203,2|0,0:2|0:0,0:0:0:0:
201,216,78663,2,0,P|230:269|247:327,1,107.999996704102,8|0,0:0|2:0,0:0:0:0:
483,124,78897,1,2,0:2:0:0:
315,12,79014,2,0,P|324:76|322:128,1,107.999996704102,2|8,0:2|0:0,0:0:0:0:
62,284,79249,6,0,P|5:233|30:93,1,215.999993408203,2|0,0:2|0:0,0:0:0:0:
316,190,79600,2,0,P|287:243|270:301,1,107.999996704102,8|0,0:0|2:0,0:0:0:0:
176,110,79835,1,0,3:0:0:0:
184,71,79893,1,0,3:0:0:0:
209,41,79952,1,0,3:0:0:0:
245,28,80011,1,0,3:0:0:0:
284,29,80069,1,8,0:0:0:0:
394,290,80186,6,0,B|339:278|289:307|289:307|238:333|184:318,1,215.999993408203,4|0,0:2|0:0,0:0:0:0:
30,179,80538,1,8,0:0:0:0:
231,224,80655,1,0,0:0:0:0:
25,275,80772,5,2,0:2:0:0:
222,126,80889,1,0,0:0:0:0:
0,92,81007,1,8,0:0:0:0:
231,224,81124,1,2,0:2:0:0:
124,21,81241,6,0,B|96:67|96:67|105:200,1,161.999995056153,2|0,0:2|2:0,0:0:0:0:
112,264,81475,1,8,0:0:0:0:
336,180,81593,1,0,0:0:0:0:
103,174,81710,5,0,0:0:0:0:
369,298,81827,1,2,0:2:0:0:
92,323,81944,6,0,P|103:296|112:260,1,62.9999980773926,8|0,0:0|0:0,0:0:0:0:
322,118,82061,2,0,P|327:152|337:184,1,62.9999980773926,0|0,3:0|3:0,3:0:0:0:
248,357,82179,5,14,0:0:0:0:
405,224,82296,2,0,P|453:226|498:244,1,90,0|0,3:0|3:0,3:0:0:0:
261,337,82530,5,14,0:0:0:0:
130,145,82647,2,0,P|81:150|27:181,1,107.999996704102,0|0,3:0|3:0,3:0:0:0:
249,319,82882,5,14,0:0:0:0:
391,70,82999,2,0,P|440:75|508:119,1,125.999996154785,0|0,3:0|3:0,3:0:0:0:
260,299,83233,5,14,0:0:0:0:
132,20,83350,2,0,P|83:25|3:83,1,144,0|0,3:0|3:0,3:0:0:0:
251,277,83585,6,2,B|240:238|256:208|256:208|272:177|261:146,1,134.999995880127,2|0,2:0|2:0,1:0:0:0:
161,172,83936,6,0,P|299:193|381:191,1,215.999993408203,4|0,0:2|0:0,0:0:0:0:
133,292,84288,2,0,P|83:317|39:350,1,107.999996704102,8|0,0:0|2:0,0:0:0:0:
252,329,84522,1,2,0:2:0:0:
47,205,84639,2,0,P|33:150|36:85,1,107.999996704102,2|8,0:2|0:0,0:0:0:0:
364,30,84874,6,0,P|337:136|240:142,1,215.999993408203,2|0,0:2|0:0,0:0:0:0:
47,205,85225,2,0,P|109:211|155:225,1,107.999996704102,8|0,0:0|2:0,0:0:0:0:
268,339,85460,1,2,0:2:0:0:
472,215,85577,2,0,P|485:160|483:95,1,107.999996704102,2|8,0:2|0:0,0:0:0:0:
114,54,85811,6,0,P|141:160|238:166,1,215.999993408203,2|0,0:2|0:0,0:0:0:0:
472,215,86163,2,0,P|410:221|364:235,1,107.999996704102,8|0,0:0|2:0,0:0:0:0:
236,349,86397,1,2,0:2:0:0:
28,225,86514,2,0,P|14:170|17:105,1,107.999996704102,2|8,0:2|0:0,0:0:0:0:
397,77,86749,6,0,P|370:183|273:189,1,215.999993408203,2|0,0:2|0:0,0:0:0:0:
28,225,87100,2,0,P|90:231|136:245,1,107.999996704102,8|0,0:0|0:0,0:0:0:0:
216,320,87276,1,0,0:0:0:0:
216,320,87335,5,8,0:0:0:0:
141,50,87452,1,2,2:0:0:0:
141,50,87686,6,0,B|108:82|96:125|96:125|101:176|130:209,1,180,4|0,0:2|0:0,0:0:0:0:
212,279,88038,1,2,0:2:0:0:
306,226,88155,1,0,0:0:0:0:
211,309,88272,5,8,0:0:0:0:
86,291,88389,1,2,0:2:0:0:
45,170,88507,1,0,0:0:0:0:
135,82,88624,1,2,0:2:0:0:
259,102,88741,6,0,L|311:111,2,45,0|0|8,0:0|2:0|0:0,0:0:0:0:
155,202,88975,1,2,0:2:0:0:
267,293,89093,1,0,3:0:0:0:
288,288,89151,1,0,3:0:0:0:
310,284,89210,1,8,0:0:0:0:
412,351,89327,1,0,3:0:0:0:
420,329,89386,1,0,3:0:0:0:
428,308,89444,1,8,0:0:0:0:
443,123,89561,6,0,B|378:187|378:187|474:206,1,180,4|0,0:2|0:2,0:2:0:0:
269,166,89913,2,0,L|157:146,1,90,2|0,0:2|2:0,0:0:0:0:
275,269,90147,1,8,0:0:0:0:
369,235,90264,1,0,0:0:0:0:
277,300,90382,1,2,0:2:0:0:
163,265,90499,6,0,P|156:210|165:167,1,90,2|0,0:2|0:0,0:0:0:0:
296,91,90733,1,8,0:0:0:0:
269,196,90850,1,0,0:0:0:0:
161,176,90968,1,0,3:0:0:0:
158,153,91026,1,0,3:0:0:0:
155,130,91085,1,8,0:0:0:0:
277,300,91202,1,0,3:0:0:0:
280,323,91261,1,0,3:0:0:0:
283,346,91319,1,8,0:0:0:0:
140,286,91436,6,0,L|367:257,1,215.999993408203,4|0,0:2|0:0,0:0:0:0:
485,129,91788,1,8,0:0:0:0:
305,151,91905,6,0,L|369:176,1,53.9999983520508,2|0,3:2|3:0,3:0:0:0:
505,228,92022,1,8,0:0:0:0:
341,311,92139,6,0,L|359:239,1,53.9999983520508,2|0,3:2|3:0,3:0:0:0:
398,77,92257,1,8,0:0:0:0:
219,253,92374,6,0,L|277:228,1,53.9999983520508,2|0,3:2|3:0,3:0:0:0:
485,129,92491,1,8,0:0:0:0:
308,25,92608,5,0,3:0:0:0:
301,57,92667,1,0,3:0:0:0:
294,89,92725,1,8,0:0:0:0:
432,309,92843,2,0,L|446:370,2,53.9999983520508,2|0|8,3:2|3:0|0:0,0:0:0:0:
199,143,93077,2,0,L|140:142,2,53.9999983520508,2|0|8,3:2|3:0|0:0,0:0:0:0:
372,166,93311,5,2,3:2:0:0:
385,148,93370,1,0,3:0:0:0:
398,130,93429,1,8,0:0:0:0:
301,283,93546,1,0,3:0:0:0:
312,308,93604,1,0,3:0:0:0:
324,334,93663,1,8,0:0:0:0:
199,143,93780,1,0,3:0:0:0:
209,112,93839,1,0,3:0:0:0:
219,81,93897,5,10,0:0:0:0:
96,246,94014,1,8,0:0:0:0:
301,283,94132,1,8,0:0:0:0:
427,118,94249,2,2,P|439:60|420:10,1,108,10|0,0:0|2:0,0:0:0:0:
423,15,95303,6,0,P|406:52|428:119,1,112.5,2|0,0:0|0:0,0:0:0:0:
506,180,95655,6,2,P|462:155|309:144,1,198.000006042481,4|2,0:2|0:0,0:0:0:0:
149,64,96006,2,0,P|205:52|255:29,1,99.0000030212403,8|0,0:0|2:0,0:0:0:0:
430,275,96240,2,2,P|365:290|332:304,1,99.0000030212403,0|2,0:0|0:0,0:0:0:0:
115,208,96475,1,8,0:0:0:0:
239,157,96592,6,2,B|247:220|247:220|220:282|220:282|229:354,1,198.000006042481,0|2,0:0|0:0,0:0:0:0:
362,158,96943,1,8,0:0:0:0:
95,111,97061,2,2,P|108:160|115:222,1,99.0000030212403,2|0,0:0|2:0,0:0:0:0:
37,364,97295,1,2,0:0:0:0:
13,185,97412,1,8,0:0:0:0:
127,310,97529,1,2,0:0:0:0:
197,124,97647,5,2,0:0:0:0:
234,307,97764,2,0,L|225:361,2,49.5000015106202,2|2|8,0:2|0:2|0:0,0:0:0:0:
114,207,97998,1,0,0:0:0:0:
346,156,98115,5,2,0:2:0:0:
227,275,98232,1,2,0:2:0:0:
275,57,98350,1,8,0:0:0:0:
441,204,98467,6,0,L|236:188,1,198.000006042481
99,54,98818,2,0,B|150:47|150:47|210:66,1,99.0000030212403,8|0,0:0|0:0,0:0:0:0:
174,265,99053,1,0,3:0:0:0:
152,244,99111,1,0,3:0:0:0:
130,223,99170,1,0,3:0:0:0:
133,193,99229,1,0,3:0:0:0:
136,164,99287,1,8,0:0:0:0:
395,85,99404,6,2,B|387:184|387:184|312:266,1,198.000006042481,4|2,0:2|0:0,0:0:0:0:
200,102,99756,2,0,L|224:4,1,99.0000030212403,8|0,0:0|2:0,0:0:0:0:
51,281,99990,2,2,L|82:383,1,99.0000030212403,0|2,0:0|0:0,0:0:0:0:
218,211,100225,1,8,0:0:0:0:
95,33,100342,6,2,P|79:91|60:139,1,99.0000030212403,2|0,0:0|2:0,0:0:0:0:
308,306,100576,2,2,P|323:243|337:202,1,99.0000030212403,0|10,0:0|0:0,0:0:0:0:
200,102,100811,1,2,0:0:0:0:
51,281,100928,5,8,0:0:0:0:
86,297,100986,1,0,0:0:0:0:
125,298,101045,1,0,0:0:0:0:
163,289,101104,1,0,0:0:0:0:
194,265,101162,5,0,3:0:0:0:
174,249,101221,1,0,3:0:0:0:
150,243,101279,1,0,3:0:0:0:
125,242,101338,1,0,3:0:0:0:
100,246,101397,6,2,B|78:200|78:200|83:143,1,99.0000030212403,12|2,0:0|0:0,0:0:0:0:
214,360,101631,1,0,3:0:0:0:
438,199,101748,6,2,B|460:150|460:150|455:93,1,107.999996704102,12|2,0:0|0:0,0:0:0:0:
297,335,101982,1,0,3:0:0:0:
56,172,102100,6,2,B|33:119|33:119|40:59,1,116.999994644165,12|2,0:0|0:0,0:0:0:0:
213,319,102334,1,0,3:0:0:0:
481,128,102451,6,2,B|504:71|504:71|495:7,1,125.999996154785,12|2,0:0|0:0,0:0:0:0:
291,296,102685,1,0,3:0:0:0:
16,82,102803,6,2,B|8:44|29:5|29:5|34:23|43:39,1,112.5,2|0,0:0|0:0,0:1:0:0:
118,104,103154,6,2,B|167:121|213:94|213:94|257:69|309:84,1,198.000006042481,4|2,0:2|0:0,0:0:0:0:
303,284,103506,2,0,P|278:233|273:181,1,99.0000030212403,8|0,0:0|2:0,0:0:0:0:
445,114,103740,1,2,0:0:0:0:
416,292,103857,1,0,0:0:0:0:
332,97,103975,1,8,0:0:0:0:
488,216,104092,6,2,P|416:197|284:191,1,198.000006042481
96,256,104443,1,8,0:0:0:0:
243,377,104561,2,2,P|234:320|215:271,1,99.0000030212403,2|0,0:0|2:0,0:0:0:0:
52,147,104795,1,2,0:0:0:0:
205,64,104912,2,2,P|186:116|178:169,1,99.0000030212403,8|2,0:0|0:0,0:0:0:0:
372,275,105147,5,2,0:0:0:0:
285,142,105264,2,0,L|276:196,2,49.5000015106202,2|2|8,0:2|0:2|0:0,0:0:0:0:
470,106,105498,1,0,0:0:0:0:
306,17,105615,5,2,0:2:0:0:
428,207,105732,1,2,0:2:0:0:
202,254,105850,1,8,0:0:0:0:
371,94,105967,1,2,0:2:0:0:
166,14,106084,6,0,L|180:115,1,99.0000030212403,8|0,0:0|0:0,0:0:0:0:
215,346,106318,1,8,0:0:0:0:
47,161,106436,6,0,P|74:151|101:146,1,49.5000015106202,0|0,3:0|3:0,3:0:0:0:
384,182,106553,1,12,0:0:0:0:
115,313,106670,1,2,2:0:0:0:
115,313,106904,6,2,B|131:246|106:178|106:178|125:201|164:211,1,198.000006042481,4|2,0:2|0:0,0:0:0:0:
345,171,107256,2,0,P|371:124|382:71,1,99.0000030212403,8|0,0:0|3:0,0:0:0:0:
458,172,107432,1,0,3:0:0:0:
464,200,107490,2,2,P|438:247|427:300,1,99.0000030212403,10|0,0:0|3:0,0:0:0:0:
346,377,107666,1,0,3:0:0:0:
322,359,107725,2,2,P|299:313|287:245,1,99.0000030212403,8|2,0:0|3:1,0:0:0:0:
310,185,107900,1,0,3:0:0:0:
310,185,107959,5,8,0:0:0:0:
157,209,108076,2,0,L|106:217,2,49.5000015106202,0|0|8,3:0|3:0|0:0,3:0:0:0:
376,250,108311,5,2,3:1:0:0:
376,250,108369,1,0,3:0:0:0:
376,250,108428,1,8,0:0:0:0:
213,85,108545,2,0,L|175:45,2,49.5000015106202,2|0|8,3:1|3:0|0:0,3:0:0:0:
263,306,108779,6,0,L|277:237,1,49.5000015106202,0|0,3:0|3:0,3:0:0:0:
307,81,108897,1,10,0:0:0:0:
131,207,109014,6,0,L|206:185,1,58.4999973220826,0|0,3:0|3:0,3:0:0:0:
389,128,109131,1,8,0:0:0:0:
167,35,109248,6,0,L|213:85,1,67.5000025749208,2|0,3:1|3:0,3:0:0:0:
376,250,109365,1,8,0:0:0:0:
312,50,109482,5,8,0:0:0:0:
263,306,109600,1,10,0:0:0:0:
133,118,109717,6,2,B|163:170|222:170|222:170|247:136|294:135|294:135|320:170|308:209,1,269.999991760254,12|0,0:0|2:0,0:0:0:0:
308,208,110537,5,0,0:0:0:0:
292,231,110654,1,0,0:0:0:0:
242,253,110771,1,0,0:0:0:0:
164,231,110888,1,0,0:0:0:0:
249,297,111005,5,0,0:0:0:0:
168,187,111123,1,0,0:0:0:0:
251,335,111240,6,0,P|262:211|276:151,1,180,4|0,0:2|2:0,0:0:0:0:
274,156,111708,5,0,0:0:0:0:
373,151,111825,2,0,P|364:194|355:219,1,62.9999980773926,2|0,0:0|0:0,0:0:0:0:
274,156,112060,1,2,0:0:0:0:
351,92,112177,6,0,P|364:120|372:150,1,62.9999980773926
467,226,112411,2,0,P|451:269|442:300,1,62.9999980773926,2|0,0:0|0:0,0:0:0:0:
372,150,112646,5,0,0:0:0:0:
465,92,112763,2,0,P|472:56|483:22,2,62.9999980773926,2|0|2,0:0|0:0|0:0,0:0:0:0:
274,156,113115,6,0,L|287:210,1,45,8|0,0:0|0:0,0:0:0:0:
184,151,113232,2,0,L|197:205,1,45,8|0,0:0|0:0,0:0:0:0:
224,323,113349,1,0,3:0:0:0:
224,323,113407,1,0,3:0:0:0:
224,323,113466,6,0,L|237:269,1,45,8|0,0:0|0:0,0:0:0:0:
134,328,113583,2,0,L|147:274,1,45,8|0,0:0|0:0,0:0:0:0:
91,164,113700,1,0,3:0:0:0:
91,164,113759,1,0,3:0:0:0:
91,164,113818,6,0,P|71:157|39:152,1,45,8|0,0:0|0:0,0:0:0:0:
174,117,113935,2,0,P|161:99|139:78,1,45,8|0,0:0|0:0,0:0:0:0:
48,248,114052,2,0,P|25:252|0:264,1,45,0|0,3:0|3:0,3:0:0:0:
146,263,114169,6,0,P|192:276|242:278,1,90,12|0,0:0|0:0,0:0:0:0:
362,217,114404,1,8,0:0:0:0:
267,184,114521,1,2,0:0:0:0:
332,310,114638,1,0,0:0:0:0:
396,123,114755,5,2,0:0:0:0:
233,278,114872,1,0,0:0:0:0:
493,148,114990,6,2,P|491:82|447:34,1,135,4|0,0:2|2:0,0:0:0:0:
416,22,115224,1,2,0:0:0:0:
416,22,115458,5,0,0:0:0:0:
327,71,115575,2,0,L|337:143,1,62.9999980773926,2|0,0:0|0:0,0:0:0:0:
466,262,115810,1,0,0:0:0:0:
371,280,115927,6,0,L|381:210,1,62.9999980773926,2|0,0:0|0:0,0:0:0:0:
242,119,116161,2,0,L|251:186,1,62.9999980773926,0|2,0:0|0:0,0:0:0:0:
162,321,116396,5,0,0:0:0:0:
162,321,116513,1,2,0:0:0:0:
107,244,116630,2,0,P|147:229|187:228,1,62.9999980773926,0|2,0:0|0:0,0:0:0:0:
283,291,116865,5,0,0:0:0:0:
67,333,116982,2,2,P|18:291|31:181,1,180,10|0,0:0|0:0,0:0:0:0:
318,307,117333,2,2,P|376:255|357:159,1,180,14|0,0:0|0:0,0:0:0:0:
138,218,117685,2,0,P|130:185|128:122,1,90,10|0,0:0|2:0,0:0:0:0:
242,22,117919,5,0,3:0:0:0:
255,55,117978,1,0,3:0:0:0:
259,90,118036,1,0,3:0:0:0:
359,162,118154,1,2,3:1:0:0:
353,126,118212,1,0,3:0:0:0:
358,90,118271,2,0,P|366:68|382:43,1,45,2|0,3:1|3:0,3:0:0:0:
459,127,118388,2,0,P|476:108|501:90,1,45,2|0,3:1|3:0,3:0:0:0:
484,231,118505,5,2,0:2:0:0:
411,34,118622,2,0,L|361:22,1,45,0|0,0:0|2:0,0:0:0:0:
290,184,118974,6,0,P|336:167|376:158,1,72,4|0,0:2|2:0,0:0:0:0:
233,269,119208,2,0,P|281:277|320:289,1,72,0|0,0:0|2:0,0:0:0:0:
140,315,119443,2,0,P|177:346|205:376,1,72,0|0,0:0|2:0,0:0:0:0:
47,207,119677,6,0,B|44:166|44:166|65:129,1,80.9999975280763,0|0,0:0|2:0,0:0:0:0:
226,11,119911,2,0,B|228:51|228:51|207:88,1,80.9999975280763,0|0,0:0|2:0,0:0:0:0:
30,23,120146,2,0,B|68:13|68:13|121:28,1,80.9999975280763,0|0,0:0|2:0,0:0:0:0:
240,197,120380,1,0,0:0:0:0:
64,131,120497,1,8,0:0:0:0:
250,73,120615,6,0,P|299:89|334:115,1,90,0|0,0:0|2:0,0:0:0:0:
148,288,120849,2,0,P|116:233|109:194,1,90,0|0,0:0|2:0,0:0:0:0:
444,104,121083,2,0,P|456:163|457:197,1,90,0|0,0:0|2:0,0:0:0:0:
301,326,121318,1,0,0:0:0:0:
240,197,121435,6,0,P|246:132|286:20,1,180,2|0,2:0|2:0,0:0:0:0:
375,220,121786,2,0,P|384:271|387:316,1,90,0|8,0:0|0:0,0:0:0:0:
384,349,121962,1,8,0:0:0:0:
384,349,122021,1,8,0:0:0:0:
281,279,122138,1,8,0:0:0:0:
196,366,122255,1,0,0:0:0:0:
277,255,122372,5,8,0:0:0:0:
143,184,122490,2,0,B|138:230|138:230|156:275,1,90,12|0,0:0|0:0,0:0:0:0:
53,317,122724,1,8,0:0:0:0:
10,214,122841,1,0,0:0:0:0:
12,191,122900,1,8,0:0:0:0:
14,168,122958,1,8,0:0:0:0:
107,106,123075,5,8,0:0:0:0:
161,204,123193,1,8,0:0:0:0:
159,226,123251,1,0,0:0:0:0:
157,248,123310,1,8,0:0:0:0:
154,270,123368,1,8,0:0:0:0:
152,292,123427,1,8,0:0:0:0:
246,352,123544,5,0,0:0:0:0:
341,294,123661,1,8,0:0:0:0:
333,182,123779,1,0,0:0:0:0:
331,159,123837,1,8,0:0:0:0:
329,136,123896,1,8,0:0:0:0:
420,71,124013,5,8,0:0:0:0:
495,153,124130,1,8,0:0:0:0:
497,175,124188,1,0,0:0:0:0:
499,197,124247,1,8,0:0:0:0:
502,219,124305,1,8,0:0:0:0:
504,241,124364,1,8,0:0:0:0:
425,321,124482,5,0,0:0:0:0:
350,239,124599,1,8,0:0:0:0:
258,303,124716,1,8,0:0:0:0:
260,326,124775,1,8,0:0:0:0:
262,348,124833,1,8,0:0:0:0:
155,313,124950,5,8,0:0:0:0:
102,214,125068,2,0,L|109:156,1,45,0|0,3:0|3:0,3:0:0:0:
174,78,125185,2,0,L|170:31,1,45,0|0,3:0|3:0,3:0:0:0:
256,148,125302,6,0,B|267:209|267:209|245:268|245:268|256:332,1,188.999994232178,4|2,0:2|2:0,0:0:0:0:
350,281,125770,1,0,0:0:0:0:
394,184,125887,1,0,0:0:0:0:
346,87,126005,1,8,0:0:0:0:
256,148,126122,6,0,B|244:209|244:209|268:268|268:268|256:332,1,190.800000291138,2|8,2:0|0:0,0:0:0:0:
145,285,126708,1,0,0:0:0:0:
95,176,126825,1,8,0:0:0:0:
160,76,126942,1,8,0:0:0:0:
256,148,127059,6,0,B|268:209|268:209|244:268|244:268|256:332,1,190.800000291138,4|0,0:0|3:0,0:0:0:0:
297,355,127606,1,0,3:0:0:0:
343,345,127684,1,0,3:0:0:0:
368,304,127762,1,8,0:0:0:0:
358,194,127880,1,0,0:0:0:0:
256,148,127997,6,0,B|245:209|245:209|267:268|267:268|256:332,1,188.999994232178,8|4,0:0|0:2,0:0:0:0:
97,368,128466,1,0,2:0:0:0:
144,231,128583,2,0,P|162:275|170:315,1,62.9999980773926,2|0,0:2|0:0,0:0:0:0:
50,183,128817,2,0,P|61:143|77:111,1,62.9999980773926
274,187,129052,6,0,P|227:241|137:224,1,161.999995056153,4|0,0:0|2:0,0:0:0:0:
254,105,129286,2,0,P|324:118|354:205,1,161.999995056153,4|0,0:0|2:0,0:0:0:0:
195,164,129520,2,0,P|172:110|184:61,1,107.999996704102,12|0,0:0|2:0,0:0:0:0:
442,154,129872,6,0,P|442:239|344:287,1,180,4|0,0:0|0:0,0:0:0:0:
305,33,130223,1,0,0:0:0:0:
305,33,130458,2,0,P|266:91|299:175,1,161.999995056153,12|0,0:0|2:0,0:0:0:0:
482,353,130927,6,0,L|316:307,1,161.999995056153,4|0,0:0|2:0,0:0:0:0:
333,184,131161,2,0,L|177:248,1,161.999995056153,4|0,0:0|2:0,0:0:0:0:
91,152,131395,2,0,L|55:256,1,107.999996704102,8|0,0:0|2:0,0:0:0:0:
227,343,131747,6,0,B|242:285|242:285|210:158,1,180,4|0,0:0|0:0,0:0:0:0:
44,36,132098,1,0,0:0:0:0:
44,36,132333,2,0,B|89:68|89:68|211:43,1,161.999995056153,12|0,0:0|2:0,0:0:0:0:
408,24,132802,6,0,P|380:100|355:193,1,161.999995056153,4|0,0:0|2:0,0:0:0:0:
223,134,133036,2,0,P|309:122|383:97,1,161.999995056153,4|0,0:0|2:0,0:0:0:0:
434,255,133270,2,0,P|402:227|351:168,1,107.999996704102,8|0,0:0|2:0,0:0:0:0:
126,205,133622,6,0,P|160:242|191:286,1,90,4|0,0:0|2:0,0:0:0:0:
323,302,133856,1,0,0:0:0:0:
358,177,133973,2,0,P|332:135|314:93,1,90,0|0,0:0|2:0,0:0:0:0:
84,49,134208,2,0,P|113:126|126:227,1,161.999995056153,12|0,0:0|2:0,0:0:0:0:
35,353,134677,6,0,B|76:338|110:362|110:362|150:373|189:348,1,161.999995056153,4|0,0:0|2:0,0:0:0:0:
291,279,134911,2,0,B|250:294|216:270|216:270|176:259|137:284,1,161.999995056153,4|0,0:0|2:0,0:0:0:0:
263,203,135145,2,0,P|241:164|235:90,1,107.999996704102,8|0,0:0|2:0,0:0:0:0:
404,27,135497,6,0,B|405:74|405:74|382:129,1,90,4|0,0:0|2:0,0:0:0:0:
291,279,135731,1,0,0:0:0:0:
476,311,135848,2,0,B|459:269|459:269|415:227,1,90,0|0,0:0|2:0,0:0:0:0:
210,198,136083,2,0,B|295:194|295:194|362:142,1,161.999995056153,12|0,0:0|2:0,0:0:0:0:
115,141,136552,5,4,1:2:0:0:
115,141,136786,2,0,L|104:207,1,62.9999980773926,2|0,0:0|0:0,0:0:0:0:
180,292,137020,1,0,0:0:0:0:
240,164,137137,2,0,P|231:103|215:36,1,125.999996154785,2|0,0:0|0:0,0:0:0:0:
216,40,137606,6,0,P|201:87|196:116,1,62.9999980773926,2|0,0:0|0:0,0:0:0:0:
232,303,137841,1,0,0:0:0:0:
358,220,137958,2,0,P|292:201|236:198,1,125.999996154785,2|0,0:0|0:0,0:0:0:0:
141,252,138309,1,0,0:0:0:0:
63,328,138427,6,0,L|48:191,1,125.999996154785,2|0,0:0|0:0,0:0:0:0:
155,345,138778,1,2,0:0:0:0:
141,252,138895,2,0,P|146:219|157:177,2,62.9999980773926,0|0|2,0:0|0:0|0:0,0:0:0:0:
249,333,139247,6,0,P|291:313|344:247,1,125.999996154785,0|2,0:0|0:0,0:0:0:0:
445,262,139598,2,0,P|437:212|430:193,1,62.9999980773926
253,130,139833,2,0,P|261:180|268:199,1,62.9999980773926,2|0,0:0|0:0,0:0:0:0:
399,8,140067,5,0,1:0:0:0:
256,104,140184,1,0,1:0:0:0:
413,179,140302,1,2,1:2:0:0:
413,179,140536,6,0,B|422:147|422:147|422:112,1,62.9999980773926,0|2,0:0|0:0,0:0:0:0:
269,7,140770,1,0,0:0:0:0:
339,131,140887,2,0,P|338:92|332:59,1,62.9999980773926,0|2,0:0|0:0,0:0:0:0:
164,60,141122,6,0,P|161:123|192:177,1,125.999996154785,0|2,0:0|0:0,0:0:0:0:
379,238,141473,2,0,P|329:240|297:247,1,62.9999980773926
144,362,141708,1,8,1:0:0:0:
174,352,141766,1,8,1:0:0:0:
200,334,141825,1,0,3:0:0:0:
218,309,141884,1,0,3:0:0:0:
226,279,141942,6,0,P|218:231|192:176,1,108,12|0,1:0|2:0,2:0:0:0:
128,121,142177,1,4,0:2:0:0:
324,321,142294,6,0,B|358:355|358:355|410:369,1,99.0000030212403,8|0,0:0|2:0,0:0:0:0:
187,62,142528,2,0,B|153:28|153:28|101:14,1,99.0000030212403,8|0,0:0|2:0,0:0:0:0:
384,263,142762,6,0,B|432:275|432:275|489:268,1,99.0000030212403,8|0,0:0|2:0,0:0:0:0:
128,121,142997,2,0,B|79:108|79:108|22:115,1,99.0000030212403,8|0,0:0|2:0,0:0:0:0:
402,180,143231,6,0,B|451:174|451:174|494:146,1,99.0000030212403,8|0,0:0|2:0,0:0:0:0:
110,204,143466,2,0,B|60:209|60:209|17:237,1,99.0000030212403,8|0,0:0|2:0,0:0:0:0:
381,97,143700,1,8,0:0:0:0:
210,50,143817,6,0,P|217:79|222:112,1,49.5000015106202,8|8,0:0|0:0,0:0:0:0:
293,189,143934,2,0,P|284:212|276:242,1,49.5000015106202,0|0,3:0|3:0,3:0:0:0:
256,344,144052,1,8,0:0:0:0:
417,187,144169,6,0,P|406:139|381:97,1,99.0000030212403,8|0,0:0|2:0,0:0:0:0:
95,197,144403,2,0,P|106:245|131:287,1,99.0000030212403,8|0,0:0|2:0,0:0:0:0:
395,302,144637,6,0,P|420:253|428:200,1,99.0000030212403,8|0,0:0|2:0,0:0:0:0:
116,82,144871,2,0,P|91:131|83:184,1,99.0000030212403,8|0,0:0|2:0,0:0:0:0:
309,380,145106,6,0,P|362:353|404:310,1,99.0000030212403,8|0,0:0|2:0,0:0:0:0:
202,4,145340,2,0,P|149:31|107:74,1,99.0000030212403,8|0,0:0|2:0,0:0:0:0:
131,287,145575,5,0,0:0:0:0:
360,205,145692,1,0,3:0:0:0:
369,154,145770,1,8,3:0:0:0:
342,109,145848,1,8,3:0:0:0:
293,93,145926,1,10,0:0:0:0:
302,349,146044,6,0,L|327:239,1,107.999996704102,10|0,0:0|2:0,0:0:0:0:
210,35,146278,2,0,L|185:145,1,107.999996704102,10|0,0:0|2:0,0:0:0:0:
418,293,146512,6,0,P|412:239|411:185,1,107.999996704102,10|0,0:0|2:0,0:0:0:0:
94,91,146747,2,0,P|99:144|101:199,1,107.999996704102,10|0,0:0|2:0,0:0:0:0:
512,213,146981,6,0,P|495:160|486:105,1,107.999996704102,10|0,0:0|2:0,0:0:0:0:
0,171,147216,2,0,P|17:224|26:279,1,107.999996704102,10|0,0:0|2:0,0:0:0:0:
242,354,147450,5,10,0:0:0:0:
270,30,147567,2,0,L|287:192,1,161.999995056153,10|0,0:0|2:0,0:0:0:0:
362,220,147802,5,0,0:0:0:0:
350,79,147919,2,0,L|345:27,1,45,2|0,0:0|0:0,0:0:0:0:
287,192,148153,5,0,0:0:0:0:
425,95,148270,2,0,L|478:57,1,53.9999983520508,2|0,0:0|0:0,0:0:0:0:
263,103,148505,5,0,0:0:0:0:
446,189,148622,2,0,L|502:216,1,62.9999980773926,2|0,0:0|0:0,0:0:0:0:
344,23,148856,5,0,0:0:0:0:
366,266,148973,2,0,L|372:342,1,72,2|0,0:0|0:0,0:0:0:0:
479,56,149208,5,2,0:0:0:0:
240,223,149325,2,0,L|204:247,1,33.75,2|0,0:0|0:0,0:0:0:0:
189,366,149559,6,0,B|260:361|260:361|321:320|321:320|391:315,1,215.999993408203,4|0,0:2|0:0,0:0:0:0:
196,141,149911,2,0,B|187:195|187:195|216:249,1,107.999996704102,8|0,0:0|2:0,0:0:0:0:
392,316,150145,1,2,0:2:0:0:
477,141,150262,2,0,L|457:26,1,107.999996704102,2|8,0:2|0:0,0:0:0:0:
196,141,150497,6,0,B|165:179|165:179|351:158,1,215.999993408203,2|0,0:2|0:0,0:0:0:0:
508,277,150848,2,0,B|464:250|464:250|402:252,1,107.999996704102,8|0,0:0|2:0,0:0:0:0:
191,339,151083,1,2,0:2:0:0:
45,159,151200,2,0,L|65:44,1,107.999996704102,2|8,0:2|0:0,0:0:0:0:
330,160,151434,6,0,B|352:202|352:202|165:178,1,215.999993408203,2|0,0:2|0:0,0:0:0:0:
7,298,151786,2,0,B|51:271|51:271|113:273,1,107.999996704102,8|0,0:0|2:0,0:0:0:0:
331,367,152020,1,2,0:2:0:0:
466,165,152137,2,0,L|446:50,1,107.999996704102,2|8,0:2|0:0,0:0:0:0:
185,181,152372,6,0,B|163:223|163:223|350:199,1,215.999993408203,2|0,0:2|0:0,0:0:0:0:
500,319,152723,2,0,B|456:292|456:292|394:294,1,107.999996704102,8|0,0:0|2:0,0:0:0:0:
271,100,152958,2,0,L|296:32,1,53.9999983520508,0|0,3:0|3:0,3:0:0:0:
330,201,153075,2,0,L|305:269,1,53.9999983520508,0|0,3:0|3:0,3:0:0:0:
185,181,153192,1,8,0:0:0:0:
418,123,153309,6,0,B|464:109|464:109|492:200|428:264,1,215.999993408203,4|0,0:2|0:0,0:0:0:0:
212,327,153661,1,8,0:0:0:0:
330,201,153778,1,0,0:0:0:0:
166,151,153895,5,2,0:2:0:0:
327,349,154012,1,0,0:0:0:0:
98,368,154130,1,8,0:0:0:0:
295,210,154247,1,2,0:2:0:0:
20,159,154364,5,2,0:2:0:0:
212,327,154481,1,0,0:0:0:0:
301,81,154598,1,8,0:0:0:0:
115,243,154716,1,0,0:0:0:0:
402,318,154833,5,0,0:0:0:0:
193,151,154950,1,2,0:2:0:0:
407,77,155067,6,0,B|402:109|402:109|388:141,1,62.9999980773926,8|0,0:0|0:0,0:0:0:0:
301,321,155184,2,0,B|305:290|305:290|319:259,1,62.9999980773926,0|0,3:0|3:0,3:0:0:0:
484,132,155302,5,14,0:0:0:0:
203,219,155419,2,0,P|158:198|118:192,1,90,0|0,3:0|3:0,3:0:0:0:
492,260,155653,5,14,0:0:0:0:
203,165,155770,2,0,P|158:186|100:193,1,107.999996704102,0|0,3:0|3:0,3:0:0:0:
500,116,156005,5,14,0:0:0:0:
203,219,156122,2,0,P|158:198|82:192,1,125.999996154785,0|0,3:0|3:0,3:0:0:0:
508,276,156356,5,14,0:0:0:0:
203,165,156473,2,0,P|158:186|64:192,1,144,0|0,3:0|3:0,3:0:0:0:
312,192,156708,6,2,B|344:179|344:179|378:192|378:192|412:179|412:179|439:190,1,134.999995880127,2|0,2:0|2:0,0:0:0:0:
411,277,157059,6,0,L|430:54,1,215.999993408203,4|0,0:2|0:0,0:0:0:0:
141,29,157411,2,0,B|123:82|123:82|140:145,1,107.999996704102,8|0,0:0|2:0,0:0:0:0:
386,189,157645,1,2,0:2:0:0:
249,308,157762,2,0,B|267:255|267:255|250:192,1,107.999996704102,2|8,0:2|0:0,0:0:0:0:
39,302,157997,6,0,B|105:294|105:294|168:320|168:320|254:307,1,215.999993408203,2|0,0:2|0:0,0:0:0:0:
455,104,158348,2,0,B|408:84|408:84|340:84,1,107.999996704102,8|0,0:0|2:0,0:0:0:0:
128,155,158583,1,2,0:2:0:0:
284,290,158700,2,0,B|266:237|266:237|283:174,1,107.999996704102,2|8,0:2|0:0,0:0:0:0:
494,284,158934,6,0,B|428:276|428:276|365:302|365:302|279:289,1,215.999993408203,2|0,0:2|0:0,0:0:0:0:
59,71,159286,2,0,B|106:51|106:51|174:51,1,107.999996704102,8|0,0:0|2:0,0:0:0:0:
398,119,159520,1,2,0:2:0:0:
216,258,159637,2,0,B|234:205|234:205|217:142,1,107.999996704102,2|8,0:2|0:0,0:0:0:0:
6,252,159872,6,0,B|72:244|72:244|135:270|135:270|221:257,1,215.999993408203,2|0,0:2|0:0,0:0:0:0:
467,36,160223,2,0,B|420:16|420:16|352:16,1,107.999996704102,8|0,0:0|0:0,0:0:0:0:
284,50,160399,1,0,0:0:0:0:
278,34,160458,5,8,0:0:0:0:
224,273,160575,1,2,2:0:0:0:
224,273,160809,6,0,B|248:288|260:312|260:312|307:261|286:196,1,180,4|0,0:2|0:0,0:0:0:0:
203,123,161161,1,2,0:2:0:0:
137,208,161278,1,0,0:0:0:0:
224,273,161395,5,8,0:0:0:0:
302,174,161512,1,2,0:2:0:0:
247,59,161630,1,0,0:0:0:0:
121,58,161747,1,2,0:2:0:0:
263,74,161864,5,0,0:0:0:0:
393,12,161981,2,0,P|378:68|370:121,1,90,8|2,0:0|0:2,0:0:0:0:
487,187,162216,1,0,3:0:0:0:
481,165,162274,1,0,3:0:0:0:
476,142,162333,1,8,0:0:0:0:
390,236,162450,1,0,3:0:0:0:
387,257,162509,1,0,3:0:0:0:
385,280,162567,1,8,0:0:0:0:
494,353,162684,6,0,B|482:328|462:311|462:311|393:305|345:360,1,180,4|0,0:2|0:2,0:0:0:0:
203,313,163036,2,0,P|246:262|261:237,1,90,2|0,0:2|2:0,0:0:0:0:
354,77,163270,2,0,P|385:131|406:158,1,90,8|0,0:0|0:0,0:0:0:0:
327,350,163505,1,2,0:2:0:0:
267,219,163622,5,2,0:2:0:0:
353,342,163739,1,0,0:0:0:0:
425,167,163856,1,8,0:0:0:0:
260,130,163973,2,0,P|255:175|266:218,1,90,0|0,0:0|3:0,0:0:0:0:
328,266,164149,1,0,3:0:0:0:
350,261,164208,1,8,0:0:0:0:
159,194,164325,1,0,3:0:0:0:
136,197,164384,1,0,3:0:0:0:
114,201,164442,1,8,0:0:0:0:
364,99,164559,6,0,P|317:38|183:50,1,215.999993408203,4|0,0:2|0:0,0:0:0:0:
147,294,164911,1,8,0:0:0:0:
260,130,165028,6,0,L|195:137,1,53.9999983520508,2|0,3:2|3:0,3:0:0:0:
45,150,165145,1,8,0:0:0:0:
282,243,165262,6,0,L|201:225,1,58.4999973220826,2|0,3:2|3:0,3:0:0:0:
31,182,165380,1,8,0:0:0:0:
247,361,165497,6,0,L|172:314,1,62.9999980773926,2|0,3:2|3:0,3:0:0:0:
17,213,165614,1,8,0:0:0:0:
199,70,165731,5,0,3:0:0:0:
202,103,165790,1,0,3:0:0:0:
206,135,165848,1,8,0:0:0:0:
85,302,165966,2,0,L|67:360,2,53.9999983520508,2|0|8,3:2|3:0|0:0,0:0:0:0:
91,77,166200,2,0,L|79:16,2,53.9999983520508,2|0|8,3:2|3:0|0:0,0:0:0:0:
191,250,166434,5,2,3:2:0:0:
195,271,166493,1,0,3:0:0:0:
199,292,166552,1,8,0:0:0:0:
289,160,166669,1,0,3:0:0:0:
313,181,166727,1,0,3:0:0:0:
337,202,166786,1,8,0:0:0:0:
306,23,166903,1,0,3:0:0:0:
347,35,166962,1,0,3:0:0:0:
387,47,167020,5,10,0:0:0:0:
337,202,167137,1,8,0:0:0:0:
199,292,167255,1,8,0:0:0:0:
35,272,167372,2,2,B|18:250|21:222|21:222|50:224|69:245,1,108,10|0,0:0|2:0,1:0:0:0:
112,332,168427,5,6,1:2:0:0:
256,192,168485,12,2,172177,0:0:0:0:
367,282,174989,6,0,P|335:272|233:266,1,125.999996154785,2|0,2:0|0:0,0:0:0:0:
212,281,175282,1,0,0:0:0:0:
212,281,175341,2,0,L|205:230,1,31.4999990386963
196,168,175458,1,8,0:0:0:0:
300,96,175575,2,0,L|313:224,1,125.999996154785,8|0,0:0|0:0,0:0:0:0:
324,304,175868,1,0,0:0:0:0:
327,326,175927,6,0,P|361:314|459:305,1,125.999996154785,0|0,0:0|2:0,0:0:0:0:
455,172,176278,1,0,2:0:0:0:
455,172,176395,2,0,P|384:157|327:134,1,125.999996154785,0|0,0:0|2:0,0:0:0:0:
41,171,176864,5,0,0:0:0:0:
132,241,176981,2,0,P|185:221|244:174,1,125.999996154785,2|0,2:0|2:0,2:0:0:0:
344,75,177333,2,0,P|334:131|333:159,1,62.9999980773926,0|0,0:0|2:0,0:0:0:0:
344,298,177567,2,0,P|330:257|317:226,1,62.9999980773926,8|2,0:0|2:0,0:0:0:0:
211,84,177802,5,0,0:0:0:0:
114,195,177919,2,0,L|248:177,1,125.999996154785,2|0,2:0|2:0,2:0:0:0:
346,44,178270,2,0,B|313:37|313:37|276:16,1,62.9999980773926,2|0,0:2|2:0,0:0:0:0:
322,238,178505,2,0,B|355:245|355:245|392:266,1,62.9999980773926,0|2,2:0|2:0,0:0:0:0:
171,309,178739,6,0,B|190:275|190:275|172:186,1,125.999996154785,0|2,0:0|2:0,0:0:0:0:
35,22,179091,2,0,L|41:60,1,31.4999990386963,0|0,3:0|3:0,3:0:0:0:
87,136,179208,5,8,0:0:0:0:
123,101,179286,1,8,0:0:0:0:
172,90,179364,1,8,0:0:0:0:
221,103,179442,1,2,3:2:0:0:
270,114,179520,1,0,3:0:0:0:
318,101,179598,1,2,3:2:0:0:
356,68,179677,6,0,L|346:148,1,72,12|0,0:0|2:0,0:0:0:0:
454,122,179911,2,0,L|444:202,1,72,8|0,0:0|2:0,0:0:0:0:
194,304,180145,6,0,L|178:213,1,90,8|0,0:0|2:0,0:0:0:0:
67,282,180380,2,0,L|51:191,1,90,8|0,0:0|2:0,0:0:0:0:
382,28,180614,6,0,L|367:137,1,107.999996704102,8|0,0:0|2:0,0:0:0:0:
510,106,180848,2,0,L|495:215,1,107.999996704102,8|0,0:0|2:0,0:0:0:0:
186,341,181083,6,0,L|163:215,1,125.999996154785,8|0,0:0|2:0,0:0:0:0:
27,308,181317,2,0,L|4:182,1,125.999996154785,8|0,0:0|2:0,0:0:0:0:
261,20,181552,5,8,0:0:0:0:
283,20,181610,1,8,0:0:0:0:
302,31,181669,1,0,3:0:0:0:
314,49,181727,1,0,3:0:0:0:
315,71,181786,1,0,3:0:0:0:
305,91,181844,1,0,3:0:0:0:
286,104,181903,1,0,3:0:0:0:
263,106,181962,1,0,3:0:0:0:
242,96,182020,5,8,0:0:0:0:
245,130,182079,1,8,0:0:0:0:
249,163,182137,1,0,3:0:0:0:
253,197,182196,1,0,3:0:0:0:
257,231,182255,1,0,3:0:0:0:
261,264,182313,1,0,3:0:0:0:
265,298,182372,1,0,3:0:0:0:
269,331,182430,1,0,3:0:0:0:
273,364,182489,6,2,L|291:222,1,135,10|0,1:0|2:0,1:0:0:0:
295,199,182899,1,0,2:0:0:0:
295,199,182958,1,2,0:1:0:0:
381,295,183075,1,0,0:0:0:0:
359,124,183192,2,2,L|347:39,1,67.5,2|0,0:1|2:0,1:0:0:0:
280,17,183427,5,4,0:2:0:0:
270,46,183485,1,0,0:0:0:0:
274,79,183544,1,0,0:0:0:0:
114,89,183661,1,0,0:0:0:0:
134,113,183719,1,0,0:0:0:0:
164,124,183778,1,0,0:0:0:0:
349,57,183895,1,8,0:0:0:0:
188,42,184012,1,0,0:0:0:0:
360,144,184130,1,2,0:0:0:0:
146,208,184247,6,0,B|86:216|29:187|29:187|39:222|67:238,1,180,2|0,0:0|0:0,0:0:0:0:
127,287,184540,1,0,0:0:0:0:
127,287,184598,1,0,0:0:0:0:
239,159,184716,2,0,L|287:170,2,45,0|0|8,0:0|0:0|0:0,0:0:0:0:
71,128,184950,5,0,0:0:0:0:
212,55,185067,1,2,0:0:0:0:
146,208,185184,1,2,0:0:0:0:
297,83,185302,5,0,0:0:0:0:
93,122,185419,1,2,0:0:0:0:
243,245,185536,1,2,0:0:0:0:
207,77,185653,1,0,0:0:0:0:
202,103,185712,1,0,0:0:0:0:
197,129,185770,1,8,0:0:0:0:
329,207,185887,2,0,L|339:262,2,45
439,88,186122,5,0,0:0:0:0:
283,131,186239,1,2,0:0:0:0:
423,217,186356,1,2,0:0:0:0:
243,245,186473,2,0,P|196:230|147:225,1,90
152,68,186708,2,0,P|137:89|120:110,2,45,8|0|0,0:0|0:0|0:0,0:0:0:0:
285,75,186942,2,2,P|302:128|322:169,1,90,2|0,0:0|0:0,0:0:0:0:
190,326,187177,6,0,P|208:238|211:148,1,180,2|0,0:0|0:0,0:0:0:0:
101,261,187528,1,0,0:0:0:0:
322,286,187645,2,2,P|269:256|232:240,1,90,8|2,0:0|0:0,0:0:0:0:
91,366,187880,1,0,0:0:0:0:
308,360,187997,2,0,P|316:333|321:308,1,45,2|0,0:0|0:0,0:0:0:0:
284,150,188114,5,8,0:0:0:0:
190,326,188231,1,8,0:0:0:0:
399,202,188348,1,10,0:0:0:0:
236,45,188466,1,10,0:0:0:0:
346,286,188583,6,0,P|367:297|392:306,2,45,4|0|0,0:2|0:0|0:0,0:0:0:0:
189,169,188817,2,0,P|167:171|137:179,2,45
372,90,189051,5,8,0:0:0:0:
284,209,189168,1,0,0:0:0:0:
308,15,189286,1,2,0:0:0:0:
478,118,189403,2,0,B|461:157|461:157|418:190,1,90,2|0,0:0|0:0,0:0:0:0:
221,106,189637,5,0,0:0:0:0:
248,108,189696,1,0,0:0:0:0:
274,110,189754,1,0,0:0:0:0:
333,230,189872,1,0,0:0:0:0:
306,232,189931,1,0,0:0:0:0:
280,234,189989,1,8,0:0:0:0:
136,100,190106,5,0,0:0:0:0:
302,113,190223,1,2,0:0:0:0:
147,221,190340,1,2,0:0:0:0:
222,38,190458,5,0,0:0:0:0:
51,163,190575,1,2,0:0:0:0:
275,128,190692,1,2,0:0:0:0:
83,14,190809,2,0,L|26:9,2,45,0|0|8,0:0|0:0|0:0,0:0:0:0:
160,169,191043,1,0,0:0:0:0:
154,195,191102,1,0,0:0:0:0:
147,221,191161,1,0,0:0:0:0:
190,72,191278,5,0,0:0:0:0:
253,226,191395,1,2,0:0:0:0:
51,163,191512,1,2,0:0:0:0:
275,128,191629,2,0,B|412:144|412:144|364:169,1,180,0|8,0:0|0:0,0:0:0:0:
348,87,191922,1,0,0:0:0:0:
348,87,191981,1,0,0:0:0:0:
410,258,192098,2,0,L|428:311,2,45,2|0|0,0:0|0:0|0:0,0:0:0:0:
200,169,192333,6,0,B|170:36|170:36|213:70,1,180,2|0,0:0|0:0,0:0:0:0:
280,246,192684,1,0,0:0:0:0:
96,197,192801,1,8,0:0:0:0:
76,190,192860,1,0,0:0:0:0:
57,184,192918,1,0,3:0:0:0:
38,178,192977,1,0,3:0:0:0:
19,172,193035,5,8,0:0:0:0:
36,156,193094,1,0,0:0:0:0:
55,139,193152,1,0,3:0:0:0:
74,123,193211,1,0,3:0:0:0:
90,104,193270,5,8,0:0:0:0:
98,136,193329,1,0,0:0:0:0:
102,168,193387,1,0,3:0:0:0:
110,199,193446,1,0,3:0:0:0:
120,228,193504,6,0,L|105:297,1,58.4999973220826,8|0,0:0|2:0,0:0:0:0:
231,213,193622,2,0,L|218:278,1,58.4999973220826,8|0,0:0|2:0,0:0:0:0:
338,193,193739,5,4,0:2:0:0:
333,166,193797,1,0,0:0:0:0:
328,139,193856,1,0,0:0:0:0:
203,107,193973,1,0,0:0:0:0:
209,81,194031,1,0,0:0:0:0:
214,54,194090,1,0,0:0:0:0:
231,213,194207,1,8,0:0:0:0:
305,54,194324,1,0,0:0:0:0:
126,31,194442,1,2,0:0:0:0:
301,145,194559,6,0,B|363:143|421:99|421:99|409:122|407:147,1,180,2|0,0:0|0:0,0:0:0:0:
426,219,194852,1,0,0:0:0:0:
442,240,194910,1,0,0:0:0:0:
358,345,195028,1,0,0:0:0:0:
362,318,195086,1,0,0:0:0:0:
359,290,195145,1,8,0:0:0:0:
220,179,195262,5,0,0:0:0:0:
266,316,195379,1,2,0:0:0:0:
323,167,195496,1,2,0:0:0:0:
158,278,195614,5,0,0:0:0:0:
112,93,195731,1,2,0:0:0:0:
239,218,195848,1,2,0:0:0:0:
48,197,195965,2,0,P|25:200|3:209,2,45,0|0|8,0:0|0:0|0:0,0:0:0:0:
213,55,196199,2,0,P|236:61|260:63,2,45
23,63,196434,5,0,0:0:0:0:
148,178,196551,1,2,0:0:0:0:
290,64,196668,1,2,0:0:0:0:
121,5,196785,2,0,P|111:49|118:109,1,90
232,224,197020,1,8,0:0:0:0:
242,198,197078,1,0,0:0:0:0:
244,170,197137,1,0,0:0:0:0:
62,203,197254,2,0,P|104:185|148:177,1,90,2|0,0:0|0:0,0:0:0:0:
371,168,197489,6,0,P|288:153|204:105,1,180,2|0,0:0|0:0,0:0:0:0:
309,258,197840,1,0,0:0:0:0:
389,135,197957,2,0,P|402:52|403:25,1,90,8|0,0:0|0:0,0:0:0:0:
468,200,198192,1,0,0:0:0:0:
290,232,198309,2,0,P|282:208|275:168,1,45,2|0,0:0|0:0,0:0:0:0:
313,27,198426,5,8,0:0:0:0:
443,217,198543,1,8,0:0:0:0:
244,99,198660,1,10,0:0:0:0:
474,101,198778,1,10,0:0:0:0:
277,188,198895,6,0,B|256:194|256:194|229:193,2,45,4|0|0,0:2|0:0|0:0,0:0:0:0:
171,35,199129,2,0,B|148:31|148:31|120:31,2,45
93,186,199363,1,8,0:0:0:0:
244,99,199480,1,0,0:0:0:0:
92,40,199598,1,2,0:0:0:0:
232,193,199715,6,0,P|276:176|325:161,1,90,2|0,0:0|0:0,0:0:0:0:
195,288,199949,1,0,0:0:0:0:
171,274,200008,1,0,0:0:0:0:
144,268,200066,1,0,0:0:0:0:
311,331,200184,1,0,0:0:0:0:
333,315,200242,1,0,0:0:0:0:
359,307,200301,1,8,0:0:0:0:
232,366,200418,5,0,0:0:0:0:
232,193,200535,1,2,0:0:0:0:
386,305,200652,1,2,0:0:0:0:
195,288,200770,5,0,0:0:0:0:
318,132,200887,1,2,0:0:0:0:
139,98,201004,1,2,0:0:0:0:
325,232,201121,2,0,L|373:222,2,45,0|0|8,0:0|0:0|0:0,0:0:0:0:
202,371,201355,2,0,L|150:364,2,45
78,227,201590,5,0,0:0:0:0:
239,145,201707,1,2,0:0:0:0:
195,288,201824,1,2,0:0:0:0:
169,84,201941,2,0,B|217:101|217:101|354:81,1,180,0|8,0:0|0:0,0:0:0:0:
422,70,202234,1,0,0:0:0:0:
414,43,202293,1,0,0:0:0:0:
337,177,202410,1,2,0:0:0:0:
333,203,202469,1,0,0:0:0:0:
329,229,202527,1,0,0:0:0:0:
465,301,202645,6,0,B|406:297|406:297|358:329|358:329|293:323,1,180,2|0,0:0|0:0,0:0:0:0:
436,206,202996,1,0,0:0:0:0:
347,142,203113,1,8,0:0:0:0:
334,161,203172,1,0,0:0:0:0:
327,183,203231,1,0,3:0:0:0:
325,206,203289,1,0,3:0:0:0:
329,229,203348,5,8,0:0:0:0:
305,208,203406,1,0,0:0:0:0:
292,178,203465,1,0,3:0:0:0:
286,147,203523,1,0,3:0:0:0:
292,115,203582,5,8,0:0:0:0:
259,139,203641,1,0,0:0:0:0:
241,174,203699,1,0,3:0:0:0:
236,214,203758,1,0,3:0:0:0:
244,253,203816,6,0,P|214:243|177:238,1,58.4999973220826,8|0,0:0|0:0,0:0:0:0:
114,157,203934,2,0,P|84:168|53:185,1,58.4999973220826,8|0,0:0|0:0,0:0:0:0:
32,301,204051,6,0,P|88:322|132:327,1,90,12|0,0:2|3:0,0:0:0:0:
188,364,204226,2,0,P|191:342|199:321,1,45,0|0,3:0|3:0,3:0:0:0:
482,252,204402,6,0,P|426:273|382:278,1,90,12|0,0:2|3:0,0:0:0:0:
325,315,204577,2,0,P|321:293|315:272,1,45,0|0,3:0|3:0,3:0:0:0:
22,170,204754,6,0,P|78:191|122:196,1,90,12|0,0:2|3:0,0:0:0:0:
178,233,204929,2,0,P|181:211|189:190,1,45,0|0,3:0|3:0,3:0:0:0:
496,122,205105,6,0,P|440:143|396:148,1,90,12|0,0:2|3:0,0:0:0:0:
339,185,205281,2,0,P|335:163|329:142,1,45,0|0,3:0|3:0,3:0:0:0:
108,355,205457,6,0,B|76:313|76:313|75:254,1,103.500001974106,12|0,0:2|3:0,0:0:0:0:
178,233,205633,2,0,P|175:262|170:288,1,51.7500009870529,0|0,3:0|3:0,3:0:0:0:
415,331,205808,6,0,B|451:282|451:282|452:214,1,116.999994644165,12|0,0:2|3:0,0:0:0:0:
339,185,205984,2,0,P|342:218|348:248,1,58.4999973220826,0|0,3:0|3:0,3:0:0:0:
75,262,206160,6,0,B|34:210|34:210|33:134,1,130.500003982544,12|0,0:2|3:0,0:0:0:0:
161,101,206336,2,0,P|157:137|150:170,1,65.250001991272,0|0,3:0|3:0,3:0:0:0:
451,225,206511,6,0,B|495:166|495:166|496:84,1,144,12|0,0:2|3:0,0:0:0:0:
355,45,206687,2,0,P|359:85|366:121,1,72,0|0,3:0|3:0,3:0:0:0:
273,370,206863,6,0,P|268:300|251:231,1,135,2|0,0:0|0:0,0:0:0:0:
156,174,207332,5,12,0:2:0:0:
354,208,207449,2,0,L|403:218,2,45,0|0|0,3:0|3:0|3:0,3:0:0:0:
197,110,207683,5,12,0:2:0:0:
312,273,207800,2,0,L|340:314,2,45,0|0|0,3:0|3:0|3:0,3:0:0:0:
272,92,208035,5,12,0:2:0:0:
238,290,208152,2,0,L|228:339,2,45,0|0|0,3:0|3:0|3:0,3:0:0:0:
336,134,208386,5,12,0:2:0:0:
173,249,208503,2,0,L|131:278,2,45,0|0|0,3:0|3:0|3:0,3:0:0:0:
378,214,208738,5,12,0:2:0:0:
133,170,208855,2,0,L|71:159,2,51.7500009870529,0|0|0,3:0|3:0|3:0,3:0:0:0:
306,327,209089,5,12,0:2:0:0:
207,56,209206,2,0,L|182:-10,2,58.4999973220826,0|0|0,3:0|3:0|3:0,3:0:0:0:
150,318,209441,5,12,0:2:0:0:
361,65,209558,2,0,L|417:2,2,65.250001991272,0|0|0,3:0|3:0|3:0,3:0:0:0:
74,160,209792,5,12,0:2:0:0:
440,224,209909,2,0,L|531:241,2,72,0|0|0,3:0|3:0|3:0,3:0:0:0:
256,48,210144,5,8,3:0:0:0:
216,91,210222,1,8,3:0:0:0:
216,150,210300,1,8,3:0:0:0:
256,192,210379,1,2,3:2:0:0:
297,235,210456,1,0,3:0:0:0:
297,294,210535,1,2,3:2:0:0:
257,336,210613,1,4,1:2:0:0:
256,192,210671,12,0,213894,2:0:0:0:
358,353,214363,5,2,0:0:0:0:
358,353,214831,1,0,0:0:0:0:
241,340,214948,2,0,L|116:327,1,125.999996154785,0|2,0:0|0:0,0:0:0:0:
116,327,215769,1,0,0:0:0:0:
116,327,215886,2,0,L|255:295,1,125.999996154785
392,263,216238,5,2,0:0:0:0:
392,263,216706,1,0,0:0:0:0:
223,244,216823,2,0,L|90:229,1,125.999996154785,0|2,0:0|0:0,0:0:0:0:
97,229,217644,1,0,0:0:0:0:
97,229,217761,2,0,L|229:206,1,125.999996154785
424,172,218113,5,2,0:0:0:0:
347,108,218230,2,0,P|327:156|348:234,1,125.999996154785
261,291,218581,2,0,P|253:258|236:224,1,62.9999980773926
153,180,218816,2,0,P|143:211|140:245,1,62.9999980773926,0|2,0:0|0:0,0:0:0:0:
214,101,219050,6,0,P|180:85|113:88,1,94.499997116089
66,109,219284,2,0,P|96:99|124:84,1,62.9999980773926,0|2,0:0|0:0,0:0:0:0:
312,96,219519,2,0,P|302:130|295:171,1,62.9999980773926
140,241,219753,2,0,P|108:227|69:220,1,62.9999980773926
77,342,219988,5,14,0:0:0:0:
157,27,220105,2,0,P|152:75|153:125,1,90,0|0,3:0|3:0,3:0:0:0:
215,369,220339,5,14,0:0:0:0:
104,32,220456,2,0,P|129:79|159:125,1,99.0000030212403,0|0,3:0|3:0,3:0:0:0:
353,324,220691,5,14,0:0:0:0:
60,62,220808,2,0,P|110:93|164:120,1,107.999996704102,0|0,3:0|3:0,3:0:0:0:
459,205,221042,5,14,0:0:0:0:
37,116,221159,2,0,P|102:118|168:114,1,116.999994644165,0|0,3:0|3:0,3:0:0:0:
469,22,221394,6,0,L|417:31,1,45,2|0,0:0|0:0,0:0:0:0:
373,111,221628,2,0,L|324:101,1,45,0|2,0:0|0:0,0:0:0:0:
221,79,221863,5,14,0:0:0:0:
334,210,221980,1,0,3:0:0:0:
177,285,222097,1,0,3:0:0:0:
233,65,222214,5,14,0:0:0:0:
347,234,222331,1,0,3:0:0:0:
148,272,222448,1,0,3:0:0:0:
246,50,222566,5,14,0:0:0:0:
358,258,222683,1,0,3:0:0:0:
121,261,222800,1,0,3:0:0:0:
260,35,222917,5,14,0:0:0:0:
369,284,223034,1,0,3:0:0:0:
95,251,223152,1,0,3:0:0:0:
218,112,223269,5,8,3:0:0:0:
267,124,223347,1,8,3:0:0:0:
290,171,223425,1,0,3:0:0:0:
268,219,223503,1,0,3:0:0:0:
151,183,223620,6,0,P|162:142|163:80,1,90,2|0,0:0|0:0,0:0:0:0:
95,36,223913,1,0,0:0:0:0:
62,22,223972,6,0,P|45:82|45:141,1,116.999994644165,12|0,0:2|2:0,0:0:0:0:
256,248,224206,1,2,0:2:0:0:
468,136,224323,2,0,P|465:73|448:21,1,116.999994644165,2|8,0:2|0:0,0:0:0:0:
183,181,224558,6,0,P|185:321|256:346,1,233.999989288331,2|0,0:2|0:0,0:0:0:0:
491,248,224909,2,0,P|442:229|377:217,1,116.999994644165,8|0,0:0|2:0,0:0:0:0:
127,306,225144,1,2,0:2:0:0:
28,128,225261,2,0,P|31:65|48:13,1,116.999994644165,2|8,0:2|0:0,0:0:0:0:
329,181,225495,6,0,P|327:321|256:346,1,233.999989288331,2|0,0:2|0:0,0:0:0:0:
7,252,225846,2,0,P|56:233|121:221,1,116.999994644165,8|0,0:0|2:0,0:0:0:0:
386,312,226081,1,2,0:2:0:0:
508,120,226199,2,0,P|505:57|488:5,1,116.999994644165,2|8,0:2|0:0,0:0:0:0:
183,181,226433,6,0,P|185:321|256:346,1,233.999989288331,2|0,0:2|0:0,0:0:0:0:
512,251,226784,2,0,P|463:232|398:220,1,116.999994644165,8|0,0:0|2:0,0:0:0:0:
115,300,227019,1,0,3:0:0:0:
155,307,227077,1,0,3:0:0:0:
195,298,227136,1,0,3:0:0:0:
231,280,227195,1,0,3:0:0:0:
256,248,227253,1,8,0:0:0:0:
138,3,227370,6,0,B|145:52|116:89|116:89|165:123|165:123|143:160|158:202,1,233.999989288331,4|0,0:2|0:0,0:0:0:0:
230,52,227722,1,8,0:0:0:0:
57,169,227839,1,0,0:0:0:0:
256,248,227956,5,2,0:2:0:0:
117,89,228073,1,0,0:0:0:0:
120,276,228191,1,8,0:0:0:0:
230,52,228308,1,2,0:2:0:0:
19,80,228425,5,2,0:2:0:0:
299,141,228542,1,0,0:0:0:0:
22,193,228659,1,8,0:0:0:0:
269,36,228777,1,0,0:0:0:0:
205,319,228894,5,0,0:0:0:0:
153,11,229011,1,2,0:2:0:0:
315,303,229128,6,0,P|306:343|301:380,1,67.5000025749208,8|0,0:0|0:0,0:0:0:0:
150,200,229245,2,0,P|143:167|132:129,1,67.5000025749208,0|0,3:0|3:0,3:0:0:0:
92,326,229363,5,14,0:0:0:0:
312,108,229480,2,0,B|336:64|336:64|335:8,1,99.0000030212403,0|0,3:0|3:0,3:0:0:0:
438,338,229714,5,14,0:0:0:0:
174,124,229831,2,0,B|150:72|150:72|154:12,1,116.999994644165,0|0,3:0|3:0,3:0:0:0:
66,350,230066,5,14,0:0:0:0:
386,139,230183,2,0,B|414:83|414:83|410:11,1,135.000005149842,0|0,3:0|3:0,3:0:0:0:
462,362,230417,5,14,0:0:0:0:
98,152,230534,2,0,B|70:84|70:84|78:4,1,153.000002918243,0|0,3:0|3:0,3:0:0:0:
261,40,230769,6,2,L|253:93,2,53.9999983520508,2|0|0,2:1|2:0|2:0,0:0:0:0:
347,169,231120,6,0,B|349:207|312:236|312:236|223:254|166:192,1,233.999989288331,4|0,0:2|0:0,0:0:0:0:
444,88,231472,2,0,P|463:146|466:209,1,116.999994644165,8|0,0:0|2:0,0:0:0:0:
304,352,231706,1,2,0:2:0:0:
202,119,231823,2,0,P|207:57|222:4,1,116.999994644165,2|8,0:2|0:0,0:0:0:0:
367,256,232058,6,0,B|323:248|279:268|279:268|231:244|231:244|191:264|143:256,1,233.999989288331,2|0,0:2|0:0,0:0:0:0:
71,62,232409,2,0,P|64:121|49:183,1,116.999994644165,8|0,0:0|2:0,0:0:0:0:
208,360,232643,1,2,0:2:0:0:
326,119,232760,2,0,P|321:57|306:4,1,116.999994644165,2|8,0:2|0:0,0:0:0:0:
144,256,232995,6,0,B|188:248|232:268|232:268|280:244|280:244|320:264|368:256,1,233.999989288331,2|0,0:2|0:0,0:0:0:0:
452,63,233347,2,0,P|459:122|474:184,1,116.999994644165,8|0,0:0|2:0,0:0:0:0:
304,368,233581,1,2,0:2:0:0:
170,119,233698,2,0,P|175:57|190:4,1,116.999994644165,2|8,0:2|0:0,0:0:0:0:
367,256,233933,6,0,B|323:248|279:268|279:268|231:244|231:244|191:264|143:256,1,233.999989288331,2|0,0:2|0:0,0:0:0:0:
48,63,234284,2,0,P|41:122|26:184,1,116.999994644165,8|0,0:0|2:0,0:0:0:0:
0,255,234460,1,0,0:0:0:0:
6,274,234519,5,8,0:0:0:0:
346,154,234636,1,2,2:0:0:0:
346,154,234870,6,0,B|344:129|322:105|322:105|282:173|331:244,1,198.000006042481,4|0,0:2|0:0,0:0:0:0:
429,278,235222,1,2,0:2:0:0:
496,192,235339,1,0,0:0:0:0:
435,101,235456,5,8,0:0:0:0:
327,239,235573,1,2,0:2:0:0:
496,192,235691,1,0,0:0:0:0:
330,131,235808,1,2,0:2:0:0:
429,278,235925,5,0,0:0:0:0:
235,281,236042,2,0,B|227:230|227:230|244:175,1,99.0000030212403,8|2,0:0|0:2,0:0:0:0:
363,353,236277,1,0,3:0:0:0:
338,350,236335,1,0,3:0:0:0:
313,346,236394,1,8,0:0:0:0:
107,310,236511,1,0,3:0:0:0:
131,304,236570,1,0,3:0:0:0:
154,298,236628,1,8,0:0:0:0:
293,200,236745,6,0,B|247:178|196:189|196:189|149:156|145:105,1,198.000006042481,4|0,0:2|0:2,0:0:0:0:
319,17,237097,2,0,P|281:56|243:114,1,99.0000030212403,2|0,0:2|2:0,0:0:0:0:
411,216,237331,2,0,P|395:161|369:107,1,99.0000030212403,8|0,0:0|0:0,0:0:0:0:
235,286,237566,1,2,0:2:0:0:
400,304,237683,5,2,0:2:0:0:
286,174,237800,1,0,0:0:0:0:
131,249,237917,1,8,0:0:0:0:
254,369,238034,2,0,P|244:322|242:264,1,99.0000030212403,0|0,0:0|3:0,0:0:0:0:
293,203,238210,1,0,3:0:0:0:
286,174,238269,1,8,0:0:0:0:
169,73,238386,1,0,3:0:0:0:
162,103,238445,1,0,3:0:0:0:
156,132,238503,1,8,0:0:0:0:
44,262,238620,6,0,B|13:221|8:172|8:172|22:118|59:87,1,198.000006042481,4|0,0:2|0:0,0:0:0:0:
169,73,238972,1,2,0:2:0:0:
243,153,239089,2,0,P|235:182|222:210,1,49.5000015106202,0|0,3:0|3:0,3:0:0:0:
140,235,239206,5,8,0:0:0:0:
169,73,239323,1,2,0:2:0:0:
332,106,239441,1,0,0:0:0:0:
303,268,239558,1,2,0:2:0:0:
150,331,239675,6,0,P|138:289|141:227,1,99.0000030212403,0|8,0:0|0:0,0:0:0:0:
243,153,239909,1,2,0:2:0:0:
303,268,240027,1,0,3:0:0:0:
280,270,240085,1,0,3:0:0:0:
258,274,240144,1,8,0:0:0:0:
94,230,240261,1,0,3:0:0:0:
117,232,240320,1,0,3:0:0:0:
139,234,240378,1,8,0:0:0:0:
272,152,240495,6,0,B|127:134|127:134|183:103,1,198.000006042481,4|0,0:2|0:2,0:2:0:0:
347,95,240847,2,0,B|365:141|365:141|355:194,1,99.0000030212403,2|0,0:2|0:0,0:0:0:0:
286,240,241023,1,0,0:0:0:0:
286,240,241081,5,8,0:0:0:0:
446,184,241198,1,0,0:0:0:0:
272,152,241316,1,2,0:2:0:0:
409,262,241433,1,2,0:2:0:0:
226,313,241550,6,0,P|177:302|118:299,1,99.0000030212403,12|0,0:0|0:0,0:0:0:0:
313,153,241784,1,0,0:0:0:0:
338,331,241902,2,0,P|343:355|353:384,1,49.5000015106202,12|0,0:0|0:0,0:0:0:0:
391,236,242019,1,0,0:0:0:0:
212,198,242136,1,0,3:0:0:0:
207,222,242195,1,0,3:0:0:0:
209,246,242253,1,12,0:0:0:0:
406,109,242370,6,0,B|369:55|369:55|276:25|220:100,1,233.999989288331,4|0,0:2|0:0,0:0:0:0:
210,329,242722,1,0,0:0:0:0:
313,153,242839,6,0,L|322:221,1,58.4999973220826,2|0,3:2|3:0,3:0:0:0:
340,365,242956,1,8,0:0:0:0:
480,224,243073,6,0,L|402:190,1,62.9999980773926,2|0,3:2|3:0,3:0:0:0:
219,100,243191,1,8,0:0:0:0:
210,329,243308,6,0,L|275:277,1,67.5000025749208,2|0,3:2|3:0,3:0:0:0:
469,121,243425,1,8,0:0:0:0:
211,23,243542,5,0,3:0:0:0:
215,62,243601,1,0,3:0:0:0:
219,100,243659,1,8,0:0:0:0:
368,272,243777,2,0,L|358:334,2,58.4999973220826,2|0|8,3:2|3:0|0:0,0:0:0:0:
325,81,244011,2,0,L|318:16,2,58.4999973220826,2|0|8,3:2|3:0|0:0,0:0:0:0:
252,311,244245,5,2,3:2:0:0:
246,328,244304,1,0,3:0:0:0:
240,345,244363,1,8,0:0:0:0:
150,152,244480,1,0,3:0:0:0:
123,140,244538,1,0,3:0:0:0:
97,127,244597,1,8,0:0:0:0:
193,237,244714,1,0,3:0:0:0:
152,246,244773,1,0,3:0:0:0:
112,256,244831,5,10,0:0:0:0:
320,336,244948,1,8,0:0:0:0:
400,128,245066,1,8,0:0:0:0:
192,48,245183,2,2,B|170:68|170:68|174:98|174:98|155:122|163:161,1,126,10|0,0:0|2:0,1:0:0:0:
162,160,247175,5,2,2:0:0:0:
256,192,247292,1,2,2:0:0:0:
350,224,247410,1,2,2:0:0:0:
236,93,247527,6,2,P|231:149|249:311,1,215.999993408203,4|2,0:2|0:0,0:0:0:0:
406,119,247878,2,0,P|369:48|351:18,1,107.999996704102,8|0,0:0|2:0,0:0:0:0:
85,194,248112,2,2,P|116:255|145:298,1,107.999996704102,2|0,0:0|0:0,0:0:0:0:
335,269,248347,1,8,0:0:0:0:
235,41,248464,6,2,P|160:20|60:104,1,215.999993408203,0|2,0:0|0:0,0:0:0:0:
301,174,248815,1,8,0:0:0:0:
442,111,248933,2,2,B|452:55|452:55|436:1,1,107.999996704102,2|0,0:0|0:0,0:0:0:0:
202,137,249167,1,2,0:0:0:0:
335,269,249284,2,0,P|391:258|451:231,1,107.999996704102,8|0,0:0|2:0,0:0:0:0:
279,74,249519,5,2,0:0:0:0:
232,291,249636,2,0,P|244:320|263:345,2,53.9999983520508,2|2|8,0:2|0:2|0:0,0:0:0:0:
362,152,249870,1,0,0:0:0:0:
143,218,249987,5,2,0:2:0:0:
335,269,250104,1,2,0:2:0:0:
177,71,250222,1,8,0:0:0:0:
67,295,250339,6,0,L|256:192,1,215.999993408203
62,53,250690,2,0,P|74:119|103:168,1,107.999996704102,8|0,0:0|0:0,0:0:0:0:
373,155,250925,1,0,3:0:0:0:
360,119,250983,1,0,3:0:0:0:
334,90,251042,1,0,3:0:0:0:
299,73,251101,1,0,3:0:0:0:
261,69,251159,1,8,0:0:0:0:
64,280,251276,6,2,B|116:271|164:310|164:310|208:346|265:344,1,215.999993408203,4|2,0:2|0:0,0:0:0:0:
479,209,251628,2,0,P|486:151|481:93,1,107.999996704102,8|0,0:0|2:0,0:0:0:0:
221,133,251862,2,2,P|232:199|256:247,1,107.999996704102,0|2,0:0|0:0,0:0:0:0:
349,57,252097,1,8,0:0:0:0:
96,130,252214,6,2,P|66:204|169:290,1,215.999993408203,0|2,0:0|0:0,0:0:0:0:
339,158,252565,1,8,0:0:0:0:
133,19,252683,2,0,P|85:30|19:38,1,107.999996704102,2|0,0:0|0:0,0:0:0:0:
218,181,252917,1,2,0:0:0:0:
370,51,253034,2,8,P|400:58|429:73,1,53.9999983520508,8|8,3:0|3:0,3:0:0:0:
387,231,253151,2,0,P|374:202|357:177,1,53.9999983520508,0|0,3:0|3:0,3:0:0:0:
190,85,253269,5,14,0:0:0:0:
281,260,253386,1,2,3:1:0:0:
479,272,253503,1,0,3:0:0:0:
278,48,253620,5,14,0:0:0:0:
281,260,253737,1,2,3:1:0:0:
491,292,253854,1,0,3:0:0:0:
370,51,253972,5,14,0:0:0:0:
281,260,254089,1,2,3:1:0:0:
502,311,254206,1,0,3:0:0:0:
452,93,254323,5,14,0:0:0:0:
281,260,254440,1,2,3:1:0:0:
511,327,254557,1,0,3:0:0:0:
417,225,254675,6,2,B|390:212|390:212|385:182|385:182|357:170|357:170|340:141,1,112.5,2|0,0:0|0:0,1:0:0:0:
280,83,255026,6,2,P|236:73|170:202,1,215.999993408203,4|2,0:2|0:0,0:0:0:0:
301,364,255378,2,0,P|297:303|273:247,1,107.999996704102,8|0,0:0|2:0,0:0:0:0:
70,187,255612,1,2,0:0:0:0:
186,331,255729,1,0,0:0:0:0:
247,161,255847,1,8,0:0:0:0:
87,293,255964,6,2,P|58:329|6:373,1,107.999996704102,2|0,0:0|2:0,0:0:0:0:
152,110,256198,2,2,P|132:62|103:13,1,107.999996704102,2|8,0:0|0:0,0:0:0:0:
312,238,256433,2,2,P|294:281|281:352,1,107.999996704102,2|0,0:0|0:0,0:0:0:0:
273,132,256667,1,2,0:0:0:0:
450,266,256784,2,2,P|467:312|477:380,1,107.999996704102,8|2,0:0|0:0,0:0:0:0:
312,238,257019,5,2,0:0:0:0:
476,92,257136,2,0,L|488:33,2,53.9999983520508,2|2|12,0:2|0:2|0:0,0:0:0:0:
450,266,257370,1,0,0:0:0:0:
297,113,257487,5,2,0:2:0:0:
505,184,257604,1,2,0:2:0:0:
277,347,257722,1,8,0:0:0:0:
401,171,257839,1,2,0:2:0:0:
178,85,257956,6,0,P|188:138|192:194,1,107.999996704102,8|0,0:0|0:0,0:0:0:0:
46,293,258190,2,0,P|57:261|74:232,1,53.9999983520508,8|0,0:0|0:0,0:0:0:0:
295,296,258308,2,0,P|287:322|272:355,1,53.9999983520508,0|0,3:0|3:0,3:0:0:0:
118,373,258425,5,12,0:0:0:0:
166,64,258542,1,2,2:0:0:0:
166,64,258776,6,2,B|220:79|244:133|244:133|283:90|341:89,1,215.999993408203,4|2,0:2|0:0,0:0:0:0:
352,242,259128,2,0,P|365:302|398:347,1,107.999996704102,8|0,0:0|3:0,0:0:0:0:
482,333,259304,1,0,3:0:0:0:
500,300,259362,2,2,P|494:250|463:187,1,107.999996704102,10|0,0:0|3:0,0:0:0:0:
389,153,259538,1,0,3:0:0:0:
352,145,259597,2,2,P|298:166|245:172,1,107.999996704102,8|2,0:0|3:1,0:0:0:0:
157,156,259772,1,0,3:0:0:0:
157,156,259831,5,8,0:0:0:0:
237,264,259948,1,0,3:0:0:0:
237,264,260007,1,0,3:0:0:0:
237,264,260065,1,8,0:0:0:0:
90,228,260183,5,2,3:1:0:0:
90,228,260241,1,0,3:0:0:0:
90,228,260300,1,8,0:0:0:0:
248,171,260417,1,2,3:1:0:0:
248,171,260475,1,0,3:0:0:0:
248,171,260534,1,8,0:0:0:0:
90,31,260651,6,0,P|84:58|84:85,1,53.9999983520508,0|0,3:0|3:0,3:0:0:0:
237,264,260769,1,10,0:0:0:0:
223,24,260886,6,0,P|197:43|179:68,1,62.9999980773926,0|0,3:0|3:0,3:0:0:0:
162,320,261003,1,8,0:0:0:0:
335,98,261120,6,0,P|299:99|265:111,1,72,2|0,3:1|3:0,3:0:0:0:
68,320,261237,1,8,0:0:0:0:
331,277,261354,5,8,0:0:0:0:
83,84,261472,1,10,0:0:0:0:
315,187,261589,6,2,B|276:196|254:226|254:226|234:198|203:184|203:184|153:225|81:209,1,269.999991760254,12|0,0:0|2:0,0:0:0:0:
81,209,262409,5,0,0:0:0:0:
92,195,262526,1,0,0:0:0:0:
123,178,262643,1,0,0:0:0:0:
176,167,262760,1,0,0:0:0:0:
245,183,262877,1,2,0:0:0:0:
309,246,262995,1,2,0:0:0:0:
345,346,263112,6,0,P|317:351|269:345,1,62.9999980773926,2|0,0:0|0:0,0:0:0:0:
116,266,263346,1,2,0:3:0:0:
186,337,263463,2,0,P|200:314|215:277,2,62.9999980773926,2|2|0,0:0|0:3|0:0,0:0:0:0:
174,190,263815,6,0,P|160:162|150:124,1,62.9999980773926,2|0,0:0|0:0,0:0:0:0:
338,118,264049,1,2,0:3:0:0:
258,67,264166,2,0,P|249:95|246:136,2,62.9999980773926,2|2|0,0:0|0:3|0:0,0:0:0:0:
78,197,264518,6,0,P|44:171|14:158,1,62.9999980773926,2|0,0:0|0:0,0:0:0:0:
109,285,264752,1,2,0:3:0:0:
106,105,264869,2,0,P|136:87|166:78,2,62.9999980773926,2|0|2,0:0|0:0|0:3,0:0:0:0:
214,223,265221,6,0,P|251:226|295:242,1,62.9999980773926,2|0,0:0|0:0,0:0:0:0:
392,332,265455,1,2,0:3:0:0:
378,180,265572,2,0,P|369:213|366:244,2,62.9999980773926,2|2|0,0:0|0:3|0:0,0:0:0:0:
306,32,265924,6,0,P|303:63|297:94,1,62.9999980773926,2|0,0:0|0:0,0:0:0:0:
152,160,266158,1,2,0:3:0:0:
190,35,266276,2,0,P|208:79|212:104,1,62.9999980773926,2|0,0:0|0:0,0:0:0:0:
153,248,266510,1,2,0:3:0:0:
86,103,266627,1,2,0:3:0:0:
256,192,266744,5,6,1:0:0:0:
