osu file format v14

[General]
AudioFilename: audio.mp3
AudioLeadIn: 0
PreviewTime: 149442
Countdown: 0
SampleSet: Normal
StackLeniency: 0.5
Mode: 0
LetterboxInBreaks: 0
WidescreenStoryboard: 1

[Editor]
Bookmarks: 168417,175917
DistanceSpacing: 1.2
BeatDivisor: 2
GridSize: 4
TimelineZoom: 1.2

[Metadata]
Title:Touryouka
TitleUnicode:透靈蕐
Artist:Camellia feat. Nanahira
ArtistUnicode:かめりあ feat. ななひら
Creator:jonathanlfj
Version:Advanced
Source:
Tags:Toryoka Toureika captin1 apaffy kisata Giralda Nyquill Raose Rock Japanese ごーいん! Go-In! Go In Confetto かめるかめりあ×Confetto
BeatmapID:2335064
BeatmapSetID:1022167

[Difficulty]
HPDrainRate:4
CircleSize:3.5
OverallDifficulty:4.5
ApproachRate:6
SliderMultiplier:0.899999999999999
SliderTickRate:1

[Events]
//Background and Video events
0,0,"anime.jpg",0,0
//Break Periods
2,172377,173939
2,214563,218938
//Storyboard Layer 0 (Background)
//Storyboard Layer 1 (Fail)
//Storyboard Layer 2 (Pass)
//Storyboard Layer 3 (Foreground)
//Storyboard Layer 4 (Overlay)
//Storyboard Sound Samples

[TimingPoints]
2025,234.375,4,2,1,40,1,0
2025,-133.333333333333,4,2,1,40,0,0
9525,-133.333333333333,4,2,1,45,0,0
13275,-133.333333333333,4,2,1,50,0,0
17962,-100,4,1,1,60,0,0
18314,-100,4,1,1,65,0,0
18665,-100,4,1,1,70,0,0
19017,-100,4,1,1,75,0,0
19368,-133.333333333333,4,3,1,30,0,0
19720,-100,4,1,1,70,0,0
19837,234.375,4,1,1,70,1,0
19837,-100,4,1,1,70,0,0
26868,-133.333333333333,4,2,1,30,0,0
26926,-133.333333333333,4,2,1,35,0,0
26985,-133.333333333333,4,2,1,40,0,0
27044,-133.333333333333,4,2,1,45,0,0
27102,-133.333333333333,4,2,1,50,0,0
27161,-133.333333333333,4,2,1,5,0,0
27219,-100,4,1,1,70,0,0
33782,-133.333333333333,4,1,1,70,0,0
33899,234.375,6,2,1,30,1,0
34719,-100,6,3,0,20,0,0
35070,-100,6,3,0,25,0,0
35188,-100,6,3,0,30,0,0
35305,234.375,3,2,1,40,1,0
35305,-133.333333333333,3,2,1,40,0,0
37883,-100,3,1,1,60,0,0
38117,234.375,4,1,1,60,1,0
38117,-111.111111111111,4,1,1,60,0,0
41808,-111.111111111111,4,1,1,5,0,0
41867,-111.111111111111,4,1,1,60,0,0
51945,-111.111111111111,4,1,1,70,0,0
52179,234.375,4,1,1,50,1,0
52179,-111.111111111111,4,1,1,50,0,0
53585,-111.111111111111,4,1,1,60,0,0
55225,-111.111111111111,4,1,1,50,0,0
55929,-111.111111111111,4,1,1,60,0,0
63429,-111.111111111111,4,2,1,50,0,0
69054,234.375,4,1,1,70,1,0
69054,-100,4,1,1,70,0,0
69288,-100,4,1,1,5,0,0
69405,-100,4,1,1,70,0,0
69522,-100,4,1,1,5,0,0
69639,-100,4,1,1,70,0,0
69757,-100,4,1,1,5,0,0
69874,-100,4,1,1,70,0,0
69991,-100,4,1,1,5,0,0
70108,-100,4,1,1,70,0,0
70225,-100,4,1,1,5,0,0
70343,-100,4,1,1,70,0,0
70460,-100,4,1,1,5,0,0
70577,-100,4,1,1,70,0,0
71163,-100,4,1,1,5,0,0
71280,-100,4,1,1,70,0,0
71397,-100,4,1,1,5,0,0
71514,-100,4,1,1,70,0,0
71632,-100,4,1,1,5,0,0
71749,-100,4,1,1,70,0,0
71866,-100,4,1,1,5,0,0
71983,-100,4,1,1,70,0,0
72100,-100,4,1,1,5,0,0
72218,-100,4,1,1,70,0,0
72335,-100,4,1,1,5,0,0
72452,-100,4,1,1,70,0,0
72804,-100,4,1,1,80,0,0
73038,-100,4,1,1,5,0,0
73155,-100,4,1,1,80,0,0
73272,-100,4,1,1,5,0,0
73389,-100,4,1,1,80,0,0
73507,-100,4,1,1,5,0,0
73624,-100,4,1,1,80,0,0
73741,-100,4,1,1,5,0,0
73858,-100,4,1,1,80,0,0
73975,-100,4,1,1,5,0,0
74093,-100,4,1,1,80,0,0
74210,-100,4,1,1,5,0,0
74327,-100,4,1,1,80,0,0
74679,-200,4,2,1,20,0,0
75616,-200,4,3,0,20,0,0
76202,-400,4,3,0,20,0,0
76378,-400,4,3,0,5,0,0
76436,-100,4,1,1,80,0,1
81944,-100,4,1,1,80,0,1
82179,-100,4,1,1,80,0,1
82531,-100,4,1,1,80,0,1
82882,-100,4,1,1,80,0,1
83233,-100,4,1,1,80,0,1
83585,-166.666666666667,4,1,1,30,0,0
83643,-166.666666666667,4,1,1,35,0,0
83702,-166.666666666667,4,1,1,40,0,0
83761,-166.666666666667,4,1,1,45,0,0
83819,-166.666666666667,4,1,1,50,0,0
83878,-166.666666666667,4,1,1,5,0,0
83936,-100,4,1,1,80,0,1
87686,-100,4,1,1,80,0,0
91436,-100,4,1,1,80,0,1
94249,-133.333333333333,4,1,1,80,0,0
94366,234.375,6,1,1,50,1,0
95303,-100,4,2,1,80,0,0
95596,-100,4,2,1,5,0,0
95655,-100,4,1,1,70,0,0
95772,234.375,4,1,1,70,1,0
95772,-100,4,1,1,70,0,0
101397,-100,4,1,1,70,0,0
102803,-133.333333333333,4,2,1,30,0,0
102861,-133.333333333333,4,2,1,35,0,0
102920,-133.333333333333,4,2,1,40,0,0
102979,-133.333333333333,4,2,1,45,0,0
103037,-133.333333333333,4,2,1,50,0,0
103096,-133.333333333333,4,2,1,5,0,0
103154,-100,4,1,1,70,0,0
109717,-133.333333333333,4,1,1,70,0,0
109834,234.375,6,1,1,40,1,0
110537,-100,6,3,0,30,0,0
110771,-100,6,1,1,40,0,0
111005,-100,6,1,1,50,0,0
111240,234.375,4,1,1,60,1,0
111240,-111.111111111111,4,1,1,60,0,0
111708,-111.111111111111,4,2,1,40,0,0
113115,-111.111111111111,4,1,1,60,0,0
115458,-111.111111111111,4,2,1,40,0,0
116865,-111.111111111111,4,1,1,60,0,0
118622,-133.333333333333,4,1,1,60,0,0
118857,-133.333333333333,4,1,1,5,0,0
118974,-111.111111111111,4,1,1,60,0,0
119677,-111.111111111111,4,1,1,60,0,0
120615,-111.111111111111,4,1,1,60,0,0
125302,234.375,4,1,1,50,1,0
125302,-111.111111111111,4,1,1,50,0,0
126708,-111.111111111111,4,1,1,60,0,0
128348,-111.111111111111,4,1,1,50,0,0
129052,-111.111111111111,4,1,1,60,0,0
136552,-111.111111111111,4,2,1,40,0,0
141708,-111.111111111111,4,2,1,60,0,0
142118,-111.111111111111,4,2,1,5,0,0
142177,234.375,4,1,1,70,1,0
142177,-100,4,1,1,70,0,0
142411,-100,4,1,1,5,0,0
142528,-100,4,1,1,70,0,0
142645,-100,4,1,1,5,0,0
142762,-100,4,1,1,70,0,0
142880,-100,4,1,1,5,0,0
142997,-100,4,1,1,70,0,0
143114,-100,4,1,1,5,0,0
143231,-100,4,1,1,70,0,0
143348,-100,4,1,1,5,0,0
143466,-100,4,1,1,70,0,0
143583,-100,4,1,1,5,0,0
143700,-100,4,1,1,70,0,0
144286,-100,4,1,1,5,0,0
144403,-100,4,1,1,70,0,0
144520,-100,4,1,1,5,0,0
144637,-100,4,1,1,70,0,0
144755,-100,4,1,1,5,0,0
144872,-100,4,1,1,70,0,0
144989,-100,4,1,1,5,0,0
145106,-100,4,1,1,70,0,0
145223,-100,4,1,1,5,0,0
145341,-100,4,1,1,70,0,0
145458,-100,4,1,1,5,0,0
145575,-100,4,1,1,70,0,0
145927,-100,4,1,1,80,0,0
146161,-100,4,1,1,5,0,0
146278,-100,4,1,1,80,0,0
146395,-100,4,1,1,5,0,0
146512,-100,4,1,1,80,0,0
146630,-100,4,1,1,5,0,0
146747,-100,4,1,1,80,0,0
146864,-100,4,1,1,5,0,0
146981,-100,4,1,1,80,0,0
147098,-100,4,1,1,5,0,0
147216,-100,4,1,1,80,0,0
147333,-100,4,1,1,5,0,0
147450,-100,4,1,1,80,0,0
147743,-100,4,1,1,5,0,0
147802,-133.333333333333,4,3,0,20,0,0
148153,-133.333333333333,4,3,0,20,0,0
148505,-133.333333333333,4,3,0,20,0,0
148856,-133.333333333333,4,3,0,20,0,0
149325,-133.333333333333,4,3,0,20,0,0
149501,-133.333333333333,4,3,0,5,0,0
149559,-100,4,1,1,80,0,1
155067,-100,4,1,1,80,0,1
155301,-100,4,1,1,80,0,1
155652,-100,4,1,1,80,0,1
156004,-100,4,1,1,80,0,1
156355,-100,4,1,1,80,0,1
156708,-100,4,1,1,30,0,0
156765,-100,4,1,1,35,0,0
156824,-100,4,1,1,40,0,0
156883,-100,4,1,1,45,0,0
156941,-100,4,1,1,50,0,0
157000,-100,4,1,1,5,0,0
157059,-100,4,1,1,80,0,1
160809,-100,4,1,1,80,0,0
164559,-100,4,1,1,80,0,1
167372,-133.333333333333,4,1,1,80,0,0
168426,-125,4,2,1,70,0,0
172176,-125,4,2,1,50,0,0
174989,-111.111111111111,4,1,1,50,0,0
180145,-111.111111111111,4,1,1,55,0,0
180614,-111.111111111111,4,1,1,60,0,0
181083,-111.111111111111,4,1,1,65,0,0
181552,-111.111111111111,4,1,1,70,0,0
182489,-133.333333333333,4,2,1,50,0,0
183368,-200,4,2,1,5,0,0
183427,-100,4,1,1,70,0,0
187177,234.375,6,1,1,70,1,0
188114,-100,6,1,1,80,0,0
188583,234.375,4,1,1,70,1,0
192333,234.375,6,1,1,70,1,0
193504,-100,6,1,1,80,0,0
193563,-100,6,1,1,5,0,0
193622,-100,6,1,1,80,0,0
193680,-100,6,1,1,5,0,0
193739,234.375,4,1,1,70,1,0
197489,234.375,6,1,1,70,1,0
198426,-100,6,1,1,80,0,0
198895,234.375,4,1,1,70,1,0
202645,234.375,6,1,1,70,1,0
203816,-100,6,1,1,80,0,0
203875,-100,6,1,1,5,0,0
203934,-100,6,1,1,80,0,0
203992,-100,6,1,1,5,0,0
204051,234.375,6,1,1,70,1,0
205457,-100,6,1,1,70,0,0
206863,-200,6,2,1,40,0,0
207215,-200,6,2,1,5,0,0
207332,234.375,6,1,1,70,1,0
210613,234.375,4,2,1,70,1,0
213894,-100,4,2,1,30,0,0
214363,-142.857142857143,4,2,1,40,0,0
219988,-117.647058823529,4,1,1,60,0,0
220340,-117.647058823529,4,1,1,65,0,0
220691,-117.647058823529,4,1,1,70,0,0
221043,-117.647058823529,4,1,1,75,0,0
221394,-117.647058823529,4,2,1,40,0,0
221863,-105.263157894737,4,1,1,60,0,0
222215,-105.263157894737,4,1,1,65,0,0
222566,-105.263157894737,4,1,1,70,0,0
222918,-105.263157894737,4,1,1,75,0,0
223620,-105.263157894737,4,2,1,50,0,0
223738,234.375,4,1,1,50,1,0
223972,-100,4,1,1,80,0,1
229128,-100,4,1,1,80,0,1
229363,-100,4,1,1,80,0,1
229715,-100,4,1,1,80,0,1
230066,-100,4,1,1,80,0,1
230417,-100,4,1,1,80,0,1
230769,-166.666666666667,4,1,1,30,0,0
230827,-166.666666666667,4,1,1,35,0,0
230886,-166.666666666667,4,1,1,40,0,0
230945,-166.666666666667,4,1,1,45,0,0
231003,-166.666666666667,4,1,1,50,0,0
231062,-166.666666666667,4,1,1,5,0,0
231120,-100,4,1,1,80,0,1
234870,-100,4,1,1,70,0,0
242370,-100,4,1,1,80,0,1
243072,-100,4,1,1,80,0,1
243307,-100,4,1,1,80,0,1
243424,-100,4,1,1,80,0,1
245183,-133.333333333333,4,1,1,80,0,0
246238,234.375,6,1,1,70,1,0
247175,-100,6,1,1,40,0,0
247527,-100,6,1,1,70,0,0
247644,234.375,4,1,1,70,1,0
247644,-100,4,1,1,70,0,0
254675,-100,4,2,1,30,0,0
254733,-100,4,2,1,35,0,0
254792,-100,4,2,1,40,0,0
254851,-100,4,2,1,45,0,0
254909,-100,4,2,1,50,0,0
254968,-100,4,2,1,5,0,0
255026,-100,4,1,1,70,0,0
261589,-133.333333333333,4,1,1,70,0,0
261706,234.375,6,1,1,30,1,0
262409,-100,6,3,0,20,0,0
262643,-100,6,3,0,25,0,0
262877,-100,6,3,0,30,0,0
263112,234.375,3,2,1,40,1,0
263112,-133.333333333333,3,2,1,40,0,0

[Colours]
Combo1 : 255,210,74
Combo2 : 47,253,108
Combo3 : 62,201,253
Combo4 : 255,125,47

[HitObjects]
36,177,2025,6,0,B|79:124|158:146|158:146|190:218|273:206,1,270.000010299683,2|0,0:0|0:0,0:0:0:0:
395,107,3431,1,2,0:0:0:0:
427,180,3665,2,0,P|412:244|400:318,1,135.000005149841,0|2,0:0|0:0,0:0:0:0:
246,360,4603,1,2,0:0:0:0:
220,283,4837,2,0,P|196:259|168:242,1,67.5000025749207,0|0,0:0|0:0,0:0:0:0:
90,265,5306,2,0,P|71:309|69:343,1,67.5000025749207,2|2,0:0|0:0,0:0:0:0:
149,320,5775,6,0,B|218:316|254:247|254:247|232:173|157:160,1,270.000010299683,2|0,0:0|0:0,0:0:0:0:
15,86,7181,1,2,0:0:0:0:
84,44,7415,1,0,0:0:0:0:
156,80,7650,2,0,B|257:86|324:31|324:31|351:71|391:89,1,270.000010299683,2|0,0:0|0:0,0:0:0:0:
479,225,9056,1,2,0:0:0:0:
423,283,9290,1,0,0:0:0:0:
353,241,9525,6,0,P|290:227|216:232,1,135.000005149841,2|0,0:0|0:0,0:0:0:0:
157,282,10228,2,0,L|181:142,1,135.000005149841,0|0,0:0|0:0,0:0:0:0:
136,80,10931,1,2,0:0:0:0:
58,101,11165,2,0,P|19:152|21:236,1,135.000005149841,2|0,0:0|0:0,0:0:0:0:
117,347,12103,1,2,0:0:0:0:
181,298,12337,2,0,L|333:290,1,135.000005149841,2|2,0:0|0:0,0:0:0:0:
381,339,13040,1,0,0:0:0:0:
448,293,13275,6,0,B|494:207|461:113|461:113|439:153|400:174,1,270.000010299683,2|0,0:0|0:0,0:0:0:0:
241,180,14681,2,0,P|220:158|203:113,1,67.5000025749207,0|2,0:0|0:0,0:0:0:0:
285,112,15150,2,0,P|319:192|179:232,2,270.000010299683,2|0|2,0:0|0:0|0:0,0:0:0:0:
107,192,17962,5,6,0:0:0:0:
188,300,18314,1,6,0:0:0:0:
324,300,18665,1,6,0:0:0:0:
405,192,19017,1,6,0:0:0:0:
330,80,19368,2,0,L|258:90,1,67.5000025749207,0|2,2:3|2:3,0:0:0:0:
218,99,19720,6,0,P|242:162|233:255,1,135,4|8,0:2|0:0,0:0:0:0:
172,287,20305,1,0,0:0:0:0:
86,256,20540,1,8,0:0:0:0:
86,256,20657,2,2,P|64:208|57:144,2,89.9999999999999,0|2|2,0:0|0:0|0:0,0:0:0:0:
172,287,21360,2,2,P|242:263|325:256,1,135
386,288,21946,5,8,0:0:0:0:
450,225,22180,2,0,P|455:174|450:127,1,89.9999999999999,2|8,0:2|0:0,0:0:0:0:
437,92,22532,2,0,P|386:125|299:116,1,135,0|8,0:0|0:0,0:0:0:0:
245,64,23118,2,0,L|237:14,2,45,0|0|8,3:0|3:0|0:0,0:0:0:0:
169,113,23587,6,0,P|146:183|220:252,1,180,4|0,0:2|0:0,0:0:0:0:
303,234,24290,1,8,0:0:0:0:
303,234,24407,2,2,L|286:335,2,89.9999999999999,0|2|2,0:0|0:0|0:0,0:0:0:0:
386,199,25110,2,2,L|367:90,1,89.9999999999999,2|0,0:0|3:0,0:0:0:0:
361,65,25462,5,12,0:0:0:0:
257,151,25813,1,12,0:0:0:0:
169,48,26165,1,12,0:0:0:0:
56,121,26516,2,0,B|46:169|46:169|56:210|56:210|47:258,1,135,12|2,0:0|0:0,0:0:0:0:
156,333,27219,6,0,P|206:307|297:319,1,135,4|8,0:2|0:0,0:0:0:0:
358,361,27805,1,0,0:0:0:0:
432,310,28040,1,8,0:0:0:0:
432,310,28157,2,2,L|414:214,1,89.9999999999999,0|2,0:0|0:0,0:0:0:0:
343,166,28626,1,2,0:0:0:0:
253,158,28860,1,2,0:0:0:0:
253,158,28977,2,2,P|237:116|240:70,1,89.9999999999999,8|2,0:0|0:0,0:0:0:0:
322,31,29446,5,12,0:0:0:0:
410,43,29680,2,0,L|430:137,1,89.9999999999999,2|8,0:2|0:0,0:0:0:0:
438,175,30032,2,0,B|388:166|388:166|356:187|356:187|292:181,1,135,2|8,0:2|0:0,0:0:0:0:
220,172,30618,1,8,0:0:0:0:
95,224,30969,6,0,P|79:160|110:90,1,135,4|8,0:2|0:0,0:0:0:0:
183,55,31555,2,2,P|228:64|279:68,1,89.9999999999999,10|8,0:0|0:0,0:0:0:0:
350,112,32024,2,0,P|395:94|442:85,2,89.9999999999999,8|8|8,0:0|0:0|0:0,0:0:0:0:
296,184,32727,1,8,0:0:0:0:
358,249,32962,6,2,P|300:274|221:237,1,135,10|2,0:0|3:1,0:0:0:0:
209,214,33430,1,10,0:0:0:0:
230,126,33665,1,10,0:0:0:0:
230,126,33782,2,0,B|186:120|148:143|148:143|110:165|66:156,1,168.750006437302,6|0,0:2|0:0,0:0:0:0:
67,156,35305,6,0,P|112:206|93:287,1,135.000005149841,2|0,0:0|0:0,0:0:0:0:
168,320,36008,2,0,P|233:306|294:362,1,135.000005149841,2|0,0:0|0:0,0:0:0:0:
362,317,36711,2,0,P|382:253|462:228,1,135.000005149841,2|0,0:0|0:0,0:0:0:0:
453,146,37414,2,0,P|413:150|369:168,1,67.5000025749207,2|2,0:0|0:3,0:0:0:0:
319,203,37883,1,0,3:0:0:0:
247,165,38117,6,0,L|228:70,1,80.9999975280762,4|8,0:2|0:0,0:0:0:0:
163,40,38585,2,0,B|83:58|83:58|21:36,2,121.499996292114,0|8|8,0:0|0:0|0:0,0:0:0:0:
231,85,39523,1,0,0:0:0:0:
298,40,39757,1,8,0:0:0:0:
371,75,39992,6,0,B|386:114|386:114|377:161,1,80.9999975280762,0|8,0:0|0:0,0:0:0:0:
311,197,40460,2,0,L|201:184,1,80.9999975280762,0|0,0:0|0:0,0:0:0:0:
192,202,40812,2,0,P|165:260|197:325,1,121.499996292114,12|8,0:0|0:0,0:0:0:0:
259,338,41398,2,0,L|253:383,2,40.4999987640381,2|0|10,0:0|0:0|0:0,0:0:0:0:
327,294,41867,6,0,P|369:283|414:281,1,80.9999975280762,2|8,0:2|0:0,0:0:0:0:
485,296,42335,2,0,P|505:232|491:158,1,121.499996292114,0|8,0:0|0:0,0:0:0:0:
452,112,42921,1,0,0:0:0:0:
452,112,43038,2,0,L|354:124,1,80.9999975280762,8|0,0:0|0:0,0:0:0:0:
301,80,43507,1,8,0:0:0:0:
244,138,43742,6,0,P|243:191|258:225,1,80.9999975280762,0|8,0:0|0:0,0:0:0:0:
190,267,44210,2,0,P|145:256|94:260,1,80.9999975280762,0|0,0:0|0:0,0:0:0:0:
75,277,44562,2,0,P|96:206|83:143,1,121.499996292114,12|8,0:0|0:0,0:0:0:0:
46,90,45148,2,0,L|-5:99,2,40.4999987640381,8|0|8,0:0|0:0|0:0,0:0:0:0:
105,34,45617,6,0,L|191:40,1,80.9999975280762,4|8,0:2|0:0,0:0:0:0:
251,86,46085,2,0,P|296:61|376:61,2,121.499996292114,0|8|8,0:0|0:0|0:0,0:0:0:0:
214,158,47023,1,0,0:0:0:0:
258,225,47257,1,8,0:0:0:0:
339,229,47492,6,0,P|385:205|406:181,1,80.9999975280762,0|8,0:0|0:0,0:0:0:0:
410,103,47960,2,0,P|443:115|476:147,1,80.9999975280762,0|0,0:0|0:0,0:0:0:0:
486,185,48312,2,0,P|475:235|472:315,1,121.499996292114,12|8,0:0|0:0,0:0:0:0:
405,353,48898,1,2,0:0:0:0:
337,308,49132,5,10,0:0:0:0:
337,308,49249,2,0,L|201:319,1,121.499996292114,2|8,0:0|0:0,0:0:0:0:
154,264,49835,2,0,L|65:252,1,80.9999975280762,0|0,0:0|0:0,0:0:0:0:
24,188,50304,2,0,P|33:140|57:110,2,80.9999975280762,0|8|0,0:0|0:0|0:0,0:0:0:0:
104,177,51007,1,8,0:0:0:0:
183,162,51242,6,0,L|196:73,1,80.9999975280762,0|8,0:0|0:0,0:0:0:0:
268,47,51710,2,0,L|264:-3,2,40.4999987640381,8|0|8,0:0|3:0|0:0,0:0:0:0:
341,81,52179,6,0,P|370:128|331:232,1,161.999995056152,4|0,0:2|0:0,0:0:0:0:
228,270,52999,2,0,B|183:245|130:263|130:263|80:280|29:257,1,202.49999382019,2|2,2:2|0:2,0:0:0:0:
89,151,53936,2,0,B|121:126|139:87|139:87|188:130|251:131,1,202.49999382019,4|0,1:0|0:0,0:0:0:0:
340,50,54874,2,0,P|414:50|463:75,1,121.499996292114,8|4,0:0|1:2,0:0:0:0:
498,139,55460,1,2,0:2:0:0:
482,218,55694,1,0,0:0:0:0:
408,252,55929,6,0,L|324:236,2,80.9999975280762,4|4|8,0:0|0:0|0:0,0:0:0:0:
349,358,56749,2,0,L|264:368,1,80.9999975280762,4|0,0:0|0:0,0:0:0:0:
228,374,57100,1,0,0:0:0:0:
175,311,57335,1,12,0:0:0:0:
268,178,57804,6,0,L|279:265,2,80.9999975280762,4|4|8,0:0|0:0|0:0,0:0:0:0:
158,124,58624,2,0,L|146:213,1,80.9999975280762,4|0,0:0|0:0,0:0:0:0:
142,244,58975,1,0,0:0:0:0:
66,214,59210,1,12,0:0:0:0:
107,57,59679,6,0,P|149:43|192:47,1,80.9999975280762,4|4,0:0|0:0,0:0:0:0:
239,105,60147,1,8,0:0:0:0:
358,82,60499,2,0,P|344:146|339:184,1,80.9999975280762,4|0,0:0|0:0,0:0:0:0:
347,201,60850,2,0,L|430:187,1,80.9999975280762,0|12,0:0|0:0,0:0:0:0:
356,334,61554,6,0,P|305:319|260:313,1,80.9999975280762,4|4,0:0|0:0,0:0:0:0:
197,326,62022,1,8,0:0:0:0:
132,222,62374,2,0,P|181:213|218:201,1,80.9999975280762,4|0,0:0|0:0,0:0:0:0:
239,175,62725,2,0,L|226:83,1,80.9999975280762,0|12,0:0|0:0,0:0:0:0:
85,15,63429,6,0,B|55:69|55:69|69:141,2,121.499996292114,4|0|0,1:2|1:0|1:0,0:0:0:0:
179,90,64483,2,0,L|309:73,1,121.499996292114,0|0,1:0|1:0,0:0:0:0:
366,120,65069,2,0,L|416:126,2,40.4999987640381,0|0|2,1:0|1:0|1:2,0:0:0:0:
288,213,65655,6,0,P|294:265|341:327,1,121.499996292114,0|0,1:0|1:0,0:0:0:0:
453,306,66358,2,0,P|475:252|469:176,1,121.499996292114,0|0,1:0|1:0,0:0:0:0:
428,121,66944,2,0,L|440:68,2,40.4999987640381,0|0|2,1:0|1:0|1:2,0:0:0:0:
311,157,67530,6,0,L|176:131,1,121.499996292114,0|0,1:0|1:0,0:0:0:0:
86,194,68233,2,0,L|38:315,1,121.499996292114,0|0,1:0|1:0,0:0:0:0:
99,363,68819,1,8,1:3:0:0:
173,331,69054,5,4,0:2:0:0:
173,331,69171,2,0,P|221:335|263:353,2,89.9999999999999,8|8|8,0:0|0:0|0:0,0:0:0:0:
140,246,69874,2,0,P|179:191|189:157,1,89.9999999999999,8|8,0:0|0:0,0:0:0:0:
150,87,70343,2,0,P|105:84|54:69,1,89.9999999999999,8|8,0:0|0:0,0:0:0:0:
24,47,70694,1,8,0:0:0:0:
3,134,70929,5,8,0:0:0:0:
3,134,71046,2,0,P|21:181|27:222,1,89.9999999999999,8|8,0:0|0:0,0:0:0:0:
114,238,71514,2,0,P|91:287|80:329,1,89.9999999999999,8|8,0:0|0:0,0:0:0:0:
160,364,71983,1,8,0:0:0:0:
233,313,72218,2,0,L|335:299,1,89.9999999999999,8|8,0:0|0:0,0:0:0:0:
364,314,72569,1,8,0:0:0:0:
428,250,72804,5,10,0:0:0:0:
428,250,72921,2,0,L|441:159,2,89.9999999999999,10|10|10,0:0|0:0|0:0,0:0:0:0:
347,209,73624,2,0,L|360:118,1,89.9999999999999,10|10,0:0|0:0,0:0:0:0:
373,30,74093,2,0,P|331:36|283:66,1,89.9999999999999,10|10,0:0|0:0,0:0:0:0:
265,96,74444,1,10,0:0:0:0:
265,96,76436,6,0,P|297:149|284:229,1,135,4|8,0:2|0:0,0:0:0:0:
216,270,77022,1,2,0:2:0:0:
216,270,77139,2,0,P|148:259|110:258,1,89.9999999999999,2|2,0:2|0:2,0:0:0:0:
32,161,77725,1,8,0:0:0:0:
112,118,77960,1,2,0:2:0:0:
112,118,78077,2,0,P|163:127|228:131,1,89.9999999999999,2|2,0:2|0:2,0:0:0:0:
332,94,78663,5,8,0:0:0:0:
397,156,78897,1,2,0:2:0:0:
397,156,79014,2,0,P|387:210|389:247,1,89.9999999999999,2|2,0:2|0:2,0:0:0:0:
293,340,79600,1,8,0:0:0:0:
224,282,79835,2,0,L|171:284,2,45,0|0|8,3:0|3:0|0:0,0:0:0:0:
289,219,80304,6,0,P|286:171|269:125,1,89.9999999999999,0|8,0:0|0:0,0:0:0:0:
195,85,80772,1,2,0:2:0:0:
195,85,80889,2,0,L|94:101,1,89.9999999999999,0|2,0:0|0:2,0:0:0:0:
62,107,81241,2,0,P|53:159|62:199,1,89.9999999999999,2|8,0:2|0:0,0:0:0:0:
135,246,81710,2,0,P|138:297|125:336,1,89.9999999999999,0|8,0:0|0:0,0:0:0:0:
52,282,82179,5,14,0:0:0:0:
93,153,82530,1,14,0:0:0:0:
222,110,82882,1,14,0:0:0:0:
331,189,83233,2,0,P|314:255|306:331,1,135,14|2,0:0|2:0,0:0:0:0:
433,272,83936,6,0,P|450:206|458:130,1,135,4|8,0:2|0:0,0:0:0:0:
428,54,84522,1,2,0:2:0:0:
428,54,84639,2,0,P|371:69|321:73,1,89.9999999999999,2|2,0:2|0:2,0:0:0:0:
210,36,85225,1,8,0:0:0:0:
159,110,85460,1,2,0:2:0:0:
159,110,85577,2,0,P|161:162|172:202,1,89.9999999999999,2|2,0:2|0:2,0:0:0:0:
296,249,86163,5,8,0:0:0:0:
347,175,86398,1,2,0:2:0:0:
347,175,86515,2,0,P|345:123|334:83,1,89.9999999999999,2|2,0:2|0:2,0:0:0:0:
210,36,87100,1,8,0:0:0:0:
159,110,87335,1,8,0:0:0:0:
261,198,87686,6,0,P|330:193|404:203,1,135,4|2,0:2|0:2,0:0:0:0:
478,166,88272,2,0,P|480:215|463:261,1,89.9999999999999,8|0,0:0|0:0,0:0:0:0:
400,313,88741,2,0,P|336:316|241:341,1,135
207,263,89327,1,0,0:0:0:0:
134,316,89561,6,0,P|64:287|16:241,1,135,4|2,0:2|0:2,0:0:0:0:
29,157,90147,2,0,P|92:133|154:95,1,135,8|2,0:0|0:2,0:0:0:0:
199,22,90733,1,8,0:0:0:0:
199,22,90850,2,0,L|305:42,1,89.9999999999999,0|8,0:0|0:0,0:0:0:0:
374,62,91319,1,8,0:0:0:0:
374,62,91436,6,0,B|411:119|411:119|383:202,1,135,4|8,0:2|0:0,0:0:0:0:
315,233,92022,2,0,L|215:224,1,89.9999999999999,8|8,0:0|0:0,0:0:0:0:
167,294,92491,2,0,L|71:307,2,89.9999999999999,8|8|8,0:0|0:0|0:0,0:0:0:0:
246,337,93194,1,8,0:0:0:0:
310,274,93429,6,0,P|316:219|306:169,1,89.9999999999999,8|8,0:0|0:0,0:0:0:0:
235,136,93897,2,0,L|251:88,2,45,10|8|8,0:0|0:0|0:0,0:0:0:0:
223,168,94249,1,10,0:0:0:0:
223,168,95303,2,0,L|330:150,1,89.9999999999999,2|0,0:0|0:0,0:0:0:0:
356,147,95655,6,0,B|389:170|389:170|405:222|376:263,1,135,4|8,0:2|0:0,0:0:0:0:
299,304,96240,1,0,0:0:0:0:
221,258,96475,1,8,0:0:0:0:
221,258,96592,2,2,P|156:260|114:276,2,89.9999999999999,0|2|2,0:0|0:0|0:0,0:0:0:0:
299,304,97295,2,2,P|362:308|455:278,1,135
485,218,97881,5,8,0:0:0:0:
418,157,98115,2,0,P|404:106|406:54,1,89.9999999999999,2|8,0:2|0:0,0:0:0:0:
428,31,98467,2,0,P|378:46|277:42,1,135,0|8,0:0|0:0,0:0:0:0:
236,113,99053,2,0,L|182:120,2,45,0|0|8,3:0|3:0|0:0,0:0:0:0:
316,154,99522,6,0,P|331:221|257:297,1,180,4|0,0:2|0:0,0:0:0:0:
171,277,100225,1,8,0:0:0:0:
171,277,100342,2,2,L|77:287,1,89.9999999999999,2|0,0:0|0:0,0:0:0:0:
18,221,100811,1,2,0:0:0:0:
18,221,100928,2,2,P|17:192|23:162,2,45,8|0|0,0:0|0:0|3:0,0:0:0:0:
105,200,101397,5,12,0:0:0:0:
32,86,101748,1,12,0:0:0:0:
148,17,102100,1,12,0:0:0:0:
221,131,102451,2,0,B|242:166|242:166|223:267,1,135,12|2,0:0|0:0,0:0:0:0:
350,308,103154,6,0,L|378:169,1,135,4|8,0:2|0:0,0:0:0:0:
394,87,103740,1,2,0:0:0:0:
314,43,103975,1,8,0:0:0:0:
314,43,104092,2,2,P|263:53|228:74,1,89.9999999999999
197,155,104561,1,2,0:0:0:0:
253,224,104795,2,2,P|316:207|406:219,1,135
452,272,105381,5,8,0:0:0:0:
392,339,105615,2,0,P|345:323|291:316,1,89.9999999999999,2|8,0:2|0:0,0:0:0:0:
264,336,105967,2,0,B|222:347|222:347|180:331|180:331|132:343,1,135,2|8,0:2|0:0,0:0:0:0:
47,365,106553,1,12,0:0:0:0:
60,230,106904,6,0,P|44:170|5:97,1,135,4|8,0:2|0:0,0:0:0:0:
56,27,107490,2,2,P|109:32|155:46,1,89.9999999999999,10|8,0:0|0:0,0:0:0:0:
205,107,107959,2,0,P|266:98|302:84,2,89.9999999999999,8|8|8,0:0|0:0|0:0,0:0:0:0:
133,162,108662,1,8,0:0:0:0:
194,227,108897,6,2,P|263:242|326:219,1,135,10|2,0:0|3:1,0:0:0:0:
348,185,109365,1,8,0:0:0:0:
405,254,109600,1,10,0:0:0:0:
405,254,109717,2,0,B|433:297|422:352|422:352|461:351|495:317,1,168.750006437302,12|0,0:0|2:0,0:0:0:0:
483,147,110771,6,0,L|498:86,2,45,0|0|0,0:0|0:0|0:0,0:0:0:0:
406,173,111240,1,4,0:2:0:0:
406,173,113115,5,8,0:0:0:0:
406,173,113232,2,0,L|314:159,1,80.9999975280762,8|8,0:0|0:0,0:0:0:0:
289,177,113583,2,0,L|197:163,1,80.9999975280762,8|8,0:0|0:0,0:0:0:0:
172,183,113935,2,0,L|80:169,1,80.9999975280762,8|12,0:0|0:0,0:0:0:0:
53,99,114404,5,8,0:0:0:0:
53,99,114521,2,2,B|85:71|94:31|94:31|134:48|175:42,1,161.999995056152,2|4,0:0|0:2,0:0:0:0:
251,21,115224,1,2,0:0:0:0:
251,21,116865,5,0,0:0:0:0:
251,21,116982,2,0,B|261:61|261:61|242:96|242:96|251:135,2,121.499996292114,10|14|10,0:0|0:0|0:0,0:0:0:0:
176,51,117919,1,0,3:0:0:0:
169,131,118154,2,2,L|205:262,1,121.499996292114,2|2,3:1|0:2,0:0:0:0:
210,280,118622,1,0,0:0:0:0:
325,317,118974,6,0,P|362:294|423:285,1,80.9999975280762,4|0,0:2|0:0,0:0:0:0:
478,294,119443,1,0,0:0:0:0:
444,220,119677,2,0,L|456:137,2,80.9999975280762,0|0|0,0:0|0:0|0:0,0:0:0:0:
363,211,120380,1,0,0:0:0:0:
282,202,120615,6,0,P|240:211|201:232,1,80.9999975280762,0|0,0:0|0:0,0:0:0:0:
159,294,121083,2,0,P|110:274|70:268,1,80.9999975280762,0|0,0:0|0:0,0:0:0:0:
43,279,121435,2,0,P|56:220|65:127,1,121.499996292114,2|0,2:0|0:0,0:0:0:0:
48,79,122021,2,0,L|31:33,2,40.4999987640381,8|8|0,0:0|0:0|0:0,0:0:0:0:
124,105,122490,6,0,P|171:98|208:85,1,80.9999975280762,12|8,0:0|0:0,0:0:0:0:
260,30,122958,1,8,0:0:0:0:
334,61,123193,2,0,L|384:54,2,40.4999987640381,8|8|8,0:0|0:0|0:0,0:0:0:0:
323,141,123661,1,8,0:0:0:0:
243,157,123896,2,0,P|222:204|216:238,1,80.9999975280762,8|8,0:0|0:0,0:0:0:0:
264,298,124365,5,8,0:0:0:0:
343,284,124599,2,0,P|343:309|336:335,2,40.4999987640381,8|8|8,0:0|0:0|0:0,0:0:0:0:
329,203,125068,1,0,3:0:0:0:
375,137,125302,6,0,P|442:176|428:263,1,161.999995056152,4|0,0:2|0:0,0:0:0:0:
339,324,126122,2,0,B|293:293|293:293|178:311,1,161.999995056152,2|8,2:0|0:0,0:0:0:0:
148,319,126708,2,0,L|164:182,2,121.499996292114,0|4|0,0:0|0:0|0:0,0:0:0:0:
69,339,127645,2,0,P|24:288|36:224,1,121.499996292114,0|8,0:0|0:0,0:0:0:0:
96,137,128348,2,0,P|140:83|107:-1,1,161.999995056152,4|0,0:2|0:0,0:0:0:0:
62,66,129052,6,0,P|34:89|16:136,2,80.9999975280762,4|4|12,0:0|0:0|0:0,0:0:0:0:
181,89,129872,2,0,P|218:85|269:64,1,80.9999975280762,4|0,0:0|0:0,0:0:0:0:
287,41,130223,1,0,0:0:0:0:
365,61,130458,1,12,0:0:0:0:
432,208,130927,6,0,P|392:222|348:223,2,80.9999975280762,4|4|8,0:0|0:0|0:0,0:0:0:0:
440,329,131747,2,0,P|397:315|346:317,1,80.9999975280762,4|0,0:0|0:0,0:0:0:0:
323,326,132098,1,0,0:0:0:0:
278,258,132333,1,12,0:0:0:0:
135,334,132802,6,0,L|146:244,1,80.9999975280762,4|4,0:0|0:0,0:0:0:0:
155,173,133270,1,8,0:0:0:0:
51,108,133622,2,0,P|33:151|36:195,1,80.9999975280762,4|0,0:0|0:0,0:0:0:0:
51,220,133973,2,0,P|57:268|50:303,1,80.9999975280762,0|12,0:0|0:0,0:0:0:0:
206,345,134677,6,0,P|196:284|202:253,1,80.9999975280762,4|4,0:0|0:0,0:0:0:0:
242,197,135145,1,8,0:0:0:0:
346,258,135497,2,0,L|430:265,1,80.9999975280762,4|0,0:0|0:0,0:0:0:0:
461,284,135848,2,0,P|472:335|468:377,1,80.9999975280762,0|12,0:0|0:0,0:0:0:0:
310,336,136552,6,0,L|322:199,2,121.499996292114,4|0|0,1:2|0:0|0:0,0:0:0:0:
193,369,137606,2,0,P|135:348|63:359,1,121.499996292114,2|2,0:0|0:0,0:0:0:0:
14,301,138192,1,0,0:0:0:0:
59,233,138427,6,0,L|54:92,1,121.499996292114,2|2,0:0|0:0,0:0:0:0:
167,156,139130,2,0,L|171:277,1,121.499996292114,2|2,0:0|0:0,0:0:0:0:
285,320,139833,2,0,P|329:303|372:299,1,80.9999975280762,2|0,0:0|1:0,0:0:0:0:
436,331,140302,6,0,P|408:280|399:192,1,121.499996292114,2|2,1:2|0:0,0:0:0:0:
489,138,141005,2,0,P|508:67|505:2,2,121.499996292114,2|2|8,0:0|0:0|1:0,0:0:0:0:
414,170,141942,1,12,1:0:0:0:
351,118,142177,5,4,0:2:0:0:
351,118,142294,2,0,P|351:71|364:18,2,89.9999999999999,8|8|8,0:0|0:0|0:0,0:0:0:0:
283,177,142997,2,0,P|244:177|187:159,1,89.9999999999999,8|8,0:0|0:0,0:0:0:0:
135,95,143466,2,0,P|88:96|30:117,1,89.9999999999999,8|8,0:0|0:0,0:0:0:0:
13,138,143817,1,8,0:0:0:0:
74,204,144052,5,8,0:0:0:0:
74,204,144169,2,0,L|81:293,1,89.9999999999999,8|8,0:0|0:0,0:0:0:0:
166,265,144637,2,0,L|173:356,1,89.9999999999999,8|8,0:0|0:0,0:0:0:0:
262,346,145106,1,8,0:0:0:0:
322,278,145341,2,0,B|332:233|332:233|314:193,1,89.9999999999999,8|0,0:0|0:0,0:0:0:0:
298,150,145692,1,0,3:0:0:0:
387,140,145927,5,10,0:0:0:0:
387,140,146044,2,0,P|433:127|483:127,2,89.9999999999999,10|10|10,0:0|0:0|0:0,0:0:0:0:
335,66,146747,2,0,P|285:59|249:45,1,89.9999999999999,10|10,0:0|0:0,0:0:0:0:
184,108,147216,2,0,P|201:158|205:202,1,89.9999999999999,10|10,0:0|0:0,0:0:0:0:
193,238,147567,1,10,0:0:0:0:
193,238,149559,6,0,P|257:210|339:225,1,135,4|8,0:2|0:0,0:0:0:0:
395,266,150145,1,2,0:2:0:0:
395,266,150262,2,0,L|488:254,1,89.9999999999999,2|2,0:2|0:2,0:0:0:0:
499,120,150848,1,8,0:0:0:0:
416,83,151083,1,2,0:2:0:0:
416,83,151200,2,0,L|326:94,1,89.9999999999999,2|2,0:2|0:2,0:0:0:0:
234,192,151786,5,8,0:0:0:0:
176,123,152020,1,2,0:2:0:0:
176,123,152137,2,0,P|173:78|186:34,1,89.9999999999999,2|2,0:2|0:2,0:0:0:0:
53,64,152723,1,8,0:0:0:0:
0,137,152958,2,0,L|8:189,2,45,0|0|8,3:0|3:0|0:0,0:0:0:0:
90,142,153427,6,0,L|106:238,1,89.9999999999999,0|8,0:0|0:0,0:0:0:0:
193,245,153895,2,0,L|171:340,1,89.9999999999999,2|8,0:2|0:0,0:0:0:0:
260,353,154364,1,2,0:2:0:0:
260,353,154481,2,0,P|307:331|354:328,1,89.9999999999999,0|0,0:0|0:0,0:0:0:0:
389,333,154833,2,0,L|371:242,1,89.9999999999999,0|8,0:0|0:0,0:0:0:0:
353,156,155302,5,14,0:0:0:0:
486,174,155653,1,14,0:0:0:0:
371,244,156005,1,14,0:0:0:0:
237,226,156356,2,0,P|203:201|224:117,1,135,14|2,0:0|2:0,0:0:0:0:
95,67,157059,6,0,P|68:140|67:213,1,135,4|8,0:2|0:0,0:0:0:0:
96,281,157645,1,2,0:2:0:0:
96,281,157762,2,0,P|142:282|196:301,1,89.9999999999999,2|2,0:2|0:2,0:0:0:0:
293,215,158348,1,8,0:0:0:0:
347,287,158583,1,2,0:2:0:0:
347,287,158700,2,0,P|389:299|434:300,1,89.9999999999999,2|2,0:2|0:2,0:0:0:0:
498,181,159286,5,8,0:0:0:0:
441,110,159520,1,2,0:2:0:0:
441,110,159637,2,0,P|412:163|410:199,1,89.9999999999999,2|2,0:2|0:2,0:0:0:0:
411,326,160223,1,8,0:0:0:0:
498,348,160458,1,8,0:0:0:0:
495,213,160809,6,0,P|432:195|357:191,1,135,4|2,0:2|0:2,0:0:0:0:
284,234,161395,2,0,P|224:231|176:220,1,89.9999999999999,8|0,0:0|0:0,0:0:0:0:
125,167,161864,1,0,0:0:0:0:
125,167,161981,2,0,L|136:73,2,89.9999999999999,8|0|0,0:0|0:0|0:0,0:0:0:0:
55,224,162684,6,0,P|87:279|115:371,1,135,4|2,0:2|0:2,0:0:0:0:
197,367,163270,2,0,P|244:324|287:259,1,135,8|2,0:0|0:2,0:0:0:0:
301,176,163856,1,8,0:0:0:0:
301,176,163973,2,0,P|352:186|403:189,1,89.9999999999999,0|8,0:0|0:0,0:0:0:0:
463,136,164442,1,8,0:0:0:0:
463,136,164559,6,0,B|483:72|483:72|441:11,1,135,4|8,0:2|0:0,0:0:0:0:
354,26,165145,2,0,L|262:38,1,89.9999999999999,8|8,0:0|0:0,0:0:0:0:
199,99,165614,2,0,L|96:88,2,89.9999999999999,8|8|8,0:0|0:0|0:0,0:0:0:0:
262,162,166317,1,8,0:0:0:0:
322,228,166552,6,0,L|427:237,1,89.9999999999999,8|8,0:0|0:0,0:0:0:0:
451,315,167020,2,0,L|502:302,2,45,10|8|8,0:0|0:0|0:0,0:0:0:0:
418,324,167372,1,10,0:0:0:0:
418,324,168427,1,6,1:2:0:0:
256,192,168544,12,2,172177,0:0:0:0:
363,297,174989,6,0,B|344:263|351:219|351:219|359:170|332:140,1,161.999995056152,2|8,2:0|0:0,0:0:0:0:
188,213,175927,2,0,P|173:259|167:301,1,80.9999975280762,0|0,0:0|2:0,0:0:0:0:
211,359,176395,2,0,P|118:327|40:321,1,161.999995056152,0|0,0:0|0:0,0:0:0:0:
19,162,177333,1,0,0:0:0:0:
94,190,177567,1,8,0:0:0:0:
165,151,177802,6,0,P|172:97|166:57,1,80.9999975280762,0|0,0:0|0:0,0:0:0:0:
111,13,178270,2,0,P|194:43|273:45,1,161.999995056152,2|0,0:2|0:0,0:0:0:0:
364,119,179091,1,0,3:0:0:0:
364,119,179208,2,0,B|351:158|351:158|361:199,1,80.9999975280762,8|2,0:0|3:2,0:0:0:0:
426,243,179677,6,0,L|411:335,1,80.9999975280762,12|8,0:0|0:0,0:0:0:0:
339,289,180145,2,0,L|325:368,1,80.9999975280762,8|8,0:0|0:0,0:0:0:0:
250,338,180614,2,0,P|233:284|240:247,1,80.9999975280762,8|8,0:0|0:0,0:0:0:0:
154,268,181083,2,0,P|170:213|197:185,1,80.9999975280762,8|8,0:0|0:0,0:0:0:0:
264,184,181552,6,0,B|314:182|314:182|333:195|333:195|394:191,2,121.499996292114,8|0|0,0:0|3:0|3:0,0:0:0:0:
184,195,182489,2,2,B|124:169|109:98|109:98|81:127|89:170,1,202.500007724762,10|2,1:0|0:1,0:0:0:0:
116,252,183427,6,0,B|109:298|78:333|78:333|121:322|177:333,1,180,4|8,0:2|0:0,0:0:0:0:
252,357,184130,1,2,0:0:0:0:
252,357,184247,2,0,P|320:343|397:335,1,135,2|0,0:0|0:0,0:0:0:0:
442,266,184833,2,0,P|401:251|353:251,1,89.9999999999999,8|2,0:0|0:0,0:0:0:0:
287,190,185302,6,0,P|269:196|231:198,2,45,0|2|2,0:0|0:0|0:0,0:0:0:0:
325,166,185653,2,0,L|333:25,1,135
244,10,186239,1,2,0:0:0:0:
193,83,186473,2,0,P|137:93|98:85,2,89.9999999999999,0|8|2,0:0|0:0|0:0,0:0:0:0:
271,128,187177,6,0,P|319:113|375:116,2,89.9999999999999,2|0|8,0:0|0:0|0:0,0:0:0:0:
239,212,187880,1,0,0:0:0:0:
307,270,188114,2,0,L|299:314,2,45,8|8|10,0:0|0:0|0:0,0:0:0:0:
386,227,188583,6,0,B|427:210|475:222|475:222|452:180|458:136,1,180,4|8,0:2|0:0,0:0:0:0:
488,50,189286,1,2,0:0:0:0:
488,50,189403,2,0,P|432:49|350:29,1,135,2|0,0:0|0:0,0:0:0:0:
287,90,189989,2,0,P|229:80|186:81,1,89.9999999999999,8|2,0:0|0:0,0:0:0:0:
118,123,190458,6,0,L|104:72,2,45,0|2|2,0:0|0:0|0:0,0:0:0:0:
129,166,190809,2,0,P|124:211|65:277,1,135
72,366,191395,2,0,P|46:363|14:349,2,45,2|2|0,0:0|0:0|0:0,0:0:0:0:
158,340,191864,1,8,0:0:0:0:
241,373,192098,1,2,0:0:0:0:
313,318,192333,6,0,L|328:210,1,89.9999999999999,2|0,0:0|0:0,0:0:0:0:
269,158,192801,2,0,L|261:66,2,89.9999999999999,8|8|8,0:0|0:0|0:0,0:0:0:0:
193,207,193504,2,0,P|167:208|143:204,1,45,8|8,0:0|0:0,0:0:0:0:
109,181,193739,6,0,B|72:152|69:102|69:102|25:125|12:168,1,180,4|8,0:2|0:0,0:0:0:0:
46,250,194442,1,2,0:0:0:0:
46,250,194559,2,0,P|86:301|116:364,1,135,2|0,0:0|0:0,0:0:0:0:
189,311,195145,2,0,P|233:342|275:357,1,89.9999999999999,8|2,0:0|0:0,0:0:0:0:
355,341,195614,5,0,0:0:0:0:
366,251,195848,1,2,0:0:0:0:
366,251,195965,2,0,P|313:193|260:165,1,135,0|0,0:0|0:0,0:0:0:0:
173,169,196551,2,0,L|161:212,2,45,2|2|0,0:0|0:0|0:0,0:0:0:0:
147,82,197020,1,8,0:0:0:0:
219,29,197254,1,2,0:0:0:0:
291,83,197489,6,0,P|357:89|409:77,1,89.9999999999999,2|0,0:0|0:0,0:0:0:0:
461,48,197957,2,0,P|464:93|449:141,1,89.9999999999999,8|0,0:0|0:0,0:0:0:0:
369,173,198426,2,0,L|378:220,2,45,8|8|10,0:0|0:0|0:0,0:0:0:0:
291,126,198895,6,0,B|246:119|203:138|203:138|244:161|260:207,1,180,4|8,0:2|0:0,0:0:0:0:
265,295,199598,1,2,0:0:0:0:
265,295,199715,2,0,P|332:294|403:319,1,135,2|0,0:0|0:0,0:0:0:0:
476,275,200301,2,0,P|485:225|477:179,1,89.9999999999999,8|2,0:0|0:0,0:0:0:0:
411,126,200770,5,0,0:0:0:0:
334,173,201004,1,2,0:0:0:0:
334,173,201121,2,0,P|306:121|311:42,1,135,0|0,0:0|0:0,0:0:0:0:
224,15,201707,2,0,P|216:47|211:73,1,45,2|2,0:0|0:0,0:0:0:0:
214,103,201941,2,0,L|108:112,1,89.9999999999999,0|8,0:0|0:0,0:0:0:0:
144,198,202410,2,0,L|38:207,1,89.9999999999999,2|2,0:0|0:0,0:0:0:0:
71,294,202879,5,0,0:0:0:0:
151,334,203113,2,0,B|175:328|194:313|194:313|231:334|231:334|276:324|276:324|322:339,1,180,8|8,0:0|0:0,0:0:0:0:
407,345,203816,2,0,L|399:290,1,45,8|8,0:0|0:0,0:0:0:0:
394,255,204051,5,12,0:2:0:0:
269,202,204402,1,12,0:2:0:0:
258,67,204754,1,12,0:2:0:0:
379,124,205105,1,12,0:2:0:0:
269,202,205457,5,12,0:2:0:0:
148,142,205808,1,12,0:2:0:0:
45,230,206160,1,12,0:2:0:0:
166,287,206511,2,0,B|207:283|207:283|252:305|252:305|295:302,1,135,12|2,0:2|0:0,0:0:0:0:
295,301,207332,5,12,0:2:0:0:
266,169,207683,1,12,0:2:0:0:
399,145,208035,1,12,0:2:0:0:
426,276,208386,1,12,0:2:0:0:
295,301,208738,5,12,0:2:0:0:
227,184,209089,1,12,0:2:0:0:
318,84,209441,1,12,0:2:0:0:
439,141,209792,2,0,B|469:202|469:202|439:273,1,135,12|8,0:2|3:0,0:0:0:0:
357,235,210378,1,2,3:2:0:0:
295,301,210613,1,4,1:2:0:0:
256,192,210730,12,2,214363,0:0:0:0:
126,267,219988,5,14,0:0:0:0:
202,182,220339,1,14,0:0:0:0:
293,250,220691,1,14,0:0:0:0:
368,163,221042,2,0,L|376:35,1,114.750002188682,14|2,0:0|0:0,0:0:0:0:
375,48,221863,5,14,0:0:0:0:
276,129,222214,1,14,0:0:0:0:
171,54,222566,1,14,0:0:0:0:
78,142,222917,2,0,L|95:285,1,128.249996575355,14|8,0:0|3:0,0:0:0:0:
205,332,223620,2,0,B|244:311|288:313|288:313|291:337|301:353,1,128.249996575355,2|12,0:0|0:2,0:0:0:0:
380,309,224206,5,2,0:2:0:0:
380,309,224323,1,2,0:2:0:0:
418,227,224558,2,0,P|402:168|342:100,1,135,2|8,0:2|0:0,0:0:0:0:
266,103,225144,1,2,0:2:0:0:
266,103,225261,1,2,0:2:0:0:
208,171,225495,2,0,P|156:189|63:179,1,135,2|8,0:2|0:0,0:0:0:0:
27,259,226081,5,2,0:2:0:0:
27,259,226198,1,2,0:2:0:0:
89,324,226433,2,0,L|234:298,1,135,2|8,0:2|0:0,0:0:0:0:
311,286,227019,2,0,L|304:344,2,45,0|0|8,3:0|3:0|0:0,0:0:0:0:
365,213,227488,6,0,P|353:163|327:123,1,89.9999999999999,0|8,0:0|0:0,0:0:0:0:
248,100,227956,2,0,P|200:114|148:113,1,89.9999999999999,2|8,0:2|0:0,0:0:0:0:
73,88,228425,1,2,0:2:0:0:
91,175,228659,2,0,L|112:265,1,89.9999999999999,8|0,0:0|0:0,0:0:0:0:
197,288,229128,2,0,P|222:279|244:274,1,45,8|0,0:0|3:0,0:0:0:0:
285,275,229363,5,14,0:0:0:0:
397,200,229714,1,14,0:0:0:0:
261,196,230066,1,14,0:0:0:0:
368,277,230417,2,0,P|426:278|477:220,1,135,14|2,0:0|2:1,0:0:0:0:
461,90,231120,6,0,B|439:81|423:61|423:61|392:85|342:92,1,135,4|8,0:2|0:0,0:0:0:0:
253,80,231706,1,2,0:2:0:0:
253,80,231823,1,2,0:2:0:0:
182,23,232058,2,0,P|164:84|178:167,1,135,2|8,0:2|0:0,0:0:0:0:
256,192,232644,5,2,0:2:0:0:
256,192,232761,1,2,0:2:0:0:
339,158,232995,2,0,P|357:220|347:299,1,135,2|8,0:2|0:0,0:0:0:0:
273,337,233581,1,2,0:2:0:0:
273,337,233698,1,2,0:2:0:0:
209,272,233933,2,0,P|140:254|58:272,1,135,2|8,0:2|0:0,0:0:0:0:
13,326,234519,1,8,0:0:0:0:
143,361,234870,6,0,L|127:219,1,135,4|2,0:2|0:2,0:0:0:0:
54,174,235456,1,8,0:0:0:0:
108,101,235691,1,0,0:0:0:0:
45,36,235925,2,0,P|109:14|186:50,1,135
199,120,236511,1,0,0:0:0:0:
284,147,236745,6,0,P|351:117|375:49,1,135,4|2,0:2|0:2,0:0:0:0:
451,16,237331,2,0,B|461:39|468:62|468:62|453:100|443:152,1,135,8|2,0:0|0:2,0:0:0:0:
446,234,237917,1,8,0:0:0:0:
446,234,238034,2,0,P|397:238|342:251,1,89.9999999999999,0|8,0:0|0:0,0:0:0:0:
290,185,238503,1,8,0:0:0:0:
290,185,238620,6,0,P|268:238|216:297,1,135,4|2,0:2|0:2,0:0:0:0:
127,303,239206,2,0,P|102:247|74:214,1,89.9999999999999,8|0,0:0|0:0,0:0:0:0:
7,176,239675,1,0,0:0:0:0:
7,176,239792,2,0,L|31:81,1,89.9999999999999,8|0,0:0|0:0,0:0:0:0:
111,51,240261,1,0,0:0:0:0:
177,111,240495,6,0,P|247:120|313:90,1,135,4|2,0:2|0:2,0:0:0:0:
361,25,241081,2,0,P|353:106|377:158,1,135,8|2,0:0|0:2,0:0:0:0:
411,178,241550,1,12,0:0:0:0:
344,238,241784,1,0,0:0:0:0:
344,238,241902,2,0,P|290:220|196:229,1,135,12|12,0:0|0:0,0:0:0:0:
172,244,242370,6,0,L|183:100,1,135,4|0,0:2|0:0,0:0:0:0:
106,60,242956,1,8,0:0:0:0:
24,98,243191,1,8,0:0:0:0:
20,187,243425,2,0,P|33:234|34:280,2,89.9999999999999,8|8|8,0:0|0:0|0:0,0:0:0:0:
101,148,244128,1,8,0:0:0:0:
171,204,244363,6,0,P|221:202|263:188,1,89.9999999999999,8|8,0:0|0:0,0:0:0:0:
297,108,244831,2,0,L|357:121,2,45,10|8|8,0:0|0:0|0:0,0:0:0:0:
263,101,245183,1,10,0:0:0:0:
263,101,247175,6,0,L|254:212,1,89.9999999999999,2|2,2:0|2:0,0:0:0:0:
276,230,247527,6,0,B|308:244|342:233|342:233|378:223|409:234,1,135,4|8,0:2|0:0,0:0:0:0:
464,303,248112,1,2,0:0:0:0:
390,355,248347,1,8,0:0:0:0:
390,355,248464,2,2,P|335:343|292:343,1,89.9999999999999,0|2,0:0|0:0,0:0:0:0:
225,293,248933,1,2,0:0:0:0:
153,347,249167,2,2,P|106:343|32:288,1,135
31,203,249753,5,8,0:0:0:0:
101,146,249987,2,0,L|198:157,1,89.9999999999999,2|8,0:2|0:0,0:0:0:0:
235,162,250339,2,0,B|268:187|268:187|274:233|249:275,1,135,0|8,0:0|0:0,0:0:0:0:
323,326,250925,2,0,P|317:347|314:372,2,45,0|0|8,3:0|3:0|0:0,0:0:0:0:
404,286,251394,6,0,B|429:248|424:200|424:200|384:173|377:126,1,180,4|0,0:2|0:0,0:0:0:0:
407,41,252097,1,8,0:0:0:0:
407,41,252214,2,2,P|458:22|510:24,2,89.9999999999999,0|2|2,0:0|0:0|0:0,0:0:0:0:
319,61,252917,2,2,P|257:55|219:33,1,89.9999999999999,2|0,0:0|3:0,0:0:0:0:
198,13,253269,5,14,0:0:0:0:
237,141,253620,1,14,0:0:0:0:
127,219,253972,1,14,0:0:0:0:
10,150,254323,2,0,L|29:12,1,135,14|2,0:0|0:0,0:0:0:0:
145,85,255026,6,0,L|126:218,1,135,4|8,0:2|0:0,0:0:0:0:
191,280,255612,1,2,0:0:0:0:
262,225,255847,1,8,0:0:0:0:
262,225,255964,2,2,B|277:182|277:182|265:133,1,89.9999999999999
247,50,256433,1,2,0:0:0:0:
326,7,256667,2,2,P|391:27|423:95,1,135
389,166,257253,5,12,0:0:0:0:
315,217,257487,2,0,P|316:270|329:309,1,89.9999999999999,2|8,0:2|0:0,0:0:0:0:
356,339,257839,2,0,P|285:317|207:320,1,135,2|8,0:2|0:0,0:0:0:0:
139,347,258425,1,12,0:0:0:0:
57,239,258776,6,0,P|99:221|196:223,1,135,4|8,0:2|0:0,0:0:0:0:
268,181,259362,1,10,0:0:0:0:
273,90,259597,1,8,0:0:0:0:
196,42,259831,2,0,P|146:41|105:48,2,89.9999999999999,8|8|8,0:0|0:0|0:0,0:0:0:0:
273,90,260534,2,2,P|318:89|371:77,1,89.9999999999999,8|10,0:0|0:0,0:0:0:0:
441,121,261003,5,8,0:0:0:0:
433,210,261237,2,2,L|487:223,2,45,8|8|10,0:0|0:0|0:0,0:0:0:0:
397,237,261589,2,0,B|358:259|315:248|315:248|273:233|229:253,1,168.750006437302,12|0,0:0|2:0,0:0:0:0:
233,251,263112,6,0,P|245:178|206:117,1,135.000005149841,2|2,0:0|0:3,0:0:0:0:
142,93,263815,2,0,P|72:119|39:183,1,135.000005149841,2|2,0:0|0:3,0:0:0:0:
49,249,264518,2,0,P|106:295|178:292,1,135.000005149841,2|2,0:0|0:3,0:0:0:0:
233,251,265221,6,0,B|266:229|266:229|360:253,1,135.000005149841,2|2,0:0|0:3,0:0:0:0:
412,313,265924,2,0,L|391:173,1,135.000005149841,2|2,0:0|0:3,0:0:0:0:
380,99,266627,1,2,0:3:0:0:
380,99,266744,1,6,1:0:0:0:
