osu file format v14

[General]
AudioFilename: audio.mp3
AudioLeadIn: 0
PreviewTime: 76436
Countdown: 0
SampleSet: Normal
StackLeniency: 0.7
Mode: 1
LetterboxInBreaks: 0
WidescreenStoryboard: 1

[Editor]
Bookmarks: 2025,9525,17962,19837,27337,35305,38117,45617,52179,55929,63429,69054,76554,84054,91554,95772,103272,111240,118740,125302,132802,136552,142177,149677,157177,164677,168427,175927,183427,188583,193739,198895,204051,210613,214363,223738,231238,238738,247644,255144,263112
DistanceSpacing: 1.1
BeatDivisor: 4
GridSize: 32
TimelineZoom: 1.5

[Metadata]
Title:Touryouka
TitleUnicode:透靈蕐
Artist:Camellia feat. Nanahira
ArtistUnicode:かめりあ feat. ななひら
Creator:Idealism
Version:Dekaane's Oni
Source:
Tags:Toryoka Toureika Rock Japanese ごーいん! Go-In! Go In Confetto かめるかめりあ×Confetto J-Rock Jrock dakedekaane hirok eae fa featured artist
BeatmapID:3021353
BeatmapSetID:1438624

[Difficulty]
HPDrainRate:7
CircleSize:5
OverallDifficulty:6
ApproachRate:5
SliderMultiplier:1.4
SliderTickRate:1

[Events]
//Background and Video events
0,0,"touryouka.jpg",0,-30
//Break Periods
//Storyboard Layer 0 (Background)
//Storyboard Layer 1 (Fail)
//Storyboard Layer 2 (Pass)
//Storyboard Layer 3 (Foreground)
//Storyboard Layer 4 (Overlay)
//Storyboard Sound Samples

[TimingPoints]
2025,234.375,4,1,0,55,1,0
17962,-100,4,1,0,80,0,0
19720,-100,4,1,0,80,0,1
19837,234.375,4,1,0,80,1,1
33899,234.375,6,1,0,30,1,0
34602,-100,4,1,0,65,0,0
35305,234.375,3,1,0,65,1,0
38117,234.375,4,1,0,70,1,0
52179,234.375,4,1,0,65,1,0
63429,-100,4,1,0,55,0,0
69054,234.375,4,1,0,70,1,0
74679,-100,4,1,0,55,0,0
76436,-100,4,1,0,80,0,1
94366,234.375,6,1,0,80,1,1
95655,-100,4,1,0,80,0,0
95772,234.375,4,1,0,80,1,0
102510,-100,4,1,0,60,0,0
103154,-100,4,1,0,80,0,0
109834,234.375,6,1,0,55,1,0
111240,234.375,4,1,0,65,1,0
125302,234.375,4,1,0,65,1,0
136552,-100,4,1,0,55,0,0
142177,234.375,4,1,0,70,1,0
147802,-100,4,1,0,55,0,0
149559,-100,4,1,0,80,0,1
168427,-100,4,1,0,65,0,0
175809,-100,4,1,0,55,0,0
179677,-100,4,1,0,60,0,0
183427,-100,4,1,0,70,0,0
187177,234.375,6,1,0,70,1,0
188583,234.375,4,1,0,70,1,0
192333,234.375,6,1,0,70,1,0
193739,234.375,4,1,0,70,1,0
197489,234.375,6,1,0,70,1,0
198895,234.375,4,1,0,70,1,0
202645,234.375,6,1,0,70,1,0
204051,234.375,6,1,0,70,1,0
206863,234.375,6,1,0,70,1,8
207332,234.375,6,1,0,70,1,0
210144,234.375,6,1,0,70,1,8
210613,234.375,4,1,0,65,1,0
214363,-100,4,1,0,55,0,0
219988,-100,4,1,0,70,0,0
221394,-100,4,1,0,60,0,0
221863,-100,4,1,0,70,0,0
223269,-100,4,1,0,60,0,0
223738,234.375,4,1,0,60,1,0
223972,-100,4,1,0,90,0,1
245241,-100,4,1,0,60,0,1
246238,234.375,6,1,0,70,1,1
246238,-100,6,1,0,70,0,1
247527,-100,4,1,0,90,0,0
247644,234.375,4,1,0,90,1,0
254675,-100,4,1,0,70,0,0
255026,-100,4,1,0,90,0,0
261706,234.375,6,1,0,90,1,0
261764,-100,4,1,0,60,0,0
263112,234.375,3,1,0,60,1,0
266744,-100,4,1,0,80,0,0

[HitObjects]
256,192,2025,5,8,0:0:0:0:
256,192,2142,1,0,0:0:0:0:
256,192,2376,1,0,0:0:0:0:
256,192,2610,1,0,0:0:0:0:
256,192,2728,1,0,0:0:0:0:
256,192,2845,1,0,0:0:0:0:
256,192,3079,1,0,0:0:0:0:
256,192,3431,1,8,0:0:0:0:
256,192,3665,1,8,0:0:0:0:
256,192,3900,1,0,0:0:0:0:
256,192,4017,1,0,0:0:0:0:
256,192,4251,1,0,0:0:0:0:
256,192,4485,1,0,0:0:0:0:
256,192,4603,1,8,0:0:0:0:
256,192,4837,1,8,0:0:0:0:
256,192,5071,1,8,0:0:0:0:
256,192,5306,1,8,0:0:0:0:
256,192,5540,8,0,8587,0:0:0:0:
256,192,9056,5,8,0:0:0:0:
256,192,9290,1,8,0:0:0:0:
256,192,9525,1,0,0:0:0:0:
256,192,9642,1,0,0:0:0:0:
256,192,9876,1,8,0:0:0:0:
256,192,10110,1,0,0:0:0:0:
256,192,10228,1,0,0:0:0:0:
256,192,10345,1,0,0:0:0:0:
256,192,10579,1,0,0:0:0:0:
256,192,10696,1,8,0:0:0:0:
256,192,10931,1,0,0:0:0:0:
256,192,11165,1,8,0:0:0:0:
256,192,11400,1,0,0:0:0:0:
256,192,11517,1,0,0:0:0:0:
256,192,11751,1,8,0:0:0:0:
256,192,11985,1,0,0:0:0:0:
256,192,12103,1,8,0:0:0:0:
256,192,12337,1,8,0:0:0:0:
256,192,12454,1,0,0:0:0:0:
256,192,12689,1,0,0:0:0:0:
256,192,12806,1,8,0:0:0:0:
256,192,13040,1,8,0:0:0:0:
256,192,13275,8,0,17728,0:0:0:0:
256,192,17962,5,12,0:0:0:0:
256,192,18314,1,12,0:0:0:0:
256,192,18665,1,12,0:0:0:0:
256,192,19017,1,12,0:0:0:0:
256,192,19720,1,4,0:0:0:0:
256,192,19954,1,0,0:0:0:0:
256,192,20071,1,8,0:0:0:0:
256,192,20305,1,0,0:0:0:0:
256,192,20422,1,0,0:0:0:0:
256,192,20540,1,8,0:0:0:0:
256,192,20657,1,0,0:0:0:0:
256,192,20891,1,0,0:0:0:0:
256,192,21008,1,8,0:0:0:0:
256,192,21243,1,0,0:0:0:0:
256,192,21360,1,0,0:0:0:0:
256,192,21477,1,8,0:0:0:0:
256,192,21712,1,0,0:0:0:0:
256,192,21946,1,8,0:0:0:0:
256,192,22180,1,0,0:0:0:0:
256,192,22297,1,0,0:0:0:0:
256,192,22415,1,8,0:0:0:0:
256,192,22532,1,0,0:0:0:0:
256,192,22766,1,0,0:0:0:0:
256,192,22883,1,8,0:0:0:0:
256,192,23118,1,0,0:0:0:0:
256,192,23176,1,0,0:0:0:0:
256,192,23235,1,0,0:0:0:0:
256,192,23294,1,0,0:0:0:0:
256,192,23352,1,8,0:0:0:0:
256,192,23587,1,4,0:0:0:0:
256,192,23704,1,0,0:0:0:0:
256,192,23821,1,8,0:0:0:0:
256,192,24055,1,0,0:0:0:0:
256,192,24172,1,0,0:0:0:0:
256,192,24290,1,8,0:0:0:0:
256,192,24407,1,0,0:0:0:0:
256,192,24641,1,0,0:0:0:0:
256,192,24758,1,8,0:0:0:0:
256,192,24993,1,0,0:0:0:0:
256,192,25110,1,0,0:0:0:0:
256,192,25227,1,0,0:0:0:0:
256,192,25286,1,0,0:0:0:0:
256,192,25344,1,0,0:0:0:0:
256,192,25462,1,12,0:0:0:0:
256,192,25579,1,4,0:0:0:0:
256,192,25813,1,12,0:0:0:0:
256,192,26165,1,12,0:0:0:0:
256,192,26282,1,4,0:0:0:0:
256,192,26516,1,12,0:0:0:0:
256,192,27219,1,4,0:0:0:0:
256,192,27454,1,0,0:0:0:0:
256,192,27571,1,8,0:0:0:0:
256,192,27805,1,0,0:0:0:0:
256,192,27922,1,0,0:0:0:0:
256,192,28040,1,8,0:0:0:0:
256,192,28157,1,0,0:0:0:0:
256,192,28391,1,0,0:0:0:0:
256,192,28508,1,8,0:0:0:0:
256,192,28743,1,0,0:0:0:0:
256,192,28860,1,0,0:0:0:0:
256,192,28977,1,8,0:0:0:0:
256,192,29212,1,0,0:0:0:0:
256,192,29446,1,12,0:0:0:0:
256,192,29680,1,0,0:0:0:0:
256,192,29797,1,0,0:0:0:0:
256,192,29915,1,8,0:0:0:0:
256,192,30032,1,0,0:0:0:0:
256,192,30266,1,0,0:0:0:0:
256,192,30383,1,8,0:0:0:0:
256,192,30442,1,8,0:0:0:0:
256,192,30501,1,0,0:0:0:0:
256,192,30559,1,0,0:0:0:0:
256,192,30618,1,8,0:0:0:0:
256,192,30969,1,4,0:0:0:0:
256,192,31204,1,0,0:0:0:0:
256,192,31321,1,8,0:0:0:0:
256,192,31438,1,0,0:0:0:0:
256,192,31555,1,8,0:0:0:0:
256,192,31672,1,0,0:0:0:0:
256,192,31790,1,8,0:0:0:0:
256,192,31907,1,0,0:0:0:0:
256,192,32024,1,8,0:0:0:0:
256,192,32141,1,0,0:0:0:0:
256,192,32258,1,8,0:0:0:0:
256,192,32376,1,0,0:0:0:0:
256,192,32493,1,8,0:0:0:0:
256,192,32610,1,0,0:0:0:0:
256,192,32727,1,8,0:0:0:0:
256,192,32844,1,0,0:0:0:0:
256,192,32962,1,8,0:0:0:0:
256,192,33079,1,0,0:0:0:0:
256,192,33196,1,8,0:0:0:0:
256,192,33313,1,0,0:0:0:0:
256,192,33430,1,8,0:0:0:0:
256,192,33547,1,8,0:0:0:0:
256,192,33665,1,8,0:0:0:0:
256,192,33782,1,12,0:0:0:0:
256,192,37648,1,8,0:0:0:0:
256,192,37883,1,0,0:0:0:0:
256,192,38000,1,0,0:0:0:0:
256,192,38117,1,4,0:0:0:0:
256,192,38351,1,8,0:0:0:0:
256,192,38585,1,0,0:0:0:0:
256,192,38702,1,0,0:0:0:0:
256,192,38820,1,0,0:0:0:0:
256,192,38937,1,8,0:0:0:0:
256,192,39171,1,0,0:0:0:0:
256,192,39288,1,8,0:0:0:0:
256,192,39523,1,0,0:0:0:0:
256,192,39640,1,0,0:0:0:0:
256,192,39757,1,8,0:0:0:0:
256,192,39992,1,0,0:0:0:0:
256,192,40226,1,8,0:0:0:0:
256,192,40460,1,0,0:0:0:0:
256,192,40577,1,0,0:0:0:0:
256,192,40812,1,12,0:0:0:0:
256,192,41163,1,8,0:0:0:0:
256,192,41398,1,0,0:0:0:0:
256,192,41515,1,0,0:0:0:0:
256,192,41632,1,8,0:0:0:0:
256,192,41867,1,0,0:0:0:0:
256,192,42101,1,8,0:0:0:0:
256,192,42335,1,0,0:0:0:0:
256,192,42452,1,0,0:0:0:0:
256,192,42570,1,0,0:0:0:0:
256,192,42687,1,8,0:0:0:0:
256,192,42921,1,0,0:0:0:0:
256,192,43038,1,8,0:0:0:0:
256,192,43273,1,0,0:0:0:0:
256,192,43390,1,0,0:0:0:0:
256,192,43507,1,8,0:0:0:0:
256,192,43742,1,0,0:0:0:0:
256,192,43976,1,8,0:0:0:0:
256,192,44210,1,0,0:0:0:0:
256,192,44327,1,0,0:0:0:0:
256,192,44445,1,0,0:0:0:0:
256,192,44562,1,12,0:0:0:0:
256,192,44796,1,0,0:0:0:0:
256,192,44913,1,8,0:0:0:0:
256,192,45031,1,0,0:0:0:0:
256,192,45148,1,8,0:0:0:0:
256,192,45206,1,8,0:0:0:0:
256,192,45265,1,0,0:0:0:0:
256,192,45324,1,0,0:0:0:0:
256,192,45382,1,8,0:0:0:0:
256,192,45499,1,0,0:0:0:0:
256,192,45617,1,4,0:0:0:0:
256,192,45851,1,8,0:0:0:0:
256,192,45968,1,0,0:0:0:0:
256,192,46085,1,0,0:0:0:0:
256,192,46202,1,0,0:0:0:0:
256,192,46437,1,8,0:0:0:0:
256,192,46671,1,0,0:0:0:0:
256,192,46788,1,8,0:0:0:0:
256,192,46906,1,0,0:0:0:0:
256,192,47023,1,0,0:0:0:0:
256,192,47140,1,0,0:0:0:0:
256,192,47257,1,8,0:0:0:0:
256,192,47492,1,0,0:0:0:0:
256,192,47726,1,8,0:0:0:0:
256,192,47843,1,0,0:0:0:0:
256,192,47960,1,0,0:0:0:0:
256,192,48077,1,0,0:0:0:0:
256,192,48312,1,12,0:0:0:0:
256,192,48663,1,8,0:0:0:0:
256,192,48898,1,0,0:0:0:0:
256,192,49015,1,0,0:0:0:0:
256,192,49132,1,8,0:0:0:0:
256,192,49249,1,8,0:0:0:0:
256,192,49367,1,0,0:0:0:0:
256,192,49601,1,8,0:0:0:0:
256,192,49718,1,0,0:0:0:0:
256,192,49835,1,0,0:0:0:0:
256,192,49952,1,0,0:0:0:0:
256,192,50187,1,8,0:0:0:0:
256,192,50421,1,0,0:0:0:0:
256,192,50538,1,8,0:0:0:0:
256,192,50656,1,0,0:0:0:0:
256,192,50773,1,0,0:0:0:0:
256,192,50890,1,0,0:0:0:0:
256,192,51007,1,8,0:0:0:0:
256,192,51242,1,0,0:0:0:0:
256,192,51476,1,8,0:0:0:0:
256,192,51710,1,8,0:0:0:0:
256,192,51769,1,0,0:0:0:0:
256,192,51827,1,0,0:0:0:0:
256,192,51945,1,8,0:0:0:0:
256,192,52061,1,0,0:0:0:0:
256,192,52120,1,0,0:0:0:0:
256,192,52179,1,0,0:0:0:0:
256,192,52647,1,0,0:0:0:0:
256,192,52764,1,0,0:0:0:0:
256,192,52882,1,8,0:0:0:0:
256,192,52999,1,0,0:0:0:0:
256,192,53585,1,0,0:0:0:0:
256,192,53702,1,8,0:0:0:0:
256,192,53819,1,8,0:0:0:0:
256,192,53936,1,0,0:0:0:0:
256,192,54522,1,0,0:0:0:0:
256,192,54581,1,0,0:0:0:0:
256,192,54639,1,8,0:0:0:0:
256,192,54874,1,0,0:0:0:0:
256,192,55225,1,12,0:0:0:0:
256,192,55929,1,0,0:0:0:0:
256,192,56163,1,0,0:0:0:0:
256,192,56397,1,8,0:0:0:0:
256,192,56749,1,0,0:0:0:0:
256,192,56983,1,0,0:0:0:0:
256,192,57100,1,0,0:0:0:0:
256,192,57335,1,8,0:0:0:0:
256,192,57804,1,0,0:0:0:0:
256,192,58038,1,0,0:0:0:0:
256,192,58272,1,8,0:0:0:0:
256,192,58624,1,0,0:0:0:0:
256,192,58858,1,0,0:0:0:0:
256,192,58975,1,0,0:0:0:0:
256,192,59210,1,8,0:0:0:0:
256,192,59679,1,0,0:0:0:0:
256,192,59913,1,0,0:0:0:0:
256,192,60147,1,8,0:0:0:0:
256,192,60382,1,0,0:0:0:0:
256,192,60499,1,0,0:0:0:0:
256,192,60733,1,0,0:0:0:0:
256,192,60968,1,8,0:0:0:0:
256,192,61202,1,8,0:0:0:0:
256,192,61436,1,0,0:0:0:0:
256,192,61671,1,0,0:0:0:0:
256,192,61905,1,8,0:0:0:0:
256,192,62139,1,8,0:0:0:0:
256,192,62374,1,0,0:0:0:0:
256,192,62608,1,0,0:0:0:0:
256,192,62843,1,8,0:0:0:0:
256,192,63077,1,0,0:0:0:0:
256,192,63429,1,4,0:0:0:0:
256,192,63780,1,8,0:0:0:0:
256,192,64132,1,8,0:0:0:0:
256,192,64483,1,8,0:0:0:0:
256,192,64835,1,8,0:0:0:0:
256,192,65069,1,8,0:0:0:0:
256,192,65186,1,8,0:0:0:0:
256,192,65304,1,0,0:0:0:0:
256,192,65655,1,8,0:0:0:0:
256,192,66007,1,8,0:0:0:0:
256,192,66358,1,8,0:0:0:0:
256,192,66710,1,8,0:0:0:0:
256,192,66944,1,8,0:0:0:0:
256,192,67061,1,8,0:0:0:0:
256,192,67179,1,0,0:0:0:0:
256,192,67530,1,8,0:0:0:0:
256,192,67882,1,8,0:0:0:0:
256,192,68233,1,8,0:0:0:0:
256,192,68585,1,8,0:0:0:0:
256,192,68819,1,8,0:0:0:0:
256,192,68936,1,8,0:0:0:0:
256,192,69054,1,4,0:0:0:0:
256,192,69171,1,4,0:0:0:0:
256,192,69405,1,4,0:0:0:0:
256,192,69639,1,4,0:0:0:0:
256,192,69874,1,4,0:0:0:0:
256,192,70108,1,4,0:0:0:0:
256,192,70343,1,4,0:0:0:0:
256,192,70577,1,4,0:0:0:0:
256,192,70694,1,0,0:0:0:0:
256,192,70753,1,0,0:0:0:0:
256,192,70811,1,0,0:0:0:0:
256,192,70929,1,4,0:0:0:0:
256,192,71046,1,4,0:0:0:0:
256,192,71280,1,4,0:0:0:0:
256,192,71514,1,4,0:0:0:0:
256,192,71749,1,4,0:0:0:0:
256,192,71983,1,4,0:0:0:0:
256,192,72218,1,4,0:0:0:0:
256,192,72452,1,4,0:0:0:0:
256,192,72569,1,0,0:0:0:0:
256,192,72628,1,0,0:0:0:0:
256,192,72686,1,0,0:0:0:0:
256,192,72804,1,12,0:0:0:0:
256,192,72921,1,12,0:0:0:0:
256,192,73155,1,12,0:0:0:0:
256,192,73389,1,12,0:0:0:0:
256,192,73624,1,12,0:0:0:0:
256,192,73858,1,12,0:0:0:0:
256,192,74093,1,12,0:0:0:0:
256,192,74327,1,12,0:0:0:0:
256,192,74444,1,12,0:0:0:0:
256,192,75616,2,0,B|512:192|512:192|512:96,1,350
256,192,76436,1,4,0:0:0:0:
256,192,76671,1,0,0:0:0:0:
256,192,76788,1,8,0:0:0:0:
256,192,77022,1,8,0:0:0:0:
256,192,77139,1,8,0:0:0:0:
256,192,77198,1,8,0:0:0:0:
256,192,77257,1,8,0:0:0:0:
256,192,77374,1,0,0:0:0:0:
256,192,77608,1,0,0:0:0:0:
256,192,77725,1,8,0:0:0:0:
256,192,77959,1,8,0:0:0:0:
256,192,78076,1,8,0:0:0:0:
256,192,78135,1,8,0:0:0:0:
256,192,78194,1,8,0:0:0:0:
256,192,78311,1,0,0:0:0:0:
256,192,78546,1,0,0:0:0:0:
256,192,78663,1,8,0:0:0:0:
256,192,78897,1,8,0:0:0:0:
256,192,79014,1,8,0:0:0:0:
256,192,79073,1,8,0:0:0:0:
256,192,79132,1,8,0:0:0:0:
256,192,79249,1,0,0:0:0:0:
256,192,79484,1,0,0:0:0:0:
256,192,79601,1,8,0:0:0:0:
256,192,79835,1,8,0:0:0:0:
256,192,79893,1,8,0:0:0:0:
256,192,79952,1,8,0:0:0:0:
256,192,80069,1,8,0:0:0:0:
256,192,80186,1,0,0:0:0:0:
256,192,80304,1,0,0:0:0:0:
256,192,80421,1,0,0:0:0:0:
256,192,80538,1,8,0:0:0:0:
256,192,80655,1,8,0:0:0:0:
256,192,80772,1,0,0:0:0:0:
256,192,80889,1,0,0:0:0:0:
256,192,81007,1,8,0:0:0:0:
256,192,81124,1,8,0:0:0:0:
256,192,81241,1,0,0:0:0:0:
256,192,81358,1,0,0:0:0:0:
256,192,81475,1,8,0:0:0:0:
256,192,81593,1,0,0:0:0:0:
256,192,81710,1,8,0:0:0:0:
256,192,81827,1,8,0:0:0:0:
256,192,81944,1,0,0:0:0:0:
256,192,82003,1,0,0:0:0:0:
256,192,82061,1,0,0:0:0:0:
256,192,82179,1,12,0:0:0:0:
256,192,82530,1,12,0:0:0:0:
256,192,82882,1,12,0:0:0:0:
256,192,83233,1,12,0:0:0:0:
256,192,83468,8,0,83819,0:0:0:0:
256,192,83936,5,4,0:0:0:0:
256,192,84171,1,0,0:0:0:0:
256,192,84288,1,8,0:0:0:0:
256,192,84522,1,0,0:0:0:0:
256,192,84639,1,0,0:0:0:0:
256,192,84698,1,0,0:0:0:0:
256,192,84757,1,0,0:0:0:0:
256,192,84874,1,8,0:0:0:0:
256,192,85108,1,0,0:0:0:0:
256,192,85225,1,8,0:0:0:0:
256,192,85459,1,0,0:0:0:0:
256,192,85576,1,0,0:0:0:0:
256,192,85635,1,0,0:0:0:0:
256,192,85694,1,0,0:0:0:0:
256,192,85811,1,8,0:0:0:0:
256,192,86046,1,0,0:0:0:0:
256,192,86163,1,8,0:0:0:0:
256,192,86397,1,0,0:0:0:0:
256,192,86514,1,0,0:0:0:0:
256,192,86573,1,0,0:0:0:0:
256,192,86632,1,0,0:0:0:0:
256,192,86749,1,8,0:0:0:0:
256,192,86984,1,0,0:0:0:0:
256,192,87101,1,8,0:0:0:0:
256,192,87218,1,0,0:0:0:0:
256,192,87276,1,0,0:0:0:0:
256,192,87335,1,8,0:0:0:0:
256,192,87686,1,4,0:0:0:0:
256,192,87921,1,0,0:0:0:0:
256,192,88038,1,0,0:0:0:0:
256,192,88155,1,0,0:0:0:0:
256,192,88272,1,8,0:0:0:0:
256,192,88389,1,8,0:0:0:0:
256,192,88507,1,0,0:0:0:0:
256,192,88624,1,0,0:0:0:0:
256,192,88741,1,0,0:0:0:0:
256,192,88858,1,8,0:0:0:0:
256,192,88975,1,0,0:0:0:0:
256,192,89093,1,0,0:0:0:0:
256,192,89151,1,0,0:0:0:0:
256,192,89210,1,0,0:0:0:0:
256,192,89327,1,0,0:0:0:0:
256,192,89386,1,0,0:0:0:0:
256,192,89444,1,8,0:0:0:0:
256,192,89561,8,0,90382,0:0:0:0:
256,192,90499,8,0,90850,0:0:0:0:
256,192,91085,5,8,0:0:0:0:
256,192,91202,1,0,0:0:0:0:
256,192,91319,1,8,0:0:0:0:
256,192,91436,1,0,0:0:0:0:
256,192,91671,1,0,0:0:0:0:
256,192,91788,1,8,0:0:0:0:
256,192,91905,1,0,0:0:0:0:
256,192,92022,1,8,0:0:0:0:
256,192,92139,1,0,0:0:0:0:
256,192,92257,1,8,0:0:0:0:
256,192,92374,1,0,0:0:0:0:
256,192,92491,1,8,0:0:0:0:
256,192,92608,1,0,0:0:0:0:
256,192,92725,1,8,0:0:0:0:
256,192,92843,1,0,0:0:0:0:
256,192,92960,1,8,0:0:0:0:
256,192,93077,1,0,0:0:0:0:
256,192,93194,1,8,0:0:0:0:
256,192,93311,1,0,0:0:0:0:
256,192,93429,1,8,0:0:0:0:
256,192,93546,1,0,0:0:0:0:
256,192,93663,1,8,0:0:0:0:
256,192,93780,1,0,0:0:0:0:
256,192,93897,1,8,0:0:0:0:
256,192,94014,1,8,0:0:0:0:
256,192,94132,1,8,0:0:0:0:
256,192,94249,1,12,0:0:0:0:
256,192,95303,1,8,0:0:0:0:
256,192,95655,8,0,99287,0:0:0:0:
256,192,99522,5,4,0:0:0:0:
256,192,99639,1,0,0:0:0:0:
256,192,99756,1,8,0:0:0:0:
256,192,99990,1,0,0:0:0:0:
256,192,100107,1,0,0:0:0:0:
256,192,100225,1,8,0:0:0:0:
256,192,100342,1,0,0:0:0:0:
256,192,100576,1,0,0:0:0:0:
256,192,100693,1,8,0:0:0:0:
256,192,100928,1,8,0:0:0:0:
256,192,100986,1,8,0:0:0:0:
256,192,101045,1,8,0:0:0:0:
256,192,101104,1,8,0:0:0:0:
256,192,101162,1,0,0:0:0:0:
256,192,101279,1,0,0:0:0:0:
256,192,101397,1,12,0:0:0:0:
256,192,101514,1,4,0:0:0:0:
256,192,101748,1,12,0:0:0:0:
256,192,102100,1,12,0:0:0:0:
256,192,102217,1,4,0:0:0:0:
256,192,102451,1,12,0:0:0:0:
256,192,103154,1,4,0:0:0:0:
256,192,103389,1,0,0:0:0:0:
256,192,103506,1,8,0:0:0:0:
256,192,103740,1,0,0:0:0:0:
256,192,103857,1,0,0:0:0:0:
256,192,103975,1,8,0:0:0:0:
256,192,104092,1,0,0:0:0:0:
256,192,104326,1,0,0:0:0:0:
256,192,104443,1,8,0:0:0:0:
256,192,104678,1,0,0:0:0:0:
256,192,104795,1,0,0:0:0:0:
256,192,104912,1,8,0:0:0:0:
256,192,105147,1,0,0:0:0:0:
256,192,105381,1,8,0:0:0:0:
256,192,105615,1,0,0:0:0:0:
256,192,105732,1,0,0:0:0:0:
256,192,105850,1,8,0:0:0:0:
256,192,105967,1,0,0:0:0:0:
256,192,106084,1,8,0:0:0:0:
256,192,106201,1,0,0:0:0:0:
256,192,106318,1,8,0:0:0:0:
256,192,106377,1,8,0:0:0:0:
256,192,106436,1,0,0:0:0:0:
256,192,106494,1,0,0:0:0:0:
256,192,106553,1,8,0:0:0:0:
256,192,106904,1,4,0:0:0:0:
256,192,107139,1,0,0:0:0:0:
256,192,107256,1,8,0:0:0:0:
256,192,107373,1,0,0:0:0:0:
256,192,107490,1,8,0:0:0:0:
256,192,107607,1,0,0:0:0:0:
256,192,107725,1,8,0:0:0:0:
256,192,107842,1,0,0:0:0:0:
256,192,107959,1,8,0:0:0:0:
256,192,108076,1,0,0:0:0:0:
256,192,108193,1,8,0:0:0:0:
256,192,108311,1,0,0:0:0:0:
256,192,108428,1,8,0:0:0:0:
256,192,108545,1,0,0:0:0:0:
256,192,108662,1,8,0:0:0:0:
256,192,108779,1,0,0:0:0:0:
256,192,108897,1,8,0:0:0:0:
256,192,109014,1,0,0:0:0:0:
256,192,109131,1,8,0:0:0:0:
256,192,109248,1,0,0:0:0:0:
256,192,109365,1,8,0:0:0:0:
256,192,109482,1,8,0:0:0:0:
256,192,109600,1,8,0:0:0:0:
256,192,109717,1,12,0:0:0:0:
256,192,111240,1,4,0:0:0:0:
267,190,113115,1,8,0:0:0:0:
256,192,113232,1,8,0:0:0:0:
256,192,113349,1,0,0:0:0:0:
267,190,113466,1,8,0:0:0:0:
267,190,113583,1,8,0:0:0:0:
256,192,113700,1,0,0:0:0:0:
267,190,113818,1,8,0:0:0:0:
267,190,113935,1,8,0:0:0:0:
256,192,114052,1,0,0:0:0:0:
267,190,114169,1,8,0:0:0:0:
267,190,114404,1,8,0:0:0:0:
267,190,114521,1,0,0:0:0:0:
267,190,114638,1,0,0:0:0:0:
267,190,114755,1,0,0:0:0:0:
267,190,114872,1,0,0:0:0:0:
256,192,114990,1,12,0:0:0:0:
256,192,115224,1,12,0:0:0:0:
256,192,116865,1,0,0:0:0:0:
256,192,116982,1,12,0:0:0:0:
256,192,117216,1,0,0:0:0:0:
256,192,117333,1,12,0:0:0:0:
256,192,117568,1,0,0:0:0:0:
256,192,117685,1,12,0:0:0:0:
256,192,117919,1,0,0:0:0:0:
256,192,117978,1,0,0:0:0:0:
256,192,118036,1,0,0:0:0:0:
256,192,118154,1,0,0:0:0:0:
256,192,118212,1,0,0:0:0:0:
256,192,118271,1,8,0:0:0:0:
256,192,118388,1,8,0:0:0:0:
256,192,118447,1,8,0:0:0:0:
256,192,118505,1,0,0:0:0:0:
256,192,118622,1,0,0:0:0:0:
256,192,118974,1,8,0:0:0:0:
256,192,119208,1,0,0:0:0:0:
256,192,119443,1,0,0:0:0:0:
256,192,119677,1,0,0:0:0:0:
256,192,119911,1,0,0:0:0:0:
256,192,120146,1,0,0:0:0:0:
256,192,120380,1,0,0:0:0:0:
256,192,120497,1,8,0:0:0:0:
256,192,120615,1,0,0:0:0:0:
256,192,120849,1,0,0:0:0:0:
256,192,121083,1,0,0:0:0:0:
256,192,121318,1,0,0:0:0:0:
256,192,121552,1,0,0:0:0:0:
256,192,121786,1,0,0:0:0:0:
256,192,121904,1,8,0:0:0:0:
256,192,122021,1,0,0:0:0:0:
256,192,122138,1,8,0:0:0:0:
256,192,122255,1,0,0:0:0:0:
256,192,122372,1,8,0:0:0:0:
256,192,122490,1,8,0:0:0:0:
256,192,122724,1,8,0:0:0:0:
256,192,122841,1,0,0:0:0:0:
256,192,122900,1,0,0:0:0:0:
256,192,122958,1,8,0:0:0:0:
256,192,123193,1,8,0:0:0:0:
256,192,123251,1,8,0:0:0:0:
256,192,123310,1,0,0:0:0:0:
256,192,123368,1,0,0:0:0:0:
256,192,123427,1,8,0:0:0:0:
256,192,123661,1,8,0:0:0:0:
256,192,123779,1,0,0:0:0:0:
256,192,123837,1,0,0:0:0:0:
256,192,123896,1,8,0:0:0:0:
256,192,124130,1,8,0:0:0:0:
256,192,124188,1,8,0:0:0:0:
256,192,124247,1,0,0:0:0:0:
256,192,124305,1,0,0:0:0:0:
256,192,124364,1,8,0:0:0:0:
256,192,124599,1,8,0:0:0:0:
256,192,124716,1,0,0:0:0:0:
256,192,124774,1,0,0:0:0:0:
256,192,124833,1,8,0:0:0:0:
256,192,124950,1,8,0:0:0:0:
256,192,125068,1,0,0:0:0:0:
256,192,125126,1,0,0:0:0:0:
256,192,125185,1,0,0:0:0:0:
256,192,125243,1,0,0:0:0:0:
256,192,125302,1,0,0:0:0:0:
256,192,125770,1,0,0:0:0:0:
256,192,125887,1,0,0:0:0:0:
256,192,126005,1,8,0:0:0:0:
256,192,126122,1,0,0:0:0:0:
256,192,126708,1,0,0:0:0:0:
256,192,126825,1,8,0:0:0:0:
256,192,126942,1,8,0:0:0:0:
256,192,127059,1,0,0:0:0:0:
256,192,127645,1,0,0:0:0:0:
256,192,127704,1,0,0:0:0:0:
256,192,127762,1,8,0:0:0:0:
256,192,127997,1,0,0:0:0:0:
256,192,128348,1,12,0:0:0:0:
256,192,129052,1,0,0:0:0:0:
256,192,129286,1,0,0:0:0:0:
256,192,129520,1,8,0:0:0:0:
256,192,129872,1,0,0:0:0:0:
256,192,130106,1,0,0:0:0:0:
256,192,130223,1,0,0:0:0:0:
256,192,130458,1,8,0:0:0:0:
256,192,130927,1,0,0:0:0:0:
256,192,131161,1,0,0:0:0:0:
256,192,131395,1,8,0:0:0:0:
256,192,131747,1,0,0:0:0:0:
256,192,131981,1,0,0:0:0:0:
256,192,132098,1,0,0:0:0:0:
256,192,132333,1,8,0:0:0:0:
256,192,132802,1,0,0:0:0:0:
256,192,133036,1,0,0:0:0:0:
256,192,133270,1,8,0:0:0:0:
256,192,133505,1,0,0:0:0:0:
256,192,133622,1,0,0:0:0:0:
256,192,133856,1,0,0:0:0:0:
256,192,134091,1,8,0:0:0:0:
256,192,134325,1,8,0:0:0:0:
256,192,134559,1,0,0:0:0:0:
256,192,134794,1,0,0:0:0:0:
256,192,135028,1,8,0:0:0:0:
256,192,135262,1,8,0:0:0:0:
256,192,135497,1,0,0:0:0:0:
256,192,135731,1,0,0:0:0:0:
256,192,135966,1,8,0:0:0:0:
256,192,136200,1,0,0:0:0:0:
256,192,136552,1,4,0:0:0:0:
256,192,136903,1,8,0:0:0:0:
256,192,137255,1,8,0:0:0:0:
256,192,137606,1,8,0:0:0:0:
256,192,137958,1,8,0:0:0:0:
256,192,138192,1,8,0:0:0:0:
256,192,138309,1,8,0:0:0:0:
256,192,138427,1,8,0:0:0:0:
256,192,138778,1,8,0:0:0:0:
256,192,139130,1,8,0:0:0:0:
256,192,139481,1,8,0:0:0:0:
256,192,139833,1,8,0:0:0:0:
256,192,140067,1,0,0:0:0:0:
256,192,140184,1,0,0:0:0:0:
256,192,140302,1,0,0:0:0:0:
256,192,140653,1,8,0:0:0:0:
256,192,141005,1,8,0:0:0:0:
256,192,141356,1,8,0:0:0:0:
256,192,141708,1,8,0:0:0:0:
256,192,141766,1,8,0:0:0:0:
255,198,141825,1,0,0:0:0:0:
256,192,141884,1,0,0:0:0:0:
256,192,141942,1,8,0:0:0:0:
256,192,142177,1,4,0:0:0:0:
256,192,142294,1,4,0:0:0:0:
256,192,142528,1,4,0:0:0:0:
256,192,142762,1,4,0:0:0:0:
256,192,142997,1,4,0:0:0:0:
256,192,143231,1,4,0:0:0:0:
256,192,143466,1,4,0:0:0:0:
256,192,143700,1,4,0:0:0:0:
256,192,143817,1,0,0:0:0:0:
256,192,143876,1,0,0:0:0:0:
256,192,143934,1,0,0:0:0:0:
256,192,144052,1,4,0:0:0:0:
256,192,144169,1,4,0:0:0:0:
256,192,144403,1,4,0:0:0:0:
256,192,144637,1,4,0:0:0:0:
256,192,144872,1,4,0:0:0:0:
256,192,145106,1,4,0:0:0:0:
256,192,145341,1,4,0:0:0:0:
256,192,145575,1,4,0:0:0:0:
256,192,145692,1,0,0:0:0:0:
256,192,145751,1,0,0:0:0:0:
256,192,145809,1,0,0:0:0:0:
256,192,145927,1,12,0:0:0:0:
256,192,146044,1,12,0:0:0:0:
256,192,146278,1,12,0:0:0:0:
256,192,146512,1,12,0:0:0:0:
256,192,146747,1,12,0:0:0:0:
256,192,146981,1,12,0:0:0:0:
256,192,147216,1,12,0:0:0:0:
256,192,147450,1,12,0:0:0:0:
256,192,147567,1,12,0:0:0:0:
256,192,147802,2,0,B|512:192|512:192|512:0|512:0|32:0,1,910
256,192,149559,1,4,0:0:0:0:
256,192,149794,1,0,0:0:0:0:
256,192,149911,1,8,0:0:0:0:
256,192,150145,1,8,0:0:0:0:
256,192,150262,1,8,0:0:0:0:
256,192,150321,1,8,0:0:0:0:
256,192,150380,1,8,0:0:0:0:
256,192,150497,1,0,0:0:0:0:
256,192,150731,1,0,0:0:0:0:
256,192,150848,1,8,0:0:0:0:
256,192,151082,1,8,0:0:0:0:
256,192,151199,1,8,0:0:0:0:
256,192,151258,1,8,0:0:0:0:
256,192,151317,1,8,0:0:0:0:
256,192,151434,1,0,0:0:0:0:
256,192,151669,1,0,0:0:0:0:
256,192,151786,1,8,0:0:0:0:
256,192,152020,1,8,0:0:0:0:
256,192,152137,1,8,0:0:0:0:
256,192,152196,1,8,0:0:0:0:
256,192,152255,1,8,0:0:0:0:
256,192,152372,1,0,0:0:0:0:
256,192,152607,1,0,0:0:0:0:
256,192,152724,1,8,0:0:0:0:
256,192,152958,1,8,0:0:0:0:
256,192,153016,1,8,0:0:0:0:
256,192,153075,1,8,0:0:0:0:
256,192,153192,1,8,0:0:0:0:
256,192,153309,1,0,0:0:0:0:
256,192,153427,1,0,0:0:0:0:
256,192,153544,1,0,0:0:0:0:
256,192,153661,1,8,0:0:0:0:
256,192,153778,1,8,0:0:0:0:
256,192,153895,1,0,0:0:0:0:
256,192,154012,1,0,0:0:0:0:
256,192,154130,1,8,0:0:0:0:
256,192,154247,1,8,0:0:0:0:
256,192,154364,1,0,0:0:0:0:
256,192,154481,1,0,0:0:0:0:
256,192,154598,1,8,0:0:0:0:
256,192,154716,1,0,0:0:0:0:
256,192,154833,1,8,0:0:0:0:
256,192,154950,1,8,0:0:0:0:
256,192,155067,1,0,0:0:0:0:
256,192,155126,1,0,0:0:0:0:
256,192,155184,1,0,0:0:0:0:
256,192,155302,1,12,0:0:0:0:
256,192,155653,1,12,0:0:0:0:
256,192,156005,1,12,0:0:0:0:
256,192,156356,1,12,0:0:0:0:
256,192,156591,8,0,156942,0:0:0:0:
256,192,157059,5,4,0:0:0:0:
256,192,157294,1,0,0:0:0:0:
256,192,157411,1,8,0:0:0:0:
256,192,157645,1,0,0:0:0:0:
256,192,157762,1,0,0:0:0:0:
256,192,157821,1,0,0:0:0:0:
256,192,157880,1,0,0:0:0:0:
256,192,157997,1,8,0:0:0:0:
256,192,158231,1,0,0:0:0:0:
256,192,158348,1,8,0:0:0:0:
256,192,158582,1,0,0:0:0:0:
256,192,158699,1,0,0:0:0:0:
256,192,158758,1,0,0:0:0:0:
256,192,158817,1,0,0:0:0:0:
256,192,158934,1,8,0:0:0:0:
256,192,159169,1,0,0:0:0:0:
256,192,159286,1,8,0:0:0:0:
256,192,159520,1,0,0:0:0:0:
256,192,159637,1,0,0:0:0:0:
256,192,159696,1,0,0:0:0:0:
256,192,159755,1,0,0:0:0:0:
256,192,159872,1,8,0:0:0:0:
256,192,160107,1,0,0:0:0:0:
256,192,160224,1,8,0:0:0:0:
256,192,160341,1,0,0:0:0:0:
256,192,160399,1,0,0:0:0:0:
256,192,160458,1,8,0:0:0:0:
256,192,160809,1,4,0:0:0:0:
256,192,161044,1,0,0:0:0:0:
256,192,161161,1,0,0:0:0:0:
256,192,161278,1,0,0:0:0:0:
256,192,161395,1,8,0:0:0:0:
256,192,161512,1,0,0:0:0:0:
256,192,161630,1,0,0:0:0:0:
256,192,161747,1,0,0:0:0:0:
256,192,161864,1,0,0:0:0:0:
256,192,161981,1,8,0:0:0:0:
256,192,162098,1,0,0:0:0:0:
256,192,162216,1,0,0:0:0:0:
256,192,162274,1,0,0:0:0:0:
256,192,162333,1,8,0:0:0:0:
256,192,162450,1,0,0:0:0:0:
256,192,162509,1,0,0:0:0:0:
256,192,162567,1,8,0:0:0:0:
256,192,162684,8,0,163505,0:0:0:0:
256,192,163622,8,0,163973,0:0:0:0:
256,192,164208,5,8,0:0:0:0:
256,192,164325,1,0,0:0:0:0:
256,192,164442,1,8,0:0:0:0:
256,192,164559,1,0,0:0:0:0:
256,192,164794,1,0,0:0:0:0:
256,192,164911,1,8,0:0:0:0:
256,192,165028,1,0,0:0:0:0:
256,192,165145,1,8,0:0:0:0:
256,192,165262,1,0,0:0:0:0:
256,192,165380,1,8,0:0:0:0:
256,192,165497,1,0,0:0:0:0:
256,192,165614,1,8,0:0:0:0:
256,192,165731,1,0,0:0:0:0:
256,192,165848,1,8,0:0:0:0:
256,192,165966,1,0,0:0:0:0:
256,192,166083,1,8,0:0:0:0:
256,192,166200,1,0,0:0:0:0:
256,192,166317,1,8,0:0:0:0:
256,192,166434,1,0,0:0:0:0:
256,192,166552,1,8,0:0:0:0:
256,192,166669,1,0,0:0:0:0:
256,192,166786,1,8,0:0:0:0:
256,192,166903,1,0,0:0:0:0:
256,192,167020,1,8,0:0:0:0:
256,192,167137,1,8,0:0:0:0:
256,192,167255,1,8,0:0:0:0:
256,192,167372,1,12,0:0:0:0:
256,192,167958,1,8,0:0:0:0:
256,192,168427,8,0,170302,0:0:0:0:
256,192,172177,5,8,0:0:0:0:
256,192,174989,1,8,0:0:0:0:
256,192,175341,1,0,0:0:0:0:
256,192,175399,1,0,0:0:0:0:
256,192,175458,1,8,0:0:0:0:
256,192,175575,1,8,0:0:0:0:
256,192,175809,1,0,0:0:0:0:
256,192,175868,1,0,0:0:0:0:
256,192,175927,1,0,0:0:0:0:
256,192,176395,1,0,0:0:0:0:
256,192,176864,1,0,0:0:0:0:
256,192,177333,1,0,0:0:0:0:
256,192,177567,1,8,0:0:0:0:
256,192,177802,1,0,0:0:0:0:
256,192,178270,1,0,0:0:0:0:
256,192,178739,1,0,0:0:0:0:
256,192,179091,1,0,0:0:0:0:
256,192,179149,1,0,0:0:0:0:
256,192,179208,1,8,0:0:0:0:
256,192,179442,1,0,0:0:0:0:
256,192,179520,1,0,0:0:0:0:
256,192,179598,1,0,0:0:0:0:
256,192,179677,1,8,0:0:0:0:
256,192,179911,1,0,0:0:0:0:
256,192,180145,1,0,0:0:0:0:
256,192,180380,1,0,0:0:0:0:
256,192,180614,1,8,0:0:0:0:
256,192,180848,1,8,0:0:0:0:
256,192,181083,1,8,0:0:0:0:
256,192,181317,1,8,0:0:0:0:
256,192,181552,1,8,0:0:0:0:
256,192,181610,1,8,0:0:0:0:
256,192,181669,1,8,0:0:0:0:
256,192,181786,1,0,0:0:0:0:
256,192,181903,1,0,0:0:0:0:
256,192,182020,1,8,0:0:0:0:
256,192,182079,1,8,0:0:0:0:
256,192,182137,1,8,0:0:0:0:
256,192,182255,1,0,0:0:0:0:
256,192,182372,1,0,0:0:0:0:
256,192,182489,1,8,0:0:0:0:
256,192,183427,1,0,0:0:0:0:
256,192,183485,1,0,0:0:0:0:
256,192,183544,1,0,0:0:0:0:
256,192,183661,1,0,0:0:0:0:
256,192,183719,1,0,0:0:0:0:
256,192,183778,1,0,0:0:0:0:
256,192,183895,1,8,0:0:0:0:
256,192,184012,1,0,0:0:0:0:
256,192,184247,1,0,0:0:0:0:
256,192,184481,1,0,0:0:0:0:
256,192,184540,1,0,0:0:0:0:
256,192,184598,1,0,0:0:0:0:
256,192,184716,1,0,0:0:0:0:
256,192,184774,1,0,0:0:0:0:
256,192,184833,1,8,0:0:0:0:
256,192,184950,1,0,0:0:0:0:
256,192,185067,1,0,0:0:0:0:
256,192,185302,1,0,0:0:0:0:
256,192,185536,1,0,0:0:0:0:
256,192,185653,1,0,0:0:0:0:
256,192,185712,1,0,0:0:0:0:
256,192,185770,1,8,0:0:0:0:
256,192,185887,1,0,0:0:0:0:
256,192,186005,1,0,0:0:0:0:
256,192,186239,1,0,0:0:0:0:
256,192,186356,1,0,0:0:0:0:
256,192,186473,1,0,0:0:0:0:
256,192,186591,1,0,0:0:0:0:
256,192,186708,1,8,0:0:0:0:
256,192,186825,1,0,0:0:0:0:
256,192,186942,1,0,0:0:0:0:
256,192,187177,1,0,0:0:0:0:
256,192,187411,1,0,0:0:0:0:
256,192,187528,1,0,0:0:0:0:
256,192,187645,1,8,0:0:0:0:
256,192,187762,1,0,0:0:0:0:
256,192,187880,1,0,0:0:0:0:
256,192,188114,1,8,0:0:0:0:
256,192,188231,1,8,0:0:0:0:
256,192,188348,1,8,0:0:0:0:
256,192,188466,1,8,0:0:0:0:
256,192,188583,1,0,0:0:0:0:
256,192,188641,1,0,0:0:0:0:
256,192,188700,1,0,0:0:0:0:
256,192,188817,1,0,0:0:0:0:
256,192,188875,1,0,0:0:0:0:
256,192,188934,1,0,0:0:0:0:
256,192,189051,1,8,0:0:0:0:
256,192,189168,1,0,0:0:0:0:
256,192,189403,1,0,0:0:0:0:
256,192,189637,1,0,0:0:0:0:
256,192,189696,1,0,0:0:0:0:
256,192,189754,1,0,0:0:0:0:
256,192,189872,1,0,0:0:0:0:
256,192,189930,1,0,0:0:0:0:
256,192,189989,1,8,0:0:0:0:
256,192,190106,1,0,0:0:0:0:
256,192,190223,1,0,0:0:0:0:
256,192,190458,1,0,0:0:0:0:
256,192,190692,1,0,0:0:0:0:
256,192,190809,1,0,0:0:0:0:
256,192,190868,1,0,0:0:0:0:
256,192,190926,1,8,0:0:0:0:
256,192,191043,1,0,0:0:0:0:
256,192,191161,1,0,0:0:0:0:
256,192,191395,1,0,0:0:0:0:
256,192,191512,1,0,0:0:0:0:
256,192,191629,1,0,0:0:0:0:
256,192,191747,1,0,0:0:0:0:
256,192,191864,1,8,0:0:0:0:
256,192,191981,1,0,0:0:0:0:
256,192,192098,1,0,0:0:0:0:
256,192,192333,1,0,0:0:0:0:
256,192,192567,1,0,0:0:0:0:
256,192,192684,1,0,0:0:0:0:
256,192,192801,12,0,193504,0:0:0:0:
256,192,193739,5,0,0:0:0:0:
256,192,193797,1,0,0:0:0:0:
256,192,193856,1,0,0:0:0:0:
256,192,193973,1,0,0:0:0:0:
256,192,194031,1,0,0:0:0:0:
256,192,194090,1,0,0:0:0:0:
256,192,194207,1,8,0:0:0:0:
256,192,194324,1,0,0:0:0:0:
256,192,194559,1,0,0:0:0:0:
256,192,194793,1,0,0:0:0:0:
256,192,194852,1,0,0:0:0:0:
256,192,194910,1,0,0:0:0:0:
256,192,195028,1,0,0:0:0:0:
256,192,195086,1,0,0:0:0:0:
256,192,195145,1,8,0:0:0:0:
256,192,195262,1,0,0:0:0:0:
256,192,195379,1,0,0:0:0:0:
256,192,195614,1,0,0:0:0:0:
256,192,195848,1,0,0:0:0:0:
256,192,195965,1,0,0:0:0:0:
256,192,196024,1,0,0:0:0:0:
256,192,196082,1,8,0:0:0:0:
256,192,196199,1,0,0:0:0:0:
256,192,196317,1,0,0:0:0:0:
256,192,196551,1,0,0:0:0:0:
256,192,196668,1,0,0:0:0:0:
256,192,196785,1,0,0:0:0:0:
256,192,196903,1,0,0:0:0:0:
256,192,197020,1,8,0:0:0:0:
256,192,197137,1,0,0:0:0:0:
256,192,197254,1,0,0:0:0:0:
256,192,197489,1,0,0:0:0:0:
256,192,197723,1,0,0:0:0:0:
256,192,197840,1,0,0:0:0:0:
256,192,197957,1,8,0:0:0:0:
256,192,198074,1,0,0:0:0:0:
256,192,198192,1,0,0:0:0:0:
256,192,198426,1,8,0:0:0:0:
256,192,198543,1,8,0:0:0:0:
256,192,198660,1,8,0:0:0:0:
256,192,198778,1,8,0:0:0:0:
256,192,198895,1,0,0:0:0:0:
256,192,198953,1,0,0:0:0:0:
256,192,199012,1,0,0:0:0:0:
256,192,199129,1,0,0:0:0:0:
256,192,199187,1,0,0:0:0:0:
256,192,199246,1,0,0:0:0:0:
256,192,199363,1,8,0:0:0:0:
256,192,199480,1,0,0:0:0:0:
256,192,199715,1,0,0:0:0:0:
256,192,199949,1,0,0:0:0:0:
256,192,200008,1,0,0:0:0:0:
256,192,200066,1,0,0:0:0:0:
256,192,200184,1,0,0:0:0:0:
256,192,200242,1,0,0:0:0:0:
256,192,200301,1,8,0:0:0:0:
256,192,200418,1,0,0:0:0:0:
256,192,200535,1,0,0:0:0:0:
256,192,200770,1,0,0:0:0:0:
256,192,201004,1,0,0:0:0:0:
256,192,201121,1,0,0:0:0:0:
256,192,201180,1,0,0:0:0:0:
256,192,201238,1,8,0:0:0:0:
256,192,201355,1,0,0:0:0:0:
256,192,201473,1,0,0:0:0:0:
256,192,201707,1,0,0:0:0:0:
256,192,201824,1,0,0:0:0:0:
256,192,201941,1,0,0:0:0:0:
256,192,202059,1,0,0:0:0:0:
256,192,202176,1,8,0:0:0:0:
256,192,202293,1,0,0:0:0:0:
256,192,202410,1,0,0:0:0:0:
256,192,202645,1,0,0:0:0:0:
256,192,202879,1,0,0:0:0:0:
256,192,202996,1,0,0:0:0:0:
256,192,203113,12,0,203816,0:0:0:0:
256,192,204051,5,4,0:0:0:0:
256,192,204402,1,4,0:0:0:0:
256,192,204754,1,4,0:0:0:0:
256,192,205105,1,4,0:0:0:0:
256,192,205457,1,4,0:0:0:0:
256,192,205808,1,4,0:0:0:0:
256,192,206160,1,4,0:0:0:0:
256,192,206511,1,4,0:0:0:0:
256,192,207332,1,12,0:0:0:0:
256,192,207683,1,12,0:0:0:0:
256,192,208035,1,12,0:0:0:0:
256,192,208386,1,12,0:0:0:0:
256,192,208738,1,12,0:0:0:0:
256,192,209089,1,12,0:0:0:0:
256,192,209441,1,12,0:0:0:0:
256,192,209792,1,12,0:0:0:0:
256,192,210613,12,0,214128,0:0:0:0:
256,192,214363,5,0,0:0:0:0:
256,192,214831,1,8,0:0:0:0:
256,192,214948,1,8,0:0:0:0:
256,192,215183,1,0,0:0:0:0:
256,192,215769,1,8,0:0:0:0:
256,192,215886,1,8,0:0:0:0:
256,192,216121,1,0,0:0:0:0:
256,192,216706,1,8,0:0:0:0:
256,192,216823,1,8,0:0:0:0:
256,192,217058,1,0,0:0:0:0:
256,192,217644,1,8,0:0:0:0:
256,192,217761,1,8,0:0:0:0:
256,192,217995,1,0,0:0:0:0:
256,192,218230,2,0,B|512:192|512:192|512:0|512:0|32:0,1,910
256,192,219988,1,4,0:0:0:0:
256,192,220339,1,4,0:0:0:0:
256,192,220691,1,4,0:0:0:0:
256,192,221042,1,4,0:0:0:0:
256,192,221863,1,12,0:0:0:0:
256,192,222214,1,12,0:0:0:0:
256,192,222566,1,12,0:0:0:0:
256,192,222917,1,12,0:0:0:0:
256,192,223269,1,0,0:0:0:0:
256,192,223347,1,0,0:0:0:0:
256,192,223425,1,0,0:0:0:0:
256,192,223503,1,0,0:0:0:0:
256,192,223620,1,12,0:0:0:0:
256,192,223972,1,4,0:0:0:0:
256,192,224206,1,0,0:0:0:0:
256,192,224323,1,8,0:0:0:0:
256,192,224382,1,8,0:0:0:0:
256,192,224441,1,8,0:0:0:0:
256,192,224558,1,0,0:0:0:0:
256,192,224792,1,0,0:0:0:0:
256,192,224909,1,8,0:0:0:0:
256,192,225143,1,0,0:0:0:0:
256,192,225260,1,8,0:0:0:0:
256,192,225320,1,8,0:0:0:0:
256,192,225378,1,8,0:0:0:0:
256,192,225495,1,0,0:0:0:0:
256,192,225730,1,0,0:0:0:0:
256,192,225847,1,8,0:0:0:0:
256,192,226081,1,0,0:0:0:0:
256,192,226198,1,8,0:0:0:0:
256,192,226257,1,8,0:0:0:0:
256,192,226316,1,8,0:0:0:0:
256,192,226433,1,0,0:0:0:0:
256,192,226668,1,0,0:0:0:0:
256,192,226785,1,8,0:0:0:0:
256,192,227019,1,8,0:0:0:0:
256,192,227077,1,8,0:0:0:0:
256,192,227136,1,8,0:0:0:0:
256,192,227253,1,8,0:0:0:0:
256,192,227370,1,0,0:0:0:0:
256,192,227488,1,0,0:0:0:0:
256,192,227605,1,0,0:0:0:0:
256,192,227722,1,8,0:0:0:0:
256,192,227839,1,8,0:0:0:0:
256,192,227956,1,0,0:0:0:0:
256,192,228073,1,0,0:0:0:0:
256,192,228191,1,8,0:0:0:0:
256,192,228308,1,0,0:0:0:0:
256,192,228425,1,0,0:0:0:0:
256,192,228542,1,0,0:0:0:0:
256,192,228659,1,8,0:0:0:0:
256,192,228777,1,0,0:0:0:0:
256,192,228894,1,8,0:0:0:0:
256,192,229011,1,8,0:0:0:0:
256,192,229128,1,0,0:0:0:0:
256,192,229187,1,0,0:0:0:0:
256,192,229245,1,0,0:0:0:0:
256,192,229363,1,12,0:0:0:0:
256,192,229597,1,0,0:0:0:0:
256,192,229714,1,12,0:0:0:0:
256,192,229948,1,0,0:0:0:0:
256,192,230066,1,12,0:0:0:0:
256,192,230300,1,0,0:0:0:0:
256,192,230417,1,12,0:0:0:0:
256,192,230652,8,0,231003,0:0:0:0:
256,192,231120,5,4,0:0:0:0:
256,192,231355,1,0,0:0:0:0:
256,192,231472,1,8,0:0:0:0:
256,192,231706,1,8,0:0:0:0:
256,192,231823,1,0,0:0:0:0:
256,192,231882,1,0,0:0:0:0:
256,192,231941,1,0,0:0:0:0:
256,192,232058,1,8,0:0:0:0:
256,192,232292,1,0,0:0:0:0:
256,192,232409,1,8,0:0:0:0:
256,192,232643,1,8,0:0:0:0:
256,192,232760,1,0,0:0:0:0:
256,192,232819,1,0,0:0:0:0:
256,192,232878,1,0,0:0:0:0:
256,192,232995,1,8,0:0:0:0:
256,192,233230,1,0,0:0:0:0:
256,192,233347,1,8,0:0:0:0:
256,192,233581,1,8,0:0:0:0:
256,192,233698,1,0,0:0:0:0:
256,192,233757,1,0,0:0:0:0:
256,192,233816,1,0,0:0:0:0:
256,192,233933,1,8,0:0:0:0:
256,192,234168,1,0,0:0:0:0:
256,192,234285,1,8,0:0:0:0:
256,192,234402,1,0,0:0:0:0:
256,192,234460,1,0,0:0:0:0:
256,192,234519,1,8,0:0:0:0:
256,192,234636,1,8,0:0:0:0:
256,192,234870,1,4,0:0:0:0:
256,192,235105,1,0,0:0:0:0:
256,192,235222,1,0,0:0:0:0:
256,192,235339,1,0,0:0:0:0:
256,192,235456,1,8,0:0:0:0:
256,192,235573,1,8,0:0:0:0:
256,192,235691,1,0,0:0:0:0:
256,192,235808,1,0,0:0:0:0:
256,192,235925,1,0,0:0:0:0:
256,192,236042,1,8,0:0:0:0:
256,192,236159,1,0,0:0:0:0:
256,192,236277,1,0,0:0:0:0:
256,192,236335,1,0,0:0:0:0:
256,192,236394,1,0,0:0:0:0:
256,192,236511,1,0,0:0:0:0:
256,192,236570,1,0,0:0:0:0:
256,192,236628,1,8,0:0:0:0:
256,192,236745,8,0,237566,0:0:0:0:
256,192,237683,8,0,238034,0:0:0:0:
256,192,238269,5,8,0:0:0:0:
256,192,238386,1,0,0:0:0:0:
256,192,238445,1,0,0:0:0:0:
256,192,238503,1,0,0:0:0:0:
256,192,238620,1,12,0:0:0:0:
256,192,238855,1,0,0:0:0:0:
256,192,238972,1,0,0:0:0:0:
256,192,239089,1,0,0:0:0:0:
256,192,239148,1,0,0:0:0:0:
256,192,239206,1,8,0:0:0:0:
256,192,239323,1,8,0:0:0:0:
256,192,239441,1,0,0:0:0:0:
256,192,239558,1,0,0:0:0:0:
256,192,239675,1,0,0:0:0:0:
256,192,239792,1,8,0:0:0:0:
256,192,239909,1,0,0:0:0:0:
256,192,240027,1,0,0:0:0:0:
256,192,240085,1,0,0:0:0:0:
256,192,240144,1,0,0:0:0:0:
256,192,240261,1,0,0:0:0:0:
256,192,240320,1,0,0:0:0:0:
256,192,240378,1,8,0:0:0:0:
253,185,240495,1,0,0:0:0:0:
253,184,240730,1,0,0:0:0:0:
254,184,240847,1,8,0:0:0:0:
254,184,240964,1,0,0:0:0:0:
256,192,241081,1,12,0:0:0:0:
256,192,241433,1,0,0:0:0:0:
256,192,241550,1,12,0:0:0:0:
256,192,241784,1,0,0:0:0:0:
256,192,241902,1,12,0:0:0:0:
256,192,242136,1,8,0:0:0:0:
256,199,242195,1,8,0:0:0:0:
256,192,242253,1,8,0:0:0:0:
256,192,242370,1,4,0:0:0:0:
256,192,242605,1,0,0:0:0:0:
256,192,242722,1,8,0:0:0:0:
256,192,242839,1,0,0:0:0:0:
256,192,242898,1,0,0:0:0:0:
256,192,242956,1,8,0:0:0:0:
256,192,243073,1,0,0:0:0:0:
256,192,243191,1,8,0:0:0:0:
256,192,243308,1,0,0:0:0:0:
256,192,243425,1,8,0:0:0:0:
256,192,243542,1,0,0:0:0:0:
256,192,243659,1,8,0:0:0:0:
256,192,243777,1,0,0:0:0:0:
256,192,243835,1,0,0:0:0:0:
256,192,243894,1,8,0:0:0:0:
256,192,244011,1,0,0:0:0:0:
256,192,244128,1,8,0:0:0:0:
256,192,244245,1,0,0:0:0:0:
256,192,244363,1,8,0:0:0:0:
256,192,244480,1,0,0:0:0:0:
256,192,244597,1,8,0:0:0:0:
256,192,244714,1,0,0:0:0:0:
256,192,244773,1,0,0:0:0:0:
256,192,244831,1,8,0:0:0:0:
256,192,244948,1,8,0:0:0:0:
256,192,245066,1,8,0:0:0:0:
256,192,245183,1,12,0:0:0:0:
256,192,247175,1,12,0:0:0:0:
256,192,247527,12,0,248815,0:0:0:0:
256,192,249050,5,12,0:0:0:0:
256,192,249401,12,0,250689,0:0:0:0:
256,192,250924,5,12,0:0:0:0:
256,192,251276,12,0,253034,0:0:0:0:
256,192,253269,5,12,0:0:0:0:
256,192,253386,1,0,0:0:0:0:
256,192,253503,1,0,0:0:0:0:
256,192,253620,1,12,0:0:0:0:
256,192,253972,1,12,0:0:0:0:
256,192,254089,1,0,0:0:0:0:
251,189,254206,1,0,0:0:0:0:
256,192,254323,1,12,0:0:0:0:
256,192,255026,1,4,0:0:0:0:
256,192,255261,1,0,0:0:0:0:
256,192,255378,1,8,0:0:0:0:
256,192,255612,1,0,0:0:0:0:
256,192,255729,1,0,0:0:0:0:
256,192,255847,1,8,0:0:0:0:
256,192,255964,1,0,0:0:0:0:
256,192,256198,1,0,0:0:0:0:
256,192,256315,1,8,0:0:0:0:
256,192,256550,1,0,0:0:0:0:
256,192,256667,1,0,0:0:0:0:
256,192,256784,1,8,0:0:0:0:
256,192,257019,1,0,0:0:0:0:
251,189,257136,1,8,0:0:0:0:
251,189,257194,1,8,0:0:0:0:
251,189,257253,1,8,0:0:0:0:
251,189,257370,1,8,0:0:0:0:
256,192,257487,1,0,0:0:0:0:
256,192,257604,1,0,0:0:0:0:
256,192,257722,1,8,0:0:0:0:
256,192,257839,1,0,0:0:0:0:
256,192,258073,1,0,0:0:0:0:
256,192,258190,1,8,0:0:0:0:
256,192,258249,1,8,0:0:0:0:
256,192,258308,1,0,0:0:0:0:
256,192,258366,1,0,0:0:0:0:
256,192,258425,1,8,0:0:0:0:
256,192,258776,1,4,0:0:0:0:
256,192,259011,1,0,0:0:0:0:
256,192,259128,1,8,0:0:0:0:
256,192,259245,1,0,0:0:0:0:
256,192,259304,1,0,0:0:0:0:
256,192,259362,1,8,0:0:0:0:
256,192,259479,1,0,0:0:0:0:
256,192,259597,1,8,0:0:0:0:
256,192,259714,1,0,0:0:0:0:
256,192,259831,1,8,0:0:0:0:
256,192,259948,1,0,0:0:0:0:
256,192,260065,1,8,0:0:0:0:
256,192,260183,1,0,0:0:0:0:
256,192,260241,1,0,0:0:0:0:
256,192,260300,1,8,0:0:0:0:
256,192,260417,1,0,0:0:0:0:
256,192,260534,1,8,0:0:0:0:
256,192,260651,1,0,0:0:0:0:
256,192,260769,1,8,0:0:0:0:
256,192,260886,1,0,0:0:0:0:
256,192,261003,1,8,0:0:0:0:
256,192,261120,1,0,0:0:0:0:
256,192,261179,1,0,0:0:0:0:
256,192,261237,1,8,0:0:0:0:
256,192,261354,1,8,0:0:0:0:
256,192,261472,1,8,0:0:0:0:
256,192,261589,1,12,0:0:0:0:
256,192,263112,2,0,B|512:192|512:192|512:0|512:0|-32:0|-32:0|-32:384|-32:384|512:384|512:384|512:256|512:256|448:256,1,2100
256,192,266744,5,0,0:0:0:0:
