osu file format v14

[General]
AudioFilename: audio.mp3
AudioLeadIn: 0
PreviewTime: 148926
Countdown: 1
SampleSet: Soft
StackLeniency: 0.7
Mode: 0
LetterboxInBreaks: 0
WidescreenStoryboard: 0

[Editor]
Bookmarks: 223434
DistanceSpacing: 0.8
BeatDivisor: 4
GridSize: 16
TimelineZoom: 3.099999

[Metadata]
Title:Touhiron
TitleUnicode:迯避論
Artist:Camellia feat. Nanahira
ArtistUnicode:escape theory かめるかめりあ×Confetto すりーぷ!
Creator:Sladkoru
Version:Despair
Source:
Tags:escape theory かめるかめりあ×Confetto すりーぷ!
BeatmapID:2027621
BeatmapSetID:969090

[Difficulty]
HPDrainRate:5
CircleSize:4.2
OverallDifficulty:9.5
ApproachRate:9.7
SliderMultiplier:1.8
SliderTickRate:1

[Events]
//Background and Video events
0,0,"cute-anime-girl-background-1.jpg",0,0
//Break Periods
2,187853,207076
//Storyboard Layer 0 (Background)
//Storyboard Layer 1 (Fail)
//Storyboard Layer 2 (Pass)
//Storyboard Layer 3 (Foreground)
//Storyboard Sound Samples

[TimingPoints]
1751,245.901639344262,3,2,0,60,1,0
22407,-71.4285714285714,4,2,0,60,0,0
25357,-90.9090909090909,4,2,0,60,0,0
46013,-71.4285714285714,4,2,0,60,0,0
48964,-166.666666666667,4,2,0,60,0,0
91013,-142.857142857143,4,2,0,60,0,0
91751,-125,4,2,0,60,0,0
92488,-111.111111111111,4,2,0,60,0,0
93226,-100,4,2,0,60,0,0
93964,-90.9090909090909,4,2,0,60,0,0
94702,-83.3333333333333,4,2,0,60,0,0
95439,-76.9230769230769,4,2,0,60,0,0
97652,-62.5,4,2,0,60,0,0
99128,-83.3333333333333,4,2,0,60,0,0
119784,-71.4285714285714,4,2,0,60,0,0
122734,-83.3333333333333,4,2,0,60,0,0
149292,-166.666666666667,4,2,0,60,0,0
179538,-142.857142857143,4,2,0,60,0,0
180275,-125,4,2,0,60,0,0
181013,-111.111111111111,4,2,0,60,0,0
181751,-100,4,2,0,60,0,0
182488,-90.9090909090909,4,2,0,60,0,0
183226,-83.3333333333333,4,2,0,60,0,0
183964,-76.9230769230769,4,2,0,60,0,0
186177,-62.5,4,2,0,60,0,0
207570,-125,4,2,0,60,0,0
208308,-71.4285714285714,4,2,0,60,0,0
209784,-66.6666666666667,4,2,0,60,0,0
210521,-62.5,4,2,0,60,0,0
211997,-58.8235294117647,4,2,0,60,0,0
212734,-55.5555555555556,4,2,0,60,0,0
214947,-71.4285714285714,4,2,0,60,0,0
234866,-55.5555555555556,4,2,0,60,0,0
237816,-62.5,4,2,0,60,0,0
261423,-55.5555555555556,4,2,0,60,0,0
262898,-50,4,2,0,60,0,0

[HitObjects]
79,158,22407,6,0,P|107:171|141:173,1,62.9999980773926
261,52,22530,2,0,P|321:28|388:44,1,125.999996154785,0|0,0:0|0:0,0:0:0:0:
323,384,22776,2,0,B|293:301|293:301|328:141,1,251.999992309571,0|0,0:0|0:0,0:0:0:0:
452,101,23145,6,0,L|439:165,1,62.9999980773926,0|0,0:0|0:0,0:0:0:0:
261,52,23268,2,0,L|287:180,1,125.999996154785,0|0,0:0|0:0,0:0:0:0:
6,195,23514,2,0,P|11:109|156:121,1,251.999992309571,0|0,0:0|0:0,0:0:0:0:
172,273,23883,6,0,P|160:305|160:338,1,62.9999980773926,0|0,0:0|0:0,0:0:0:0:
353,348,24006,2,0,P|305:318|228:323,1,125.999996154785,0|0,0:0|0:0,0:0:0:0:
394,142,24251,2,0,B|460:102|460:102|446:282,1,251.999992309571,0|0,0:0|0:0,0:0:0:0:
322,18,24620,6,0,L|326:91,1,62.9999980773926,0|0,0:0|0:0,0:0:0:0:
144,43,24743,2,0,L|148:116,1,62.9999980773926,0|0,0:0|0:0,0:0:0:0:
289,213,24866,5,0,0:0:0:0:
246,205,24948,5,0,0:0:0:0:
201,223,25030,5,0,0:0:0:0:
145,274,25112,5,0,0:0:0:0:
53,244,25194,5,0,0:0:0:0:
22,109,25276,5,0,0:0:0:0:
144,43,25358,6,0,B|202:22|255:32|228:92|286:91|330:80,1,198.000006042481,0|0,0:0|0:0,0:0:0:0:
459,156,25727,2,0,P|472:108|465:54,1,99.0000030212403,0|0,0:0|0:0,0:0:0:0:
367,235,25973,1,0,0:0:0:0:
476,314,26096,6,0,L|275:323,1,198.000006042481,0|0,0:0|0:0,0:0:0:0:
68,375,26465,2,0,L|166:379,1,99.0000030212403,0|0,0:0|0:0,0:0:0:0:
367,235,26711,1,0,0:0:0:0:
53,244,26833,6,0,P|25:196|95:88,1,198.000006042481,0|0,0:0|0:0,0:0:0:0:
238,89,27202,2,0,P|284:91|338:63,1,99.0000030212403,0|0,0:0|0:0,0:0:0:0:
245,266,27448,1,0,0:0:0:0:
236,226,27510,1,0,0:0:0:0:
228,187,27571,6,0,L|239:72,1,99.0000030212403,0|0,0:0|0:0,0:0:0:0:
476,314,27817,1,0,0:0:0:0:
485,274,27879,1,0,0:0:0:0:
493,235,27940,2,0,L|482:120,1,99.0000030212403,0|0,0:0|0:0,0:0:0:0:
370,333,28186,1,0,0:0:0:0:
237,88,28309,6,0,B|168:62|168:62|42:86,1,198.000006042481,0|0,0:0|0:0,0:0:0:0:
139,281,28678,2,0,L|151:171,1,99.0000030212403,0|0,0:0|0:0,0:0:0:0:
1,313,28924,1,0,0:0:0:0:
245,178,29047,6,0,B|298:161|342:187|342:187|372:148|429:142,1,198.000006042481,0|0,0:0|0:0,0:0:0:0:
370,333,29415,2,0,P|315:351|260:341,1,99.0000030212403,0|0,0:0|0:0,0:0:0:0:
245,178,29661,1,0,0:0:0:0:
160,328,29784,6,0,L|49:337,1,99.0000030212403,0|0,0:0|0:0,0:0:0:0:
259,162,30030,1,0,0:0:0:0:
117,30,30153,2,0,L|6:21,1,99.0000030212403,0|0,0:0|0:0,0:0:0:0:
144,179,30399,1,0,0:0:0:0:
443,29,30522,6,0,L|421:352,1,297.000009063721,0|0,0:0|0:0,0:0:0:0:
328,27,31014,1,0,0:0:0:0:
280,333,31137,1,0,0:0:0:0:
242,343,31198,1,0,0:0:0:0:
203,354,31260,6,0,B|150:368|112:357|124:298|78:283|28:288,1,198.000006042481,0|0,0:0|0:0,0:0:0:0:
104,107,31629,2,0,P|142:97|205:117,1,99.0000030212403,0|0,0:0|0:0,0:0:0:0:
30,287,31874,1,0,0:0:0:0:
228,21,31997,6,0,L|232:232,1,198.000006042481,0|0,0:0|0:0,0:0:0:0:
418,329,32366,2,0,L|419:230,1,99.0000030212403,0|0,0:0|0:0,0:0:0:0:
328,27,32612,1,0,0:0:0:0:
155,192,32735,6,0,P|162:261|290:272,1,198.000006042481,0|0,0:0|0:0,0:0:0:0:
336,127,33104,2,0,P|315:171|322:224,1,99.0000030212403,0|0,0:0|0:0,0:0:0:0:
512,69,33350,1,0,0:0:0:0:
512,69,33411,1,0,0:0:0:0:
512,69,33473,6,0,B|450:75|450:75|385:40|385:40|319:46,1,198.000006042481,0|0,0:0|0:0,0:0:0:0:
245,97,33780,1,0,0:0:0:0:
234,108,33842,2,0,B|172:114|172:114|107:79|107:79|41:85,1,198.000006042481,0|0,0:0|0:0,0:0:0:0:
124,350,34211,6,0,P|166:335|193:283,1,99.0000030212403,0|0,0:0|0:0,0:0:0:0:
45,84,34456,2,0,P|36:127|68:177,1,99.0000030212403,0|0,0:0|0:0,0:0:0:0:
314,148,34702,2,0,P|280:119|221:121,1,99.0000030212403,0|0,0:0|0:0,0:0:0:0:
408,342,34948,6,0,L|417:137,1,198.000006042481,0|0,0:0|0:0,0:0:0:0:
260,338,35317,2,0,P|286:367|349:382,1,99.0000030212403,0|0,0:0|0:0,0:0:0:0:
272,157,35563,1,0,0:0:0:0:
93,363,35686,5,0,0:0:0:0:
45,84,35809,1,0,0:0:0:0:
152,29,35932,1,0,0:0:0:0:
342,382,36055,5,0,0:0:0:0:
390,103,36178,1,0,0:0:0:0:
283,48,36301,1,0,0:0:0:0:
466,291,36424,5,0,0:0:0:0:
117,226,36547,1,0,0:0:0:0:
502,135,36670,1,0,0:0:0:0:
103,245,36792,1,0,0:0:0:0:
54,237,36853,1,0,0:0:0:0:
5,230,36914,1,0,0:0:0:0:
283,48,37038,1,0,0:0:0:0:
240,373,37161,6,0,B|228:322|240:274|282:285|294:231|286:187,1,198.000006042481,0|0,0:0|0:0,0:0:0:0:
137,78,37530,2,0,P|139:125|180:159,1,99.0000030212403,0|0,0:0|0:0,0:0:0:0:
390,103,37776,1,0,0:0:0:0:
103,245,37899,6,0,L|320:262,1,198.000006042481,0|0,0:0|0:0,0:0:0:0:
390,103,38268,2,0,P|370:148|378:199,1,99.0000030212403,0|0,0:0|0:0,0:0:0:0:
282,19,38514,1,0,0:0:0:0:
149,311,38637,6,0,P|88:326|32:212,1,198.000006042481,0|0,0:0|0:0,0:0:0:0:
240,109,39006,2,0,P|223:151|177:182,1,99.0000030212403,0|0,0:0|0:0,0:0:0:0:
39,0,39251,1,0,0:0:0:0:
49,38,39313,1,0,0:0:0:0:
58,76,39374,6,0,L|47:285,1,198.000006042481,0|0,0:0|0:0,0:0:0:0:
140,349,39682,1,0,0:0:0:0:
149,311,39743,2,0,L|138:102,1,198.000006042481,0|0,0:0|0:0,0:0:0:0:
282,19,40112,6,0,P|346:44|343:167,1,198.000006042481,0|0,0:0|0:0,0:0:0:0:
272,288,40481,2,0,P|260:339|271:390,1,99.0000030212403,0|0,0:0|0:0,0:0:0:0:
287,104,40727,1,0,0:0:0:0:
512,296,40850,6,0,B|466:305|419:294|425:240|376:231|327:239,1,198.000006042481,0|0,0:0|0:0,0:0:0:0:
140,349,41219,2,0,P|89:360|43:335,1,99.0000030212403,0|0,0:0|0:0,0:0:0:0:
126,111,41465,1,0,0:0:0:0:
231,368,41588,6,0,P|247:271|260:167,1,198.000006042481,0|0,0:0|0:0,0:0:0:0:
104,20,41956,2,0,P|107:75|113:119,1,99.0000030212403,0|0,0:0|0:0,0:0:0:0:
282,19,42202,1,0,0:0:0:0:
106,264,42325,6,0,P|147:222|234:217,1,148.50000453186,0|0,0:0|0:0,0:0:0:0:
264,132,42571,2,0,P|336:131|390:179,1,148.50000453186,0|0,0:0|0:0,0:0:0:0:
479,168,42817,1,0,0:0:0:0:
361,352,42940,1,0,0:0:0:0:
322,359,43001,1,0,0:0:0:0:
283,367,43063,6,0,B|215:341|215:341|158:359|158:359|96:337,1,198.000006042481,0|0,0:0|0:0,0:0:0:0:
37,132,43432,2,0,P|68:108|131:113,1,99.0000030212403,0|0,0:0|0:0,0:0:0:0:
30,268,43678,1,0,0:0:0:0:
214,20,43801,6,0,P|230:110|232:223,1,198.000006042481,0|0,0:0|0:0,0:0:0:0:
318,73,44170,2,0,P|363:60|416:81,1,99.0000030212403,0|0,0:0|0:0,0:0:0:0:
453,262,44415,1,0,0:0:0:0:
232,216,44538,6,0,B|181:200|136:209|145:260|91:269|44:253,1,198.000006042481,0|0,0:0|0:0,0:0:0:0:
207,298,44907,2,0,P|235:330|238:386,1,99.0000030212403,0|0,0:0|0:0,0:0:0:0:
512,166,45153,1,0,0:0:0:0:
512,166,45215,1,0,0:0:0:0:
512,166,45276,6,0,L|304:180,1,198.000006042481,0|0,0:0|0:0,0:0:0:0:
260,81,45583,1,0,0:0:0:0:
253,73,45645,2,0,L|45:59,1,198.000006042481,0|0,0:0|0:0,0:0:0:0:
103,344,46014,6,0,P|119:313|123:277,1,62.9999980773926,0|0,0:0|0:0,0:0:0:0:
351,221,46137,2,0,P|297:179|240:174,1,125.999996154785,0|0,0:0|0:0,0:0:0:0:
341,360,46383,2,0,P|371:362|408:356,1,62.9999980773926,0|0,0:0|0:0,0:0:0:0:
467,114,46506,1,0,0:0:0:0:
467,114,46629,1,0,0:0:0:0:
245,280,46751,6,0,L|252:359,1,62.9999980773926,0|0,0:0|0:0,0:0:0:0:
362,95,46874,2,0,L|348:253,1,125.999996154785,0|0,0:0|0:0,0:0:0:0:
41,76,47120,2,0,L|48:155,1,62.9999980773926,0|0,0:0|0:0,0:0:0:0:
212,26,47243,1,0,0:0:0:0:
215,38,47305,1,0,0:0:0:0:
218,50,47366,1,0,0:0:0:0:
221,62,47428,1,0,0:0:0:0:
224,73,47489,6,0,L|220:137,3,62.9999980773926,0|0|0|0,0:0|0:0|0:0|0:0,0:0:0:0:
103,293,47735,1,0,0:0:0:0:
219,256,47858,1,0,0:0:0:0:
334,339,47981,1,0,0:0:0:0:
450,302,48104,1,0,0:0:0:0:
349,119,48227,6,0,P|337:163|339:250,1,125.999996154785,0|0,0:0|0:0,0:0:0:0:
455,24,48473,1,0,0:0:0:0:
208,237,48596,1,0,0:0:0:0:
195,235,48657,1,0,0:0:0:0:
182,233,48719,1,0,0:0:0:0:
169,231,48780,1,0,0:0:0:0:
156,229,48842,1,0,0:0:0:0:
143,227,48903,1,0,0:0:0:0:
130,225,48965,6,0,B|118:179|118:179|143:132|143:132|130:71,1,161.999995056153,0|0,0:0|0:0,0:0:0:0:
237,50,49456,1,0,0:0:0:0:
237,50,49579,1,0,0:0:0:0:
325,98,49702,6,0,L|386:93,1,53.9999983520508,0|0,0:0|0:0,0:0:0:0:
441,185,49948,2,0,L|502:190,1,53.9999983520508,0|0,0:0|0:0,0:0:0:0:
316,84,50194,2,0,L|377:79,1,53.9999983520508,0|0,0:0|0:0,0:0:0:0:
361,243,50440,6,0,P|358:283|364:303,1,53.9999983520508,0|0,0:0|0:0,0:0:0:0:
247,265,50686,2,0,P|224:298|219:318,1,53.9999983520508,0|0,0:0|0:0,0:0:0:0:
137,227,50932,2,0,P|100:244|86:259,1,53.9999983520508,0|0,0:0|0:0,0:0:0:0:
11,254,51116,1,0,0:0:0:0:
11,254,51178,6,0,L|7:139,1,107.999996704102,0|0,0:0|0:0,0:0:0:0:
88,139,51485,1,0,0:0:0:0:
88,139,51547,2,0,L|84:24,1,107.999996704102,0|0,0:0|0:0,0:0:0:0:
193,90,51915,6,0,P|238:115|350:69,1,161.999995056153,0|0,0:0|0:0,0:0:0:0:
439,61,52407,1,0,0:0:0:0:
439,61,52530,1,0,0:0:0:0:
501,177,52653,6,0,L|496:241,1,53.9999983520508,0|0,0:0|0:0,0:0:0:0:
402,293,52899,2,0,L|407:357,1,53.9999983520508,0|0,0:0|0:0,0:0:0:0:
492,167,53145,2,0,L|487:231,1,53.9999983520508,0|0,0:0|0:0,0:0:0:0:
255,307,53391,6,0,L|196:323,1,53.9999983520508,0|0,0:0|0:0,0:0:0:0:
210,211,53637,2,0,L|149:216,1,53.9999983520508,0|0,0:0|0:0,0:0:0:0:
182,108,53883,2,0,L|121:102,1,53.9999983520508,0|0,0:0|0:0,0:0:0:0:
393,11,54129,6,0,P|386:68|383:187,1,161.999995056153,0|0,0:0|0:0,0:0:0:0:
204,184,54620,5,0,0:0:0:0:
176,218,54702,5,0,0:0:0:0:
191,293,54784,5,0,0:0:0:0:
126,356,54866,6,0,P|125:320|122:301,1,53.9999983520508,0|0,0:0|0:0,0:0:0:0:
15,187,55112,2,0,P|11:213|11:240,1,53.9999983520508,0|0,0:0|0:0,0:0:0:0:
182,108,55358,2,0,P|133:127|102:235,1,161.999995056153,0|0,0:0|0:0,0:0:0:0:
300,159,55850,6,0,L|296:90,1,53.9999983520508,0|0,0:0|0:0,0:0:0:0:
434,187,56096,2,0,L|438:118,1,53.9999983520508,0|0,0:0|0:0,0:0:0:0:
290,167,56342,6,0,L|286:98,1,53.9999983520508,0|0,0:0|0:0,0:0:0:0:
447,198,56588,2,0,L|451:129,1,53.9999983520508,0|0,0:0|0:0,0:0:0:0:
280,178,56833,2,0,L|276:109,1,53.9999983520508,0|0,0:0|0:0,0:0:0:0:
320,22,57018,1,0,0:0:0:0:
320,22,57079,6,0,L|265:29,1,53.9999983520508,0|0,0:0|0:0,0:0:0:0:
182,108,57325,1,0,0:0:0:0:
182,108,57387,1,0,0:0:0:0:
182,108,57448,6,0,L|127:101,1,53.9999983520508,0|0,0:0|0:0,0:0:0:0:
25,40,57694,1,0,0:0:0:0:
17,162,57817,6,0,L|21:230,1,53.9999983520508,0|0,0:0|0:0,0:0:0:0:
164,213,58063,2,0,L|160:281,1,53.9999983520508,0|0,0:0|0:0,0:0:0:0:
7,154,58309,2,0,L|11:222,1,53.9999983520508,0|0,0:0|0:0,0:0:0:0:
259,278,58555,6,0,P|282:252|286:228,1,53.9999983520508,0|0,0:0|0:0,0:0:0:0:
304,93,58801,2,0,P|315:125|333:141,1,53.9999983520508,0|0,0:0|0:0,0:0:0:0:
441,224,59047,2,0,P|406:217|384:225,1,53.9999983520508,0|0,0:0|0:0,0:0:0:0:
246,263,59292,6,0,P|273:242|281:219,1,53.9999983520508,0|0,0:0|0:0,0:0:0:0:
322,89,59538,2,0,P|327:123|343:142,1,53.9999983520508,0|0,0:0|0:0,0:0:0:0:
434,242,59784,2,0,P|402:229|378:233,1,53.9999983520508,0|0,0:0|0:0,0:0:0:0:
223,141,60030,6,0,L|155:137,1,53.9999983520508,0|0,0:0|0:0,0:0:0:0:
239,17,60276,1,0,0:0:0:0:
77,247,60399,1,0,0:0:0:0:
80,287,60460,1,0,0:0:0:0:
83,327,60521,1,0,0:0:0:0:
41,66,60645,1,0,0:0:0:0:
201,384,60768,6,0,L|213:205,1,161.999995056153,0|0,0:0|0:0,0:0:0:0:
209,116,61260,1,0,0:0:0:0:
209,116,61383,1,0,0:0:0:0:
314,194,61506,6,0,L|379:202,1,53.9999983520508,0|0,0:0|0:0,0:0:0:0:
386,333,61751,2,0,L|451:325,1,53.9999983520508,0|0,0:0|0:0,0:0:0:0:
299,173,61997,2,0,L|364:165,1,53.9999983520508,0|0,0:0|0:0,0:0:0:0:
475,30,62243,6,0,P|466:62|465:92,1,53.9999983520508,0|0,0:0|0:0,0:0:0:0:
323,58,62489,2,0,P|314:26|313:-4,1,53.9999983520508,0|0,0:0|0:0,0:0:0:0:
453,48,62735,2,0,P|444:80|443:110,1,53.9999983520508,0|0,0:0|0:0,0:0:0:0:
512,203,62920,1,0,0:0:0:0:
512,203,62981,6,0,B|445:196|445:196|407:209,1,107.999996704102,0|0,0:0|0:0,0:0:0:0:
334,276,63288,1,0,0:0:0:0:
334,276,63350,2,0,B|267:269|267:269|229:282,1,107.999996704102
105,307,63719,6,0,P|96:247|127:146,1,161.999995056153,0|0,0:0|0:0,0:0:0:0:
110,60,64211,1,0,0:0:0:0:
110,60,64333,1,0,0:0:0:0:
243,22,64456,6,0,L|309:15,1,53.9999983520508,0|0,0:0|0:0,0:0:0:0:
201,103,64702,2,0,L|261:129,1,53.9999983520508,0|0,0:0|0:0,0:0:0:0:
124,152,64948,2,0,L|163:205,1,53.9999983520508,0|0,0:0|0:0,0:0:0:0:
208,283,65194,6,0,L|201:349,1,53.9999983520508,0|0,0:0|0:0,0:0:0:0:
289,241,65440,2,0,L|315:301,1,53.9999983520508,0|0,0:0|0:0,0:0:0:0:
338,164,65686,2,0,L|391:203,1,53.9999983520508,0|0,0:0|0:0,0:0:0:0:
110,60,65932,5,0,0:0:0:0:
110,60,66424,5,0,0:0:0:0:
148,34,66506,5,0,0:0:0:0:
232,62,66588,5,0,0:0:0:0:
324,13,66670,6,0,P|330:51|331:82,1,53.9999983520508,0|0,0:0|0:0,0:0:0:0:
411,128,66915,2,0,P|405:166|404:197,1,53.9999983520508,0|0,0:0|0:0,0:0:0:0:
420,339,67161,2,0,P|401:291|306:248,1,161.999995056153,0|0,0:0|0:0,0:0:0:0:
222,319,67653,6,0,L|161:335,1,53.9999983520508,0|0,0:0|0:0,0:0:0:0:
25,294,67899,2,0,L|76:329,1,53.9999983520508,0|0,0:0|0:0,0:0:0:0:
208,209,68145,6,0,L|171:260,1,53.9999983520508,0|0,0:0|0:0,0:0:0:0:
63,174,68391,2,0,L|79:234,1,53.9999983520508,0|0,0:0|0:0,0:0:0:0:
185,90,68637,1,0,0:0:0:0:
72,68,68760,1,0,0:0:0:0:
72,68,68821,1,0,0:0:0:0:
72,68,68883,6,0,P|140:79|187:78,1,107.999996704102,0|0,0:0|0:0,0:0:0:0:
244,32,69190,1,0,0:0:0:0:
244,32,69252,2,0,P|312:43|359:42,1,107.999996704102,0|0,0:0|0:0,0:0:0:0:
474,47,69620,6,0,L|481:117,1,53.9999983520508,0|0,0:0|0:0,0:0:0:0:
367,194,69866,2,0,L|372:140,1,53.9999983520508,0|0,0:0|0:0,0:0:0:0:
508,292,70112,2,0,B|450:284|450:284|396:301|396:301|342:292,1,161.999995056153,0|0,0:0|0:0,0:0:0:0:
260,275,70604,5,0,0:0:0:0:
260,275,70727,1,0,0:0:0:0:
179,228,70850,2,0,L|181:290,1,53.9999983520508,0|0,0:0|0:0,0:0:0:0:
59,206,71096,2,0,L|57:268,1,53.9999983520508,0|0,0:0|0:0,0:0:0:0:
246,115,71342,5,0,0:0:0:0:
30,69,71465,1,0,0:0:0:0:
70,65,71526,1,0,0:0:0:0:
110,61,71587,1,0,0:0:0:0:
179,228,71711,1,0,0:0:0:0:
196,15,71833,5,0,0:0:0:0:
246,115,71956,1,0,0:0:0:0:
320,28,72079,1,0,0:0:0:0:
370,128,72202,1,0,0:0:0:0:
132,147,72325,5,0,0:0:0:0:
461,77,72448,1,0,0:0:0:0:
424,357,72571,5,0,0:0:0:0:
381,232,72694,1,0,0:0:0:0:
381,232,72756,1,0,0:0:0:0:
381,232,72817,1,0,0:0:0:0:
308,342,72940,1,0,0:0:0:0:
183,233,73063,1,0,0:0:0:0:
13,338,73186,1,0,0:0:0:0:
13,338,73247,1,0,0:0:0:0:
13,338,73309,1,0,0:0:0:0:
78,265,73432,1,0,0:0:0:0:
23,190,73555,1,0,0:0:0:0:
121,143,73678,1,0,0:0:0:0:
3,88,73801,1,0,0:0:0:0:
169,58,73924,1,0,0:0:0:0:
0,0,74047,1,0,0:0:0:0:
121,143,74170,1,0,0:0:0:0:
310,38,74292,1,0,0:0:0:0:
512,162,74415,1,0,0:0:0:0:
512,162,74477,1,0,0:0:0:0:
512,162,74538,2,0,L|509:225,1,53.9999983520508,0|0,0:0|0:0,0:0:0:0:
425,0,74784,5,0,0:0:0:0:
425,0,75522,5,0,0:0:0:0:
404,196,75645,1,0,0:0:0:0:
404,196,75706,1,0,0:0:0:0:
404,196,75768,1,0,0:0:0:0:
320,20,75891,1,0,0:0:0:0:
210,187,76014,1,0,0:0:0:0:
44,28,76137,1,0,0:0:0:0:
246,95,76260,1,0,0:0:0:0:
59,163,76383,1,0,0:0:0:0:
268,264,76506,1,0,0:0:0:0:
268,264,76567,1,0,0:0:0:0:
268,264,76629,1,0,0:0:0:0:
68,314,76751,1,0,0:0:0:0:
210,187,76874,1,0,0:0:0:0:
318,353,76997,1,0,0:0:0:0:
388,187,77120,1,0,0:0:0:0:
426,358,77243,1,0,0:0:0:0:
478,227,77366,1,0,0:0:0:0:
478,227,77428,1,0,0:0:0:0:
478,227,77489,2,0,L|475:167,1,53.9999983520508,0|0,0:0|0:0,0:0:0:0:
184,357,77735,5,0,0:0:0:0:
184,357,78063,5,0,0:0:0:0:
174,324,78145,5,0,0:0:0:0:
206,280,78227,5,0,0:0:0:0:
166,220,78309,5,0,0:0:0:0:
211,158,78391,5,0,0:0:0:0:
142,101,78473,5,0,0:0:0:0:
234,36,78596,1,0,0:0:0:0:
234,36,78657,1,0,0:0:0:0:
234,36,78719,1,0,0:0:0:0:
340,127,78842,1,0,0:0:0:0:
424,27,78965,1,0,0:0:0:0:
491,157,79088,1,0,0:0:0:0:
491,157,79149,1,0,0:0:0:0:
491,157,79211,1,0,0:0:0:0:
426,14,79333,1,0,0:0:0:0:
343,229,79456,1,0,0:0:0:0:
343,229,79518,1,0,0:0:0:0:
343,229,79579,1,0,0:0:0:0:
232,19,79702,1,0,0:0:0:0:
162,247,79825,1,0,0:0:0:0:
80,30,79948,1,0,0:0:0:0:
52,252,80071,1,0,0:0:0:0:
248,113,80194,1,0,0:0:0:0:
463,273,80317,1,0,0:0:0:0:
463,273,80379,1,0,0:0:0:0:
463,273,80440,2,0,L|466:339,1,53.9999983520508,0|0,0:0|0:0,0:0:0:0:
249,204,80686,5,0,0:0:0:0:
249,204,81424,5,0,0:0:0:0:
188,318,81547,1,0,0:0:0:0:
188,318,81608,1,0,0:0:0:0:
188,318,81670,1,0,0:0:0:0:
117,161,81792,1,0,0:0:0:0:
88,339,81915,1,0,0:0:0:0:
43,144,82038,1,0,0:0:0:0:
8,339,82161,1,0,0:0:0:0:
36,129,82284,1,0,0:0:0:0:
186,324,82407,1,0,0:0:0:0:
186,324,82469,1,0,0:0:0:0:
186,324,82530,1,0,0:0:0:0:
337,152,82653,1,0,0:0:0:0:
508,317,82776,1,0,0:0:0:0:
229,212,82899,1,0,0:0:0:0:
510,154,83022,1,0,0:0:0:0:
251,132,83145,1,0,0:0:0:0:
450,80,83268,1,0,0:0:0:0:
450,80,83329,1,0,0:0:0:0:
450,80,83391,2,0,L|456:26,1,53.9999983520508,0|0,0:0|0:0,0:0:0:0:
338,298,83637,5,0,0:0:0:0:
338,298,83965,5,0,0:0:0:0:
306,312,84047,5,0,0:0:0:0:
256,285,84129,5,0,0:0:0:0:
186,324,84211,5,0,0:0:0:0:
115,277,84292,5,0,0:0:0:0:
35,325,84374,5,0,0:0:0:0:
77,163,84497,1,0,0:0:0:0:
77,163,84559,1,0,0:0:0:0:
77,163,84620,1,0,0:0:0:0:
186,324,84743,1,0,0:0:0:0:
249,153,84866,1,0,0:0:0:0:
312,326,84989,1,0,0:0:0:0:
312,326,85051,1,0,0:0:0:0:
312,326,85112,1,0,0:0:0:0:
351,120,85235,1,0,0:0:0:0:
187,223,85358,1,0,0:0:0:0:
187,223,85420,1,0,0:0:0:0:
187,223,85481,1,0,0:0:0:0:
430,223,85604,1,0,0:0:0:0:
163,121,85727,1,0,0:0:0:0:
432,63,85850,1,0,0:0:0:0:
181,45,85973,1,0,0:0:0:0:
444,51,86096,1,0,0:0:0:0:
312,212,86219,1,0,0:0:0:0:
312,212,86280,1,0,0:0:0:0:
312,212,86342,2,0,L|315:274,1,53.9999983520508,0|0,0:0|0:0,0:0:0:0:
181,45,86588,5,0,0:0:0:0:
181,45,87325,5,0,0:0:0:0:
130,184,87448,1,0,0:0:0:0:
130,184,87510,1,0,0:0:0:0:
130,184,87571,1,0,0:0:0:0:
41,43,87694,1,0,0:0:0:0:
28,218,87817,1,0,0:0:0:0:
63,35,87940,1,0,0:0:0:0:
63,35,88001,1,0,0:0:0:0:
63,35,88063,1,0,0:0:0:0:
217,197,88186,1,0,0:0:0:0:
366,25,88309,1,0,0:0:0:0:
366,25,88370,1,0,0:0:0:0:
366,25,88432,1,0,0:0:0:0:
240,116,88555,1,0,0:0:0:0:
438,128,88678,1,0,0:0:0:0:
296,233,88801,1,0,0:0:0:0:
486,249,88924,1,0,0:0:0:0:
332,361,89047,1,0,0:0:0:0:
512,360,89170,1,0,0:0:0:0:
512,360,89231,1,0,0:0:0:0:
512,360,89292,2,0,L|454:372,1,53.9999983520508,0|0,0:0|0:0,0:0:0:0:
438,128,89538,5,0,0:0:0:0:
438,128,89866,5,0,0:0:0:0:
402,116,89948,5,0,0:0:0:0:
359,152,90030,5,0,0:0:0:0:
296,108,90112,5,0,0:0:0:0:
221,150,90194,5,0,0:0:0:0:
124,103,90276,6,0,L|117:217,2,107.999996704102,0|0|0,0:0|0:0|0:0,0:0:0:0:
253,330,91014,6,0,B|317:345|317:345|375:330,2,125.999996154785,0|0|0,0:0|0:0|0:0,0:0:0:0:
436,43,91751,6,0,B|437:85|426:119|387:118|382:158|389:189,2,144,0|0|0,0:0|0:0|0:0,0:0:0:0:
298,188,92489,6,0,P|325:237|444:250,2,161.999995056153,0|0|0,0:0|0:0|0:0,0:0:0:0:
97,220,93227,6,0,B|87:291|87:291|125:333|125:333|117:386,2,180,0|0|0,0:0|0:0|0:0,0:0:0:0:
254,53,93965,6,0,B|194:75|141:49|141:49|96:65|54:66,2,198.000006042481,0|0|0,0:0|0:0|0:0,0:0:0:0:
398,320,94702,6,0,B|373:241|385:183|385:183|423:165|441:126,2,215.999993408203,0|0|0,0:0|0:0|0:0,0:0:0:0:
101,155,95440,6,0,B|164:146|164:146|235:240|235:240|289:255,2,233.999989288331,0|0|0,0:0|0:0|0:0,0:0:0:0:
423,35,96178,5,0,0:0:0:0:
219,346,97407,1,0,0:0:0:0:
219,346,97469,1,0,0:0:0:0:
219,346,97530,1,0,0:0:0:0:
41,85,97653,6,0,P|96:60|195:71,1,144,0|0,0:0|0:0,0:0:0:0:
505,205,97899,1,0,0:0:0:0:
67,347,98022,6,0,P|145:364|220:356,1,144,0|0,0:0|0:0,0:0:0:0:
487,103,98268,1,0,0:0:0:0:
60,243,98391,6,0,P|36:159|49:73,1,144,0|0,0:0|0:0,0:0:0:0:
475,334,98637,1,0,0:0:0:0:
247,12,98760,5,0,0:0:0:0:
161,198,98883,1,0,0:0:0:0:
338,303,99006,1,0,0:0:0:0:
134,112,99129,6,0,B|185:100|235:107|227:175|274:182|336:168,1,216,0|0,0:0|0:0,0:0:0:0:
476,10,99497,2,0,P|494:64|479:114,1,107.999996704102,0|0,0:0|0:0,0:0:0:0:
256,21,99743,1,0,0:0:0:0:
478,218,99866,6,0,P|486:262|455:318,1,107.999996704102,0|0,0:0|0:0,0:0:0:0:
263,31,100112,2,0,P|297:2|361:0,1,107.999996704102,0|0,0:0|0:0,0:0:0:0:
209,311,100358,2,0,P|166:295|133:241,1,107.999996704102,0|0,0:0|0:0,0:0:0:0:
366,24,100604,6,0,L|360:250,1,215.999993408203,0|0,0:0|0:0,0:0:0:0:
152,40,100973,2,0,P|195:5|253:11,1,107.999996704102,0|0,0:0|0:0,0:0:0:0:
35,253,101219,1,0,0:0:0:0:
22,212,101280,1,0,0:0:0:0:
9,170,101342,6,0,L|18:31,1,107.999996704102,0|0,0:0|0:0,0:0:0:0:
228,120,101588,1,0,0:0:0:0:
215,161,101649,1,0,0:0:0:0:
202,203,101711,2,0,L|211:342,1,107.999996704102,0|0,0:0|0:0,0:0:0:0:
152,40,101956,1,0,0:0:0:0:
344,218,102079,6,0,P|417:227|465:106,1,215.999993408203,0|0,0:0|0:0,0:0:0:0:
326,332,102448,1,0,0:0:0:0:
134,137,102571,2,0,P|127:84|135:19,1,107.999996704102,0|0,0:0|0:0,0:0:0:0:
337,221,102817,6,0,P|344:274|336:339,1,107.999996704102,0|0,0:0|0:0,0:0:0:0:
278,49,103063,2,0,B|408:14|356:136|475:111,1,215.999993408203,0|0,0:0|0:0,0:0:0:0:
248,274,103432,1,0,0:0:0:0:
148,152,103555,6,0,L|26:140,1,107.999996704102,0|0,0:0|0:0,0:0:0:0:
162,338,103801,1,0,0:0:0:0:
248,166,103924,1,0,0:0:0:0:
338,328,104047,2,0,P|402:347|441:327,1,107.999996704102,0|0,0:0|0:0,0:0:0:0:
436,44,104292,5,0,0:0:0:0:
428,55,104538,2,0,P|357:71|320:59,1,107.999996704102,0|0,0:0|0:0,0:0:0:0:
167,15,104784,5,0,0:0:0:0:
140,59,104866,5,0,0:0:0:0:
177,134,104948,5,0,0:0:0:0:
126,220,105030,6,0,B|181:204|237:206|219:287|264:288|322:273,1,215.999993408203,0|0,0:0|0:0,0:0:0:0:
436,171,105399,1,0,0:0:0:0:
353,358,105522,2,0,P|301:373|251:348,1,107.999996704102,0|0,0:0|0:0,0:0:0:0:
316,45,105768,6,0,L|330:285,1,215.999993408203,0|0,0:0|0:0,0:0:0:0:
170,124,106137,1,0,0:0:0:0:
335,24,106260,2,0,L|453:35,1,107.999996704102,0|0,0:0|0:0,0:0:0:0:
235,264,106506,6,0,L|-1:286,1,215.999993408203,0|0,0:0|0:0,0:0:0:0:
169,15,106874,2,0,P|190:61|178:123,1,107.999996704102,0|0,0:0|0:0,0:0:0:0:
186,354,107120,1,0,0:0:0:0:
186,354,107182,1,0,0:0:0:0:
186,354,107243,6,0,B|261:343|261:343|328:381|328:381|393:372,1,215.999993408203,0|0,0:0|0:0,0:0:0:0:
460,334,107551,1,0,0:0:0:0:
460,334,107612,1,0,0:0:0:0:
341,216,107735,1,0,0:0:0:0:
456,86,107858,1,0,0:0:0:0:
273,8,107981,6,0,L|279:128,1,107.999996704102,0|0,0:0|0:0,0:0:0:0:
203,200,108227,2,0,L|206:144,1,53.9999983520508,0|0,0:0|0:0,0:0:0:0:
15,89,108350,6,0,L|21:209,1,107.999996704102,0|0,0:0|0:0,0:0:0:0:
179,2,108596,1,0,0:0:0:0:
50,303,108719,6,0,P|21:280|16:205,1,107.999996704102,0|0,0:0|0:0,0:0:0:0:
227,307,108965,2,0,P|221:343|159:385,1,107.999996704102,0|0,0:0|0:0,0:0:0:0:
104,131,109211,2,0,L|222:145,1,107.999996704102,0|0,0:0|0:0,0:0:0:0:
345,316,109456,5,0,0:0:0:0:
479,25,109579,2,0,L|504:150,1,107.999996704102,0|0,0:0|0:0,0:0:0:0:
339,335,109825,5,0,0:0:0:0:
232,25,109948,2,0,L|207:150,1,107.999996704102,0|0,0:0|0:0,0:0:0:0:
504,359,110194,6,0,P|512:297|483:262,1,107.999996704102,0|0,0:0|0:0,0:0:0:0:
182,264,110440,1,0,0:0:0:0:
386,92,110563,1,0,0:0:0:0:
383,134,110624,1,0,0:0:0:0:
380,177,110686,1,0,0:0:0:0:
164,278,110809,1,0,0:0:0:0:
403,75,110932,6,0,B|349:52|292:62|267:109|267:109|234:133|203:130,1,215.999993408203,0|0,0:0|0:0,0:0:0:0:
105,35,111301,1,0,0:0:0:0:
26,179,111424,2,0,L|33:300,1,107.999996704102,0|0,0:0|0:0,0:0:0:0:
475,371,111670,6,0,L|481:263,1,107.999996704102,0|0,0:0|0:0,0:0:0:0:
215,151,111915,2,0,P|186:203|193:253,1,107.999996704102,0|0,0:0|0:0,0:0:0:0:
485,105,112161,2,0,P|489:52|461:6,1,107.999996704102,0|0,0:0|0:0,0:0:0:0:
170,331,112407,6,0,L|403:351,1,215.999993408203,0|0,0:0|0:0,0:0:0:0:
210,130,112776,2,0,L|93:140,1,107.999996704102,0|0,0:0|0:0,0:0:0:0:
351,254,113022,1,0,0:0:0:0:
344,211,113083,1,0,0:0:0:0:
337,167,113145,6,0,L|351:58,1,107.999996704102,0|0,0:0|0:0,0:0:0:0:
182,315,113391,1,0,0:0:0:0:
189,272,113452,1,0,0:0:0:0:
196,228,113514,2,0,L|182:119,1,107.999996704102,0|0,0:0|0:0,0:0:0:0:
49,278,113760,1,0,0:0:0:0:
151,18,113883,6,0,B|207:2|253:14|245:72|288:76|350:59,1,215.999993408203,0|0,0:0|0:0,0:0:0:0:
503,206,114251,1,0,0:0:0:0:
364,357,114374,2,0,P|322:360|266:318,1,107.999996704102,0|0,0:0|0:0,0:0:0:0:
443,19,114620,6,0,P|466:53|458:123,1,107.999996704102,0|0,0:0|0:0,0:0:0:0:
80,89,114866,2,0,P|101:43|154:17,1,107.999996704102,0|0,0:0|0:0,0:0:0:0:
194,337,115112,2,0,L|78:346,1,107.999996704102,0|0,0:0|0:0,0:0:0:0:
395,203,115358,6,0,L|511:212,1,107.999996704102,0|0,0:0|0:0,0:0:0:0:
270,19,115604,1,0,0:0:0:0:
166,216,115727,2,0,L|175:332,1,107.999996704102,0|0,0:0|0:0,0:0:0:0:
284,12,115973,1,0,0:0:0:0:
9,181,116096,6,0,P|40:232|190:217,1,215.999993408203,0|0,0:0|0:0,0:0:0:0:
324,376,116465,1,0,0:0:0:0:
439,63,116588,5,0,0:0:0:0:
413,111,116670,5,0,0:0:0:0:
456,181,116751,5,0,0:0:0:0:
382,251,116833,6,0,B|333:221|276:224|285:277|235:290|178:258,1,215.999993408203,0|0,0:0|0:0,0:0:0:0:
131,43,117202,1,0,0:0:0:0:
403,251,117325,2,0,P|416:306|396:352,1,107.999996704102,0|0,0:0|0:0,0:0:0:0:
147,64,117571,6,0,L|258:56,1,107.999996704102,0|0,0:0|0:0,0:0:0:0:
56,314,117817,2,0,P|44:268|71:215,1,107.999996704102,0|0,0:0|0:0,0:0:0:0:
319,334,118063,2,0,P|290:372|232:384,1,107.999996704102,0|0,0:0|0:0,0:0:0:0:
412,17,118309,6,0,L|420:252,1,215.999993408203,0|0,0:0|0:0,0:0:0:0:
251,164,118678,2,0,L|254:56,1,107.999996704102,0|0,0:0|0:0,0:0:0:0:
502,288,118924,1,0,0:0:0:0:
502,288,118985,1,0,0:0:0:0:
502,288,119047,6,0,B|442:254|442:254|285:263,1,215.999993408203,0|0,0:0|0:0,0:0:0:0:
251,164,119353,1,0,0:0:0:0:
251,164,119415,2,0,B|191:130|191:130|34:139,1,215.999993408203,0|0,0:0|0:0,0:0:0:0:
177,334,119784,6,0,P|196:287|195:265,1,62.9999980773926,0|0,0:0|0:0,0:0:0:0:
239,25,119907,2,0,P|262:90|239:147,1,125.999996154785,0|0,0:0|0:0,0:0:0:0:
480,113,120153,2,0,B|414:85|352:99|370:172|298:185|248:162,1,251.999992309571,0|0,0:0|0:0,0:0:0:0:
93,11,120522,6,0,L|87:84,1,62.9999980773926,0|0,0:0|0:0,0:0:0:0:
280,307,120645,2,0,L|270:171,1,125.999996154785,0|0,0:0|0:0,0:0:0:0:
19,302,120891,2,0,L|271:327,1,251.999992309571,0|0,0:0|0:0,0:0:0:0:
395,187,121198,1,0,0:0:0:0:
366,268,121260,6,0,P|363:305|375:336,1,62.9999980773926,0|0,0:0|0:0,0:0:0:0:
444,109,121383,2,0,P|380:96|318:127,1,125.999996154785,0|0,0:0|0:0,0:0:0:0:
217,318,121629,1,0,0:0:0:0:
12,170,121751,2,0,P|76:157|138:188,1,125.999996154785,0|0,0:0|0:0,0:0:0:0:
301,356,121997,5,0,0:0:0:0:
301,356,122059,1,0,0:0:0:0:
301,356,122120,1,0,0:0:0:0:
301,356,122182,1,0,0:0:0:0:
301,356,122243,1,0,0:0:0:0:
301,356,122305,1,0,0:0:0:0:
301,356,122366,6,0,B|313:270|313:270|267:202|267:202|282:114,1,251.999992309571,0|0,0:0|0:0,0:0:0:0:
141,321,122735,6,0,P|98:341|19:325,1,107.999996704102,0|0,0:0|0:0,0:0:0:0:
2,41,122981,2,0,B|85:18|160:43|124:154|219:167|290:133,1,323.999990112305,0|0,0:0|0:0,0:0:0:0:
401,60,123411,1,0,0:0:0:0:
428,124,123473,6,0,L|421:233,1,107.999996704102,0|0,0:0|0:0,0:0:0:0:
269,111,123719,2,0,L|262:3,1,107.999996704102,0|0,0:0|0:0,0:0:0:0:
114,119,123965,2,0,L|107:226,1,107.999996704102,0|0,0:0|0:0,0:0:0:0:
499,292,124211,6,0,P|517:226|409:142,1,215.999993408203,0|0,0:0|0:0,0:0:0:0:
285,289,124579,2,0,P|243:308|180:298,1,107.999996704102,0|0,0:0|0:0,0:0:0:0:
49,42,124825,1,0,0:0:0:0:
91,33,124887,1,0,0:0:0:0:
132,24,124948,6,0,P|169:81|171:129,1,107.999996704102,0|0,0:0|0:0,0:0:0:0:
404,21,125194,1,0,0:0:0:0:
423,238,125317,2,0,P|414:290|382:333,1,107.999996704102,0|0,0:0|0:0,0:0:0:0:
246,74,125563,1,0,0:0:0:0:
16,285,125686,6,0,B|100:300|100:300|144:283|144:283|231:296,1,215.999993408203,0|0,0:0|0:0,0:0:0:0:
487,92,126055,2,0,P|454:49|398:45,1,107.999996704102,0|0,0:0|0:0,0:0:0:0:
329,254,126301,1,0,0:0:0:0:
236,62,126424,6,0,L|244:284,1,215.999993408203,0|0,0:0|0:0,0:0:0:0:
67,126,126792,2,0,P|71:70|109:33,1,107.999996704102,0|0,0:0|0:0,0:0:0:0:
335,263,127038,1,0,0:0:0:0:
458,33,127161,6,0,B|401:23|354:30|360:86|302:93|250:75,1,215.999993408203,0|0,0:0|0:0,0:0:0:0:
172,188,127530,1,0,0:0:0:0:
50,117,127653,2,0,L|59:7,1,107.999996704102,0|0,0:0|0:0,0:0:0:0:
266,209,127899,6,0,P|224:263|86:232,1,215.999993408203,0|0,0:0|0:0,0:0:0:0:
89,267,128391,1,0,0:0:0:0:
333,32,128514,1,0,0:0:0:0:
345,73,128575,1,0,0:0:0:0:
357,114,128637,6,0,P|348:226|342:342,1,215.999993408203,0|0,0:0|0:0,0:0:0:0:
512,164,129006,2,0,P|509:107|505:54,1,107.999996704102,0|0,0:0|0:0,0:0:0:0:
449,286,129251,1,0,0:0:0:0:
229,73,129374,6,0,P|139:62|86:168,1,215.999993408203,0|0,0:0|0:0,0:0:0:0:
257,383,129743,2,0,P|258:331|221:293,1,107.999996704102,0|0,0:0|0:0,0:0:0:0:
43,338,129989,1,0,0:0:0:0:
259,219,130112,6,0,B|317:205|371:220|362:276|415:285|465:272,1,215.999993408203,0|0,0:0|0:0,0:0:0:0:
447,90,130481,2,0,P|423:137|440:197,1,107.999996704102,0|0,0:0|0:0,0:0:0:0:
395,7,130727,1,0,0:0:0:0:
352,4,130788,1,0,0:0:0:0:
308,1,130850,6,0,L|317:228,1,215.999993408203,0|0,0:0|0:0,0:0:0:0:
223,150,131157,1,0,0:0:0:0:
179,147,131219,2,0,L|188:374,1,215.999993408203,0|0,0:0|0:0,0:0:0:0:
20,220,131588,6,0,B|76:202|125:211|119:278|168:288|220:274,1,215.999993408203,0|0,0:0|0:0,0:0:0:0:
434,188,131956,2,0,P|442:224|407:292,1,107.999996704102,0|0,0:0|0:0,0:0:0:0:
308,92,132202,1,0,0:0:0:0:
319,322,132325,6,0,P|301:242|297:93,1,215.999993408203,0|0,0:0|0:0,0:0:0:0:
106,9,132694,2,0,P|97:49|95:123,1,107.999996704102,0|0,0:0|0:0,0:0:0:0:
174,368,132940,1,0,0:0:0:0:
377,42,133063,6,0,P|337:14|274:16,2,107.999996704102,0|0|0,0:0|0:0|0:0,0:0:0:0:
335,328,133432,2,0,P|375:356|438:354,2,107.999996704102,0|0|0,0:0|0:0|0:0,0:0:0:0:
166,231,133801,5,0,0:0:0:0:
396,195,133924,1,0,0:0:0:0:
182,152,134047,1,0,0:0:0:0:
358,119,134170,5,0,0:0:0:0:
18,226,134292,1,0,0:0:0:0:
425,271,134415,1,0,0:0:0:0:
61,0,134538,6,0,B|39:48|46:103|107:98|110:149|92:205,1,215.999993408203,0|0,0:0|0:0,0:0:0:0:
175,351,134907,2,0,P|164:304|181:244,1,107.999996704102,0|0,0:0|0:0,0:0:0:0:
396,195,135153,1,0,0:0:0:0:
209,21,135276,6,0,L|200:250,1,215.999993408203,0|0,0:0|0:0,0:0:0:0:
385,180,135645,2,0,L|380:72,1,107.999996704102,0|0,0:0|0:0,0:0:0:0:
304,305,135891,1,0,0:0:0:0:
470,65,136014,6,0,P|445:9|305:25,1,215.999993408203,0|0,0:0|0:0,0:0:0:0:
284,220,136383,2,0,P|296:175|291:105,1,107.999996704102,0|0,0:0|0:0,0:0:0:0:
76,21,136629,1,0,0:0:0:0:
62,61,136690,1,0,0:0:0:0:
49,101,136751,6,0,L|61:337,1,215.999993408203,0|0,0:0|0:0,0:0:0:0:
196,255,137059,1,0,0:0:0:0:
183,215,137120,2,0,L|195:-21,1,215.999993408203,0|0,0:0|0:0,0:0:0:0:
328,123,137489,6,0,P|393:167|496:88,1,215.999993408203,0|0,0:0|0:0,0:0:0:0:
311,240,137858,2,0,P|299:296|309:358,1,107.999996704102,0|0,0:0|0:0,0:0:0:0:
406,78,138104,1,0,0:0:0:0:
502,348,138227,6,0,B|432:335|432:335|361:371|361:371|296:358,1,215.999993408203,0|0,0:0|0:0,0:0:0:0:
195,207,138596,2,0,L|308:229,1,107.999996704102,0|0,0:0|0:0,0:0:0:0:
122,333,138842,1,0,0:0:0:0:
280,135,138965,6,0,B|301:-12|301:-12|247:32,1,215.999993408203,0|0,0:0|0:0,0:0:0:0:
111,181,139333,2,0,P|70:183|22:138,1,107.999996704102,0|0,0:0|0:0,0:0:0:0:
299,150,139579,1,0,0:0:0:0:
205,329,139702,6,0,P|258:311|349:363,1,161.999995056153,0|0,0:0|0:0,0:0:0:0:
437,260,139948,2,0,P|384:242|293:294,1,161.999995056153,0|0,0:0|0:0,0:0:0:0:
205,191,140194,2,0,P|258:173|349:225,1,161.999995056153,0|0,0:0|0:0,0:0:0:0:
466,118,140440,6,0,B|407:134|356:128|374:69|316:60|263:74,1,215.999993408203,0|0,0:0|0:0,0:0:0:0:
203,206,140809,2,0,P|164:217|101:190,1,107.999996704102,0|0,0:0|0:0,0:0:0:0:
106,15,141055,1,0,0:0:0:0:
12,292,141178,6,0,P|1:186|4:70,1,215.999993408203,0|0,0:0|0:0,0:0:0:0:
199,226,141547,2,0,P|200:279|194:333,1,107.999996704102,0|0,0:0|0:0,0:0:0:0:
94,35,141792,1,0,0:0:0:0:
302,266,141915,6,0,P|357:287|426:169,1,215.999993408203,0|0,0:0|0:0,0:0:0:0:
286,39,142284,2,0,P|334:68|389:70,1,107.999996704102,0|0,0:0|0:0,0:0:0:0:
201,157,142530,1,0,0:0:0:0:
191,114,142592,1,0,0:0:0:0:
182,71,142653,6,0,P|131:102|91:252,1,215.999993408203,0|0,0:0|0:0,0:0:0:0:
205,214,142961,1,0,0:0:0:0:
214,171,143022,2,0,P|265:202|305:352,1,215.999993408203,0|0,0:0|0:0,0:0:0:0:
418,305,143391,6,0,L|423:247,1,53.9999983520508,0|0,0:0|0:0,0:0:0:0:
343,33,143514,2,0,L|352:148,1,107.999996704102,0|0,0:0|0:0,0:0:0:0:
156,384,143760,2,0,P|205:306|318:322,1,215.999993408203,0|0,0:0|0:0,0:0:0:0:
87,261,144129,6,0,P|80:296|77:325,1,53.9999983520508,0|0,0:0|0:0,0:0:0:0:
214,171,144251,2,0,P|202:118|195:64,1,107.999996704102,0|0,0:0|0:0,0:0:0:0:
428,124,144497,2,0,P|402:195|394:344,1,215.999993408203,0|0,0:0|0:0,0:0:0:0:
238,328,144805,1,0,0:0:0:0:
299,266,144866,6,0,L|306:211,1,53.9999983520508,0|0,0:0|0:0,0:0:0:0:
309,21,144989,2,0,L|317:134,1,107.999996704102,0|0,0:0|0:0,0:0:0:0:
48,2,145235,1,0,0:0:0:0:
215,63,145358,1,0,0:0:0:0:
59,87,145481,1,0,0:0:0:0:
175,146,145604,1,0,0:0:0:0:
49,178,145727,1,0,0:0:0:0:
133,226,145850,1,0,0:0:0:0:
41,266,145973,1,0,0:0:0:0:
41,266,146034,1,0,0:0:0:0:
41,266,146096,2,0,P|38:292|35:321,1,53.9999983520508
117,307,146219,2,0,P|120:337|123:362,1,53.9999983520508
256,192,146342,12,0,149047,0:0:0:0:
134,103,149292,6,0,B|186:88|226:98|211:131|248:138|287:131,1,161.999995056153
388,80,149784,1,0,0:0:0:0:
388,80,149907,1,0,0:0:0:0:
470,192,150030,6,0,L|472:253,1,53.9999983520508,0|0,0:0|0:0,0:0:0:0:
321,223,150276,2,0,L|319:284,1,53.9999983520508,0|0,0:0|0:0,0:0:0:0:
483,185,150522,2,0,L|485:246,1,53.9999983520508,0|0,0:0|0:0,0:0:0:0:
235,299,150768,6,0,P|202:304|179:297,1,53.9999983520508,0|0,0:0|0:0,0:0:0:0:
99,188,151014,2,0,P|119:214|125:237,1,53.9999983520508,0|0,0:0|0:0,0:0:0:0:
71,362,151260,2,0,P|83:330|100:314,1,53.9999983520508,0|0,0:0|0:0,0:0:0:0:
28,273,151444,1,0,0:0:0:0:
28,273,151506,6,0,L|22:144,1,107.999996704102,0|0,0:0|0:0,0:0:0:0:
86,108,151813,1,0,0:0:0:0:
86,108,151875,2,0,L|92:-21,1,107.999996704102,0|0,0:0|0:0,0:0:0:0:
208,66,152243,6,0,P|238:103|356:94,1,161.999995056153,0|0,0:0|0:0,0:0:0:0:
467,82,152735,1,0,0:0:0:0:
467,82,152858,1,0,0:0:0:0:
425,214,152981,6,0,P|421:245|420:271,1,53.9999983520508,0|0,0:0|0:0,0:0:0:0:
313,241,153227,2,0,P|314:272|317:298,1,53.9999983520508,0|0,0:0|0:0,0:0:0:0:
207,287,153473,2,0,P|213:317|221:342,1,53.9999983520508,0|0,0:0|0:0,0:0:0:0:
129,226,153719,6,0,P|133:195|134:169,1,53.9999983520508,0|0,0:0|0:0,0:0:0:0:
241,199,153965,2,0,P|239:167|236:141,1,53.9999983520508,0|0,0:0|0:0,0:0:0:0:
347,153,154211,2,0,P|340:122|332:97,1,53.9999983520508,0|0,0:0|0:0,0:0:0:0:
35,42,154456,6,0,L|149:36,1,107.999996704102,0|0,0:0|0:0,0:0:0:0:
414,34,154948,5,0,0:0:0:0:
394,86,155030,5,0,0:0:0:0:
431,162,155112,5,0,0:0:0:0:
384,253,155194,6,0,B|338:267|304:261|312:218|267:212|231:220,1,161.999995056153,0|0,0:0|0:0,0:0:0:0:
138,182,155686,2,0,L|143:122,1,53.9999983520508,0|0,0:0|0:0,0:0:0:0:
24,219,155932,6,0,L|19:159,1,53.9999983520508,0|0,0:0|0:0,0:0:0:0:
149,189,156178,2,0,L|154:129,1,53.9999983520508,0|0,0:0|0:0,0:0:0:0:
9,231,156424,2,0,L|4:171,1,53.9999983520508,0|0,0:0|0:0,0:0:0:0:
124,300,156670,6,0,P|154:305|184:307,1,53.9999983520508,0|0,0:0|0:0,0:0:0:0:
302,353,156915,2,0,P|272:358|242:360,1,53.9999983520508,0|0,0:0|0:0,0:0:0:0:
374,295,157161,2,0,P|404:300|434:302,1,53.9999983520508,0|0,0:0|0:0,0:0:0:0:
262,272,157346,1,0,0:0:0:0:
262,272,157407,6,0,P|260:234|262:207,1,53.9999983520508,0|0,0:0|0:0,0:0:0:0:
327,144,157653,1,0,0:0:0:0:
327,144,157715,1,0,0:0:0:0:
327,144,157776,2,0,P|329:106|327:79,1,53.9999983520508,0|0,0:0|0:0,0:0:0:0:
247,15,158022,1,0,0:0:0:0:
184,113,158145,6,0,L|124:118,1,53.9999983520508,0|0,0:0|0:0,0:0:0:0:
6,186,158391,2,0,L|66:191,1,53.9999983520508,0|0,0:0|0:0,0:0:0:0:
187,265,158637,2,0,L|127:270,1,53.9999983520508,0|0,0:0|0:0,0:0:0:0:
279,215,158883,6,0,P|293:244|295:267,1,53.9999983520508,0|0,0:0|0:0,0:0:0:0:
384,190,159129,2,0,P|381:222|371:243,1,53.9999983520508,0|0,0:0|0:0,0:0:0:0:
362,91,159374,6,0,P|376:62|378:39,1,53.9999983520508,0|0,0:0|0:0,0:0:0:0:
467,116,159620,2,0,P|464:83|454:62,1,53.9999983520508,0|0,0:0|0:0,0:0:0:0:
266,91,159866,2,0,P|252:62|250:39,1,53.9999983520508,0|0,0:0|0:0,0:0:0:0:
161,116,160112,2,0,P|163:83|173:62,1,53.9999983520508,0|0,0:0|0:0,0:0:0:0:
134,247,160358,5,0,0:0:0:0:
17,133,160481,1,0,0:0:0:0:
51,367,160604,1,0,0:0:0:0:
244,191,160727,1,0,0:0:0:0:
246,231,160788,1,0,0:0:0:0:
248,271,160849,1,0,0:0:0:0:
325,58,160973,1,0,0:0:0:0:
492,300,161096,5,0,0:0:0:0:
334,284,161219,1,0,0:0:0:0:
334,284,161280,1,0,0:0:0:0:
334,284,161342,1,0,0:0:0:0:
494,216,161465,1,0,0:0:0:0:
345,185,161588,1,0,0:0:0:0:
473,122,161711,1,0,0:0:0:0:
473,122,161772,1,0,0:0:0:0:
473,122,161833,1,0,0:0:0:0:
356,93,161956,1,0,0:0:0:0:
460,37,162080,1,0,0:0:0:0:
460,37,162141,1,0,0:0:0:0:
460,37,162202,1,0,0:0:0:0:
359,102,162325,1,0,0:0:0:0:
247,23,162448,1,0,0:0:0:0:
149,105,162571,1,0,0:0:0:0:
102,30,162694,1,0,0:0:0:0:
38,102,162817,1,0,0:0:0:0:
23,25,162940,1,0,0:0:0:0:
23,25,163001,1,0,0:0:0:0:
23,25,163063,2,0,L|19:90,1,53.9999983520508,0|0,0:0|0:0,0:0:0:0:
357,0,163309,5,0,0:0:0:0:
357,0,164047,5,0,0:0:0:0:
489,82,164170,1,0,0:0:0:0:
489,82,164231,1,0,0:0:0:0:
489,82,164292,1,0,0:0:0:0:
341,143,164415,1,0,0:0:0:0:
452,214,164538,1,0,0:0:0:0:
338,266,164661,1,0,0:0:0:0:
338,266,164723,1,0,0:0:0:0:
338,266,164784,1,0,0:0:0:0:
382,354,164907,1,0,0:0:0:0:
457,305,165030,1,0,0:0:0:0:
457,305,165092,1,0,0:0:0:0:
457,305,165153,1,0,0:0:0:0:
298,351,165276,1,0,0:0:0:0:
269,196,165399,1,0,0:0:0:0:
137,276,165522,1,0,0:0:0:0:
138,150,165645,1,0,0:0:0:0:
42,202,165768,1,0,0:0:0:0:
56,124,165891,1,0,0:0:0:0:
56,124,165952,1,0,0:0:0:0:
56,124,166014,2,0,L|50:187,1,53.9999983520508,0|0,0:0|0:0,0:0:0:0:
291,0,166260,5,0,0:0:0:0:
296,12,166588,5,0,0:0:0:0:
286,45,166670,5,0,0:0:0:0:
318,89,166752,5,0,0:0:0:0:
278,149,166834,5,0,0:0:0:0:
323,211,166916,5,0,0:0:0:0:
254,268,166998,5,0,0:0:0:0:
441,233,167120,1,0,0:0:0:0:
441,233,167182,1,0,0:0:0:0:
441,233,167243,1,0,0:0:0:0:
323,332,167366,1,0,0:0:0:0:
208,185,167489,1,0,0:0:0:0:
128,315,167612,1,0,0:0:0:0:
128,315,167674,1,0,0:0:0:0:
128,315,167735,1,0,0:0:0:0:
42,203,167858,1,0,0:0:0:0:
26,305,167981,1,0,0:0:0:0:
26,305,168042,1,0,0:0:0:0:
26,305,168104,1,0,0:0:0:0:
127,226,168227,1,0,0:0:0:0:
22,203,168350,1,0,0:0:0:0:
102,111,168473,1,0,0:0:0:0:
6,122,168596,1,0,0:0:0:0:
72,26,168719,1,0,0:0:0:0:
7,48,168842,1,0,0:0:0:0:
7,48,168903,1,0,0:0:0:0:
7,48,168965,2,0,L|67:41,1,53.9999983520508,0|0,0:0|0:0,0:0:0:0:
26,305,169211,5,0,0:0:0:0:
26,305,169948,5,0,0:0:0:0:
122,197,170071,1,0,0:0:0:0:
122,197,170133,1,0,0:0:0:0:
122,197,170194,1,0,0:0:0:0:
160,333,170317,1,0,0:0:0:0:
241,187,170440,1,0,0:0:0:0:
294,338,170563,1,0,0:0:0:0:
294,338,170624,1,0,0:0:0:0:
294,338,170686,1,0,0:0:0:0:
337,176,170809,1,0,0:0:0:0:
427,313,170932,1,0,0:0:0:0:
427,313,170993,1,0,0:0:0:0:
427,313,171055,1,0,0:0:0:0:
314,252,171178,1,0,0:0:0:0:
465,225,171301,1,0,0:0:0:0:
336,161,171424,1,0,0:0:0:0:
457,122,171547,1,0,0:0:0:0:
360,79,171670,1,0,0:0:0:0:
431,41,171792,1,0,0:0:0:0:
431,41,171854,1,0,0:0:0:0:
431,41,171915,2,0,L|376:45,1,53.9999983520508,0|0,0:0|0:0,0:0:0:0:
133,27,172161,5,0,0:0:0:0:
143,40,172489,5,0,0:0:0:0:
129,72,172571,5,0,0:0:0:0:
156,122,172653,5,0,0:0:0:0:
117,192,172735,5,0,0:0:0:0:
164,263,172816,5,0,0:0:0:0:
116,343,172898,5,0,0:0:0:0:
29,261,173022,1,0,0:0:0:0:
29,261,173083,1,0,0:0:0:0:
29,261,173145,1,0,0:0:0:0:
117,192,173268,1,0,0:0:0:0:
16,135,173391,1,0,0:0:0:0:
60,34,173514,1,0,0:0:0:0:
60,34,173575,1,0,0:0:0:0:
60,34,173637,1,0,0:0:0:0:
131,110,173760,1,0,0:0:0:0:
229,15,173883,1,0,0:0:0:0:
229,15,173944,1,0,0:0:0:0:
229,15,174006,1,0,0:0:0:0:
251,169,174129,1,0,0:0:0:0:
359,34,174251,1,0,0:0:0:0:
331,182,174374,1,0,0:0:0:0:
457,123,174497,1,0,0:0:0:0:
357,269,174620,1,0,0:0:0:0:
469,264,174743,1,0,0:0:0:0:
469,264,174805,1,0,0:0:0:0:
469,264,174866,2,0,L|466:318,1,53.9999983520508,0|0,0:0|0:0,0:0:0:0:
446,32,175112,5,0,0:0:0:0:
446,32,175850,5,0,0:0:0:0:
354,115,175973,1,0,0:0:0:0:
354,115,176034,1,0,0:0:0:0:
354,115,176096,1,0,0:0:0:0:
276,13,176219,1,0,0:0:0:0:
233,119,176342,1,0,0:0:0:0:
165,24,176465,1,0,0:0:0:0:
165,24,176526,1,0,0:0:0:0:
165,24,176588,1,0,0:0:0:0:
141,125,176711,1,0,0:0:0:0:
87,33,176833,1,0,0:0:0:0:
87,33,176895,1,0,0:0:0:0:
87,33,176956,1,0,0:0:0:0:
23,115,177079,1,0,0:0:0:0:
141,125,177202,1,0,0:0:0:0:
51,232,177325,1,0,0:0:0:0:
215,206,177448,1,0,0:0:0:0:
137,337,177571,1,0,0:0:0:0:
313,272,177694,1,0,0:0:0:0:
313,272,177756,1,0,0:0:0:0:
313,272,177817,2,0,L|317:337,1,53.9999983520508,0|0,0:0|0:0,0:0:0:0:
141,125,178063,5,0,0:0:0:0:
154,115,178391,5,0,0:0:0:0:
186,129,178473,5,0,0:0:0:0:
236,102,178555,5,0,0:0:0:0:
306,141,178637,5,0,0:0:0:0:
377,94,178718,5,0,0:0:0:0:
457,142,178801,6,0,L|461:28,2,107.999996704102,0|0|0,0:0|0:0|0:0,0:0:0:0:
353,303,179538,6,0,P|400:282|476:289,2,125.999996154785
234,122,180276,6,0,B|236:167|228:189|192:187|185:222|194:261,2,144
64,300,181014,6,0,P|93:343|202:368,2,161.999995056153
273,38,181751,6,0,B|223:28|223:28|175:50|175:50|96:33,2,180
478,279,182489,6,0,B|453:243|456:207|491:170|491:170|492:143|472:115|472:115|467:90,2,198.000006042481
171,180,183227,6,0,B|201:153|240:152|240:152|267:167|301:167|301:167|339:147|380:143,2,215.999993408203
105,378,183965,6,0,B|94:321|94:321|166:228|166:228|154:171,2,233.999989288331
120,44,184702,5,0,0:0:0:0:
111,57,184948,5,0,0:0:0:0:
191,17,185071,1,0,0:0:0:0:
273,165,185194,1,0,0:0:0:0:
385,14,185317,1,0,0:0:0:0:
499,248,185440,5,0,0:0:0:0:
407,188,185563,1,0,0:0:0:0:
377,310,185686,1,0,0:0:0:0:
285,250,185809,1,0,0:0:0:0:
292,367,185932,6,0,P|261:372|232:373,1,58.4999973220826,0|0,0:0|0:0,0:0:0:0:
94,271,186055,2,0,P|125:276|154:277,1,58.4999973220826,0|0,0:0|0:0,0:0:0:0:
133,0,186178,6,0,P|98:50|94:150,1,144
377,310,186424,1,0,0:0:0:0:
0,302,186547,6,0,P|75:358|131:363,1,144,0|0,0:0|0:0,0:0:0:0:
434,94,186792,1,0,0:0:0:0:
243,377,186915,6,0,P|278:302|275:233,1,144,0|0,0:0|0:0,0:0:0:0:
0,28,187161,1,0,0:0:0:0:
174,303,187284,5,0,0:0:0:0:
351,198,187407,1,0,0:0:0:0:
265,12,187530,1,0,0:0:0:0:
297,80,187653,5,0,0:0:0:0:
151,222,207571,5,0,0:0:0:0:
135,198,207653,2,0,P|131:166|136:133,1,48
500,209,207817,5,0,0:0:0:0:
432,230,207898,5,0,0:0:0:0:
356,206,207980,5,0,0:0:0:0:
287,146,208062,5,0,0:0:0:0:
225,63,208144,5,0,0:0:0:0:
118,22,208226,5,0,0:0:0:0:
0,83,208308,6,0,L|3:156,1,62.9999980773926
43,355,208432,2,0,L|48:229,1,125.999996154785,0|0,0:0|0:0,0:0:0:0:
359,365,208678,2,0,B|306:386|244:379|254:295|194:289|131:311,1,251.999992309571,0|0,0:0|0:0,0:0:0:0:
328,236,209047,6,0,P|321:269|320:300,1,62.9999980773926,0|0,0:0|0:0,0:0:0:0:
507,201,209170,2,0,P|493:135|491:73,1,125.999996154785,0|0,0:0|0:0,0:0:0:0:
156,81,209415,2,0,B|217:101|217:101|336:50|336:50|394:66,1,251.999992309571,0|0,0:0|0:0,0:0:0:0:
142,293,209784,6,0,P|136:266|136:223,1,62.9999980773926,0|0,0:0|0:0,0:0:0:0:
498,341,209907,2,0,P|446:366|369:363,1,135.000005149842,0|0,0:0|0:0,0:0:0:0:
227,22,210153,2,0,B|243:118|243:118|238:133|238:133|268:305,1,270.000010299683,0|0,0:0|0:0,0:0:0:0:
16,105,210522,6,0,P|56:78|90:73,1,67.5000025749208,0|0,0:0|0:0,0:0:0:0:
258,309,210645,2,0,P|187:322|119:284,1,144,0|0,0:0|0:0,0:0:0:0:
386,24,210891,1,0,0:0:0:0:
455,357,211014,1,0,0:0:0:0:
458,284,211075,1,0,0:0:0:0:
462,212,211136,1,0,0:0:0:0:
465,139,211198,1,0,0:0:0:0:
469,67,211260,6,0,L|466:-10,1,72,0|0,0:0|0:0,0:0:0:0:
256,162,211383,2,0,B|239:232|239:232|272:298,1,144,0|0,0:0|0:0,0:0:0:0:
22,50,211629,2,0,B|150:93|150:93|260:52|260:52|295:64,1,288,0|0,0:0|0:0,0:0:0:0:
19,342,211997,6,0,L|12:262,1,72,0|0,0:0|0:0,0:0:0:0:
386,24,212120,2,0,L|372:176,1,153.000002918243,0|0,0:0|0:0,0:0:0:0:
127,268,212366,2,0,B|203:241|282:262|247:340|327:364|408:336,1,306.000005836487,0|0,0:0|0:0,0:0:0:0:
442,180,212674,1,0,0:0:0:0:
358,164,212734,2,0,L|278:171,1,76.5000014591217
0,11,212858,5,0,0:0:0:0:
76,17,212919,1,0,0:0:0:0:
152,24,212980,1,0,0:0:0:0:
229,31,213042,1,0,0:0:0:0:
305,37,213104,2,0,L|390:27,1,80.9999975280763,0|0,0:0|0:0,0:0:0:0:
92,348,213227,5,0,0:0:0:0:
29,299,213288,1,0,0:0:0:0:
22,221,213349,1,0,0:0:0:0:
73,161,213411,1,0,0:0:0:0:
152,158,213472,1,0,0:0:0:0:
209,212,213534,1,0,0:0:0:0:
208,291,213596,2,0,P|195:334|191:375,1,80.9999975280763,0|0,0:0|0:0,0:0:0:0:
389,288,213719,2,0,P|401:331|406:372,1,80.9999975280763,0|0,0:0|0:0,0:0:0:0:
167,168,213842,2,0,P|134:199|110:232,1,80.9999975280763,0|0,0:0|0:0,0:0:0:0:
442,180,213965,2,0,P|474:211|498:244,1,80.9999975280763,0|0,0:0|0:0,0:0:0:0:
180,46,214088,2,0,P|124:46|91:59,1,80.9999975280763,0|0,0:0|0:0,0:0:0:0:
450,94,214211,5,0,0:0:0:0:
383,51,214272,1,0,0:0:0:0:
306,68,214333,1,0,0:0:0:0:
263,134,214395,1,0,0:0:0:0:
280,211,214456,1,0,0:0:0:0:
297,288,214518,1,0,0:0:0:0:
254,354,214580,1,0,0:0:0:0:
177,371,214641,1,0,0:0:0:0:
111,329,214702,1,0,0:0:0:0:
99,250,214763,1,0,0:0:0:0:
145,187,214824,1,0,0:0:0:0:
191,124,214887,1,0,0:0:0:0:
180,46,214947,6,0,B|120:42|51:62|106:124|44:162|-32:143,1,251.999992309571
111,329,215317,2,0,P|163:311|238:336,1,125.999996154785,0|0,0:0|0:0,0:0:0:0:
172,30,215563,1,0,0:0:0:0:
375,356,215686,6,0,P|419:278|427:108,1,251.999992309571,0|0,0:0|0:0,0:0:0:0:
145,187,216055,2,0,P|203:212|274:214,1,125.999996154785,0|0,0:0|0:0,0:0:0:0:
484,15,216301,1,0,0:0:0:0:
484,15,216362,1,0,0:0:0:0:
484,15,216424,6,0,B|419:2|419:2|309:56|309:56|248:42,1,251.999992309571,0|0,0:0|0:0,0:0:0:0:
501,188,216731,1,0,0:0:0:0:
501,188,216793,2,0,B|436:175|436:175|326:229|326:229|265:215,1,251.999992309571,0|0,0:0|0:0,0:0:0:0:
2,370,217161,6,0,B|58:393|121:377|101:298|172:285|238:298,1,251.999992309571,0|0,0:0|0:0,0:0:0:0:
58,165,217530,2,0,P|40:130|68:50,1,125.999996154785,0|0,0:0|0:0,0:0:0:0:
257,222,217776,1,0,0:0:0:0:
451,12,217899,6,0,P|463:90|470:278,1,251.999992309571,0|0,0:0|0:0,0:0:0:0:
221,94,218268,2,0,P|244:47|310:24,1,125.999996154785,0|0,0:0|0:0,0:0:0:0:
477,275,218514,1,0,0:0:0:0:
254,195,218637,6,0,P|191:200|139:240,1,125.999996154785,0|0,0:0|0:0,0:0:0:0:
430,129,218883,2,0,P|457:71|448:6,1,125.999996154785,0|0,0:0|0:0,0:0:0:0:
389,307,219129,2,0,P|424:359|485:384,1,125.999996154785,0|0,0:0|0:0,0:0:0:0:
109,89,219374,6,0,L|235:73,1,125.999996154785,0|0,0:0|0:0,0:0:0:0:
490,287,219620,1,0,0:0:0:0:
334,140,219743,1,0,0:0:0:0:
198,312,219866,1,0,0:0:0:0:
42,165,219989,1,0,0:0:0:0:
295,6,220112,6,0,P|309:99|301:271,1,251.999992309571,0|0,0:0|0:0,0:0:0:0:
20,146,220481,2,0,P|16:83|24:20,1,125.999996154785,0|0,0:0|0:0,0:0:0:0:
209,285,220727,1,0,0:0:0:0:
281,3,220850,6,0,P|214:-8|125:134,1,251.999992309571,0|0,0:0|0:0,0:0:0:0:
439,186,221219,2,0,P|398:144|333:140,1,125.999996154785,0|0,0:0|0:0,0:0:0:0:
198,312,221465,1,0,0:0:0:0:
482,48,221588,6,0,B|540:114|540:114|511:284,1,251.999992309571,0|0,0:0|0:0,0:0:0:0:
235,139,221956,2,0,L|258:0,1,125.999996154785,0|0,0:0|0:0,0:0:0:0:
409,299,222202,1,0,0:0:0:0:
359,308,222264,1,0,0:0:0:0:
309,317,222325,6,0,L|28:284,1,251.999992309571,0|0,0:0|0:0,0:0:0:0:
326,215,222633,1,0,0:0:0:0:
276,224,222694,2,0,L|-5:191,1,251.999992309571,0|0,0:0|0:0,0:0:0:0:
450,9,223063,5,0,0:0:0:0:
455,58,223124,1,0,0:0:0:0:
460,108,223186,1,0,0:0:0:0:
464,157,223247,1,0,0:0:0:0:
468,206,223309,2,0,L|465:272,1,62.9999980773926,0|0,0:0|0:0,0:0:0:0:
142,125,223432,6,0,L|136:0,1,125.999996154785,0|0,0:0|0:0,0:0:0:0:
353,337,223678,5,0,0:0:0:0:
304,342,223739,1,0,0:0:0:0:
254,347,223801,1,0,0:0:0:0:
205,351,223862,1,0,0:0:0:0:
156,355,223924,2,0,L|90:352,1,62.9999980773926,0|0,0:0|0:0,0:0:0:0:
476,362,224047,1,0,0:0:0:0:
216,37,224170,6,0,P|96:23|27:121,1,251.999992309571,0|0,0:0|0:0,0:0:0:0:
489,201,224538,5,0,0:0:0:0:
5,222,224661,2,0,L|142:241,1,125.999996154785,0|0,0:0|0:0,0:0:0:0:
399,0,224907,6,0,B|414:53|390:111|324:104|305:171|321:240,1,251.999992309571,0|0,0:0|0:0,0:0:0:0:
138,24,225276,1,0,0:0:0:0:
452,306,225399,2,0,L|387:318,1,62.9999980773926,0|0,0:0|0:0,0:0:0:0:
19,160,225522,5,0,0:0:0:0:
127,219,225604,5,0,0:0:0:0:
219,166,225686,5,0,0:0:0:0:
301,211,225768,5,0,0:0:0:0:
371,171,225850,5,0,0:0:0:0:
425,204,225932,5,0,0:0:0:0:
496,131,226014,6,0,P|486:58|331:54,1,251.999992309571,0|0,0:0|0:0,0:0:0:0:
301,229,226383,1,0,0:0:0:0:
78,75,226506,1,0,0:0:0:0:
132,47,226567,1,0,0:0:0:0:
189,68,226628,1,0,0:0:0:0:
212,125,226690,1,0,0:0:0:0:
186,180,226751,6,0,P|176:247|173:312,1,125.999996154785,0|0,0:0|0:0,0:0:0:0:
496,131,226997,2,0,L|482:5,1,125.999996154785,0|0,0:0|0:0,0:0:0:0:
260,343,227243,1,0,0:0:0:0:
501,324,227366,1,0,0:0:0:0:
299,27,227489,6,0,L|287:163,1,125.999996154785,0|0,0:0|0:0,0:0:0:0:
422,369,227735,1,0,0:0:0:0:
482,5,227858,6,0,L|494:141,1,125.999996154785,0|0,0:0|0:0,0:0:0:0:
267,358,228104,1,0,0:0:0:0:
273,308,228165,1,0,0:0:0:0:
280,257,228227,6,0,P|199:209|86:295,1,251.999992309571,0|0,0:0|0:0,0:0:0:0:
222,181,228534,1,0,0:0:0:0:
270,162,228596,2,0,P|271:67|140:12,1,251.999992309571,0|0,0:0|0:0,0:0:0:0:
375,249,228965,6,0,L|504:264,1,125.999996154785,0|0,0:0|0:0,0:0:0:0:
40,150,229211,1,0,0:0:0:0:
373,29,229333,6,0,L|502:14,1,125.999996154785,0|0,0:0|0:0,0:0:0:0:
272,371,229579,1,0,0:0:0:0:
184,7,229702,5,0,0:0:0:0:
84,384,229825,2,0,L|72:246,1,125.999996154785,0|0,0:0|0:0,0:0:0:0:
400,142,230071,2,0,L|389:267,1,125.999996154785,0|0,0:0|0:0,0:0:0:0:
180,143,230317,1,0,0:0:0:0:
507,0,230440,5,0,0:0:0:0:
387,143,230563,1,0,0:0:0:0:
284,47,230686,1,0,0:0:0:0:
190,128,230809,1,0,0:0:0:0:
108,65,230932,1,0,0:0:0:0:
108,65,230993,1,0,0:0:0:0:
108,65,231055,1,0,0:0:0:0:
176,277,231178,6,0,L|307:301,1,125.999996154785,0|0,0:0|0:0,0:0:0:0:
123,48,231424,2,0,L|-8:72,1,125.999996154785,0|0,0:0|0:0,0:0:0:0:
372,379,231670,2,0,L|503:355,1,125.999996154785,0|0,0:0|0:0,0:0:0:0:
259,16,231915,6,0,B|241:66|242:140|331:122|348:185|340:243,1,251.999992309571,0|0,0:0|0:0,0:0:0:0:
97,298,232284,2,0,P|98:250|158:202,1,125.999996154785,0|0,0:0|0:0,0:0:0:0:
334,342,232530,1,0,0:0:0:0:
510,144,232653,6,0,B|426:104|426:104|266:156,1,251.999992309571,0|0,0:0|0:0,0:0:0:0:
123,79,233022,1,0,0:0:0:0:
236,318,233145,1,0,0:0:0:0:
273,9,233268,1,0,0:0:0:0:
0,279,233391,6,0,L|282:304,1,251.999992309571,0|0,0:0|0:0,0:0:0:0:
107,69,233760,2,0,P|58:98|45:165,1,125.999996154785,0|0,0:0|0:0,0:0:0:0:
278,22,234006,1,0,0:0:0:0:
429,348,234129,5,0,0:0:0:0:
406,16,234251,1,0,0:0:0:0:
400,66,234313,1,0,0:0:0:0:
395,115,234374,2,0,L|254:127,1,125.999996154785,0|0,0:0|0:0,0:0:0:0:
19,357,234620,2,0,L|160:369,1,125.999996154785,0|0,0:0|0:0,0:0:0:0:
106,35,234866,6,0,P|93:74|85:125,1,80.9999975280763
235,346,234989,2,0,P|209:268|193:166,1,161.999995056153,0|0,0:0|0:0,0:0:0:0:
508,281,235235,2,0,B|428:317|337:293|370:189|283:186|207:217,1,323.999990112305,0|0,0:0|0:0,0:0:0:0:
421,8,235604,6,0,L|510:18,1,80.9999975280763,0|0,0:0|0:0,0:0:0:0:
407,312,235727,2,0,L|229:332,1,161.999995056153,0|0,0:0|0:0,0:0:0:0:
122,23,235973,2,0,B|138:104|138:104|68:248|68:248|84:330,1,323.999990112305,0|0,0:0|0:0,0:0:0:0:
83,150,236280,1,0,0:0:0:0:
171,103,236342,6,0,P|224:95|259:103,1,80.9999975280763,0|0,0:0|0:0,0:0:0:0:
235,346,236465,2,0,P|184:284|199:199,1,161.999995056153,0|0,0:0|0:0,0:0:0:0:
512,102,236711,1,0,0:0:0:0:
484,176,236772,1,0,0:0:0:0:
416,217,236833,1,0,0:0:0:0:
338,206,236895,1,0,0:0:0:0:
284,148,236956,2,0,P|279:115|283:68,1,80.9999975280763,0|0,0:0|0:0,0:0:0:0:
0,233,237079,5,0,0:0:0:0:
66,212,237140,1,0,0:0:0:0:
136,211,237201,1,0,0:0:0:0:
200,237,237263,1,0,0:0:0:0:
253,282,237324,1,0,0:0:0:0:
307,326,237386,1,0,0:0:0:0:
372,351,237447,1,0,0:0:0:0:
442,348,237509,1,0,0:0:0:0:
507,324,237570,1,0,0:0:0:0:
121,28,237694,2,0,P|109:62|110:112,1,80.9999975280763,0|0,0:0|0:0,0:0:0:0:
485,84,237817,6,0,P|429:44|350:49,1,144,0|0,0:0|0:0,0:0:0:0:
177,364,238063,2,0,P|247:366|305:325,1,144
120,68,238309,1,0,0:0:0:0:
71,291,238432,1,0,0:0:0:0:
423,191,238555,6,0,L|107:212,1,288,0|0,0:0|0:0,0:0:0:0:
293,41,238924,2,0,P|321:69|328:174,1,144,0|0,0:0|0:0,0:0:0:0:
66,304,239170,1,0,0:0:0:0:
155,0,239292,6,0,L|481:23,1,288,0|0,0:0|0:0,0:0:0:0:
512,266,239661,2,0,L|349:277,1,144,0|0,0:0|0:0,0:0:0:0:
80,112,239907,1,0,0:0:0:0:
137,120,239969,1,0,0:0:0:0:
193,128,240030,6,0,B|253:89|338:108|338:108|389:170|465:173,1,288,0|0,0:0|0:0,0:0:0:0:
472,344,240338,1,0,0:0:0:0:
415,359,240400,2,0,B|352:360|314:328|314:328|266:341|238:370|238:370|186:376|147:353,1,288,0|0,0:0|0:0,0:0:0:0:
436,48,240768,6,0,P|545:140|504:272,1,288,0|0,0:0|0:0,0:0:0:0:
205,272,241137,2,0,P|257:224|334:222,1,144,0|0,0:0|0:0,0:0:0:0:
160,379,241383,1,0,0:0:0:0:
76,17,241506,6,0,P|46:108|42:319,1,288,0|0,0:0|0:0,0:0:0:0:
227,42,241874,2,0,P|164:12|89:35,1,144,0|0,0:0|0:0,0:0:0:0:
251,226,242120,1,0,0:0:0:0:
421,39,242243,6,0,B|391:107|409:169|500:154|520:232|489:307,1,288,0|0,0:0|0:0,0:0:0:0:
251,129,242612,2,0,L|408:134,1,144,0|0,0:0|0:0,0:0:0:0:
270,351,242858,1,0,0:0:0:0:
101,61,242981,6,0,P|62:140|141:234,1,216,0|0,0:0|0:0,0:0:0:0:
198,304,243227,6,0,P|159:225|238:131,1,216,0|0,0:0|0:0,0:0:0:0:
295,61,243473,6,0,P|256:140|278:201,1,144,0|0,0:0|0:0,0:0:0:0:
452,238,243657,1,0,0:0:0:0:
452,238,243719,6,0,B|392:206|329:227|336:318|270:335|196:303,1,288,0|0,0:0|0:0,0:0:0:0:
299,44,244088,2,0,P|350:59|395:145,1,144,0|0,0:0|0:0,0:0:0:0:
131,50,244333,1,0,0:0:0:0:
453,360,244456,6,0,P|479:281|460:72,1,288,0|0,0:0|0:0,0:0:0:0:
264,210,244825,2,0,P|252:280|269:350,1,144,0|0,0:0|0:0,0:0:0:0:
347,49,245071,1,0,0:0:0:0:
0,209,245194,6,0,B|82:192|82:192|214:242|214:242|279:226,1,288,0|0,0:0|0:0,0:0:0:0:
164,46,245563,2,0,P|126:89|114:176,1,144,0|0,0:0|0:0,0:0:0:0:
178,341,245809,1,0,0:0:0:0:
178,341,245870,1,0,0:0:0:0:
178,341,245932,6,0,B|171:265|171:265|290:194|290:194|283:117,1,288,0|0,0:0|0:0,0:0:0:0:
257,384,246239,1,0,0:0:0:0:
257,384,246301,6,0,B|250:308|250:308|369:237|369:237|362:160,1,288,0|0,0:0|0:0,0:0:0:0:
445,13,246670,6,0,P|460:53|459:91,1,72,0|0,0:0|0:0,0:0:0:0:
172,57,246792,2,0,L|320:50,1,144,0|0,0:0|0:0,0:0:0:0:
62,367,247038,2,0,B|46:274|46:274|91:180|91:180|74:86,1,288,0|0,0:0|0:0,0:0:0:0:
195,222,247407,6,0,P|223:236|264:242,1,72,0|0,0:0|0:0,0:0:0:0:
465,170,247530,2,0,P|407:195|378:273,1,144,0|0,0:0|0:0,0:0:0:0:
190,372,247776,2,0,B|260:381|260:381|326:340|326:340|473:362,1,288,0|0,0:0|0:0,0:0:0:0:
306,26,248145,6,0,P|288:63|285:98,1,72,0|0,0:0|0:0,0:0:0:0:
138,292,248268,2,0,P|120:255|117:220,1,72,0|0,0:0|0:0,0:0:0:0:
382,197,248391,2,0,P|329:252|262:256,1,144,0|0,0:0|0:0,0:0:0:0:
74,23,248637,2,0,P|144:30|191:82,1,144,0|0,0:0|0:0,0:0:0:0:
49,325,248883,6,0,L|46:174,1,144,0|0,0:0|0:0,0:0:0:0:
209,354,249129,1,0,0:0:0:0:
362,122,249251,1,0,0:0:0:0:
433,119,249312,1,0,0:0:0:0:
505,117,249373,1,0,0:0:0:0:
230,19,249497,1,0,0:0:0:0:
482,283,249620,6,0,B|413:245|337:258|362:367|287:372|224:341,1,288,0|0,0:0|0:0,0:0:0:0:
241,144,249989,2,0,P|277:181|278:271,1,144,0|0,0:0|0:0,0:0:0:0:
98,223,250235,1,0,0:0:0:0:
506,37,250358,6,0,P|400:25|182:56,1,288,0|0,0:0|0:0,0:0:0:0:
113,234,250727,2,0,P|142:168|124:102,1,144,0|0,0:0|0:0,0:0:0:0:
24,311,250973,1,0,0:0:0:0:
259,161,251096,6,0,B|314:86|314:86|296:283,1,288,0|0,0:0|0:0,0:0:0:0:
389,98,251465,2,0,P|369:32|302:10,1,144,0|0,0:0|0:0,0:0:0:0:
134,176,251711,1,0,0:0:0:0:
139,119,251772,1,0,0:0:0:0:
144,62,251833,6,0,B|176:195|176:195|156:241|156:241|182:339,1,288,0|0,0:0|0:0,0:0:0:0:
241,132,252141,1,0,0:0:0:0:
246,75,252202,2,0,B|278:208|278:208|258:254|258:254|284:352,1,288,0|0,0:0|0:0,0:0:0:0:
505,366,252571,6,0,P|439:304|275:383,1,288,0|0,0:0|0:0,0:0:0:0:
475,229,252940,2,0,P|487:183|430:106,1,144,0|0,0:0|0:0,0:0:0:0:
216,225,253186,1,0,0:0:0:0:
512,44,253309,6,0,B|432:27|432:27|295:75|295:75|234:61,1,288,0|0,0:0|0:0,0:0:0:0:
18,138,253678,2,0,P|7:185|73:251,1,144,0|0,0:0|0:0,0:0:0:0:
123,26,253924,1,0,0:0:0:0:
284,371,254047,6,0,P|320:272|334:89,1,288,0|0,0:0|0:0,0:0:0:0:
83,238,254415,2,0,P|86:309|108:378,1,144,0|0,0:0|0:0,0:0:0:0:
169,92,254661,1,0,0:0:0:0:
432,344,254784,6,0,P|446:241|431:122,1,216,0|0,0:0|0:0,0:0:0:0:
395,54,255030,6,0,P|409:160|396:267,1,216,0|0,0:0|0:0,0:0:0:0:
357,344,255276,6,0,P|367:271|358:199,1,144,0|0,0:0|0:0,0:0:0:0:
259,133,255461,1,0,0:0:0:0:
259,133,255522,6,0,B|222:106|193:68|193:68|219:178|211:280,1,288,0|0,0:0|0:0,0:0:0:0:
46,244,255891,2,0,P|54:193|127:141,1,144,0|0,0:0|0:0,0:0:0:0:
355,196,256137,1,0,0:0:0:0:
133,342,256260,6,0,B|222:363|222:363|343:317|343:317|415:331,1,288,0|0,0:0|0:0,0:0:0:0:
399,59,256629,2,0,P|351:110|349:194,1,144,0|0,0:0|0:0,0:0:0:0:
512,339,256874,1,0,0:0:0:0:
275,54,256997,6,0,B|220:25|157:31|157:31|125:65|78:69|78:69|45:39|0:30,1,288,0|0,0:0|0:0,0:0:0:0:
139,221,257366,2,0,P|162:161|142:87,1,144,0|0,0:0|0:0,0:0:0:0:
6,308,257612,1,0,0:0:0:0:
61,325,257674,1,0,0:0:0:0:
115,342,257735,6,0,B|204:308|204:308|264:328|264:328|391:282,1,288,0|0,0:0|0:0,0:0:0:0:
139,221,258042,1,0,0:0:0:0:
193,238,258104,2,0,B|282:204|282:204|342:224|342:224|469:178,1,288,0|0,0:0|0:0,0:0:0:0:
362,15,258473,6,0,P|338:55|336:88,1,72,0|0,0:0|0:0,0:0:0:0:
477,344,258596,2,0,P|491:289|466:197,1,144,0|0,0:0|0:0,0:0:0:0:
0,76,258842,2,0,B|72:107|143:94|114:6|191:-13|263:11,1,288,0|0,0:0|0:0,0:0:0:0:
59,237,259211,6,0,P|43:186|42:148,1,72,0|0,0:0|0:0,0:0:0:0:
211,241,259333,2,0,P|179:343|177:419,1,144,0|0,0:0|0:0,0:0:0:0:
510,144,259579,2,0,B|445:119|445:119|305:170|305:170|241:145,1,288,0|0,0:0|0:0,0:0:0:0:
392,232,259948,6,0,P|405:277|405:308,1,72,0|0,0:0|0:0,0:0:0:0:
153,132,260071,2,0,P|178:82|264:61,1,144,0|0,0:0|0:0,0:0:0:0:
300,361,260317,2,0,B|163:394|163:394|25:345,1,288,0|0,0:0|0:0,0:0:0:0:
361,54,260686,6,0,P|371:94|368:135,1,72,0|0,0:0|0:0,0:0:0:0:
213,353,260809,2,0,P|231:277|226:200,1,144,0|0,0:0|0:0,0:0:0:0:
426,210,261055,2,0,B|354:228|278:214|328:118|227:100|132:143,1,288
101,202,261362,1,0,0:0:0:0:
26,132,261424,6,0,L|31:50,1,72,0|0,0:0|0:0,0:0:0:0:
445,222,261547,2,0,L|456:388,1,161.999995056153,0|0,0:0|0:0,0:0:0:0:
239,0,261792,2,0,B|252:85|252:85|106:148|106:148|117:233,1,323.999990112305,0|0,0:0|0:0,0:0:0:0:
471,77,262161,6,0,L|389:69,1,80.9999975280763,0|0,0:0|0:0,0:0:0:0:
205,371,262284,2,0,L|369:355,1,161.999995056153,0|0,0:0|0:0,0:0:0:0:
35,17,262530,2,0,B|7:170|7:170|25:206|25:206|0:336,1,323.999990112305,0|0,0:0|0:0,0:0:0:0:
465,240,262899,6,0,P|483:196|484:145,1,80.9999975280763,0|0,0:0|0:0,0:0:0:0:
43,314,263022,2,0,B|66:350|111:363|111:363|158:358|194:370|221:373,1,180,0|0,0:0|0:0,0:0:0:0:
279,9,263268,2,0,B|254:52|293:132|293:132|361:154|371:218|371:218|347:253|341:294|341:294|347:324,1,360,0|0,0:0|0:0,0:0:0:0:
168,246,263575,1,0,0:0:0:0:
114,149,263637,6,0,B|106:112|111:91|111:91|114:69|111:36,1,90,0|0,0:0|0:0,0:0:0:0:
486,79,263760,2,0,B|450:98|411:85|411:85|374:88|352:108|352:108|326:117|288:114,1,180,0|0,0:0|0:0,0:0:0:0:
237,368,264006,2,0,B|217:340|219:305|219:305|242:278|248:248|240:213|240:213|214:185|211:138|211:138|245:104|243:71|243:71|230:28,1,360,0|0,0:0|0:0,0:0:0:0:
439,384,264374,5,0,0:0:0:0:
256,192,264436,12,0,270276,0:0:0:0:
