osu file format v14

[General]
AudioFilename: audio.mp3
AudioLeadIn: 0
PreviewTime: 64295
Countdown: 1
SampleSet: Normal
StackLeniency: 0.7
Mode: 1
LetterboxInBreaks: 0
WidescreenStoryboard: 0

[Editor]
Bookmarks: 935,145895,187175,240803
DistanceSpacing: 0.8
BeatDivisor: 4
GridSize: 16
TimelineZoom: 3.649998

[Metadata]
Title:Shakunetsu Candle Master
TitleUnicode:灼熱 キャンドルマスター ともしぃ
Artist:Camellia feat. Nanahira
ArtistUnicode:Camellia feat. Nanahira
Creator:Bastian
Version:Collab
Source:
Tags:Replay Album Electronic
BeatmapID:1893809
BeatmapSetID:907571

[Difficulty]
HPDrainRate:4.5
CircleSize:5
OverallDifficulty:8
ApproachRate:5
SliderMultiplier:1.4
SliderTickRate:1

[Events]
//Background and Video events
0,0,"fb8433864e7b30cbbf00770787270c5c.jpg",0,0
//Break Periods
2,94255,99575
2,115375,120695
2,187375,192695
//Storyboard Layer 0 (Background)
//Storyboard Layer 1 (Fail)
//Storyboard Layer 2 (Pass)
//Storyboard Layer 3 (Foreground)
//Storyboard Sound Samples

[TimingPoints]
935,240,4,1,0,100,1,0
29855,-105.263157894737,4,1,0,100,0,0
29975,-111.111111111111,4,1,0,100,0,0
30095,-117.647058823529,4,1,0,100,0,0
30215,-125,4,1,0,100,0,0
30335,-133.333333333333,4,1,0,100,0,0
30455,-142.857142857143,4,1,0,100,0,0
30575,-100,4,1,0,100,0,0
31055,-90.9090909090909,4,1,0,100,0,0
31175,-83.3333333333333,4,1,0,100,0,0
31295,-76.9230769230769,4,1,0,100,0,0
31415,-71.4285714285714,4,1,0,100,0,0
31655,-100,4,1,0,100,0,0
64295,-90.9090909090909,4,1,0,100,0,1
71975,-76.9230769230769,4,1,0,100,0,0
75455,-111.111111111111,4,1,0,100,0,0
75815,-90.9090909090909,4,1,0,100,0,1
85295,-83.3333333333333,4,1,0,100,0,1
85415,-76.9230769230769,4,1,0,100,0,1
92375,-125,4,1,0,100,0,1
92495,-71.4285714285714,4,1,0,100,0,1
94055,-71.4285714285714,4,1,0,100,0,0
94175,-100,4,1,0,100,0,0
113375,-105.263157894737,4,1,0,100,0,0
113495,-111.111111111111,4,1,0,100,0,0
113615,-117.647058823529,4,1,0,100,0,0
113735,-125,4,1,0,100,0,0
113855,-133.333333333333,4,1,0,100,0,0
113975,-142.857142857143,4,1,0,100,0,0
114095,-100,4,1,0,100,0,0
114575,-90.9090909090909,4,1,0,100,0,0
114695,-83.3333333333333,4,1,0,100,0,0
114815,-76.9230769230769,4,1,0,100,0,0
114935,-71.4285714285714,4,1,0,100,0,0
115175,-66.6666666666667,4,1,0,100,0,0
121895,-100,4,1,0,100,0,0
145895,-90.9090909090909,4,1,0,100,0,0
155495,-125,4,1,0,100,0,0
155975,-111.111111111111,4,1,0,100,0,0
156455,-100,4,1,0,100,0,0
157415,-90.9090909090909,4,1,0,100,0,1
165095,-76.9230769230769,4,1,0,100,0,1
168575,-111.111111111111,4,1,0,100,0,1
168935,-90.9090909090909,4,1,0,100,0,1
178415,-83.3333333333333,4,1,0,100,0,1
178535,-76.9230769230769,4,1,0,100,0,1
185255,-125,4,1,0,100,0,1
185615,-71.4285714285714,4,1,0,100,0,1
187175,-71.4285714285714,4,1,0,100,0,0
187295,-125,4,1,0,100,0,0
193895,-100,4,1,0,100,0,0
203015,-111.111111111111,4,1,0,100,0,0
203495,-90.9090909090909,4,1,0,100,0,0
204455,-125,4,1,0,100,0,0
205055,-76.9230769230769,4,1,0,100,0,0
205415,-125,4,1,0,100,0,0
206015,-76.9230769230769,4,1,0,100,0,0
208535,-125,4,1,0,100,0,0
209855,-117.647058823529,4,1,0,100,0,0
209975,-111.111111111111,4,1,0,100,0,0
210095,-105.263157894737,4,1,0,100,0,0
210215,-100,4,1,0,100,0,0
212135,-76.9230769230769,4,1,0,100,0,0
215615,-111.111111111111,4,1,0,100,0,0
215975,-25,4,1,0,100,0,0
216215,-90.9090909090909,4,1,0,100,0,1
225455,-83.3333333333333,4,1,0,100,0,1
225575,-76.9230769230769,4,1,0,100,0,1
236135,-125,4,1,0,100,0,1
236615,269.058295964126,4,1,0,100,1,1
236615,-66.6666666666667,4,1,0,100,0,1
239843,240,4,1,0,100,1,0
239843,-74.0740740740741,4,1,0,100,0,0
240083,-125,4,1,0,100,0,0
240323,-111.111111111111,4,1,0,100,0,0
240443,-105.263157894737,4,1,0,100,0,0
240563,-100,4,1,0,100,0,0
240683,-95.2380952380952,4,1,0,100,0,0
240803,-90.9090909090909,4,1,0,100,0,0
248483,-83.3333333333333,4,1,0,100,0,0
252323,-71.4285714285714,4,1,0,100,0,0

[HitObjects]
265,155,15575,5,12,0:0:0:0:
363,99,15815,1,4,0:0:0:0:
363,99,15995,1,4,0:0:0:0:
133,159,16235,1,12,0:0:0:0:
256,192,16295,12,0,17255,0:0:0:0:
235,90,17495,5,0,0:0:0:0:
263,163,17735,1,8,0:0:0:0:
86,119,17795,1,0,0:0:0:0:
86,119,17855,1,8,0:0:0:0:
86,119,17915,1,0,0:0:0:0:
86,119,17975,1,8,0:0:0:0:
477,284,18035,1,0,0:0:0:0:
322,110,18095,1,8,0:0:0:0:
107,254,18215,5,12,0:0:0:0:
208,229,18335,1,0,0:0:0:0:
340,46,18395,1,0,0:0:0:0:
228,97,18455,1,8,0:0:0:0:
228,97,18575,1,0,0:0:0:0:
228,97,18695,1,8,0:0:0:0:
228,97,18755,1,0,0:0:0:0:
228,97,18815,1,0,0:0:0:0:
228,97,18875,1,0,0:0:0:0:
217,94,18935,1,8,0:0:0:0:
247,207,19055,1,0,0:0:0:0:
324,78,19175,1,8,0:0:0:0:
324,78,19235,1,0,0:0:0:0:
324,78,19295,1,8,0:0:0:0:
414,144,19415,1,0,0:0:0:0:
414,144,19535,1,8,0:0:0:0:
414,144,19655,1,8,0:0:0:0:
100,117,19715,1,8,0:0:0:0:
414,144,19775,1,0,0:0:0:0:
198,281,19835,1,0,0:0:0:0:
120,175,19895,1,8,0:0:0:0:
257,158,20015,5,0,0:0:0:0:
257,158,20075,1,0,0:0:0:0:
257,158,20135,1,8,0:0:0:0:
354,288,20255,1,8,0:0:0:0:
179,66,20375,1,0,0:0:0:0:
297,62,20435,1,0,0:0:0:0:
179,66,20495,1,8,0:0:0:0:
207,48,20615,1,8,0:0:0:0:
207,48,20675,1,0,0:0:0:0:
166,187,20735,1,0,0:0:0:0:
99,97,20795,1,0,0:0:0:0:
246,286,20855,1,8,0:0:0:0:
384,152,20975,1,0,0:0:0:0:
384,152,21035,1,0,0:0:0:0:
384,152,21095,1,8,0:0:0:0:
300,167,21215,1,8,0:0:0:0:
284,95,21275,1,0,0:0:0:0:
284,95,21335,1,0,0:0:0:0:
284,95,21455,1,12,0:0:0:0:
148,184,21575,1,8,0:0:0:0:
148,184,21635,1,8,0:0:0:0:
148,184,21695,1,0,0:0:0:0:
148,184,21755,1,0,0:0:0:0:
148,184,21815,1,8,0:0:0:0:
385,166,21935,5,0,0:0:0:0:
385,166,21995,1,0,0:0:0:0:
385,166,22055,1,8,0:0:0:0:
279,114,22175,1,8,0:0:0:0:
181,97,22295,1,0,0:0:0:0:
181,97,22355,1,0,0:0:0:0:
181,97,22415,1,8,0:0:0:0:
181,97,22535,1,8,0:0:0:0:
306,36,22595,1,8,0:0:0:0:
165,245,22655,1,0,0:0:0:0:
165,245,22715,1,0,0:0:0:0:
248,274,22775,1,8,0:0:0:0:
397,141,22895,1,0,0:0:0:0:
291,152,23015,1,0,0:0:0:0:
291,152,23075,1,0,0:0:0:0:
291,152,23135,1,8,0:0:0:0:
70,140,23255,1,0,0:0:0:0:
208,96,23375,1,8,0:0:0:0:
208,96,23435,1,0,0:0:0:0:
208,96,23495,1,8,0:0:0:0:
208,96,23615,1,0,0:0:0:0:
359,19,23735,1,8,0:0:0:0:
1,252,23795,1,0,0:0:0:0:
30,265,23855,1,0,0:0:0:0:
354,220,23975,5,8,0:0:0:0:
354,220,24035,1,0,0:0:0:0:
354,220,24095,1,8,0:0:0:0:
354,220,24155,1,0,0:0:0:0:
354,220,24215,1,8,0:0:0:0:
247,183,24275,1,0,0:0:0:0:
247,183,24335,1,8,0:0:0:0:
328,144,24455,1,8,0:0:0:0:
328,144,24635,1,0,0:0:0:0:
328,144,24815,1,0,0:0:0:0:
118,113,24935,1,12,0:0:0:0:
219,122,25175,1,12,0:0:0:0:
209,234,25415,1,12,0:0:0:0:
483,117,25655,1,8,0:0:0:0:
449,125,25695,1,8,0:0:0:0:
430,137,25735,1,8,0:0:0:0:
392,138,25775,1,8,0:0:0:0:
127,138,25895,5,4,0:0:0:0:
208,229,26015,1,0,0:0:0:0:
340,46,26075,1,0,0:0:0:0:
228,97,26135,1,8,0:0:0:0:
228,97,26255,1,0,0:0:0:0:
228,97,26375,1,8,0:0:0:0:
228,97,26435,1,0,0:0:0:0:
228,97,26495,1,0,0:0:0:0:
228,97,26555,1,0,0:0:0:0:
217,94,26615,1,8,0:0:0:0:
247,207,26735,1,0,0:0:0:0:
324,78,26855,1,8,0:0:0:0:
324,78,26915,1,0,0:0:0:0:
324,78,26975,1,8,0:0:0:0:
414,144,27095,1,0,0:0:0:0:
414,144,27215,1,8,0:0:0:0:
414,144,27335,1,8,0:0:0:0:
100,117,27395,1,8,0:0:0:0:
414,144,27455,1,0,0:0:0:0:
198,281,27515,1,0,0:0:0:0:
120,175,27575,1,8,0:0:0:0:
257,158,27695,5,0,0:0:0:0:
257,158,27755,1,0,0:0:0:0:
257,158,27815,1,8,0:0:0:0:
354,288,27935,1,8,0:0:0:0:
179,66,28055,1,0,0:0:0:0:
297,62,28115,1,0,0:0:0:0:
179,66,28175,1,8,0:0:0:0:
207,48,28295,1,8,0:0:0:0:
207,48,28355,1,0,0:0:0:0:
166,187,28415,1,0,0:0:0:0:
99,97,28475,1,0,0:0:0:0:
246,286,28535,1,8,0:0:0:0:
384,152,28655,1,0,0:0:0:0:
384,152,28715,1,0,0:0:0:0:
384,152,28775,1,8,0:0:0:0:
300,167,28895,1,8,0:0:0:0:
284,95,28955,1,0,0:0:0:0:
284,95,29015,1,0,0:0:0:0:
284,95,29135,1,12,0:0:0:0:
148,184,29255,1,8,0:0:0:0:
148,184,29315,1,8,0:0:0:0:
148,184,29375,1,0,0:0:0:0:
148,184,29435,1,0,0:0:0:0:
148,184,29495,1,8,0:0:0:0:
385,166,29615,5,0,0:0:0:0:
385,166,29675,1,0,0:0:0:0:
385,166,29735,1,8,0:0:0:0:
276,61,29855,1,0,0:0:0:0:
251,98,29975,1,8,0:0:0:0:
202,136,30095,1,0,0:0:0:0:
297,288,30215,1,8,0:0:0:0:
297,288,30335,1,0,0:0:0:0:
297,288,30455,1,0,0:0:0:0:
76,121,30575,1,12,0:0:0:0:
180,182,30695,1,0,0:0:0:0:
180,182,30815,1,0,0:0:0:0:
354,106,30935,1,12,0:0:0:0:
234,111,31055,1,8,0:0:0:0:
234,111,31175,1,8,0:0:0:0:
234,111,31295,1,8,0:0:0:0:
234,111,31415,1,8,0:0:0:0:
122,229,31655,5,4,0:0:0:0:
423,254,31775,1,0,0:0:0:0:
423,254,31835,1,0,0:0:0:0:
423,254,31895,1,8,0:0:0:0:
305,237,32015,1,0,0:0:0:0:
372,121,32135,1,8,0:0:0:0:
372,121,32195,1,0,0:0:0:0:
372,121,32255,1,8,0:0:0:0:
372,121,32375,1,0,0:0:0:0:
219,129,32435,1,0,0:0:0:0:
219,129,32495,1,8,0:0:0:0:
219,129,32615,1,8,0:0:0:0:
239,47,32675,1,0,0:0:0:0:
239,47,32735,1,0,0:0:0:0:
239,47,32795,1,0,0:0:0:0:
239,47,32855,1,8,0:0:0:0:
309,247,32975,1,0,0:0:0:0:
309,247,33095,1,0,0:0:0:0:
322,67,33155,1,0,0:0:0:0:
322,67,33215,1,0,0:0:0:0:
155,205,33335,1,0,0:0:0:0:
252,144,33455,1,0,0:0:0:0:
252,144,33575,5,8,0:0:0:0:
99,83,33635,1,0,0:0:0:0:
99,83,33695,1,8,0:0:0:0:
137,97,33815,1,8,0:0:0:0:
137,97,33875,1,8,0:0:0:0:
137,97,33935,1,0,0:0:0:0:
121,67,33995,1,0,0:0:0:0:
329,155,34055,1,8,0:0:0:0:
329,155,34175,1,0,0:0:0:0:
299,46,34235,1,0,0:0:0:0:
95,260,34295,1,0,0:0:0:0:
95,260,34355,1,0,0:0:0:0:
294,48,34415,1,8,0:0:0:0:
225,129,34535,1,0,0:0:0:0:
225,129,34655,1,8,0:0:0:0:
62,130,34715,1,0,0:0:0:0:
277,272,34775,1,8,0:0:0:0:
426,125,34895,1,0,0:0:0:0:
426,125,35015,1,0,0:0:0:0:
426,125,35075,1,0,0:0:0:0:
426,125,35135,1,0,0:0:0:0:
351,62,35255,1,0,0:0:0:0:
351,62,35375,1,0,0:0:0:0:
173,148,35495,5,8,0:0:0:0:
173,148,35555,1,0,0:0:0:0:
173,148,35615,1,0,0:0:0:0:
173,148,35675,1,0,0:0:0:0:
173,148,35735,1,8,0:0:0:0:
199,101,35855,1,0,0:0:0:0:
213,101,35915,1,0,0:0:0:0:
213,101,35975,1,8,0:0:0:0:
316,229,36095,1,8,0:0:0:0:
349,72,36215,1,0,0:0:0:0:
349,72,36335,1,8,0:0:0:0:
244,50,36395,1,0,0:0:0:0:
244,50,36455,1,0,0:0:0:0:
244,50,36515,1,0,0:0:0:0:
244,50,36575,1,0,0:0:0:0:
243,220,36695,1,8,0:0:0:0:
168,96,36755,1,0,0:0:0:0:
168,96,36815,1,0,0:0:0:0:
352,114,36935,1,8,0:0:0:0:
352,114,36995,1,8,0:0:0:0:
352,114,37055,1,0,0:0:0:0:
352,114,37115,1,0,0:0:0:0:
352,114,37175,1,8,0:0:0:0:
235,172,37295,5,0,0:0:0:0:
325,271,37355,1,0,0:0:0:0:
235,172,37415,1,8,0:0:0:0:
264,72,37535,1,0,0:0:0:0:
264,72,37655,1,0,0:0:0:0:
140,104,37775,1,8,0:0:0:0:
218,77,37835,1,8,0:0:0:0:
336,164,37895,1,0,0:0:0:0:
460,107,38015,1,8,0:0:0:0:
172,231,38075,1,0,0:0:0:0:
349,65,38135,1,0,0:0:0:0:
417,250,38195,1,0,0:0:0:0:
417,250,38255,1,8,0:0:0:0:
417,250,38375,1,0,0:0:0:0:
76,140,38615,1,0,0:0:0:0:
252,139,38855,1,0,0:0:0:0:
252,139,39095,1,0,0:0:0:0:
267,266,39335,5,12,0:0:0:0:
140,159,39455,1,8,0:0:0:0:
140,159,39515,1,0,0:0:0:0:
382,232,39575,1,8,0:0:0:0:
382,101,39695,1,8,0:0:0:0:
231,137,39755,1,0,0:0:0:0:
227,51,39815,1,0,0:0:0:0:
146,110,39875,1,0,0:0:0:0:
227,51,39935,1,8,0:0:0:0:
227,51,40055,1,0,0:0:0:0:
349,45,40175,1,8,0:0:0:0:
349,45,40235,1,0,0:0:0:0:
349,45,40295,1,0,0:0:0:0:
114,192,40415,1,0,0:0:0:0:
349,45,40535,1,8,0:0:0:0:
396,235,40655,1,0,0:0:0:0:
396,235,40775,1,0,0:0:0:0:
396,235,40835,1,0,0:0:0:0:
245,142,40895,1,0,0:0:0:0:
245,142,41015,1,0,0:0:0:0:
198,91,41135,1,0,0:0:0:0:
207,172,41255,5,8,0:0:0:0:
207,172,41315,1,8,0:0:0:0:
207,172,41375,1,0,0:0:0:0:
327,30,41435,1,0,0:0:0:0:
327,30,41495,1,8,0:0:0:0:
489,137,41615,1,0,0:0:0:0:
406,138,41735,1,8,0:0:0:0:
285,96,41795,1,0,0:0:0:0:
349,251,41855,1,8,0:0:0:0:
125,80,41975,1,0,0:0:0:0:
244,41,42095,1,8,0:0:0:0:
244,41,42155,1,0,0:0:0:0:
244,41,42215,1,0,0:0:0:0:
196,61,42275,1,0,0:0:0:0:
196,61,42335,1,8,0:0:0:0:
132,222,42455,1,8,0:0:0:0:
293,184,42575,1,0,0:0:0:0:
252,184,42695,1,0,0:0:0:0:
252,184,42755,1,0,0:0:0:0:
252,184,42815,1,0,0:0:0:0:
343,73,42935,1,8,0:0:0:0:
343,73,42995,1,0,0:0:0:0:
343,73,43055,1,8,0:0:0:0:
343,73,43175,5,8,0:0:0:0:
176,71,43295,1,0,0:0:0:0:
122,100,43355,1,0,0:0:0:0:
211,88,43415,1,0,0:0:0:0:
211,88,43535,1,8,0:0:0:0:
5,100,43655,1,0,0:0:0:0:
331,228,43775,1,8,0:0:0:0:
331,228,43835,1,0,0:0:0:0:
331,228,43895,1,0,0:0:0:0:
104,211,43955,1,0,0:0:0:0:
122,210,44015,1,8,0:0:0:0:
115,176,44135,1,0,0:0:0:0:
213,176,44255,1,8,0:0:0:0:
213,176,44315,1,0,0:0:0:0:
213,176,44375,1,8,0:0:0:0:
322,134,44495,1,8,0:0:0:0:
322,134,44555,1,8,0:0:0:0:
322,134,44615,1,0,0:0:0:0:
274,96,44735,1,8,0:0:0:0:
274,96,44795,1,0,0:0:0:0:
274,96,44855,1,0,0:0:0:0:
271,66,44975,5,8,0:0:0:0:
383,43,45035,1,8,0:0:0:0:
383,43,45095,1,0,0:0:0:0:
383,43,45155,1,0,0:0:0:0:
383,43,45215,1,8,0:0:0:0:
137,113,45335,1,8,0:0:0:0:
278,148,45455,1,0,0:0:0:0:
278,148,45575,1,0,0:0:0:0:
224,52,45635,1,0,0:0:0:0:
224,52,45695,1,0,0:0:0:0:
139,67,45755,1,0,0:0:0:0:
225,245,45815,1,8,0:0:0:0:
225,245,45935,1,0,0:0:0:0:
329,104,46055,1,0,0:0:0:0:
329,104,46175,1,8,0:0:0:0:
329,104,46295,1,8,0:0:0:0:
331,154,46415,1,8,0:0:0:0:
123,197,46535,1,0,0:0:0:0:
123,197,46575,1,0,0:0:0:0:
123,197,46615,1,0,0:0:0:0:
85,192,46655,1,0,0:0:0:0:
192,91,46775,1,8,0:0:0:0:
192,91,46815,1,8,0:0:0:0:
192,91,46855,1,8,0:0:0:0:
287,182,46895,1,8,0:0:0:0:
69,77,47015,5,4,0:0:0:0:
339,82,47135,1,0,0:0:0:0:
339,82,47195,1,0,0:0:0:0:
339,82,47255,1,8,0:0:0:0:
213,250,47375,1,0,0:0:0:0:
245,66,47495,1,8,0:0:0:0:
245,66,47555,1,0,0:0:0:0:
245,66,47615,1,0,0:0:0:0:
245,66,47675,1,0,0:0:0:0:
245,66,47735,1,8,0:0:0:0:
345,94,47855,1,0,0:0:0:0:
206,117,47975,1,8,0:0:0:0:
312,138,48035,1,8,0:0:0:0:
312,138,48095,1,0,0:0:0:0:
312,138,48155,1,0,0:0:0:0:
312,138,48215,1,8,0:0:0:0:
373,61,48335,1,8,0:0:0:0:
373,61,48395,1,8,0:0:0:0:
373,61,48455,1,0,0:0:0:0:
262,86,48575,1,8,0:0:0:0:
262,86,48695,1,0,0:0:0:0:
262,86,48815,1,8,0:0:0:0:
449,168,49175,1,12,0:0:0:0:
449,168,49415,1,12,0:0:0:0:
338,61,49895,1,12,0:0:0:0:
277,115,50255,1,4,0:0:0:0:
277,115,50615,1,12,0:0:0:0:
186,184,50855,5,4,0:0:0:0:
334,63,50975,1,0,0:0:0:0:
198,41,51035,1,0,0:0:0:0:
198,41,51095,1,8,0:0:0:0:
198,41,51215,1,0,0:0:0:0:
283,37,51335,1,8,0:0:0:0:
297,143,51395,1,0,0:0:0:0:
297,143,51455,1,0,0:0:0:0:
297,143,51515,1,0,0:0:0:0:
297,143,51575,1,8,0:0:0:0:
121,187,51695,1,0,0:0:0:0:
203,140,51815,1,8,0:0:0:0:
361,13,51875,1,8,0:0:0:0:
372,21,51935,1,0,0:0:0:0:
237,117,52055,1,0,0:0:0:0:
237,117,52175,1,8,0:0:0:0:
237,117,52235,1,8,0:0:0:0:
237,117,52295,1,0,0:0:0:0:
297,85,52415,1,8,0:0:0:0:
297,85,52475,1,8,0:0:0:0:
297,85,52535,1,0,0:0:0:0:
297,85,52595,1,0,0:0:0:0:
297,85,52655,1,8,0:0:0:0:
152,136,53015,1,12,0:0:0:0:
256,118,53255,1,12,0:0:0:0:
312,85,53735,1,12,0:0:0:0:
207,90,53915,1,0,0:0:0:0:
207,90,54095,1,0,0:0:0:0:
207,90,54215,1,12,0:0:0:0:
267,67,54395,1,0,0:0:0:0:
267,67,54575,1,0,0:0:0:0:
161,144,54695,5,12,0:0:0:0:
161,144,55175,1,0,0:0:0:0:
161,144,55655,1,12,0:0:0:0:
161,144,56135,1,8,0:0:0:0:
161,144,56195,1,0,0:0:0:0:
161,144,56255,1,8,0:0:0:0:
161,144,56315,1,0,0:0:0:0:
161,144,56375,1,8,0:0:0:0:
182,131,56615,5,12,0:0:0:0:
182,132,57095,1,0,0:0:0:0:
182,132,57575,1,12,0:0:0:0:
182,132,58055,1,8,0:0:0:0:
172,137,58115,1,0,0:0:0:0:
182,132,58175,1,8,0:0:0:0:
173,137,58235,1,0,0:0:0:0:
174,134,58295,1,8,0:0:0:0:
173,137,58535,5,12,0:0:0:0:
174,144,58775,1,0,0:0:0:0:
176,147,59015,1,12,0:0:0:0:
180,146,59255,1,0,0:0:0:0:
179,148,59495,1,12,0:0:0:0:
176,147,59735,1,0,0:0:0:0:
180,146,59975,1,8,0:0:0:0:
180,146,60035,1,0,0:0:0:0:
179,148,60095,1,8,0:0:0:0:
177,158,60155,1,0,0:0:0:0:
179,148,60215,1,8,0:0:0:0:
180,152,60455,5,12,0:0:0:0:
177,158,60575,1,0,0:0:0:0:
177,158,60695,1,12,0:0:0:0:
177,158,60815,1,0,0:0:0:0:
177,158,60935,1,12,0:0:0:0:
177,158,61055,1,0,0:0:0:0:
177,158,61175,1,12,0:0:0:0:
177,158,61295,1,0,0:0:0:0:
177,158,61415,5,8,0:0:0:0:
167,59,61475,1,0,0:0:0:0:
167,59,61535,1,8,0:0:0:0:
158,72,61595,1,0,0:0:0:0:
167,59,61655,1,8,0:0:0:0:
158,72,61715,1,0,0:0:0:0:
167,59,61775,1,8,0:0:0:0:
158,72,61835,1,0,0:0:0:0:
167,59,61895,1,8,0:0:0:0:
158,72,61955,1,0,0:0:0:0:
167,59,62015,1,8,0:0:0:0:
160,72,62075,1,0,0:0:0:0:
161,70,62135,1,8,0:0:0:0:
160,72,62195,1,0,0:0:0:0:
161,70,62255,1,8,0:0:0:0:
173,82,62375,5,0,0:0:0:0:
173,82,62495,1,0,0:0:0:0:
173,82,62615,1,8,0:0:0:0:
180,78,62855,1,8,0:0:0:0:
180,78,62975,1,0,0:0:0:0:
180,78,63095,1,8,0:0:0:0:
188,78,63335,1,8,0:0:0:0:
189,79,63455,1,0,0:0:0:0:
190,78,63515,1,0,0:0:0:0:
187,82,63575,1,8,0:0:0:0:
187,82,63695,1,0,0:0:0:0:
187,82,63815,1,8,0:0:0:0:
187,82,63935,1,0,0:0:0:0:
188,82,64055,1,8,0:0:0:0:
413,90,64115,1,0,0:0:0:0:
391,106,64175,1,0,0:0:0:0:
206,181,64295,5,4,0:0:0:0:
176,202,64415,1,8,0:0:0:0:
163,63,64475,1,0,0:0:0:0:
176,202,64535,1,8,0:0:0:0:
176,202,64655,1,8,0:0:0:0:
176,202,64715,1,0,0:0:0:0:
176,202,64775,1,0,0:0:0:0:
140,103,64835,1,0,0:0:0:0:
140,103,64895,1,8,0:0:0:0:
140,103,65015,1,8,0:0:0:0:
135,74,65135,1,0,0:0:0:0:
135,74,65255,1,8,0:0:0:0:
135,74,65315,1,0,0:0:0:0:
135,74,65375,1,8,0:0:0:0:
135,74,65495,1,0,0:0:0:0:
144,67,65615,1,8,0:0:0:0:
115,56,65675,1,0,0:0:0:0:
135,74,65735,1,0,0:0:0:0:
135,74,65795,1,0,0:0:0:0:
142,79,65855,1,8,0:0:0:0:
142,79,65975,1,8,0:0:0:0:
142,79,66095,1,0,0:0:0:0:
144,76,66215,5,0,0:0:0:0:
158,77,66335,1,0,0:0:0:0:
159,77,66395,1,0,0:0:0:0:
157,75,66455,1,8,0:0:0:0:
160,80,66575,1,0,0:0:0:0:
161,82,66695,1,8,0:0:0:0:
161,82,66755,1,8,0:0:0:0:
160,80,66815,1,0,0:0:0:0:
161,82,66875,1,0,0:0:0:0:
160,80,66935,1,8,0:0:0:0:
161,83,67055,1,0,0:0:0:0:
161,83,67175,1,8,0:0:0:0:
164,74,67235,1,8,0:0:0:0:
164,74,67295,1,0,0:0:0:0:
161,82,67415,1,8,0:0:0:0:
161,82,67535,1,8,0:0:0:0:
160,80,67595,1,0,0:0:0:0:
161,82,67655,1,0,0:0:0:0:
161,83,67775,1,8,0:0:0:0:
161,83,67895,1,8,0:0:0:0:
226,231,67955,1,0,0:0:0:0:
161,78,68015,1,0,0:0:0:0:
161,82,68135,5,8,0:0:0:0:
161,82,68195,1,0,0:0:0:0:
161,82,68255,1,0,0:0:0:0:
161,82,68315,1,0,0:0:0:0:
160,80,68375,1,8,0:0:0:0:
161,83,68495,1,0,0:0:0:0:
161,83,68555,1,0,0:0:0:0:
161,83,68615,1,8,0:0:0:0:
161,78,68735,1,0,0:0:0:0:
161,82,68855,1,8,0:0:0:0:
186,113,68915,1,8,0:0:0:0:
161,82,68975,1,0,0:0:0:0:
161,82,69095,1,8,0:0:0:0:
160,80,69155,1,8,0:0:0:0:
161,83,69215,1,0,0:0:0:0:
161,83,69275,1,0,0:0:0:0:
161,83,69335,1,8,0:0:0:0:
221,27,69455,1,8,0:0:0:0:
221,27,69515,1,0,0:0:0:0:
234,12,69575,1,0,0:0:0:0:
161,82,69695,1,0,0:0:0:0:
156,35,69755,1,0,0:0:0:0:
161,82,69815,1,8,0:0:0:0:
160,80,69935,1,0,0:0:0:0:
161,70,70055,5,8,0:0:0:0:
161,70,70115,1,8,0:0:0:0:
161,83,70175,1,0,0:0:0:0:
161,70,70235,1,0,0:0:0:0:
161,78,70295,1,8,0:0:0:0:
223,21,70355,1,0,0:0:0:0:
161,82,70415,1,0,0:0:0:0:
161,69,70475,1,0,0:0:0:0:
161,82,70535,1,8,0:0:0:0:
216,22,70595,1,8,0:0:0:0:
160,80,70655,1,0,0:0:0:0:
161,69,70715,1,0,0:0:0:0:
161,83,70775,1,8,0:0:0:0:
161,83,70895,1,0,0:0:0:0:
161,78,71015,1,8,0:0:0:0:
161,40,71075,1,8,0:0:0:0:
151,79,71135,1,0,0:0:0:0:
151,79,71195,1,0,0:0:0:0:
151,79,71255,1,8,0:0:0:0:
151,79,71315,1,0,0:0:0:0:
152,79,71375,1,0,0:0:0:0:
151,79,71435,1,0,0:0:0:0:
151,79,71495,1,8,0:0:0:0:
126,65,71615,1,8,0:0:0:0:
126,65,71735,1,8,0:0:0:0:
126,65,71975,5,4,0:0:0:0:
145,97,72095,1,0,0:0:0:0:
145,97,72335,1,8,0:0:0:0:
145,97,72575,1,12,0:0:0:0:
145,70,72935,1,4,0:0:0:0:
145,70,73055,1,0,0:0:0:0:
145,70,73295,1,8,0:0:0:0:
145,70,73535,1,12,0:0:0:0:
145,70,74135,5,4,0:0:0:0:
145,70,74255,1,8,0:0:0:0:
145,70,74375,1,4,0:0:0:0:
145,70,74495,1,8,0:0:0:0:
145,70,74615,1,4,0:0:0:0:
145,70,74735,1,8,0:0:0:0:
145,70,74855,1,4,0:0:0:0:
145,70,75095,1,0,0:0:0:0:
145,70,75215,1,12,0:0:0:0:
145,70,75455,1,8,0:0:0:0:
145,70,75515,1,0,0:0:0:0:
145,70,75575,1,0,0:0:0:0:
145,70,75815,5,4,0:0:0:0:
173,114,75935,1,0,0:0:0:0:
173,114,75995,1,0,0:0:0:0:
173,114,76055,1,8,0:0:0:0:
173,114,76175,1,0,0:0:0:0:
173,114,76295,1,8,0:0:0:0:
156,130,76355,1,0,0:0:0:0:
173,114,76415,1,0,0:0:0:0:
173,114,76535,1,8,0:0:0:0:
173,114,76655,1,0,0:0:0:0:
173,114,76775,1,8,0:0:0:0:
156,132,76835,1,8,0:0:0:0:
156,131,76895,1,0,0:0:0:0:
306,78,76955,1,0,0:0:0:0:
156,131,77015,1,8,0:0:0:0:
156,130,77135,1,8,0:0:0:0:
157,133,77195,1,0,0:0:0:0:
156,130,77255,1,0,0:0:0:0:
156,132,77375,1,0,0:0:0:0:
156,132,77495,5,8,0:0:0:0:
156,132,77555,1,8,0:0:0:0:
156,132,77615,1,0,0:0:0:0:
156,131,77675,1,0,0:0:0:0:
156,131,77735,1,8,0:0:0:0:
156,135,77855,1,0,0:0:0:0:
156,135,77915,1,0,0:0:0:0:
157,133,77975,1,8,0:0:0:0:
210,71,78035,1,8,0:0:0:0:
156,135,78095,1,0,0:0:0:0:
323,66,78155,1,0,0:0:0:0:
156,132,78215,1,8,0:0:0:0:
156,132,78335,1,0,0:0:0:0:
156,131,78455,1,8,0:0:0:0:
156,135,78575,1,0,0:0:0:0:
156,135,78695,1,8,0:0:0:0:
143,105,78755,1,0,0:0:0:0:
153,122,78815,1,8,0:0:0:0:
153,122,78935,1,0,0:0:0:0:
143,105,79055,1,8,0:0:0:0:
143,105,79115,1,8,0:0:0:0:
143,105,79175,1,0,0:0:0:0:
143,105,79235,1,0,0:0:0:0:
143,105,79295,1,8,0:0:0:0:
143,105,79355,1,0,0:0:0:0:
143,105,79415,1,8,0:0:0:0:
143,105,79535,1,0,0:0:0:0:
145,102,79655,5,4,0:0:0:0:
154,158,79775,1,8,0:0:0:0:
161,62,79835,1,0,0:0:0:0:
154,158,79895,1,8,0:0:0:0:
161,62,80015,1,8,0:0:0:0:
210,16,80075,1,8,0:0:0:0:
161,62,80135,1,0,0:0:0:0:
161,62,80195,1,0,0:0:0:0:
161,62,80255,1,0,0:0:0:0:
161,62,80315,1,0,0:0:0:0:
161,62,80375,1,8,0:0:0:0:
159,71,80495,1,0,0:0:0:0:
159,71,80615,1,8,0:0:0:0:
159,71,80735,1,0,0:0:0:0:
159,71,80795,1,0,0:0:0:0:
159,71,80855,1,8,0:0:0:0:
157,73,80975,1,8,0:0:0:0:
118,44,81035,1,0,0:0:0:0:
161,71,81095,1,8,0:0:0:0:
161,73,81155,1,0,0:0:0:0:
196,22,81215,1,0,0:0:0:0:
196,22,81275,1,0,0:0:0:0:
159,71,81335,1,8,0:0:0:0:
126,42,81455,1,0,0:0:0:0:
126,42,81575,5,8,0:0:0:0:
161,68,81695,1,0,0:0:0:0:
161,69,81755,1,0,0:0:0:0:
161,71,81815,1,8,0:0:0:0:
156,80,81935,1,8,0:0:0:0:
206,31,81995,1,0,0:0:0:0:
156,80,82055,1,8,0:0:0:0:
166,76,82115,1,0,0:0:0:0:
156,81,82175,1,0,0:0:0:0:
166,76,82235,1,0,0:0:0:0:
154,82,82295,1,8,0:0:0:0:
166,76,82415,1,0,0:0:0:0:
166,77,82535,1,8,0:0:0:0:
176,87,82655,1,8,0:0:0:0:
131,63,82715,1,0,0:0:0:0:
176,82,82775,1,0,0:0:0:0:
176,87,82895,1,8,0:0:0:0:
200,7,82955,1,0,0:0:0:0:
176,87,83015,1,8,0:0:0:0:
176,87,83135,1,0,0:0:0:0:
143,36,83195,1,0,0:0:0:0:
176,87,83255,1,8,0:0:0:0:
176,80,83375,1,8,0:0:0:0:
176,87,83495,5,8,0:0:0:0:
141,51,83555,1,0,0:0:0:0:
141,50,83615,1,0,0:0:0:0:
141,50,83735,1,8,0:0:0:0:
141,53,83855,1,0,0:0:0:0:
141,53,83975,1,0,0:0:0:0:
142,52,84035,1,0,0:0:0:0:
186,96,84095,1,8,0:0:0:0:
322,100,84155,1,0,0:0:0:0:
141,56,84215,1,8,0:0:0:0:
141,56,84335,1,8,0:0:0:0:
141,57,84395,1,0,0:0:0:0:
141,56,84455,1,0,0:0:0:0:
172,47,84515,1,0,0:0:0:0:
141,53,84575,1,8,0:0:0:0:
141,53,84695,1,8,0:0:0:0:
135,65,84815,1,0,0:0:0:0:
134,67,84875,1,0,0:0:0:0:
134,67,84935,1,8,0:0:0:0:
134,67,85055,1,0,0:0:0:0:
134,67,85175,1,8,0:0:0:0:
134,67,85295,1,8,0:0:0:0:
134,67,85415,5,4,0:0:0:0:
136,97,85655,1,8,0:0:0:0:
136,97,85775,1,4,0:0:0:0:
136,97,86015,1,8,0:0:0:0:
136,97,86135,1,4,0:0:0:0:
136,97,86375,1,8,0:0:0:0:
136,97,86495,1,4,0:0:0:0:
136,97,86735,1,8,0:0:0:0:
136,97,86855,1,4,0:0:0:0:
146,81,87095,1,8,0:0:0:0:
146,81,87215,1,4,0:0:0:0:
146,77,87335,5,8,0:0:0:0:
147,85,87575,1,4,0:0:0:0:
147,87,87935,1,4,0:0:0:0:
141,93,88175,1,4,0:0:0:0:
141,92,89135,5,4,0:0:0:0:
141,92,89495,1,4,0:0:0:0:
141,92,89855,1,4,0:0:0:0:
141,92,90095,1,4,0:0:0:0:
141,92,90695,5,12,0:0:0:0:
141,92,90935,1,4,0:0:0:0:
141,92,91175,1,12,0:0:0:0:
145,84,92375,1,0,0:0:0:0:
256,192,92495,12,0,94055,0:0:0:0:
256,192,100775,12,0,101615,0:0:0:0:
204,142,101735,5,12,0:0:0:0:
208,229,101855,1,0,0:0:0:0:
340,46,101915,1,0,0:0:0:0:
228,97,101975,1,8,0:0:0:0:
228,97,102095,1,0,0:0:0:0:
228,97,102215,1,8,0:0:0:0:
228,97,102275,1,0,0:0:0:0:
228,97,102335,1,0,0:0:0:0:
228,97,102395,1,0,0:0:0:0:
217,94,102455,1,8,0:0:0:0:
247,207,102575,1,0,0:0:0:0:
324,78,102695,1,8,0:0:0:0:
324,78,102755,1,0,0:0:0:0:
324,78,102815,1,8,0:0:0:0:
414,144,102935,1,0,0:0:0:0:
414,144,103055,1,8,0:0:0:0:
414,144,103175,1,8,0:0:0:0:
100,117,103235,1,8,0:0:0:0:
414,144,103295,1,0,0:0:0:0:
198,281,103355,1,0,0:0:0:0:
120,175,103415,1,8,0:0:0:0:
257,158,103535,5,0,0:0:0:0:
257,158,103595,1,0,0:0:0:0:
257,158,103655,1,8,0:0:0:0:
354,288,103775,1,8,0:0:0:0:
179,66,103895,1,0,0:0:0:0:
297,62,103955,1,0,0:0:0:0:
179,66,104015,1,8,0:0:0:0:
207,48,104135,1,8,0:0:0:0:
207,48,104195,1,0,0:0:0:0:
166,187,104255,1,0,0:0:0:0:
99,97,104315,1,0,0:0:0:0:
246,286,104375,1,8,0:0:0:0:
384,152,104495,1,0,0:0:0:0:
384,152,104555,1,0,0:0:0:0:
384,152,104615,1,8,0:0:0:0:
300,167,104735,1,8,0:0:0:0:
284,95,104795,1,0,0:0:0:0:
284,95,104855,1,0,0:0:0:0:
284,95,104975,1,12,0:0:0:0:
148,184,105095,1,8,0:0:0:0:
148,184,105155,1,8,0:0:0:0:
148,184,105215,1,0,0:0:0:0:
148,184,105275,1,0,0:0:0:0:
148,184,105335,1,8,0:0:0:0:
385,166,105455,5,0,0:0:0:0:
385,166,105515,1,0,0:0:0:0:
385,166,105575,1,8,0:0:0:0:
279,114,105695,1,8,0:0:0:0:
181,97,105815,1,0,0:0:0:0:
181,97,105875,1,0,0:0:0:0:
181,97,105935,1,8,0:0:0:0:
181,97,106055,1,8,0:0:0:0:
306,36,106115,1,8,0:0:0:0:
165,245,106175,1,0,0:0:0:0:
165,245,106235,1,0,0:0:0:0:
248,274,106295,1,8,0:0:0:0:
397,141,106415,1,0,0:0:0:0:
291,152,106535,1,0,0:0:0:0:
291,152,106595,1,0,0:0:0:0:
291,152,106655,1,8,0:0:0:0:
70,140,106775,1,0,0:0:0:0:
208,96,106895,1,8,0:0:0:0:
208,96,106955,1,0,0:0:0:0:
208,96,107015,1,8,0:0:0:0:
208,96,107135,1,0,0:0:0:0:
359,19,107255,1,8,0:0:0:0:
1,252,107315,1,0,0:0:0:0:
30,265,107375,1,0,0:0:0:0:
354,220,107495,5,8,0:0:0:0:
354,220,107555,1,0,0:0:0:0:
354,220,107615,1,8,0:0:0:0:
354,220,107675,1,0,0:0:0:0:
354,220,107735,1,8,0:0:0:0:
247,183,107795,1,0,0:0:0:0:
247,183,107855,1,8,0:0:0:0:
328,144,107975,1,8,0:0:0:0:
328,144,108155,1,0,0:0:0:0:
328,144,108335,1,0,0:0:0:0:
118,113,108455,1,12,0:0:0:0:
219,122,108695,1,12,0:0:0:0:
209,234,108935,1,12,0:0:0:0:
483,117,109175,1,8,0:0:0:0:
449,125,109215,1,8,0:0:0:0:
430,137,109255,1,8,0:0:0:0:
392,138,109295,1,8,0:0:0:0:
127,138,109415,5,4,0:0:0:0:
208,229,109535,1,0,0:0:0:0:
340,46,109595,1,0,0:0:0:0:
228,97,109655,1,8,0:0:0:0:
228,97,109775,1,0,0:0:0:0:
228,97,109895,1,8,0:0:0:0:
228,97,109955,1,0,0:0:0:0:
228,97,110015,1,0,0:0:0:0:
228,97,110075,1,0,0:0:0:0:
217,94,110135,1,8,0:0:0:0:
247,207,110255,1,0,0:0:0:0:
324,78,110375,1,8,0:0:0:0:
324,78,110435,1,0,0:0:0:0:
324,78,110495,1,8,0:0:0:0:
414,144,110615,1,0,0:0:0:0:
414,144,110735,1,8,0:0:0:0:
414,144,110855,1,8,0:0:0:0:
100,117,110915,1,8,0:0:0:0:
414,144,110975,1,0,0:0:0:0:
198,281,111035,1,0,0:0:0:0:
120,175,111095,1,8,0:0:0:0:
257,158,111215,5,0,0:0:0:0:
257,158,111275,1,0,0:0:0:0:
257,158,111335,1,8,0:0:0:0:
354,288,111455,1,8,0:0:0:0:
179,66,111575,1,0,0:0:0:0:
297,62,111635,1,0,0:0:0:0:
179,66,111695,1,8,0:0:0:0:
207,48,111815,1,8,0:0:0:0:
207,48,111875,1,0,0:0:0:0:
166,187,111935,1,0,0:0:0:0:
99,97,111995,1,0,0:0:0:0:
246,286,112055,1,8,0:0:0:0:
384,152,112175,1,0,0:0:0:0:
384,152,112235,1,0,0:0:0:0:
384,152,112295,1,8,0:0:0:0:
300,167,112415,1,8,0:0:0:0:
284,95,112475,1,0,0:0:0:0:
284,95,112535,1,0,0:0:0:0:
284,95,112655,1,12,0:0:0:0:
148,184,112775,1,8,0:0:0:0:
148,184,112835,1,8,0:0:0:0:
148,184,112895,1,0,0:0:0:0:
148,184,112955,1,0,0:0:0:0:
148,184,113015,1,8,0:0:0:0:
385,166,113135,5,0,0:0:0:0:
385,166,113195,1,0,0:0:0:0:
385,166,113255,1,8,0:0:0:0:
276,61,113375,1,0,0:0:0:0:
251,98,113495,1,8,0:0:0:0:
202,136,113615,1,0,0:0:0:0:
297,288,113735,1,8,0:0:0:0:
297,288,113855,1,0,0:0:0:0:
297,288,113975,1,0,0:0:0:0:
76,121,114095,1,12,0:0:0:0:
180,182,114215,1,0,0:0:0:0:
180,182,114335,1,0,0:0:0:0:
354,106,114455,1,12,0:0:0:0:
234,111,114575,1,8,0:0:0:0:
234,111,114695,1,8,0:0:0:0:
234,111,114815,1,8,0:0:0:0:
234,111,114935,1,8,0:0:0:0:
122,229,115175,1,4,0:0:0:0:
256,192,121895,12,0,122795,0:0:0:0:
122,229,122855,5,4,0:0:0:0:
423,254,122975,1,8,0:0:0:0:
423,254,123035,1,8,0:0:0:0:
423,254,123095,1,0,0:0:0:0:
305,237,123215,1,8,0:0:0:0:
277,204,123275,1,8,0:0:0:0:
372,121,123335,1,0,0:0:0:0:
372,121,123395,1,0,0:0:0:0:
372,121,123455,1,8,0:0:0:0:
372,121,123575,1,0,0:0:0:0:
219,129,123695,1,8,0:0:0:0:
219,129,123755,1,0,0:0:0:0:
239,47,123815,1,0,0:0:0:0:
239,47,123875,1,0,0:0:0:0:
239,47,123935,1,8,0:0:0:0:
239,47,124055,1,8,0:0:0:0:
309,247,124175,1,0,0:0:0:0:
309,247,124295,1,0,0:0:0:0:
322,67,124355,1,0,0:0:0:0:
322,67,124415,1,0,0:0:0:0:
155,205,124535,1,0,0:0:0:0:
252,144,124655,1,0,0:0:0:0:
252,144,124775,5,8,0:0:0:0:
99,83,124835,1,0,0:0:0:0:
99,83,124895,1,8,0:0:0:0:
137,97,125015,1,8,0:0:0:0:
137,97,125075,1,0,0:0:0:0:
137,97,125135,1,0,0:0:0:0:
329,155,125255,1,8,0:0:0:0:
296,128,125315,1,8,0:0:0:0:
329,155,125375,1,0,0:0:0:0:
95,260,125495,1,0,0:0:0:0:
294,48,125615,1,8,0:0:0:0:
252,43,125675,1,8,0:0:0:0:
225,129,125735,1,0,0:0:0:0:
193,100,125795,1,0,0:0:0:0:
225,129,125855,1,8,0:0:0:0:
277,272,125975,1,8,0:0:0:0:
426,125,126095,1,0,0:0:0:0:
426,125,126215,1,0,0:0:0:0:
426,125,126275,1,0,0:0:0:0:
426,125,126335,1,0,0:0:0:0:
351,62,126455,1,8,0:0:0:0:
351,62,126575,1,0,0:0:0:0:
173,148,126695,5,0,0:0:0:0:
173,148,126815,1,0,0:0:0:0:
173,148,126875,1,0,0:0:0:0:
173,148,126935,1,8,0:0:0:0:
199,101,127055,1,0,0:0:0:0:
213,101,127175,1,8,0:0:0:0:
213,101,127235,1,0,0:0:0:0:
316,229,127295,1,8,0:0:0:0:
349,72,127415,1,0,0:0:0:0:
349,72,127535,1,8,0:0:0:0:
244,50,127595,1,0,0:0:0:0:
244,50,127655,1,0,0:0:0:0:
244,50,127715,1,0,0:0:0:0:
244,50,127775,1,0,0:0:0:0:
243,220,127895,1,8,0:0:0:0:
168,96,127955,1,8,0:0:0:0:
168,96,128015,1,0,0:0:0:0:
352,114,128135,1,8,0:0:0:0:
352,114,128195,1,8,0:0:0:0:
352,114,128255,1,0,0:0:0:0:
352,114,128315,1,0,0:0:0:0:
352,114,128375,1,8,0:0:0:0:
235,172,128495,5,0,0:0:0:0:
325,271,128555,1,0,0:0:0:0:
235,172,128615,1,8,0:0:0:0:
264,72,128735,1,0,0:0:0:0:
264,72,128855,1,8,0:0:0:0:
140,104,128975,1,8,0:0:0:0:
218,77,129035,1,8,0:0:0:0:
336,164,129095,1,0,0:0:0:0:
460,107,129215,1,8,0:0:0:0:
172,231,129275,1,0,0:0:0:0:
349,65,129335,1,0,0:0:0:0:
417,250,129395,1,0,0:0:0:0:
417,250,129455,1,8,0:0:0:0:
417,250,129575,1,0,0:0:0:0:
76,140,129815,1,0,0:0:0:0:
252,139,130055,1,0,0:0:0:0:
252,139,130295,1,0,0:0:0:0:
267,266,130535,5,12,0:0:0:0:
140,159,130655,1,0,0:0:0:0:
140,159,130715,1,0,0:0:0:0:
382,232,130775,1,8,0:0:0:0:
382,101,130895,1,0,0:0:0:0:
227,51,131015,1,8,0:0:0:0:
146,110,131075,1,0,0:0:0:0:
227,51,131135,1,8,0:0:0:0:
227,51,131255,1,0,0:0:0:0:
349,45,131375,1,8,0:0:0:0:
349,45,131435,1,0,0:0:0:0:
349,45,131495,1,0,0:0:0:0:
114,192,131615,1,0,0:0:0:0:
349,45,131735,1,8,0:0:0:0:
396,235,131855,1,0,0:0:0:0:
396,235,131975,1,0,0:0:0:0:
396,235,132035,1,0,0:0:0:0:
245,142,132095,1,0,0:0:0:0:
245,142,132215,1,0,0:0:0:0:
198,91,132335,1,0,0:0:0:0:
207,172,132455,5,8,0:0:0:0:
207,172,132515,1,8,0:0:0:0:
207,172,132575,1,0,0:0:0:0:
327,30,132635,1,0,0:0:0:0:
327,30,132695,1,8,0:0:0:0:
489,137,132815,1,0,0:0:0:0:
406,138,132935,1,8,0:0:0:0:
285,96,132995,1,0,0:0:0:0:
349,251,133055,1,8,0:0:0:0:
125,80,133175,1,0,0:0:0:0:
244,41,133295,1,8,0:0:0:0:
244,41,133355,1,0,0:0:0:0:
244,41,133415,1,0,0:0:0:0:
196,61,133475,1,0,0:0:0:0:
196,61,133535,1,8,0:0:0:0:
132,222,133655,1,8,0:0:0:0:
293,184,133775,1,0,0:0:0:0:
252,184,133895,1,0,0:0:0:0:
252,184,133955,1,8,0:0:0:0:
252,184,134015,1,0,0:0:0:0:
343,73,134135,5,8,0:0:0:0:
343,73,134195,1,0,0:0:0:0:
343,73,134255,1,0,0:0:0:0:
301,76,134315,1,0,0:0:0:0:
343,73,134375,1,8,0:0:0:0:
176,71,134495,1,0,0:0:0:0:
122,100,134555,1,0,0:0:0:0:
211,88,134615,1,0,0:0:0:0:
211,88,134735,1,8,0:0:0:0:
5,100,134855,1,0,0:0:0:0:
331,228,134975,1,8,0:0:0:0:
331,228,135035,1,0,0:0:0:0:
331,228,135095,1,0,0:0:0:0:
104,211,135155,1,0,0:0:0:0:
122,210,135215,1,8,0:0:0:0:
115,176,135335,1,0,0:0:0:0:
213,176,135455,1,8,0:0:0:0:
213,176,135515,1,0,0:0:0:0:
213,176,135575,1,8,0:0:0:0:
322,134,135695,1,8,0:0:0:0:
322,134,135755,1,8,0:0:0:0:
322,134,135815,1,0,0:0:0:0:
287,109,135875,1,0,0:0:0:0:
274,96,135935,1,8,0:0:0:0:
274,96,136055,1,0,0:0:0:0:
271,66,136175,5,8,0:0:0:0:
383,43,136235,1,8,0:0:0:0:
383,43,136295,1,0,0:0:0:0:
383,43,136355,1,0,0:0:0:0:
383,43,136415,1,8,0:0:0:0:
137,113,136535,1,8,0:0:0:0:
278,148,136655,1,0,0:0:0:0:
278,148,136775,1,0,0:0:0:0:
224,52,136835,1,0,0:0:0:0:
224,52,136895,1,0,0:0:0:0:
139,67,136955,1,0,0:0:0:0:
225,245,137015,1,8,0:0:0:0:
225,245,137135,1,0,0:0:0:0:
329,104,137255,1,0,0:0:0:0:
329,104,137375,1,8,0:0:0:0:
329,104,137495,1,8,0:0:0:0:
331,154,137615,1,8,0:0:0:0:
123,197,137735,1,0,0:0:0:0:
123,197,137775,1,0,0:0:0:0:
123,197,137815,1,0,0:0:0:0:
85,192,137855,1,0,0:0:0:0:
192,91,137975,1,8,0:0:0:0:
192,91,138015,1,8,0:0:0:0:
192,91,138055,1,8,0:0:0:0:
287,182,138095,1,8,0:0:0:0:
69,77,138215,5,4,0:0:0:0:
339,82,138335,1,0,0:0:0:0:
339,82,138395,1,0,0:0:0:0:
339,82,138455,1,8,0:0:0:0:
213,250,138575,1,0,0:0:0:0:
245,66,138695,1,8,0:0:0:0:
245,66,138755,1,0,0:0:0:0:
245,66,138815,1,0,0:0:0:0:
245,66,138875,1,0,0:0:0:0:
245,66,138935,1,8,0:0:0:0:
345,94,139055,1,0,0:0:0:0:
206,117,139175,1,8,0:0:0:0:
312,138,139235,1,8,0:0:0:0:
312,138,139295,1,0,0:0:0:0:
312,138,139355,1,0,0:0:0:0:
312,138,139415,1,8,0:0:0:0:
373,61,139535,1,8,0:0:0:0:
373,61,139595,1,8,0:0:0:0:
373,61,139655,1,0,0:0:0:0:
262,86,139775,1,8,0:0:0:0:
262,86,139895,1,0,0:0:0:0:
262,86,140015,1,8,0:0:0:0:
449,168,140375,1,12,0:0:0:0:
449,168,140615,1,12,0:0:0:0:
338,61,141095,1,12,0:0:0:0:
277,115,141455,1,4,0:0:0:0:
277,115,141815,1,12,0:0:0:0:
186,184,142055,5,4,0:0:0:0:
334,63,142175,1,0,0:0:0:0:
198,41,142235,1,0,0:0:0:0:
198,41,142295,1,8,0:0:0:0:
198,41,142415,1,0,0:0:0:0:
283,37,142535,1,8,0:0:0:0:
297,143,142595,1,0,0:0:0:0:
297,143,142655,1,0,0:0:0:0:
297,143,142715,1,0,0:0:0:0:
297,143,142775,1,8,0:0:0:0:
121,187,142895,1,0,0:0:0:0:
203,140,143015,1,8,0:0:0:0:
361,13,143075,1,8,0:0:0:0:
372,21,143135,1,0,0:0:0:0:
237,117,143255,1,0,0:0:0:0:
237,117,143375,1,8,0:0:0:0:
237,117,143435,1,8,0:0:0:0:
237,117,143495,1,0,0:0:0:0:
297,85,143615,1,8,0:0:0:0:
297,85,143675,1,8,0:0:0:0:
297,85,143735,1,0,0:0:0:0:
297,85,143795,1,0,0:0:0:0:
297,85,143855,1,8,0:0:0:0:
152,136,144215,1,12,0:0:0:0:
256,118,144455,1,12,0:0:0:0:
312,85,144935,1,12,0:0:0:0:
207,90,145115,1,0,0:0:0:0:
207,90,145295,1,0,0:0:0:0:
207,90,145415,1,12,0:0:0:0:
267,67,145595,1,0,0:0:0:0:
267,67,145775,1,0,0:0:0:0:
161,144,145895,5,12,0:0:0:0:
161,144,146375,1,0,0:0:0:0:
161,144,146855,1,12,0:0:0:0:
161,144,147335,1,8,0:0:0:0:
161,144,147395,1,0,0:0:0:0:
161,144,147455,1,8,0:0:0:0:
161,144,147515,1,0,0:0:0:0:
161,144,147575,1,8,0:0:0:0:
182,131,147815,1,12,0:0:0:0:
182,132,148295,1,0,0:0:0:0:
182,132,148775,1,12,0:0:0:0:
182,132,149255,1,8,0:0:0:0:
172,137,149315,1,0,0:0:0:0:
182,132,149375,1,8,0:0:0:0:
173,137,149435,1,0,0:0:0:0:
174,134,149495,1,8,0:0:0:0:
173,137,149735,1,12,0:0:0:0:
174,144,149975,1,0,0:0:0:0:
176,147,150215,1,12,0:0:0:0:
180,146,150455,1,0,0:0:0:0:
179,148,150695,1,12,0:0:0:0:
176,147,150935,1,0,0:0:0:0:
180,146,151175,1,8,0:0:0:0:
180,146,151235,1,0,0:0:0:0:
179,148,151295,1,8,0:0:0:0:
177,158,151355,1,0,0:0:0:0:
179,148,151415,1,8,0:0:0:0:
180,152,151655,1,12,0:0:0:0:
177,158,151775,1,0,0:0:0:0:
177,158,151895,1,12,0:0:0:0:
177,158,152015,1,0,0:0:0:0:
177,158,152135,1,12,0:0:0:0:
177,158,152255,1,0,0:0:0:0:
177,158,152375,1,12,0:0:0:0:
177,158,152495,1,0,0:0:0:0:
177,158,152615,1,8,0:0:0:0:
167,59,152675,1,0,0:0:0:0:
167,59,152735,1,8,0:0:0:0:
158,72,152795,1,0,0:0:0:0:
167,59,152855,1,8,0:0:0:0:
158,72,152915,1,0,0:0:0:0:
167,59,152975,1,8,0:0:0:0:
158,72,153035,1,0,0:0:0:0:
167,59,153095,1,8,0:0:0:0:
158,72,153155,1,0,0:0:0:0:
167,59,153215,1,8,0:0:0:0:
160,72,153275,1,0,0:0:0:0:
161,70,153335,1,8,0:0:0:0:
160,72,153395,1,0,0:0:0:0:
161,70,153455,1,8,0:0:0:0:
160,72,153515,1,0,0:0:0:0:
158,72,153575,1,8,0:0:0:0:
173,82,155495,5,0,0:0:0:0:
173,82,155615,1,0,0:0:0:0:
173,82,155735,1,8,0:0:0:0:
180,78,155975,1,8,0:0:0:0:
180,78,156095,1,0,0:0:0:0:
180,78,156215,1,8,0:0:0:0:
188,78,156455,1,0,0:0:0:0:
189,79,156575,1,8,0:0:0:0:
190,78,156635,1,8,0:0:0:0:
187,82,156695,1,0,0:0:0:0:
187,82,156815,1,0,0:0:0:0:
187,82,156935,1,8,0:0:0:0:
187,82,157055,1,0,0:0:0:0:
188,82,157175,1,8,0:0:0:0:
206,181,157415,5,4,0:0:0:0:
176,202,157535,1,8,0:0:0:0:
163,63,157595,1,0,0:0:0:0:
176,202,157655,1,8,0:0:0:0:
176,202,157775,1,0,0:0:0:0:
176,202,157835,1,8,0:0:0:0:
176,202,157895,1,0,0:0:0:0:
140,103,157955,1,0,0:0:0:0:
140,103,158015,1,8,0:0:0:0:
140,103,158075,1,0,0:0:0:0:
140,103,158135,1,8,0:0:0:0:
135,74,158255,1,8,0:0:0:0:
135,74,158375,1,0,0:0:0:0:
135,74,158435,1,0,0:0:0:0:
135,74,158495,1,0,0:0:0:0:
135,74,158615,1,8,0:0:0:0:
144,67,158735,1,0,0:0:0:0:
115,56,158795,1,0,0:0:0:0:
135,74,158855,1,0,0:0:0:0:
135,74,158915,1,0,0:0:0:0:
142,79,158975,1,8,0:0:0:0:
142,79,159095,1,8,0:0:0:0:
142,79,159215,1,0,0:0:0:0:
144,76,159335,1,0,0:0:0:0:
158,77,159455,1,0,0:0:0:0:
159,77,159515,1,0,0:0:0:0:
157,75,159575,1,8,0:0:0:0:
160,80,159695,1,0,0:0:0:0:
198,5,159755,1,0,0:0:0:0:
161,82,159815,1,8,0:0:0:0:
161,82,159875,1,8,0:0:0:0:
160,80,159935,1,0,0:0:0:0:
161,82,159995,1,0,0:0:0:0:
160,80,160055,1,8,0:0:0:0:
161,83,160175,1,0,0:0:0:0:
161,83,160295,1,8,0:0:0:0:
164,74,160355,1,8,0:0:0:0:
164,74,160415,1,0,0:0:0:0:
161,82,160535,1,8,0:0:0:0:
161,82,160655,1,0,0:0:0:0:
160,80,160715,1,8,0:0:0:0:
161,82,160775,1,0,0:0:0:0:
161,83,160895,1,0,0:0:0:0:
161,83,161015,1,8,0:0:0:0:
161,78,161135,1,0,0:0:0:0:
161,82,161255,1,0,0:0:0:0:
161,82,161315,1,0,0:0:0:0:
161,82,161375,1,0,0:0:0:0:
161,82,161435,1,0,0:0:0:0:
160,80,161495,1,8,0:0:0:0:
161,83,161615,1,0,0:0:0:0:
161,83,161675,1,0,0:0:0:0:
161,83,161735,1,8,0:0:0:0:
161,78,161855,1,0,0:0:0:0:
161,82,161975,1,8,0:0:0:0:
186,113,162035,1,8,0:0:0:0:
161,82,162095,1,0,0:0:0:0:
161,82,162215,1,8,0:0:0:0:
160,80,162275,1,8,0:0:0:0:
161,83,162335,1,0,0:0:0:0:
161,83,162395,1,0,0:0:0:0:
161,83,162455,1,8,0:0:0:0:
186,113,162515,1,8,0:0:0:0:
221,27,162575,1,0,0:0:0:0:
221,27,162635,1,0,0:0:0:0:
234,12,162695,1,8,0:0:0:0:
161,82,162815,1,0,0:0:0:0:
156,35,162875,1,0,0:0:0:0:
161,82,162935,1,8,0:0:0:0:
160,80,163055,1,0,0:0:0:0:
161,70,163175,1,8,0:0:0:0:
161,70,163235,1,8,0:0:0:0:
161,83,163295,1,0,0:0:0:0:
161,70,163355,1,0,0:0:0:0:
161,78,163415,1,8,0:0:0:0:
223,21,163475,1,0,0:0:0:0:
161,82,163535,1,0,0:0:0:0:
161,69,163595,1,0,0:0:0:0:
161,82,163655,1,8,0:0:0:0:
216,22,163715,1,8,0:0:0:0:
160,80,163775,1,0,0:0:0:0:
161,69,163835,1,0,0:0:0:0:
161,83,163895,1,8,0:0:0:0:
161,83,164015,1,0,0:0:0:0:
161,78,164135,1,8,0:0:0:0:
161,40,164195,1,0,0:0:0:0:
151,79,164255,1,8,0:0:0:0:
151,79,164315,1,0,0:0:0:0:
151,79,164375,1,8,0:0:0:0:
151,79,164435,1,8,0:0:0:0:
152,79,164495,1,0,0:0:0:0:
151,79,164555,1,0,0:0:0:0:
151,79,164615,1,8,0:0:0:0:
126,65,164735,1,8,0:0:0:0:
126,65,164855,1,8,0:0:0:0:
126,65,165095,1,4,0:0:0:0:
145,97,165215,1,0,0:0:0:0:
145,97,165455,1,8,0:0:0:0:
145,97,165695,1,12,0:0:0:0:
145,70,166055,1,4,0:0:0:0:
145,70,166175,1,0,0:0:0:0:
145,70,166415,1,8,0:0:0:0:
145,70,166655,1,12,0:0:0:0:
145,70,167255,1,4,0:0:0:0:
145,70,167375,1,8,0:0:0:0:
145,70,167495,1,4,0:0:0:0:
145,70,167615,1,8,0:0:0:0:
145,70,167735,1,4,0:0:0:0:
145,70,167855,1,8,0:0:0:0:
145,70,167975,1,4,0:0:0:0:
145,70,168215,1,0,0:0:0:0:
145,70,168335,1,12,0:0:0:0:
145,70,168575,1,0,0:0:0:0:
145,70,168635,1,0,0:0:0:0:
145,70,168695,1,8,0:0:0:0:
145,70,168935,1,4,0:0:0:0:
173,114,169055,1,0,0:0:0:0:
173,114,169115,1,0,0:0:0:0:
173,114,169175,1,8,0:0:0:0:
173,114,169295,1,0,0:0:0:0:
173,114,169415,1,8,0:0:0:0:
156,130,169475,1,0,0:0:0:0:
173,114,169535,1,0,0:0:0:0:
156,130,169595,1,0,0:0:0:0:
173,114,169655,1,8,0:0:0:0:
173,114,169775,1,0,0:0:0:0:
173,114,169895,1,8,0:0:0:0:
156,132,169955,1,8,0:0:0:0:
156,131,170015,1,0,0:0:0:0:
156,131,170135,1,8,0:0:0:0:
156,130,170255,1,0,0:0:0:0:
157,133,170315,1,0,0:0:0:0:
156,130,170375,1,0,0:0:0:0:
156,132,170495,1,0,0:0:0:0:
156,132,170615,1,8,0:0:0:0:
156,132,170675,1,8,0:0:0:0:
156,132,170735,1,0,0:0:0:0:
156,131,170795,1,0,0:0:0:0:
156,131,170855,1,8,0:0:0:0:
156,135,170975,1,0,0:0:0:0:
156,135,171035,1,0,0:0:0:0:
157,133,171095,1,8,0:0:0:0:
156,135,171215,1,0,0:0:0:0:
156,132,171335,1,8,0:0:0:0:
156,126,171395,1,8,0:0:0:0:
156,132,171455,1,0,0:0:0:0:
156,131,171575,1,8,0:0:0:0:
156,135,171695,1,0,0:0:0:0:
156,135,171815,1,8,0:0:0:0:
143,105,171875,1,0,0:0:0:0:
153,122,171935,1,8,0:0:0:0:
153,122,172055,1,0,0:0:0:0:
143,105,172175,1,8,0:0:0:0:
143,105,172235,1,0,0:0:0:0:
143,105,172295,1,8,0:0:0:0:
143,105,172355,1,8,0:0:0:0:
143,105,172415,1,0,0:0:0:0:
143,105,172475,1,0,0:0:0:0:
143,105,172535,1,8,0:0:0:0:
143,105,172655,1,8,0:0:0:0:
145,102,172775,1,4,0:0:0:0:
154,158,172895,1,0,0:0:0:0:
161,62,172955,1,0,0:0:0:0:
154,158,173015,1,8,0:0:0:0:
161,62,173135,1,8,0:0:0:0:
210,16,173195,1,8,0:0:0:0:
161,62,173255,1,0,0:0:0:0:
161,62,173315,1,0,0:0:0:0:
161,62,173375,1,0,0:0:0:0:
161,62,173435,1,0,0:0:0:0:
161,62,173495,1,8,0:0:0:0:
159,71,173615,1,0,0:0:0:0:
159,71,173735,1,0,0:0:0:0:
159,71,173855,1,0,0:0:0:0:
159,71,173915,1,0,0:0:0:0:
159,71,173975,1,8,0:0:0:0:
157,73,174095,1,0,0:0:0:0:
118,44,174155,1,0,0:0:0:0:
161,71,174215,1,8,0:0:0:0:
161,73,174275,1,8,0:0:0:0:
196,22,174335,1,0,0:0:0:0:
196,22,174395,1,0,0:0:0:0:
159,71,174455,1,8,0:0:0:0:
126,42,174575,1,8,0:0:0:0:
126,42,174695,1,0,0:0:0:0:
161,68,174815,1,0,0:0:0:0:
161,69,174875,1,0,0:0:0:0:
161,71,174935,1,8,0:0:0:0:
156,80,175055,1,8,0:0:0:0:
206,31,175115,1,0,0:0:0:0:
156,80,175175,1,8,0:0:0:0:
166,76,175235,1,8,0:0:0:0:
156,81,175295,1,0,0:0:0:0:
166,76,175355,1,0,0:0:0:0:
154,82,175415,1,8,0:0:0:0:
166,76,175535,1,8,0:0:0:0:
166,77,175655,1,0,0:0:0:0:
176,87,175775,1,0,0:0:0:0:
131,63,175835,1,0,0:0:0:0:
176,82,175895,1,8,0:0:0:0:
176,87,176015,1,0,0:0:0:0:
200,7,176075,1,0,0:0:0:0:
176,87,176135,1,8,0:0:0:0:
143,36,176195,1,8,0:0:0:0:
176,87,176255,1,0,0:0:0:0:
143,36,176315,1,0,0:0:0:0:
176,87,176375,1,8,0:0:0:0:
176,80,176495,1,8,0:0:0:0:
176,87,176615,1,0,0:0:0:0:
141,51,176675,1,0,0:0:0:0:
141,50,176735,1,0,0:0:0:0:
141,50,176855,1,8,0:0:0:0:
141,53,176975,1,0,0:0:0:0:
141,53,177035,1,0,0:0:0:0:
142,52,177095,1,0,0:0:0:0:
141,56,177155,1,8,0:0:0:0:
141,56,177215,1,0,0:0:0:0:
141,56,177335,1,8,0:0:0:0:
141,56,177455,1,0,0:0:0:0:
141,57,177515,1,0,0:0:0:0:
141,56,177575,1,8,0:0:0:0:
141,53,177695,1,0,0:0:0:0:
141,53,177815,1,8,0:0:0:0:
135,65,177935,1,0,0:0:0:0:
134,67,177995,1,0,0:0:0:0:
134,67,178055,1,0,0:0:0:0:
134,67,178175,1,0,0:0:0:0:
134,67,178295,1,8,0:0:0:0:
134,67,178415,1,8,0:0:0:0:
134,67,178535,1,4,0:0:0:0:
136,97,178775,1,8,0:0:0:0:
136,97,178895,1,4,0:0:0:0:
136,97,179135,1,8,0:0:0:0:
136,97,179255,1,4,0:0:0:0:
136,97,179495,1,8,0:0:0:0:
136,97,179615,1,4,0:0:0:0:
136,97,179855,1,8,0:0:0:0:
136,97,179975,1,4,0:0:0:0:
146,81,180215,1,8,0:0:0:0:
146,81,180335,1,4,0:0:0:0:
146,77,180455,1,8,0:0:0:0:
147,85,180695,1,4,0:0:0:0:
147,87,181055,1,4,0:0:0:0:
141,93,181295,1,4,0:0:0:0:
141,92,182255,1,4,0:0:0:0:
141,92,182615,1,4,0:0:0:0:
141,92,182975,1,4,0:0:0:0:
141,92,183215,1,4,0:0:0:0:
141,92,183815,1,12,0:0:0:0:
141,92,184055,1,4,0:0:0:0:
141,92,184295,1,12,0:0:0:0:
145,84,185495,1,0,0:0:0:0:
145,84,185615,1,8,0:0:0:0:
155,71,185675,1,8,0:0:0:0:
155,71,185735,1,8,0:0:0:0:
155,71,185795,1,8,0:0:0:0:
155,71,185855,1,8,0:0:0:0:
155,71,185915,1,8,0:0:0:0:
155,71,185975,1,8,0:0:0:0:
155,71,186035,1,8,0:0:0:0:
155,71,186095,1,8,0:0:0:0:
155,71,186155,1,8,0:0:0:0:
155,71,186215,1,8,0:0:0:0:
155,71,186275,1,8,0:0:0:0:
155,71,186335,1,8,0:0:0:0:
155,71,186395,1,8,0:0:0:0:
155,71,186455,1,8,0:0:0:0:
155,71,186515,1,8,0:0:0:0:
155,71,186575,1,8,0:0:0:0:
155,71,186635,1,8,0:0:0:0:
155,71,186695,1,8,0:0:0:0:
155,71,186755,1,8,0:0:0:0:
155,71,186815,1,8,0:0:0:0:
155,71,186875,1,8,0:0:0:0:
155,71,186935,1,8,0:0:0:0:
155,71,186995,1,8,0:0:0:0:
155,71,187055,1,8,0:0:0:0:
155,71,187115,1,8,0:0:0:0:
155,71,187175,1,0,0:0:0:0:
201,198,193895,5,8,0:0:0:0:
201,198,194015,1,0,0:0:0:0:
201,198,194135,1,0,0:0:0:0:
201,198,194255,1,0,0:0:0:0:
201,198,194375,1,8,0:0:0:0:
201,198,194435,1,8,0:0:0:0:
160,130,194495,1,8,0:0:0:0:
201,198,194555,1,8,0:0:0:0:
160,130,194615,1,8,0:0:0:0:
158,143,194675,1,8,0:0:0:0:
158,143,194735,1,8,0:0:0:0:
160,130,194795,1,8,0:0:0:0:
160,130,194855,1,0,0:0:0:0:
159,117,194975,1,8,0:0:0:0:
159,117,195095,1,0,0:0:0:0:
141,115,195215,1,8,0:0:0:0:
151,119,195275,1,8,0:0:0:0:
141,115,195335,1,0,0:0:0:0:
137,97,195455,1,8,0:0:0:0:
137,97,195575,1,0,0:0:0:0:
145,77,195695,1,8,0:0:0:0:
145,77,195815,1,0,0:0:0:0:
121,114,195875,1,0,0:0:0:0:
118,109,195935,1,0,0:0:0:0:
161,66,196055,1,0,0:0:0:0:
123,116,196175,1,8,0:0:0:0:
152,113,196295,1,0,0:0:0:0:
123,120,196415,1,8,0:0:0:0:
141,77,196475,1,8,0:0:0:0:
124,121,196535,1,0,0:0:0:0:
151,101,196595,1,0,0:0:0:0:
151,101,196655,1,8,0:0:0:0:
152,113,196775,1,0,0:0:0:0:
145,130,196895,1,8,0:0:0:0:
149,117,197015,1,0,0:0:0:0:
135,109,197135,1,8,0:0:0:0:
135,110,197195,1,8,0:0:0:0:
149,117,197255,1,0,0:0:0:0:
152,111,197375,1,8,0:0:0:0:
149,139,197495,1,0,0:0:0:0:
186,104,197615,1,8,0:0:0:0:
175,77,197675,1,8,0:0:0:0:
175,77,197735,1,0,0:0:0:0:
175,77,197855,1,8,0:0:0:0:
149,139,197975,1,0,0:0:0:0:
162,107,198035,1,0,0:0:0:0:
162,107,198095,1,8,0:0:0:0:
149,139,198215,1,0,0:0:0:0:
162,57,198335,1,8,0:0:0:0:
162,57,198395,1,0,0:0:0:0:
162,57,198455,1,0,0:0:0:0:
162,57,198515,1,0,0:0:0:0:
162,57,198575,1,8,0:0:0:0:
149,139,198695,1,0,0:0:0:0:
138,78,198815,1,8,0:0:0:0:
160,38,198875,1,8,0:0:0:0:
149,139,198935,1,0,0:0:0:0:
152,86,199055,1,8,0:0:0:0:
163,129,199175,1,0,0:0:0:0:
155,67,199295,1,8,0:0:0:0:
155,72,199355,1,0,0:0:0:0:
163,129,199415,1,0,0:0:0:0:
180,43,199535,1,8,0:0:0:0:
163,129,199655,1,0,0:0:0:0:
152,55,199775,1,8,0:0:0:0:
146,68,199835,1,8,0:0:0:0:
152,55,199895,1,0,0:0:0:0:
151,86,199955,1,0,0:0:0:0:
151,87,200015,1,8,0:0:0:0:
158,103,200135,1,0,0:0:0:0:
158,62,200255,1,8,0:0:0:0:
158,105,200375,1,0,0:0:0:0:
216,54,200435,1,0,0:0:0:0:
158,65,200495,1,8,0:0:0:0:
158,107,200615,1,0,0:0:0:0:
189,75,200735,1,8,0:0:0:0:
158,107,200855,1,0,0:0:0:0:
197,97,200915,1,0,0:0:0:0:
202,72,200975,1,8,0:0:0:0:
158,107,201095,1,0,0:0:0:0:
197,97,201215,1,8,0:0:0:0:
165,69,201275,1,8,0:0:0:0:
158,105,201335,1,0,0:0:0:0:
160,83,201455,1,8,0:0:0:0:
158,107,201575,1,0,0:0:0:0:
151,58,201695,1,8,0:0:0:0:
148,64,201755,1,8,0:0:0:0:
158,107,201815,1,0,0:0:0:0:
148,54,201935,1,8,0:0:0:0:
158,105,202055,1,0,0:0:0:0:
136,98,202175,1,8,0:0:0:0:
136,97,202235,1,0,0:0:0:0:
158,107,202295,1,0,0:0:0:0:
161,37,202355,1,0,0:0:0:0:
161,40,202415,1,8,0:0:0:0:
158,107,202535,1,0,0:0:0:0:
180,102,202655,1,8,0:0:0:0:
180,102,202775,1,0,0:0:0:0:
174,89,203015,1,8,0:0:0:0:
174,89,203135,1,0,0:0:0:0:
174,90,203255,1,8,0:0:0:0:
189,79,203495,1,0,0:0:0:0:
151,77,203555,1,0,0:0:0:0:
189,79,203615,1,0,0:0:0:0:
151,77,203675,1,0,0:0:0:0:
189,79,203735,1,8,0:0:0:0:
182,51,203855,1,0,0:0:0:0:
186,80,203975,1,8,0:0:0:0:
151,83,204035,1,8,0:0:0:0:
186,80,204095,1,0,0:0:0:0:
185,82,204215,1,8,0:0:0:0:
155,95,205055,1,12,0:0:0:0:
187,99,206015,1,12,0:0:0:0:
186,114,206375,1,4,0:0:0:0:
184,92,206855,1,4,0:0:0:0:
157,110,207335,1,12,0:0:0:0:
157,110,207695,1,12,0:0:0:0:
157,110,208055,1,12,0:0:0:0:
159,118,208295,1,4,0:0:0:0:
179,138,208535,1,8,0:0:0:0:
179,138,208775,1,8,0:0:0:0:
179,138,208895,1,8,0:0:0:0:
179,138,209135,1,8,0:0:0:0:
179,138,209375,1,8,0:0:0:0:
179,138,209495,1,8,0:0:0:0:
179,138,209735,1,8,0:0:0:0:
178,62,209855,1,0,0:0:0:0:
156,83,209975,1,8,0:0:0:0:
178,62,210095,1,0,0:0:0:0:
156,83,210215,1,8,0:0:0:0:
142,80,210335,1,0,0:0:0:0:
141,82,210395,1,0,0:0:0:0:
141,81,210455,1,8,0:0:0:0:
147,120,210575,1,0,0:0:0:0:
147,120,210695,1,8,0:0:0:0:
173,99,210755,1,0,0:0:0:0:
174,95,210815,1,0,0:0:0:0:
156,83,210875,1,0,0:0:0:0:
173,99,210935,1,8,0:0:0:0:
155,107,211055,1,0,0:0:0:0:
153,109,211175,1,8,0:0:0:0:
157,101,211295,1,0,0:0:0:0:
157,101,211355,1,0,0:0:0:0:
160,92,211415,1,0,0:0:0:0:
157,101,211475,1,0,0:0:0:0:
159,93,211535,1,0,0:0:0:0:
152,102,211595,1,0,0:0:0:0:
158,93,211655,1,8,0:0:0:0:
173,99,211775,1,8,0:0:0:0:
175,102,211895,1,8,0:0:0:0:
201,122,212135,1,4,0:0:0:0:
201,122,212255,1,0,0:0:0:0:
193,124,212495,1,8,0:0:0:0:
193,124,212735,1,12,0:0:0:0:
193,124,213095,1,4,0:0:0:0:
171,107,213215,1,0,0:0:0:0:
171,107,213455,1,8,0:0:0:0:
171,107,213695,1,12,0:0:0:0:
186,81,214295,1,4,0:0:0:0:
186,81,214415,1,8,0:0:0:0:
186,81,214535,1,4,0:0:0:0:
211,95,214655,1,8,0:0:0:0:
211,95,214775,1,4,0:0:0:0:
211,95,214895,1,8,0:0:0:0:
211,95,215015,1,4,0:0:0:0:
166,100,215255,1,0,0:0:0:0:
166,100,215375,1,12,0:0:0:0:
177,72,215615,1,0,0:0:0:0:
169,39,215675,1,0,0:0:0:0:
177,72,215735,1,8,0:0:0:0:
166,100,216215,1,8,0:0:0:0:
166,100,216335,1,0,0:0:0:0:
166,100,216395,1,0,0:0:0:0:
168,98,216455,1,0,0:0:0:0:
189,52,216575,1,0,0:0:0:0:
189,52,216635,1,0,0:0:0:0:
189,52,216695,1,8,0:0:0:0:
195,76,216815,1,0,0:0:0:0:
195,76,216935,1,8,0:0:0:0:
152,61,216995,1,0,0:0:0:0:
150,57,217055,1,0,0:0:0:0:
152,61,217115,1,0,0:0:0:0:
163,50,217175,1,8,0:0:0:0:
178,58,217295,1,0,0:0:0:0:
183,53,217355,1,0,0:0:0:0:
181,54,217415,1,0,0:0:0:0:
178,67,217535,1,0,0:0:0:0:
178,67,217655,1,8,0:0:0:0:
179,59,217715,1,8,0:0:0:0:
171,55,217775,1,0,0:0:0:0:
171,55,217895,1,0,0:0:0:0:
194,61,218015,1,0,0:0:0:0:
200,67,218075,1,0,0:0:0:0:
192,62,218135,1,8,0:0:0:0:
191,65,218195,1,8,0:0:0:0:
191,65,218255,1,0,0:0:0:0:
199,69,218375,1,0,0:0:0:0:
196,73,218435,1,0,0:0:0:0:
196,73,218495,1,8,0:0:0:0:
198,71,218555,1,0,0:0:0:0:
196,73,218615,1,8,0:0:0:0:
196,73,218675,1,8,0:0:0:0:
196,73,218735,1,0,0:0:0:0:
181,49,218855,1,0,0:0:0:0:
171,69,218915,1,0,0:0:0:0:
176,55,218975,1,0,0:0:0:0:
157,64,219095,1,8,0:0:0:0:
159,87,219215,1,0,0:0:0:0:
160,95,219275,1,8,0:0:0:0:
160,92,219335,1,0,0:0:0:0:
160,95,219395,1,8,0:0:0:0:
158,100,219455,1,0,0:0:0:0:
159,97,219515,1,0,0:0:0:0:
158,100,219575,1,8,0:0:0:0:
161,92,219635,1,8,0:0:0:0:
177,42,219695,1,8,0:0:0:0:
177,42,219755,1,8,0:0:0:0:
177,43,219815,1,0,0:0:0:0:
177,88,219935,1,0,0:0:0:0:
178,67,219995,1,0,0:0:0:0:
176,87,220055,1,8,0:0:0:0:
180,47,220175,1,0,0:0:0:0:
177,52,220235,1,0,0:0:0:0:
180,47,220295,1,0,0:0:0:0:
176,54,220355,1,8,0:0:0:0:
180,47,220415,1,0,0:0:0:0:
176,55,220475,1,0,0:0:0:0:
180,47,220535,1,8,0:0:0:0:
176,67,220655,1,8,0:0:0:0:
176,67,220775,1,0,0:0:0:0:
176,67,220895,1,0,0:0:0:0:
175,67,220955,1,0,0:0:0:0:
176,67,221015,1,8,0:0:0:0:
165,72,221135,1,0,0:0:0:0:
164,80,221195,1,0,0:0:0:0:
164,77,221255,1,0,0:0:0:0:
164,80,221315,1,8,0:0:0:0:
164,77,221375,1,0,0:0:0:0:
162,81,221435,1,0,0:0:0:0:
164,77,221495,1,8,0:0:0:0:
162,86,221615,1,8,0:0:0:0:
162,86,221735,1,0,0:0:0:0:
209,34,221855,1,0,0:0:0:0:
130,87,221915,1,0,0:0:0:0:
209,34,221975,1,8,0:0:0:0:
177,81,222095,1,0,0:0:0:0:
130,87,222155,1,8,0:0:0:0:
177,81,222215,1,0,0:0:0:0:
130,87,222275,1,8,0:0:0:0:
130,87,222335,1,0,0:0:0:0:
130,87,222395,1,0,0:0:0:0:
177,81,222455,1,8,0:0:0:0:
177,81,222575,1,8,0:0:0:0:
177,81,222695,1,0,0:0:0:0:
177,81,222815,1,0,0:0:0:0:
128,92,222875,1,0,0:0:0:0:
177,81,222935,1,8,0:0:0:0:
177,81,223055,1,0,0:0:0:0:
128,96,223115,1,8,0:0:0:0:
177,81,223175,1,0,0:0:0:0:
153,69,223235,5,8,0:0:0:0:
128,96,223295,1,0,0:0:0:0:
153,69,223355,1,0,0:0:0:0:
177,81,223415,1,8,0:0:0:0:
153,69,223535,1,8,0:0:0:0:
211,84,223655,1,0,0:0:0:0:
211,84,223715,1,0,0:0:0:0:
211,84,223775,1,0,0:0:0:0:
186,23,223835,1,0,0:0:0:0:
171,47,223895,1,8,0:0:0:0:
165,69,224015,1,0,0:0:0:0:
166,72,224075,1,0,0:0:0:0:
166,72,224135,1,0,0:0:0:0:
161,83,224255,1,8,0:0:0:0:
158,82,224315,1,0,0:0:0:0:
158,82,224375,1,8,0:0:0:0:
179,75,224495,1,8,0:0:0:0:
179,75,224615,1,0,0:0:0:0:
162,60,224675,1,0,0:0:0:0:
162,59,224735,1,0,0:0:0:0:
162,60,224795,1,0,0:0:0:0:
162,59,224855,1,8,0:0:0:0:
174,62,224975,1,0,0:0:0:0:
174,62,225035,1,8,0:0:0:0:
174,62,225095,1,0,0:0:0:0:
174,66,225215,1,0,0:0:0:0:
151,46,225275,1,0,0:0:0:0:
145,50,225335,1,8,0:0:0:0:
168,37,225455,1,8,0:0:0:0:
168,37,225575,1,4,0:0:0:0:
181,125,225815,1,8,0:0:0:0:
181,125,225935,1,4,0:0:0:0:
172,80,226175,1,8,0:0:0:0:
172,80,226295,1,4,0:0:0:0:
171,87,226535,1,8,0:0:0:0:
171,87,226655,1,4,0:0:0:0:
172,80,226895,1,8,0:0:0:0:
172,80,227015,1,4,0:0:0:0:
197,82,227255,1,8,0:0:0:0:
197,82,227375,1,4,0:0:0:0:
196,83,227495,1,8,0:0:0:0:
191,90,227735,1,4,0:0:0:0:
166,101,228095,1,4,0:0:0:0:
166,101,228335,1,4,0:0:0:0:
184,118,229295,1,4,0:0:0:0:
184,118,229655,1,4,0:0:0:0:
184,118,230015,1,4,0:0:0:0:
186,80,230255,1,4,0:0:0:0:
186,83,231215,1,4,0:0:0:0:
186,83,231575,1,4,0:0:0:0:
186,83,231935,1,12,0:0:0:0:
186,83,232175,1,12,0:0:0:0:
174,68,233135,1,4,0:0:0:0:
146,86,233495,1,4,0:0:0:0:
146,86,233855,1,4,0:0:0:0:
146,86,234095,1,4,0:0:0:0:
156,78,234695,1,12,0:0:0:0:
156,79,234935,1,4,0:0:0:0:
156,78,235175,1,12,0:0:0:0:
123,204,236435,1,0,0:0:0:0:
123,204,236615,1,8,0:0:0:0:
145,121,236682,1,8,0:0:0:0:
145,121,236749,1,8,0:0:0:0:
145,121,236816,1,8,0:0:0:0:
145,121,236884,1,8,0:0:0:0:
145,121,236951,1,8,0:0:0:0:
145,121,237018,1,8,0:0:0:0:
145,121,237085,1,8,0:0:0:0:
145,121,237153,1,8,0:0:0:0:
145,121,237220,1,8,0:0:0:0:
145,121,237287,1,8,0:0:0:0:
145,121,237354,1,8,0:0:0:0:
145,121,237422,1,8,0:0:0:0:
145,121,237489,1,8,0:0:0:0:
145,121,237556,1,8,0:0:0:0:
145,121,237623,1,8,0:0:0:0:
145,121,237691,1,8,0:0:0:0:
137,168,237758,1,8,0:0:0:0:
137,168,237825,1,8,0:0:0:0:
136,163,237893,1,8,0:0:0:0:
136,163,237960,1,8,0:0:0:0:
136,163,238027,1,8,0:0:0:0:
136,163,238094,1,8,0:0:0:0:
136,158,238162,1,8,0:0:0:0:
136,158,238229,1,8,0:0:0:0:
136,158,238296,1,8,0:0:0:0:
132,188,238363,1,8,0:0:0:0:
136,158,238431,1,8,0:0:0:0:
136,158,238498,1,8,0:0:0:0:
136,158,238565,1,8,0:0:0:0:
136,158,238632,1,8,0:0:0:0:
136,158,238700,1,8,0:0:0:0:
136,158,238767,1,8,0:0:0:0:
136,158,238834,1,8,0:0:0:0:
136,158,238901,1,8,0:0:0:0:
136,158,238969,1,8,0:0:0:0:
136,158,239036,1,8,0:0:0:0:
136,158,239103,1,8,0:0:0:0:
136,158,239171,1,8,0:0:0:0:
136,158,239238,1,8,0:0:0:0:
136,158,239305,1,8,0:0:0:0:
136,158,239372,1,8,0:0:0:0:
136,158,239440,1,8,0:0:0:0:
136,158,239507,1,8,0:0:0:0:
136,158,239574,1,8,0:0:0:0:
136,158,239641,1,8,0:0:0:0:
136,158,239709,1,8,0:0:0:0:
136,158,239776,1,8,0:0:0:0:
136,158,239843,1,0,0:0:0:0:
182,153,240083,1,0,0:0:0:0:
182,153,240323,1,0,0:0:0:0:
182,153,240443,1,8,0:0:0:0:
182,153,240563,1,0,0:0:0:0:
182,153,240683,1,8,0:0:0:0:
182,153,240803,1,0,0:0:0:0:
159,73,240863,1,0,0:0:0:0:
157,65,240923,1,8,0:0:0:0:
159,73,240983,1,8,0:0:0:0:
157,65,241043,1,0,0:0:0:0:
168,105,241163,1,8,0:0:0:0:
168,105,241283,1,0,0:0:0:0:
142,58,241343,1,0,0:0:0:0:
168,105,241403,1,0,0:0:0:0:
150,61,241523,1,8,0:0:0:0:
147,93,241643,1,8,0:0:0:0:
177,59,241703,1,8,0:0:0:0:
147,93,241763,1,0,0:0:0:0:
159,73,241823,1,8,0:0:0:0:
159,77,241883,1,0,0:0:0:0:
162,71,241943,1,0,0:0:0:0:
160,75,242003,1,8,0:0:0:0:
160,93,242123,1,8,0:0:0:0:
160,93,242243,1,0,0:0:0:0:
155,82,242303,1,0,0:0:0:0:
155,82,242363,1,8,0:0:0:0:
155,87,242483,1,0,0:0:0:0:
171,57,242603,1,8,0:0:0:0:
172,56,242723,1,0,0:0:0:0:
184,57,242783,1,0,0:0:0:0:
147,57,242843,1,8,0:0:0:0:
171,57,242963,1,8,0:0:0:0:
162,83,243083,1,0,0:0:0:0:
183,67,243143,1,0,0:0:0:0:
183,67,243203,1,0,0:0:0:0:
156,72,243323,1,0,0:0:0:0:
156,72,243443,1,8,0:0:0:0:
211,56,243563,1,8,0:0:0:0:
218,59,243623,1,8,0:0:0:0:
211,56,243683,1,0,0:0:0:0:
170,42,243743,1,0,0:0:0:0:
170,42,243803,1,0,0:0:0:0:
173,37,243863,1,0,0:0:0:0:
170,42,243923,1,8,0:0:0:0:
170,50,244043,1,8,0:0:0:0:
158,59,244103,1,8,0:0:0:0:
170,50,244163,1,0,0:0:0:0:
157,90,244283,1,0,0:0:0:0:
158,37,244403,1,8,0:0:0:0:
151,23,244463,1,0,0:0:0:0:
161,36,244523,1,8,0:0:0:0:
161,55,244583,1,8,0:0:0:0:
153,40,244643,1,0,0:0:0:0:
151,132,244763,1,0,0:0:0:0:
151,132,244823,1,0,0:0:0:0:
151,132,244883,1,8,0:0:0:0:
146,83,245003,1,0,0:0:0:0:
146,83,245123,1,8,0:0:0:0:
136,82,245183,1,0,0:0:0:0:
134,67,245243,1,0,0:0:0:0:
136,82,245303,1,0,0:0:0:0:
136,82,245363,1,8,0:0:0:0:
209,59,245483,1,8,0:0:0:0:
209,59,245603,1,0,0:0:0:0:
146,72,245663,1,0,0:0:0:0:
146,72,245723,1,0,0:0:0:0:
146,72,245783,1,0,0:0:0:0:
147,67,245843,1,8,0:0:0:0:
181,76,245963,1,0,0:0:0:0:
158,71,246023,1,0,0:0:0:0:
159,70,246083,1,8,0:0:0:0:
157,71,246143,1,8,0:0:0:0:
159,70,246203,1,0,0:0:0:0:
157,72,246263,1,0,0:0:0:0:
158,71,246323,1,8,0:0:0:0:
171,85,246443,1,8,0:0:0:0:
171,86,246563,1,0,0:0:0:0:
159,47,246683,1,0,0:0:0:0:
158,48,246803,1,8,0:0:0:0:
169,75,246923,1,0,0:0:0:0:
161,65,246983,1,0,0:0:0:0:
169,75,247043,1,8,0:0:0:0:
165,73,247203,1,0,0:0:0:0:
165,73,247363,1,0,0:0:0:0:
158,106,247523,1,12,0:0:0:0:
163,117,247763,1,4,0:0:0:0:
163,118,248003,1,12,0:0:0:0:
159,98,248483,1,0,0:0:0:0:
139,88,248603,1,8,0:0:0:0:
168,69,248663,1,8,0:0:0:0:
139,88,248723,1,0,0:0:0:0:
139,88,248843,1,8,0:0:0:0:
83,99,248963,1,0,0:0:0:0:
167,82,249023,1,0,0:0:0:0:
83,99,249083,1,8,0:0:0:0:
167,82,249143,1,8,0:0:0:0:
83,99,249203,1,0,0:0:0:0:
83,99,249323,1,8,0:0:0:0:
126,72,249383,1,8,0:0:0:0:
83,99,249443,1,0,0:0:0:0:
83,99,249563,1,8,0:0:0:0:
166,51,249623,1,0,0:0:0:0:
126,77,249683,1,0,0:0:0:0:
145,56,249803,1,8,0:0:0:0:
143,57,249863,1,0,0:0:0:0:
150,48,249923,1,0,0:0:0:0:
153,39,249983,1,0,0:0:0:0:
155,45,250043,1,8,0:0:0:0:
152,41,250103,1,8,0:0:0:0:
191,7,250163,1,0,0:0:0:0:
174,42,250283,1,8,0:0:0:0:
165,60,250343,1,8,0:0:0:0:
169,65,250403,1,0,0:0:0:0:
165,69,250523,1,8,0:0:0:0:
141,59,250583,1,0,0:0:0:0:
164,70,250643,1,0,0:0:0:0:
141,62,250763,1,8,0:0:0:0:
151,72,250823,1,8,0:0:0:0:
141,62,250883,1,0,0:0:0:0:
156,67,250943,1,0,0:0:0:0:
156,69,251003,1,0,0:0:0:0:
156,69,251063,1,0,0:0:0:0:
156,67,251123,1,0,0:0:0:0:
157,56,251243,1,8,0:0:0:0:
156,57,251363,1,0,0:0:0:0:
162,73,251423,1,0,0:0:0:0:
164,70,251483,1,8,0:0:0:0:
162,74,251543,1,0,0:0:0:0:
166,69,251603,1,0,0:0:0:0:
141,62,251663,1,0,0:0:0:0:
145,60,251723,1,8,0:0:0:0:
135,65,251843,1,0,0:0:0:0:
155,61,251963,1,8,0:0:0:0:
157,56,252023,1,8,0:0:0:0:
135,67,252083,1,0,0:0:0:0:
156,78,252143,1,0,0:0:0:0:
156,80,252203,1,8,0:0:0:0:
156,80,252323,1,4,0:0:0:0:
159,99,252563,1,0,0:0:0:0:
159,99,252683,1,0,0:0:0:0:
159,99,252803,1,8,0:0:0:0:
159,99,252923,1,8,0:0:0:0:
159,99,253043,1,0,0:0:0:0:
159,99,253163,1,12,0:0:0:0:
178,81,253403,1,0,0:0:0:0:
176,82,253523,1,12,0:0:0:0:
156,104,253763,1,0,0:0:0:0:
156,104,253883,1,8,0:0:0:0:
156,104,254003,1,8,0:0:0:0:
156,104,254123,1,4,0:0:0:0:
170,68,254483,1,4,0:0:0:0:
170,68,254843,1,4,0:0:0:0:
170,68,255203,1,4,0:0:0:0:
169,72,255563,1,4,0:0:0:0:
169,72,255923,1,4,0:0:0:0:
