osu file format v14

[General]
AudioFilename: audio.mp3
AudioLeadIn: 0
PreviewTime: 223831
Countdown: 0
SampleSet: Normal
StackLeniency: 0.7
Mode: 2
LetterboxInBreaks: 0
WidescreenStoryboard: 0

[Editor]
Bookmarks: 124734
DistanceSpacing: 0.1
BeatDivisor: 4
GridSize: 16
TimelineZoom: 2.7

[Metadata]
Title:senpai, notice me!
TitleUnicode:senpai, notice me!
Artist:Camellia feat. Nanahira
ArtistUnicode:かめりあ feat. ななひら
Creator:Benita
Version:Rocma & Benita's Rain
Source:osu!
Tags:4orce! Force! female vocal dubstep drop english featured artist fa KamelCamellia cametek Electronic Instrumental Japanese Nelly Benny- BennyBananas Rocma
BeatmapID:2063097
BeatmapSetID:962092

[Difficulty]
HPDrainRate:5
CircleSize:4
OverallDifficulty:9
ApproachRate:9
SliderMultiplier:1.8
SliderTickRate:2

[Events]
//Background and Video events
0,0,"Senpai.png",0,0
//Break Periods
//Storyboard Layer 0 (Background)
//Storyboard Layer 1 (Fail)
//Storyboard Layer 2 (Pass)
//Storyboard Layer 3 (Foreground)
//Storyboard Layer 4 (Overlay)
//Storyboard Sound Samples

[TimingPoints]
760,387.096774193548,4,2,0,50,1,0
11598,-100,4,2,1,60,0,0
13147,-100,4,1,99,60,0,0
13340,-100,4,2,1,60,0,0
25534,-83.3333333333333,4,1,1,50,0,0
35211,-83.3333333333333,4,1,1,50,0,0
35598,-83.3333333333333,4,1,1,40,0,0
35985,-83.3333333333333,4,1,1,30,0,0
37921,-83.3333333333333,4,1,1,70,0,0
38695,-71.4285714285714,4,1,1,70,0,0
39082,-83.3333333333333,4,1,1,70,0,0
40050,-66.6666666666667,4,1,1,70,0,0
40243,-83.3333333333333,4,1,1,70,0,0
43534,-83.3333333333333,4,2,1,70,0,0
44114,-83.3333333333333,4,1,1,70,0,0
44888,-71.4285714285714,4,1,1,70,0,0
45275,-83.3333333333333,4,1,1,70,0,0
46243,-66.6666666666667,4,1,1,70,0,0
46436,-83.3333333333333,4,1,1,70,0,0
58050,-71.4285714285714,4,1,1,70,0,0
58437,-83.3333333333333,4,1,1,70,0,0
62695,-83.3333333333333,4,1,1,60,0,0
68889,-83.3333333333333,4,1,1,60,0,0
69663,-83.3333333333333,4,1,1,60,0,0
70437,-83.3333333333333,4,1,1,60,0,0
71985,-83.3333333333333,4,1,1,60,0,0
75082,-83.3333333333333,4,1,1,70,0,0
80889,-83.3333333333333,4,1,1,40,0,0
81276,-83.3333333333333,4,1,1,80,0,0
84372,-83.3333333333333,4,1,1,60,0,0
86695,-83.3333333333333,4,1,1,40,0,0
87469,-83.3333333333333,4,1,1,70,0,0
87856,-83.3333333333333,4,1,1,80,0,0
88243,-83.3333333333333,4,1,1,70,0,0
90953,-83.3333333333333,4,1,1,80,0,0
91340,-83.3333333333333,4,1,1,70,0,0
93276,-83.3333333333333,4,1,1,40,0,0
93663,-83.3333333333333,4,1,1,70,0,0
94050,-83.3333333333333,4,1,1,80,0,0
94437,-83.3333333333333,4,1,1,70,0,0
99856,-100,4,1,1,60,0,0
107598,-100,4,1,1,60,0,0
110308,-100,4,1,1,55,0,0
110502,-100,4,1,1,50,0,0
110695,-100,4,1,1,45,0,0
110889,-100,4,1,1,40,0,0
111082,-100,4,1,1,35,0,0
111276,-100,4,1,1,30,0,0
112243,-100,4,1,99,70,0,0
119985,-100,4,1,99,60,0,0
120372,-100,4,1,99,50,0,0
120759,-100,4,1,99,40,0,0
121146,-100,4,1,99,30,0,0
121534,-100,4,1,99,20,0,0
124243,-100,4,1,99,5,0,0
124630,-91.8367346938775,4,1,99,25,0,0
135469,-91.8367346938775,4,2,1,40,0,0
137018,-91.8367346938775,4,1,99,50,0,0
137211,-91.8367346938775,4,2,1,50,0,0
149405,-91.8367346938775,4,1,1,50,0,0
161598,-91.8367346938775,4,2,1,5,0,0
161792,-91.8367346938775,4,1,1,100,0,0
167985,-91.8367346938775,4,1,1,50,0,0
168759,-91.8367346938775,4,1,1,40,0,0
169534,-91.8367346938775,4,1,1,30,0,0
174179,-70.3125,4,1,1,80,0,1
185792,-70.3125,4,1,1,40,0,0
186566,-70.3125,4,1,1,80,0,1
197405,-70.3125,4,1,1,80,0,0
197792,-70.3125,4,1,1,30,0,0
198953,-70.3125,4,1,1,80,0,1
209792,-70.3125,4,1,1,60,0,1
210566,-70.3125,4,1,1,40,0,0
211340,-75,4,1,1,80,0,1
216759,-70.3125,4,1,1,80,0,1
222953,-70.3125,4,1,1,40,0,0
223147,-70.3125,4,1,1,60,0,0
223727,-70.3125,4,1,1,80,0,1
236114,-70.3125,4,1,1,80,0,0
236889,-70.3125,4,1,1,80,0,1
247727,-70.3125,4,1,1,80,0,0
247921,-70.3125,4,2,1,40,0,0
248501,-91.8367346938775,4,1,99,50,0,0
248889,-91.8367346938775,4,2,0,50,0,0
257792,-140.625,4,2,0,40,0,0
268437,-140.625,4,2,0,30,0,0
270179,-140.625,4,2,0,20,0,0
275598,-140.625,4,2,0,15,0,0
275985,-140.625,4,2,0,10,0,0
276372,-140.625,4,2,0,5,0,0

[Colours]
Combo1 : 141,202,252
Combo2 : 255,149,149
Combo3 : 241,252,167
Combo4 : 244,62,89

[HitObjects]
139,308,760,6,0,P|69:266|164:137,1,270,2|2,0:0|0:0,0:0:0:0:
326,144,1727,1,2,0:0:0:0:
141,140,2114,2,0,P|83:191|145:253,1,180,2|2,0:0|0:0,0:0:0:0:
267,261,2695,2,0,L|282:358,1,90,2|2,0:0|0:0,0:0:0:0:
137,353,3082,2,0,L|125:256,1,90,2|2,0:0|0:0,0:0:0:0:
470,271,3856,6,0,L|194:236,1,270,2|2,0:0|0:0,0:0:0:0:
481,129,4824,1,2,0:0:0:0:
175,131,5211,2,0,P|140:167|221:263,1,180,2|2,0:0|0:0,0:0:0:0:
315,250,5792,2,0,L|218:234,1,90,2|2,0:0|0:0,0:0:0:0:
108,207,6179,2,0,L|227:204,1,90,2|2,0:0|0:0,0:0:0:0:
51,182,6566,2,0,P|19:140|60:83,1,90,2|0,0:0|0:0,0:0:0:0:
186,96,6953,6,0,P|237:118|171:284,1,270,2|2,0:0|0:0,0:0:0:0:
10,288,7921,1,2,0:0:0:0:
226,336,8308,2,0,L|436:330,1,180,2|2,0:0|0:0,0:0:0:0:
286,293,8889,2,0,P|271:237|279:199,1,90,2|2,0:0|0:0,0:0:0:0:
448,187,9276,2,0,L|347:177,1,90,2|2,0:0|0:0,0:0:0:0:
91,217,10050,6,0,L|370:190,1,270,2|2,0:0|0:0,0:0:0:0:
112,252,11018,2,0,P|62:229|32:113,1,180,2|2,0:0|0:0,0:0:0:0:
299,212,11598,6,0,L|341:182,3,45,8|0|0|0,0:0|0:0|0:0|0:0,0:0:0:0:
244,175,11985,2,0,P|230:135|245:77,1,90,8|2,0:0|0:1,0:0:0:0:
321,61,12276,1,2,0:1:0:0:
405,91,12372,1,8,0:1:0:0:
230,278,12566,2,0,L|227:219,1,45,0|0,0:0|0:0,0:0:0:0:
411,219,12759,2,0,L|471:214,1,45,8|0,0:0|0:0,0:0:0:0:
464,152,12953,2,0,L|405:155,1,45,8|8,0:0|0:0,0:0:0:0:
186,162,13147,6,0,L|13:95,2,180,6|2|2,0:0|0:0|0:0,0:0:0:0:
370,195,14114,2,0,L|376:297,1,90,2|0,0:0|0:0,0:0:0:0:
192,307,14501,2,0,P|152:275|208:177,1,180,2|2,0:0|0:0,0:0:0:0:
385,179,15082,2,0,L|185:162,1,180,2|2,0:0|0:0,0:0:0:0:
392,79,15663,1,8,0:0:0:0:
211,55,15856,1,8,0:0:0:0:
486,267,16243,6,0,L|266:240,2,180,2|2|2,0:0|0:0|0:0,0:0:0:0:
304,330,17211,2,0,L|285:237,1,90,2|0,0:0|0:0,0:0:0:0:
472,192,17598,2,0,L|282:167,1,180,2|2,0:0|0:0,0:0:0:0:
108,179,18179,2,0,P|75:219|129:337,1,180,2|2,0:0|0:0,0:0:0:0:
301,329,18759,1,2,0:0:0:0:
19,250,18953,1,8,0:0:0:0:
262,252,19340,6,0,L|467:249,2,180,2|2|2,0:0|0:0|0:0,0:0:0:0:
75,253,20308,2,0,P|56:204|76:133,1,90,2|0,0:0|0:0,0:0:0:0:
243,142,20695,2,0,L|445:130,1,180,2|2,0:0|0:0,0:0:0:0:
236,225,21276,2,0,P|194:187|247:78,1,180,2|0,0:0|0:0,0:0:0:0:
417,80,21856,1,8,0:0:0:0:
230,65,22050,1,8,0:0:0:0:
429,168,22437,6,0,L|444:274,1,90,2|0,0:0|0:0,0:0:0:0:
313,267,22824,2,0,L|313:370,1,90,2|0,0:0|0:0,0:0:0:0:
498,371,23211,2,0,L|309:362,1,180,2|2,0:0|0:0,0:0:0:0:
136,332,23792,2,0,L|328:318,1,180,2|2,0:0|0:0,0:0:0:0:
498,217,24566,2,0,L|286:187,1,180,2|2,0:0|0:0,0:0:0:0:
27,173,25147,1,8,0:0:0:0:
333,215,25534,5,8,0:0:0:0:
131,201,25824,2,0,L|126:143,1,53.9999983520508,0|8,0:0|0:0,0:0:0:0:
230,122,26114,1,0,0:0:0:0:
84,78,26308,1,8,0:0:0:0:
307,201,26598,2,0,L|360:196,1,53.9999983520508,0|8,0:0|0:0,0:0:0:0:
472,187,26889,1,0,0:0:0:0:
188,306,27082,5,8,0:0:0:0:
370,266,27372,2,0,L|372:205,1,53.9999983520508,0|8,0:0|0:0,0:0:0:0:
211,226,27663,2,0,P|193:165|205:108,1,107.999996704102,0|8,0:0|0:0,0:0:0:0:
333,106,28050,2,0,L|367:50,2,53.9999983520508,8|8|8,0:0|0:0|0:0,0:0:0:0:
205,95,28437,1,0,0:0:0:0:
473,272,28630,5,8,0:0:0:0:
276,256,28921,2,0,L|274:197,1,53.9999983520508,0|8,0:0|0:0,0:0:0:0:
384,140,29211,1,0,0:0:0:0:
200,115,29405,1,8,0:0:0:0:
39,189,29695,2,0,L|36:242,1,53.9999983520508,0|8,0:0|0:0,0:0:0:0:
148,291,29985,1,0,0:0:0:0:
453,301,30179,5,8,0:0:0:0:
298,225,30469,2,0,L|313:164,1,53.9999983520508,0|8,0:0|0:0,0:0:0:0:
469,127,30759,1,0,0:0:0:0:
323,79,30953,1,8,0:0:0:0:
181,136,31243,2,0,L|182:194,1,53.9999983520508,0|8,0:0|0:0,0:0:0:0:
292,246,31534,1,0,0:0:0:0:
37,282,31727,5,8,0:0:0:0:
166,232,31921,2,0,L|198:178,2,53.9999983520508,8|8|8,0:0|0:0|0:0,0:0:0:0:
293,183,32308,1,8,0:0:0:0:
278,157,32405,1,8,0:0:0:0:
256,127,32501,1,8,0:0:0:0:
424,94,32695,6,0,L|456:40,2,53.9999983520508,8|8|8,0:0|0:0|0:0,0:0:0:0:
256,127,33082,1,8,0:0:0:0:
277,104,33179,1,8,0:0:0:0:
302,74,33276,1,8,0:0:0:0:
140,73,33469,6,0,L|78:70,2,53.9999983520508,8|8|8,0:0|0:0|0:0,0:0:0:0:
281,77,33856,2,0,L|347:78,2,53.9999983520508,8|8|8,0:0|0:0|0:0,0:0:0:0:
96,200,34243,6,0,L|28:193,2,53.9999983520508,8|8|8,0:0|0:0|0:0,0:0:0:0:
295,206,34630,2,0,L|302:273,1,53.9999983520508,8|8,0:0|0:0,0:0:0:0:
108,290,34824,6,0,L|47:290,1,53.9999983520508,8|8,0:0|0:0,0:0:0:0:
49,243,35018,2,0,L|111:241,1,53.9999983520508,8|8,0:0|0:0,0:0:0:0:
166,214,35211,2,0,L|236:211,1,53.9999983520508,8|8,0:0|0:0,0:0:0:0:
226,150,35405,2,0,L|159:151,1,53.9999983520508,8|8,0:0|0:0,0:0:0:0:
15,125,35598,6,0,L|29:65,1,53.9999983520508,8|8,0:0|0:0,0:0:0:0:
99,54,35792,2,0,L|183:49,1,53.9999983520508,8|8,0:0|0:0,0:0:0:0:
332,45,35985,2,0,L|367:43,6,26.9999991760254,2|2|2|2|2|2|2,0:0|0:0|0:0|0:0|0:0|0:0|0:0,0:0:0:0:
109,199,36372,5,2,0:0:0:0:
252,277,37921,6,0,P|191:240|263:136,1,215.999993408203,2|0,0:0|0:0,0:0:0:0:
416,139,38501,2,0,L|427:200,1,53.9999983520508,0|0,0:0|0:0,0:0:0:0:
248,234,38695,2,0,L|181:237,1,62.9999980773926,8|0,0:0|0:0,0:0:0:0:
181,171,38889,2,0,L|252:167,1,62.9999980773926,0|0,0:0|0:0,0:0:0:0:
333,165,39082,2,0,P|380:113|306:40,1,161.999995056153,0|0,0:0|0:0,0:0:0:0:
145,114,39469,6,0,L|137:177,1,53.9999983520508,2|0,0:0|0:0,0:0:0:0:
225,199,39663,2,0,L|289:196,2,53.9999983520508,0|0|0,0:0|0:0|0:0,0:0:0:0:
95,232,40050,2,0,L|88:299,1,67.5000025749208,0|0,0:0|0:0,0:0:0:0:
265,318,40243,2,0,L|346:314,1,53.9999983520508,8|0,0:0|0:0,0:0:0:0:
265,318,40437,2,0,L|193:322,1,53.9999983520508,0|0,0:0|0:0,0:0:0:0:
312,295,40630,2,0,P|352:247|291:150,1,161.999995056153,0|0,0:0|0:0,0:0:0:0:
108,215,41018,6,0,P|55:195|117:82,1,215.999993408203,2|0,0:0|0:0,0:0:0:0:
258,83,41598,1,2,0:0:0:0:
111,78,41792,1,8,0:0:0:0:
256,163,41985,2,0,L|256:233,1,53.9999983520508,0|0,0:0|0:0,0:0:0:0:
157,220,42179,2,0,L|154:293,1,53.9999983520508,0|0,0:0|0:0,0:0:0:0:
386,322,42566,5,2,0:0:0:0:
280,265,42759,2,0,L|280:207,1,53.9999983520508,0|0,0:0|0:0,0:0:0:0:
369,207,42953,2,0,L|371:142,1,53.9999983520508,0|0,0:0|0:0,0:0:0:0:
186,120,43340,1,8,0:0:0:0:
319,206,43534,2,0,L|197:209,2,107.999996704102,2|2|2,0:0|0:0|0:0,0:0:0:0:
31,136,44114,6,0,L|257:133,1,215.999993408203,2|0,0:0|0:0,0:0:0:0:
101,141,44695,2,0,L|91:217,1,53.9999983520508,0|0,0:0|0:0,0:0:0:0:
258,248,44889,2,0,L|265:175,1,62.9999980773926,8|0,0:0|0:0,0:0:0:0:
174,175,45082,2,0,L|178:108,1,62.9999980773926,0|0,0:0|0:0,0:0:0:0:
281,108,45276,2,0,P|355:114|456:152,1,161.999995056153,0|0,0:0|0:0,0:0:0:0:
223,266,45663,6,0,L|168:266,1,53.9999983520508,2|0,0:0|0:0,0:0:0:0:
145,238,45856,1,0,0:0:0:0:
166,204,45953,2,0,L|230:202,1,53.9999983520508,0|0,0:0|0:0,0:0:0:0:
26,191,46243,2,0,L|21:119,1,67.5000025749208,0|0,0:0|0:0,0:0:0:0:
207,122,46437,2,0,L|269:121,1,53.9999983520508,8|0,0:0|0:0,0:0:0:0:
257,65,46630,2,0,L|196:67,1,53.9999983520508,0|0,0:0|0:0,0:0:0:0:
301,112,46824,2,0,P|329:173|248:238,1,161.999995056153,0|0,0:0|0:0,0:0:0:0:
95,248,47211,6,0,P|33:203|62:46,1,215.999993408203,2|0,0:0|0:0,0:0:0:0:
138,46,47792,1,2,0:0:0:0:
407,168,47985,1,8,0:0:0:0:
280,212,48179,2,0,P|192:167|180:57,1,215.999993408203,0|0,0:0|0:0,0:0:0:0:
453,101,48759,6,0,P|474:177|464:222,1,107.999996704102,8|2,0:0|0:0,0:0:0:0:
173,248,49147,2,0,P|160:192|185:115,1,107.999996704102,8|2,0:0|0:0,0:0:0:0:
287,144,49534,2,0,P|304:89|282:36,1,107.999996704102,8|2,0:0|0:0,0:0:0:0:
103,41,49921,2,0,P|82:67|69:101,1,53.9999983520508,2|0,0:0|0:0,0:0:0:0:
73,85,50114,2,0,P|85:61|103:41,1,53.9999983520508,2|0,0:0|0:0,0:0:0:0:
314,47,50308,6,0,P|378:73|302:190,1,215.999993408203,2|2,0:0|0:2,0:0:0:0:
190,205,50889,2,0,L|181:140,1,53.9999983520508,0|0,0:0|0:0,0:0:0:0:
384,154,51082,2,0,P|417:116|373:67,1,107.999996704102,8|0,0:0|0:0,0:0:0:0:
311,55,51372,1,0,0:0:0:0:
235,56,51469,1,2,0:2:0:0:
45,153,51663,2,0,L|40:98,1,53.9999983520508,0|0,0:0|0:0,0:0:0:0:
303,126,51856,6,0,L|366:128,1,53.9999983520508,2|0,0:0|0:0,0:0:0:0:
274,76,52050,2,0,L|277:20,1,53.9999983520508,0|0,0:0|0:0,0:0:0:0:
392,87,52243,2,0,P|429:118|408:191,1,107.999996704102,2|0,0:2|0:0,0:0:0:0:
131,260,52630,1,8,0:0:0:0:
275,170,52824,1,0,0:0:0:0:
111,137,53018,2,0,P|86:92|91:25,1,107.999996704102,0|0,0:0|0:0,0:0:0:0:
448,248,53405,6,0,L|224:232,1,215.999993408203,2|2,0:0|0:2,0:0:0:0:
367,149,53985,1,0,0:0:0:0:
84,138,54179,1,8,0:0:0:0:
180,162,54372,2,0,L|181:225,1,53.9999983520508,0|0,0:0|0:0,0:0:0:0:
86,241,54566,2,0,L|75:351,1,107.999996704102,2|0,0:2|0:0,0:0:0:0:
146,368,54856,1,0,0:0:0:0:
333,366,54953,6,0,L|406:365,1,53.9999983520508,2|0,0:0|0:0,0:0:0:0:
333,320,55147,2,0,L|256:318,1,53.9999983520508,0|0,0:0|0:0,0:0:0:0:
195,300,55340,2,0,L|191:242,1,53.9999983520508,2|0,0:2|0:0,0:0:0:0:
273,237,55534,2,0,L|278:168,1,53.9999983520508,0|0,0:0|0:0,0:0:0:0:
97,160,55727,1,8,0:0:0:0:
238,103,55921,2,0,L|131:95,2,107.999996704102,2|2|2,0:2|0:2|0:2,0:0:0:0:
489,276,56501,6,0,L|257:240,1,215.999993408203,2|2,0:0|0:2,0:0:0:0:
410,185,57082,2,0,L|419:120,1,53.9999983520508,0|0,0:0|0:0,0:0:0:0:
221,147,57275,2,0,P|188:109|232:60,1,107.999996704102,8|0,0:0|0:0,0:0:0:0:
294,48,57565,1,0,0:0:0:0:
370,49,57662,1,2,0:2:0:0:
199,95,57856,6,0,L|191:38,1,53.9999983520508,0|0,0:0|0:0,0:0:0:0:
394,137,58050,2,0,L|404:204,1,62.9999980773926,2|0,0:0|0:0,0:0:0:0:
320,214,58243,2,0,L|232:217,1,62.9999980773926,0|0,0:0|0:0,0:0:0:0:
41,225,58437,2,0,P|28:191|72:118,1,107.999996704102,2|0,0:2|0:0,0:0:0:0:
387,219,58823,1,8,0:0:0:0:
243,129,59017,1,0,0:0:0:0:
401,137,59211,2,0,P|426:92|421:25,1,107.999996704102,0|0,0:0|0:0,0:0:0:0:
64,248,59598,6,0,L|288:232,1,215.999993408203,2|2,0:0|0:2,0:0:0:0:
145,149,60178,1,0,0:0:0:0:
428,138,60372,1,8,0:0:0:0:
332,162,60566,2,0,L|331:225,1,53.9999983520508,0|0,0:0|0:0,0:0:0:0:
426,241,60759,2,0,L|437:351,1,107.999996704102,2|0,0:2|0:0,0:0:0:0:
366,368,61049,1,0,0:0:0:0:
171,284,61147,6,0,P|131:252|140:179,1,107.999996704102,2|0,0:0|0:0,0:0:0:0:
227,187,61437,2,0,P|247:148|213:85,1,107.999996704102,2|0,0:0|0:0,0:0:0:0:
118,90,61727,2,0,L|98:33,1,53.9999983520508,2|0,0:0|0:0,0:0:0:0:
406,65,61921,2,0,P|431:109|418:181,1,107.999996704102,8|8,0:0|0:2,0:0:0:0:
73,196,62308,1,8,0:2:0:0:
78,170,62695,5,8,0:0:0:0:
233,169,62985,2,0,L|228:111,1,53.9999983520508,0|8,0:0|0:0,0:0:0:0:
108,96,63276,1,0,0:0:0:0:
219,62,63469,1,8,0:0:0:0:
423,103,63759,2,0,L|429:177,1,53.9999983520508,0|8,0:0|0:0,0:0:0:0:
332,205,64050,1,0,0:0:0:0:
69,301,64243,5,8,0:0:0:0:
251,261,64533,2,0,L|253:200,1,53.9999983520508,0|8,0:0|0:0,0:0:0:0:
99,186,64824,2,0,P|81:125|93:68,1,107.999996704102,0|8,0:0|0:0,0:0:0:0:
225,78,65211,2,0,L|259:22,2,53.9999983520508,0|0|8,0:0|0:0|0:0,0:0:0:0:
71,60,65598,1,0,0:0:0:0:
356,251,65791,5,8,0:0:0:0:
473,202,66082,2,0,L|471:143,1,53.9999983520508,0|8,0:0|0:0,0:0:0:0:
346,100,66372,1,0,0:0:0:0:
200,115,66566,1,8,0:0:0:0:
39,189,66856,2,0,L|36:242,1,53.9999983520508,0|8,0:0|0:0,0:0:0:0:
148,291,67146,1,0,0:0:0:0:
453,301,67340,5,8,0:0:0:0:
298,225,67630,2,0,L|313:164,1,53.9999983520508,0|8,0:0|0:0,0:0:0:0:
469,127,67920,1,0,0:0:0:0:
323,79,68114,1,8,0:0:0:0:
181,136,68404,2,0,L|182:194,1,53.9999983520508,0|8,0:0|0:0,0:0:0:0:
292,246,68695,1,0,0:0:0:0:
37,282,68888,5,8,0:0:0:0:
166,232,69082,1,8,0:0:0:0:
123,203,69179,1,8,0:0:0:0:
83,177,69276,1,8,0:0:0:0:
251,150,69469,1,8,0:0:0:0:
276,136,69566,1,8,0:0:0:0:
317,114,69663,1,8,0:0:0:0:
157,74,69856,6,0,L|125:20,2,53.9999983520508,8|8|8,0:0|0:0|0:0,0:0:0:0:
317,218,70243,1,0,0:0:0:0:
292,248,70340,1,8,0:0:0:0:
271,271,70437,1,8,0:0:0:0:
103,275,70630,6,0,L|41:272,2,53.9999983520508,0|8|8,0:0|0:0|0:0,0:0:0:0:
252,222,71017,2,0,L|318:223,2,53.9999983520508,0|8|8,0:0|0:0|0:0,0:0:0:0:
96,200,71404,6,0,L|28:193,2,53.9999983520508,0|8|8,0:0|0:0|0:0,0:0:0:0:
268,201,71792,2,0,L|275:268,1,53.9999983520508,8|8,0:0|0:0,0:0:0:0:
108,290,71985,6,0,L|104:218,1,53.9999983520508,8|8,0:0|0:0,0:0:0:0:
161,220,72179,2,0,L|223:218,1,53.9999983520508,8|8,0:0|0:0,0:0:0:0:
111,167,72372,2,0,L|41:164,1,53.9999983520508,8|8,0:0|0:0,0:0:0:0:
57,122,72566,2,0,L|124:123,1,53.9999983520508,8|8,0:0|0:0,0:0:0:0:
281,166,72759,6,0,L|350:162,1,53.9999983520508,8|8,0:0|0:0,0:0:0:0:
281,166,72953,2,0,L|225:167,1,53.9999983520508,8|8,0:0|0:0,0:0:0:0:
437,164,73147,1,8,0:0:0:0:
461,175,73195,1,8,0:0:0:0:
477,196,73243,1,8,0:0:0:0:
483,222,73292,1,8,0:0:0:0:
476,248,73340,1,8,0:0:0:0:
458,268,73388,1,8,0:0:0:0:
434,279,73437,1,8,0:0:0:0:
126,277,73533,5,2,0:0:0:0:
279,262,73921,2,0,P|286:212|257:153,1,107.999996704102,0|2,0:0|0:0,0:0:0:0:
95,138,74308,2,0,P|69:97|83:34,1,107.999996704102,2|0,0:0|0:0,0:0:0:0:
234,32,74695,2,0,L|121:19,1,107.999996704102,2|2,0:0|0:0,0:0:0:0:
461,212,75082,6,0,L|241:189,1,215.999993408203,2|2,0:0|0:2,0:0:0:0:
354,111,75663,1,0,0:0:0:0:
66,192,75856,2,0,L|67:253,1,53.9999983520508,8|0,0:0|0:0,0:0:0:0:
151,280,76050,2,0,L|218:280,1,53.9999983520508,0|0,0:0|0:0,0:0:0:0:
294,246,76243,2,0,L|294:187,1,53.9999983520508,2|0,0:0|0:0,0:0:0:0:
206,173,76437,2,0,L|140:171,1,53.9999983520508,0|0,0:0|0:0,0:0:0:0:
151,117,76630,6,0,L|215:117,1,53.9999983520508,2|0,0:0|0:0,0:0:0:0:
311,118,76824,2,0,L|368:116,1,53.9999983520508,0|0,0:0|0:0,0:0:0:0:
393,99,77018,2,0,L|393:43,1,53.9999983520508,2|0,0:0|0:0,0:0:0:0:
361,51,77211,2,0,L|304:51,1,53.9999983520508,0|0,0:0|0:0,0:0:0:0:
113,95,77405,2,0,P|97:142|92:224,1,107.999996704102,8|0,0:0|0:0,0:0:0:0:
252,256,77792,1,0,0:0:0:0:
101,268,77985,1,8,0:2:0:0:
431,273,78179,6,0,P|474:232|393:114,1,215.999993408203,2|2,0:0|0:2,0:0:0:0:
296,114,78759,1,0,0:0:0:0:
36,219,78953,2,0,L|36:152,1,53.9999983520508,8|0,0:0|0:0,0:0:0:0:
126,153,79147,2,0,L|188:152,1,53.9999983520508,0|0,0:0|0:0,0:0:0:0:
184,74,79340,2,0,L|120:76,1,53.9999983520508,2|0,0:0|0:0,0:0:0:0:
42,136,79534,2,0,L|43:192,1,53.9999983520508,0|0,0:0|0:0,0:0:0:0:
130,228,79727,6,0,L|190:227,1,53.9999983520508,2|0,0:0|0:0,0:0:0:0:
266,228,79921,2,0,L|325:226,1,53.9999983520508,0|0,0:0|0:0,0:0:0:0:
362,196,80114,2,0,L|363:141,1,53.9999983520508,2|0,0:0|0:0,0:0:0:0:
339,108,80308,2,0,L|278:110,1,53.9999983520508,0|0,0:0|0:0,0:0:0:0:
482,45,80501,1,8,0:0:0:0:
365,74,80695,1,2,0:2:0:0:
480,152,80889,2,0,L|480:106,3,35.9999989013672,2|2|2|2,0:0|0:0|0:0|0:0,0:0:0:0:
427,183,81179,1,2,0:0:0:0:
148,224,81276,6,0,P|66:201|101:89,1,215.999993408203,2|2,0:0|0:2,0:0:0:0:
206,82,81856,1,0,0:0:0:0:
482,193,82050,2,0,L|485:249,1,53.9999983520508,8|0,0:0|0:0,0:0:0:0:
403,282,82243,2,0,L|335:285,1,53.9999983520508,0|0,0:0|0:0,0:0:0:0:
429,219,82437,2,0,L|423:159,1,53.9999983520508,2|0,0:0|0:0,0:0:0:0:
336,145,82630,2,0,L|274:147,1,53.9999983520508,0|0,0:0|0:0,0:0:0:0:
281,91,82824,6,0,L|339:88,1,53.9999983520508,2|0,0:0|0:0,0:0:0:0:
394,84,83018,2,0,L|332:90,1,53.9999983520508,0|0,0:0|0:0,0:0:0:0:
245,150,83211,2,0,L|247:210,1,53.9999983520508,2|0,0:0|0:0,0:0:0:0:
324,241,83405,2,0,L|414:239,1,53.9999983520508,0|0,0:0|0:0,0:0:0:0:
206,247,83598,2,0,L|91:241,3,107.999996704102,8|0|0|0,0:0|0:0|0:0|0:0,0:0:0:0:
385,272,84372,6,0,P|439:238|366:113,1,215.999993408203,2|0,0:0|0:0,0:0:0:0:
151,155,85147,2,0,P|131:217|149:274,1,107.999996704102,8|2,0:0|0:0,0:0:0:0:
261,283,85534,1,2,0:0:0:0:
79,294,85727,2,0,P|28:261|136:63,1,323.999990112305,0|2,0:0|0:0,0:0:0:0:
284,95,86695,2,0,L|415:87,3,107.999996704102,8|8|8|8,0:2|0:2|0:2|0:2,0:0:0:0:
51,212,87469,6,0,L|271:189,1,215.999993408203,2|2,0:0|0:2,0:0:0:0:
158,111,88050,1,0,0:0:0:0:
446,192,88243,2,0,L|445:253,1,53.9999983520508,2|0,0:0|0:0,0:0:0:0:
361,280,88437,2,0,L|294:280,1,53.9999983520508,0|0,0:0|0:0,0:0:0:0:
218,246,88630,2,0,L|218:187,1,53.9999983520508,2|0,0:0|0:0,0:0:0:0:
306,173,88824,2,0,L|372:171,1,53.9999983520508,0|0,0:0|0:0,0:0:0:0:
361,117,89017,6,0,L|297:117,1,53.9999983520508,2|0,0:0|0:0,0:0:0:0:
201,118,89211,2,0,L|144:116,1,53.9999983520508,0|0,0:0|0:0,0:0:0:0:
119,99,89405,2,0,L|119:43,1,53.9999983520508,2|0,0:0|0:0,0:0:0:0:
151,51,89598,2,0,L|208:51,1,53.9999983520508,0|0,0:0|0:0,0:0:0:0:
399,95,89792,2,0,P|415:142|420:224,1,107.999996704102,8|0,0:0|0:0,0:0:0:0:
260,256,90179,1,0,0:0:0:0:
411,268,90372,1,8,0:2:0:0:
81,273,90566,6,0,P|38:232|119:114,1,215.999993408203,2|2,0:0|0:2,0:0:0:0:
216,114,91146,1,0,0:0:0:0:
476,219,91340,2,0,L|476:152,1,53.9999983520508,2|0,0:0|0:0,0:0:0:0:
386,153,91534,2,0,L|324:152,1,53.9999983520508,0|0,0:0|0:0,0:0:0:0:
328,74,91727,2,0,L|392:76,1,53.9999983520508,2|0,0:0|0:0,0:0:0:0:
470,136,91921,2,0,L|469:192,1,53.9999983520508,0|0,0:0|0:0,0:0:0:0:
382,228,92114,6,0,L|322:227,1,53.9999983520508,2|0,0:0|0:0,0:0:0:0:
246,228,92308,2,0,L|187:226,1,53.9999983520508,0|0,0:0|0:0,0:0:0:0:
150,196,92501,2,0,L|149:141,1,53.9999983520508,2|0,0:0|0:0,0:0:0:0:
173,108,92695,2,0,L|234:110,1,53.9999983520508,0|0,0:0|0:0,0:0:0:0:
30,45,92888,1,8,0:0:0:0:
147,74,93082,1,2,0:2:0:0:
32,152,93276,2,0,L|32:106,3,35.9999989013672,2|2|2|2,0:0|0:0|0:0|0:0,0:0:0:0:
85,183,93566,1,2,0:0:0:0:
364,224,93663,6,0,P|446:201|411:89,1,215.999993408203,2|2,0:0|0:2,0:0:0:0:
306,82,94243,1,0,0:0:0:0:
30,193,94437,2,0,L|27:249,1,53.9999983520508,8|0,0:0|0:0,0:0:0:0:
109,282,94630,2,0,L|177:285,1,53.9999983520508,0|0,0:0|0:0,0:0:0:0:
83,219,94824,2,0,L|89:159,1,53.9999983520508,2|0,0:0|0:0,0:0:0:0:
176,145,95017,2,0,L|238:147,1,53.9999983520508,0|0,0:0|0:0,0:0:0:0:
231,91,95211,6,0,L|173:88,1,53.9999983520508,2|0,0:0|0:0,0:0:0:0:
118,84,95405,2,0,L|180:90,1,53.9999983520508,0|0,0:0|0:0,0:0:0:0:
267,150,95598,2,0,L|265:210,1,53.9999983520508,2|0,0:0|0:0,0:0:0:0:
188,241,95792,2,0,L|98:239,1,53.9999983520508,0|0,0:0|0:0,0:0:0:0:
306,247,95985,2,0,L|421:241,3,107.999996704102,8|0|2|2,0:0|0:0|0:2|0:2,0:0:0:0:
116,236,96759,6,0,L|351:222,1,215.999993408203,2|0,0:0|0:0,0:0:0:0:
181,180,97340,2,0,L|167:119,1,53.9999983520508,0|0,0:0|0:0,0:0:0:0:
327,168,97534,2,0,P|364:189|345:260,1,107.999996704102,2|0,0:0|0:0,0:0:0:0:
269,268,97824,2,0,P|238:245|256:165,1,107.999996704102,2|0,0:0|0:0,0:0:0:0:
336,175,98114,2,0,L|345:114,1,53.9999983520508,8|0,0:0|0:0,0:0:0:0:
141,119,98308,6,0,L|24:115,1,107.999996704102,2|0,0:0|0:0,0:0:0:0:
135,98,98598,2,0,L|245:94,1,107.999996704102,2|0,0:0|0:0,0:0:0:0:
151,57,98889,2,0,L|79:58,1,53.9999983520508,8|0,0:0|0:0,0:0:0:0:
341,158,99082,2,0,P|347:219|296:260,1,107.999996704102,2|0,0:0|0:0,0:0:0:0:
207,251,99372,2,0,L|320:244,1,107.999996704102,2|0,0:0|0:0,0:0:0:0:
219,201,99663,2,0,L|163:198,1,53.9999983520508,8|0,0:0|0:0,0:0:0:0:
326,162,99856,6,0,L|499:95,2,180,2|0|8,0:0|0:0|0:0,0:0:0:0:
142,195,100824,2,0,L|136:297,1,90,0|0,0:0|0:0,0:0:0:0:
320,307,101210,2,0,P|360:275|304:177,1,180,0|0,0:0|0:0,0:0:0:0:
127,179,101791,2,0,L|327:162,1,180,0|8,0:0|0:0,0:0:0:0:
470,104,102372,2,0,L|275:85,1,180,0|0,0:0|0:0,0:0:0:0:
26,267,102952,6,0,L|246:240,1,180,2|0,0:0|0:0,0:0:0:0:
101,169,103534,1,2,0:0:0:0:
385,157,103727,1,8,0:0:0:0:
250,142,103920,2,0,L|269:49,1,90,0|0,0:0|0:0,0:0:0:0:
417,41,104307,2,0,L|238:64,1,180,0|0,0:0|0:0,0:0:0:0:
404,179,104888,2,0,P|437:219|383:337,1,180,0|8,0:0|0:0,0:0:0:0:
82,328,105469,2,0,P|42:283|80:172,1,180,0|0,0:0|0:0,0:0:0:0:
356,229,106049,6,0,L|151:226,2,180,2|0|8,0:0|0:0|0:0,0:0:0:0:
186,253,107017,2,0,P|184:297|202:338,1,90,0|0,0:0|0:0,0:0:0:0:
383,362,107404,2,0,L|181:350,1,180,0|0,0:0|0:0,0:0:0:0:
329,267,107985,2,0,L|240:260,1,90,0|0,0:0|0:0,0:0:0:0:
383,185,108372,2,0,L|274:174,1,90,8|0,0:0|0:0,0:0:0:0:
426,111,108759,2,0,L|329:100,1,90,0|0,0:0|0:0,0:0:0:0:
64,165,109146,6,0,L|49:271,1,90,2|0,0:0|0:0,0:0:0:0:
199,267,109533,2,0,L|199:370,1,90,0|2,0:0|0:0,0:0:0:0:
349,271,109921,2,0,L|352:376,1,90,8|0,0:0|0:0,0:0:0:0:
500,267,110308,2,0,L|508:369,1,90,0|2,0:0|0:0,0:0:0:0:
179,364,110695,6,0,L|121:359,1,45,10|8,0:0|0:0,0:0:0:0:
140,297,110889,2,0,L|202:303,1,45,8|8,0:0|0:0,0:0:0:0:
248,303,111082,2,0,L|295:302,1,45,8|8,0:0|0:0,0:0:0:0:
295,246,111276,2,0,L|244:245,1,45,8|8,0:0|0:0,0:0:0:0:
81,243,111469,2,0,L|34:241,1,45,8|8,0:0|0:0,0:0:0:0:
36,180,111663,2,0,L|90:185,1,45,8|8,0:0|0:0,0:0:0:0:
269,192,111856,2,0,L|321:195,1,45,8|8,0:0|0:0,0:0:0:0:
269,192,112050,2,0,L|221:187,1,45,8|8,0:0|0:0,0:0:0:0:
439,130,112243,5,6,0:0:0:0:
256,192,112437,12,0,124243,0:0:0:0:
256,192,124630,6,0,L|480:192,2,196.000007975261,0|0|0,0:0|0:0|0:0,0:0:0:0:
352,192,125598,2,0,P|419:136|352:80,1,196.000007975261,0|0,0:0|0:0,0:0:0:0:
208,80,126179,6,0,L|320:80,2,98.0000039876304,0|0|0,0:0|0:0|0:0,0:0:0:0:
64,128,126759,2,0,L|176:128,2,98.0000039876304,0|0|0,0:0|0:0|0:0,0:0:0:0:
256,192,127727,6,0,L|32:192,2,196.000007975261,0|0|0,0:0|0:0|0:0,0:0:0:0:
160,192,128695,2,0,P|93:136|160:80,1,196.000007975261,0|0,0:0|0:0,0:0:0:0:
304,80,129276,5,0,0:0:0:0:
160,144,129469,1,0,0:0:0:0:
256,144,129663,2,0,L|272:256,1,98.0000039876304,0|0,0:0|0:0,0:0:0:0:
128,208,130050,1,0,0:0:0:0:
272,272,130243,2,0,P|365:255|400:160,1,196.000007975261,0|0,0:0|0:0,0:0:0:0:
256,224,130824,6,0,L|32:224,1,196.000007975261,0|0,0:0|0:0,0:0:0:0:
160,224,131405,1,0,0:0:0:0:
304,208,131598,1,0,0:0:0:0:
208,160,131792,2,0,L|416:160,1,196.000007975261,0|0,0:0|0:0,0:0:0:0:
304,64,132372,5,0,0:0:0:0:
212,91,132565,1,0,0:0:0:0:
172,177,132759,1,0,0:0:0:0:
208,265,132952,1,0,0:0:0:0:
298,297,133146,1,0,0:0:0:0:
400,288,133340,1,0,0:0:0:0:
298,297,133534,1,0,0:0:0:0:
196,287,133728,1,0,0:0:0:0:
298,297,133921,5,0,0:0:0:0:
432,288,134114,1,0,0:0:0:0:
298,297,134308,1,0,0:0:0:0:
164,287,134501,1,0,0:0:0:0:
298,297,134695,1,0,0:0:0:0:
464,288,134889,1,0,0:0:0:0:
298,297,135082,1,0,0:0:0:0:
132,288,135276,1,0,0:0:0:0:
416,256,135469,6,0,L|465:256,1,49.0000019938152,8|0,0:0|0:0,0:0:0:0:
480,208,135663,1,8,0:0:0:0:
465,256,135759,2,0,L|416:256,1,49.0000019938152,0|8,0:0|0:0,0:0:0:0:
256,256,136050,2,0,L|176:256,1,49.0000019938152,2|2,0:0|0:0,0:0:0:0:
368,208,136243,2,0,L|496:208,1,98.0000039876304,8|0,0:0|0:0,0:0:0:0:
320,160,136630,2,0,L|320:80,1,49.0000019938152,8|8,0:0|0:0,0:0:0:0:
400,112,136824,2,0,L|400:176,1,49.0000019938152,8|8,0:0|0:0,0:0:0:0:
192,240,137018,6,0,L|64:240,1,98.0000039876304,6|0,0:0|0:0,0:0:0:0:
224,192,137405,2,0,L|240:96,1,98.0000039876304,8|0,0:0|0:0,0:0:0:0:
96,160,137792,2,0,L|80:64,1,98.0000039876304,0|0,0:0|0:0,0:0:0:0:
144,48,138082,1,0,0:0:0:0:
240,48,138179,2,0,L|256:160,1,98.0000039876304,8|0,0:0|0:0,0:0:0:0:
96,192,138566,5,0,0:0:0:0:
256,192,138759,1,0,0:0:0:0:
96,240,138953,2,0,L|80:144,1,98.0000039876304,8|0,0:0|0:0,0:0:0:0:
144,128,139243,1,0,0:0:0:0:
240,128,139340,2,0,L|256:48,2,49.0000019938152,0|0|8,0:0|0:0|0:0,0:0:0:0:
112,128,139727,2,0,L|0:128,1,98.0000039876304,8|0,0:0|0:0,0:0:0:0:
320,240,140114,6,0,L|448:240,1,98.0000039876304,0|0,0:0|0:0,0:0:0:0:
288,176,140501,2,0,L|272:80,1,98.0000039876304,8|0,0:0|0:0,0:0:0:0:
416,160,140888,2,0,L|432:64,1,98.0000039876304,0|0,0:0|0:0,0:0:0:0:
368,48,141178,1,0,0:0:0:0:
272,48,141275,2,0,L|256:160,1,98.0000039876304,8|0,0:0|0:0,0:0:0:0:
416,192,141662,5,0,0:0:0:0:
256,192,141856,2,0,L|384:192,2,98.0000039876304,0|8|0,0:0|0:0|0:0,0:0:0:0:
240,128,142339,1,0,0:0:0:0:
336,128,142437,2,0,L|352:48,2,49.0000019938152,0|0|0,0:0|0:0|0:0,0:0:0:0:
192,128,142824,1,8,0:0:0:0:
336,96,143018,1,0,0:0:0:0:
48,320,143211,6,0,L|32:208,1,98.0000039876304,0|0,0:0|0:0,0:0:0:0:
192,192,143598,2,0,L|64:192,1,98.0000039876304,8|0,0:0|0:0,0:0:0:0:
256,160,143985,2,0,L|384:160,1,98.0000039876304,0|0,0:0|0:0,0:0:0:0:
304,160,144276,1,0,0:0:0:0:
208,144,144372,2,0,L|80:144,1,98.0000039876304,8|0,0:0|0:0,0:0:0:0:
256,80,144759,5,0,0:0:0:0:
112,64,144953,1,0,0:0:0:0:
256,144,145147,2,0,L|128:144,1,98.0000039876304,8|0,0:0|0:0,0:0:0:0:
128,112,145437,1,0,0:0:0:0:
224,96,145534,2,0,L|240:48,2,49.0000019938152,0|0|8,0:0|0:0|0:0,0:0:0:0:
80,144,145921,1,8,0:0:0:0:
224,144,146114,1,0,0:0:0:0:
496,192,146308,6,0,L|272:192,1,196.000007975261,0|8,0:0|0:0,0:0:0:0:
416,160,146889,2,0,L|496:160,1,49.0000019938152,0|0,0:0|0:0,0:0:0:0:
368,112,147082,2,0,L|240:112,1,98.0000039876304,0|0,0:0|0:0,0:0:0:0:
416,80,147469,1,8,0:0:0:0:
128,112,147663,6,0,P|74:161|147:256,1,196.000007975261,0|0,0:0|0:0,0:0:0:0:
224,256,148243,1,8,0:0:0:0:
384,256,148437,1,0,0:0:0:0:
272,224,148630,2,0,L|256:112,1,98.0000039876304,0|0,0:0|0:0,0:0:0:0:
416,112,149018,2,0,P|464:160|402:209,1,147.000005981446,8|0,0:0|0:0,0:0:0:0:
240,256,149405,5,2,0:0:0:0:
112,256,149598,2,0,L|48:256,2,49.0000019938152,0|0|2,0:0|0:0|0:0,0:0:0:0:
240,208,149985,1,0,0:0:0:0:
191,208,150081,1,0,0:0:0:0:
142,208,150178,1,2,0:0:0:0:
272,160,150372,2,0,L|336:160,2,49.0000019938152,0|0|2,0:0|0:0|0:0,0:0:0:0:
112,160,150759,1,0,0:0:0:0:
368,256,150953,6,0,L|496:256,1,98.0000039876304,2|0,0:0|0:0,0:0:0:0:
304,240,151340,2,0,L|176:240,1,98.0000039876304,2|0,0:0|0:0,0:0:0:0:
256,240,151630,1,0,0:0:0:0:
336,208,151727,2,0,L|352:160,2,49.0000019938152,2|0|8,0:0|0:0|0:0,0:0:0:0:
272,224,152018,1,0,0:0:0:0:
176,224,152114,2,0,L|64:224,1,98.0000039876304,10|0,0:0|0:0,0:0:0:0:
368,224,152501,5,2,0:0:0:0:
496,176,152695,1,0,0:0:0:0:
447,176,152791,1,0,0:0:0:0:
398,176,152888,1,2,0:0:0:0:
272,176,153082,2,0,L|176:176,2,49.0000019938152,0|0|2,0:0|0:0|0:0,0:0:0:0:
400,128,153469,1,0,0:0:0:0:
351,128,153565,1,0,0:0:0:0:
302,128,153662,1,2,0:0:0:0:
432,80,153856,1,0,0:0:0:0:
160,96,154050,5,2,0:0:0:0:
288,112,154243,2,0,L|304:240,1,98.0000039876304,0|2,0:0|0:0,0:0:0:0:
192,240,154630,2,0,L|128:240,1,49.0000019938152,0|0,0:0|0:0,0:0:0:0:
240,208,154824,2,0,L|368:208,1,98.0000039876304,2|0,0:0|0:0,0:0:0:0:
192,160,155211,2,0,L|64:160,1,98.0000039876304,8|0,0:0|0:0,0:0:0:0:
368,96,155598,5,2,0:0:0:0:
240,96,155792,2,0,L|176:96,2,49.0000019938152,0|0|2,0:0|0:0|0:0,0:0:0:0:
368,160,156179,2,0,L|448:160,2,49.0000019938152,0|0|2,0:0|0:0|0:0,0:0:0:0:
240,224,156566,1,0,0:0:0:0:
289,224,156662,1,0,0:0:0:0:
338,224,156759,1,2,0:0:0:0:
208,176,156953,1,0,0:0:0:0:
496,176,157147,5,2,0:0:0:0:
384,192,157340,2,0,L|384:320,1,98.0000039876304,0|2,0:0|0:0,0:0:0:0:
208,274,157727,2,0,L|208:162,1,98.0000039876304,0|2,0:0|0:0,0:0:0:0:
384,128,158114,2,0,L|384:240,1,98.0000039876304,0|2,0:0|0:0,0:0:0:0:
496,208,158501,1,0,0:0:0:0:
208,192,158695,6,0,L|80:192,3,98.0000039876304,2|0|0|0,0:0|0:0|0:0|0:0,0:0:0:0:
208,144,159469,2,0,L|128:48,3,98.0000039876304,0|0|0|0,0:0|0:0|0:0|0:0,0:0:0:0:
272,48,160243,1,0,0:0:0:0:
256,192,160437,12,0,161405,0:0:0:0:
256,256,161792,6,0,L|16:256,1,196.000007975261,6|0,0:0|0:0,0:0:0:0:
256,256,162566,2,0,L|496:256,1,196.000007975261,0|0,0:0|0:0,0:0:0:0:
128,320,163340,6,0,P|64:272|160:208,1,196.000007975261,6|0,0:0|0:0,0:0:0:0:
256,192,163921,1,0,0:0:0:0:
384,320,164114,2,0,P|448:272|352:208,1,196.000007975261,0|0,0:0|0:0,0:0:0:0:
64,176,164889,6,0,L|288:176,1,196.000007975261,6|0,0:0|0:0,0:0:0:0:
379,175,165469,1,0,0:0:0:0:
496,176,165663,2,0,L|272:176,1,196.000007975261,0|0,0:0|0:0,0:0:0:0:
16,176,166437,6,0,L|240:176,1,196.000007975261,6|0,0:0|0:0,0:0:0:0:
336,176,167018,1,0,0:0:0:0:
208,176,167211,2,0,L|208:240,2,49.0000019938152,0|0|0,0:0|0:0|0:0,0:0:0:0:
496,176,167598,2,0,L|496:240,2,49.0000019938152,0|0|0,0:0|0:0|0:0,0:0:0:0:
208,144,167985,6,0,L|96:144,1,98.0000039876304,8|8,0:0|0:0,0:0:0:0:
256,96,168372,1,8,0:0:0:0:
112,80,168566,1,8,0:0:0:0:
256,112,168759,6,0,L|368:112,1,98.0000039876304,8|8,0:0|0:0,0:0:0:0:
208,64,169146,1,8,0:0:0:0:
352,48,169340,1,8,0:0:0:0:
96,176,169534,6,0,L|80:304,1,98.0000039876304,8|8,0:0|0:0,0:0:0:0:
224,288,169921,1,8,0:0:0:0:
80,288,170114,1,8,0:0:0:0:
224,208,170308,6,0,L|240:336,1,98.0000039876304,8|8,0:0|0:0,0:0:0:0:
96,320,170695,1,8,0:0:0:0:
240,320,170888,1,8,0:0:0:0:
496,320,171082,5,8,0:0:0:0:
492,271,171178,1,8,0:0:0:0:
475,225,171275,1,8,0:0:0:0:
445,186,171372,1,8,0:0:0:0:
406,158,171469,1,8,0:0:0:0:
359,142,171565,1,8,0:0:0:0:
311,140,171662,1,8,0:0:0:0:
240,144,171759,1,8,0:0:0:0:
400,96,171856,6,0,L|480:96,2,49.0000019938152,8|8|8,0:0|0:0|0:0,0:0:0:0:
320,96,172147,1,8,0:0:0:0:
160,64,172243,2,0,L|80:64,2,49.0000019938152,8|8|8,0:0|0:0|0:0,0:0:0:0:
240,64,172534,1,8,0:0:0:0:
400,64,172630,5,2,0:0:0:0:
256,160,173018,2,0,L|240:224,1,49.0000019938152,0|0,0:0|0:0,0:0:0:0:
336,224,173211,2,0,L|320:288,1,49.0000019938152,2|2,0:0|0:0,0:0:0:0:
160,288,173405,2,0,L|32:288,1,98.0000039876304,2|0,0:0|0:0,0:0:0:0:
112,288,173695,1,2,0:0:0:0:
176,272,173792,1,2,0:0:0:0:
208,208,173889,1,0,0:0:0:0:
176,144,173985,1,2,0:0:0:0:
112,128,174082,1,0,0:0:0:0:
304,112,174179,6,0,P|365:156|288:224,1,192,2|0,0:0|0:0,0:0:0:0:
144,240,174566,2,0,L|0:240,1,128,2|0,0:0|0:0,0:0:0:0:
176,256,174953,2,0,L|320:256,1,128,2|0,0:0|0:0,0:0:0:0:
144,240,175340,2,0,L|0:240,1,128,2|0,0:0|0:0,0:0:0:0:
304,240,175727,6,0,L|384:240,2,64,2|0|0,0:0|0:0|0:0,0:0:0:0:
176,256,176114,2,0,L|96:256,2,64,2|0|0,0:0|0:0|0:0,0:0:0:0:
448,240,176501,6,0,L|464:96,1,128,2|0,0:0|0:0,0:0:0:0:
400,96,176792,1,0,0:0:0:0:
224,48,176889,1,2,0:0:0:0:
288,48,176985,1,0,0:0:0:0:
352,48,177082,1,0,0:0:0:0:
80,160,177276,6,0,P|16:224|96:272,1,192,2|0,0:0|0:0,0:0:0:0:
240,304,177663,2,0,L|80:304,1,128,2|0,0:0|0:0,0:0:0:0:
368,272,178050,2,0,L|528:272,1,128,2|2,0:0|0:2,0:0:0:0:
336,192,178437,2,0,L|496:192,1,128,2|2,0:0|0:2,0:0:0:0:
208,144,178824,6,0,L|48:144,1,128,2|2,0:0|0:2,0:0:0:0:
240,224,179211,2,0,L|80:224,1,128,2|2,0:0|0:2,0:0:0:0:
272,304,179598,1,2,0:0:0:0:
400,256,179792,2,0,L|416:176,1,64,2|0,0:2|0:0,0:0:0:0:
240,144,179985,2,0,L|96:144,1,128,2|2,0:0|0:2,0:0:0:0:
400,176,180372,6,0,P|458:224|383:308,1,192,2|0,0:0|0:0,0:0:0:0:
240,320,180759,2,0,L|64:320,1,128,2|0,0:0|0:0,0:0:0:0:
272,320,181147,2,0,L|448:320,1,128,2|0,0:0|0:0,0:0:0:0:
240,320,181534,2,0,L|64:320,1,128,2|0,0:0|0:0,0:0:0:0:
400,272,181921,6,0,L|416:192,1,64,2|0,0:0|0:0,0:0:0:0:
336,192,182114,1,0,0:0:0:0:
176,144,182308,1,2,0:0:0:0:
240,144,182404,1,0,0:0:0:0:
304,144,182501,1,0,0:0:0:0:
32,256,182695,6,0,L|16:128,1,128,2|0,0:0|0:0,0:0:0:0:
80,112,182985,1,0,0:0:0:0:
240,80,183082,1,2,0:0:0:0:
176,80,183178,1,0,0:0:0:0:
112,80,183275,1,0,0:0:0:0:
448,48,183469,6,0,P|496:96|428:266,1,256,2|2,0:0|0:0,0:0:0:0:
288,256,184050,1,0,0:0:0:0:
448,304,184243,1,2,0:0:0:0:
288,336,184437,2,0,L|16:336,1,256,0|0,0:0|0:0,0:0:0:0:
320,288,185018,6,0,L|336:144,1,128,2|0,0:0|0:0,0:0:0:0:
192,208,185405,2,0,L|176:64,1,128,2|0,0:0|0:0,0:0:0:0:
320,80,185792,2,0,P|384:128|304:192,1,192,2|0,0:0|0:0,0:0:0:0:
160,224,186179,2,0,P|96:272|176:336,1,192,2|2,0:0|0:0,0:0:0:0:
320,320,186566,6,0,L|112:320,1,192,2|0,0:0|0:0,0:0:0:0:
288,256,186953,2,0,L|432:256,1,128,2|0,0:0|0:0,0:0:0:0:
256,176,187340,2,0,L|400:176,1,128,2|0,0:0|0:0,0:0:0:0:
224,112,187727,2,0,L|96:112,1,128,2|0,0:0|0:0,0:0:0:0:
384,112,188114,6,0,L|448:112,2,64,2|0|0,0:0|0:0|0:0,0:0:0:0:
224,160,188501,1,2,0:0:0:0:
288,160,188597,1,0,0:0:0:0:
352,160,188694,1,0,0:0:0:0:
80,336,188889,6,0,L|64:192,1,128,2|0,0:0|0:0,0:0:0:0:
128,192,189179,1,0,0:0:0:0:
288,176,189276,1,2,0:0:0:0:
224,160,189372,2,0,L|217:85,1,64,0|0,0:0|0:0,0:0:0:0:
480,112,189663,6,0,P|464:192|352:240,1,192,2|0,0:0|0:0,0:0:0:0:
208,240,190050,2,0,L|64:240,1,128,2|0,0:0|0:0,0:0:0:0:
352,240,190437,2,0,L|496:240,1,128,2|2,0:0|0:2,0:0:0:0:
320,160,190824,2,0,L|160:160,1,128,2|2,0:0|0:2,0:0:0:0:
464,80,191211,2,0,L|336:80,1,128,2|2,0:0|0:2,0:0:0:0:
176,112,191598,2,0,L|304:112,1,128,2|2,0:0|0:2,0:0:0:0:
32,176,191985,6,0,L|32:320,1,128,2|2,0:0|0:2,0:0:0:0:
192,304,192372,1,2,0:0:0:0:
32,320,192566,1,2,0:2:0:0:
320,336,192759,6,0,P|384:288|352:208,1,128,2|0,0:0|0:0,0:0:0:0:
320,224,193050,1,0,0:0:0:0:
160,224,193147,2,0,L|64:224,1,64,2|0,0:0|0:0,0:0:0:0:
160,224,193340,2,0,L|304:224,1,128,2|2,0:0|0:0,0:0:0:0:
128,160,193630,2,0,L|32:160,2,64,0|2|0,0:0|0:0|0:0,0:0:0:0:
288,128,193921,1,2,0:0:0:0:
347,139,194017,1,0,0:0:0:0:
364,198,194114,1,2,0:0:0:0:
319,239,194211,1,0,0:0:0:0:
144,304,194308,6,0,P|80:256|112:176,1,128,2|2,0:0|0:0,0:0:0:0:
144,192,194599,1,0,0:0:0:0:
304,192,194696,2,0,L|400:192,1,64,2|0,0:0|0:0,0:0:0:0:
304,192,194889,2,0,L|160:192,1,128,2|2,0:0|0:0,0:0:0:0:
336,128,195179,2,0,L|432:128,2,64,0|2|0,0:0|0:0|0:0,0:0:0:0:
176,96,195470,1,2,0:0:0:0:
116,107,195566,1,0,0:0:0:0:
99,166,195663,1,2,0:0:0:0:
144,207,195760,1,0,0:0:0:0:
320,240,195856,6,0,L|416:240,1,64,2|2,0:0|0:0,0:0:0:0:
320,240,196050,2,0,L|240:240,1,64,2|2,0:0|0:0,0:0:0:0:
416,208,196243,1,2,0:0:0:0:
461,168,196339,1,2,0:0:0:0:
447,108,196436,1,2,0:0:0:0:
388,94,196533,1,2,0:0:0:0:
208,208,196630,6,0,L|112:208,1,64,2|2,0:0|0:0,0:0:0:0:
320,176,196824,2,0,L|400:176,1,64,2|2,0:0|0:0,0:0:0:0:
192,64,197017,1,2,0:0:0:0:
133,78,197114,1,2,0:0:0:0:
119,138,197211,1,2,0:0:0:0:
165,178,197307,1,2,0:0:0:0:
384,240,197405,5,2,0:0:0:0:
176,288,197792,6,0,L|176:144,1,128,0|0,0:0|0:0,0:0:0:0:
304,160,198179,2,0,L|304:128,1,32,0|0,0:0|0:0,0:0:0:0:
176,128,198372,2,0,L|176:96,1,32,0|0,0:0|0:0,0:0:0:0:
304,80,198566,2,0,L|368:80,2,64,0|0|0,0:0|0:0|0:0,0:0:0:0:
32,112,198953,6,0,L|192:112,1,128,2|0,0:0|0:0,0:0:0:0:
320,160,199340,1,2,0:0:0:0:
160,160,199534,1,0,0:0:0:0:
320,224,199727,2,0,L|176:224,1,128,2|0,0:0|0:0,0:0:0:0:
320,304,200114,2,0,L|464:304,1,128,2|0,0:0|0:0,0:0:0:0:
160,288,200501,6,0,L|16:288,1,128,2|0,0:0|0:0,0:0:0:0:
160,224,200889,1,2,0:0:0:0:
320,208,201082,1,0,0:0:0:0:
160,176,201276,1,2,0:0:0:0:
320,160,201469,2,0,L|400:160,1,64,0|0,0:0|0:0,0:0:0:0:
192,112,201663,2,0,L|96:112,2,64,2|0|0,0:0|0:0|0:0,0:0:0:0:
480,112,202050,6,0,L|320:112,1,128,2|0,0:0|0:0,0:0:0:0:
192,160,202437,1,2,0:0:0:0:
352,160,202631,1,0,0:0:0:0:
192,224,202824,2,0,L|336:224,1,128,2|0,0:0|0:0,0:0:0:0:
192,304,203211,2,0,L|48:304,1,128,2|0,0:0|0:0,0:0:0:0:
352,288,203598,6,0,L|496:288,1,128,2|0,0:0|0:0,0:0:0:0:
352,224,203986,1,2,0:0:0:0:
192,208,204179,1,0,0:0:0:0:
352,176,204373,1,2,0:0:0:0:
192,160,204566,2,0,L|272:160,1,64,0|0,0:0|0:0,0:0:0:0:
432,176,204760,2,0,L|528:176,2,64,2|0|0,0:0|0:0|0:0,0:0:0:0:
160,224,205147,6,0,L|16:224,1,128,2|0,0:0|0:0,0:0:0:0:
192,160,205534,1,2,0:0:0:0:
32,144,205727,1,0,0:0:0:0:
192,80,205921,2,0,L|32:80,1,128,2|0,0:0|0:0,0:0:0:0:
224,144,206308,2,0,L|80:144,1,128,2|0,0:0|0:0,0:0:0:0:
352,224,206695,6,0,L|496:224,1,128,2|0,0:0|0:0,0:0:0:0:
320,160,207082,1,2,0:0:0:0:
480,144,207275,1,0,0:0:0:0:
320,80,207469,1,2,0:0:0:0:
160,80,207663,2,0,L|96:80,1,64,0|0,0:0|0:0,0:0:0:0:
256,128,207856,1,2,0:0:0:0:
320,128,207952,1,0,0:0:0:0:
384,128,208049,1,0,0:0:0:0:
112,304,208243,6,0,P|32:256|117:155,1,256,2|2,0:0|0:0,0:0:0:0:
256,144,208824,1,0,0:0:0:0:
96,96,209018,1,2,0:0:0:0:
240,80,209211,2,0,L|384:80,1,128,0|2,0:0|0:0,0:0:0:0:
208,224,209598,1,0,0:0:0:0:
320,208,209792,6,0,L|336:112,2,85.3333333333333,2|2|2,0:0|0:0|0:0,0:0:0:0:
192,208,210179,2,0,L|176:112,2,85.3333333333333,2|2|2,0:0|0:0|0:0,0:0:0:0:
320,224,210566,2,0,P|416:176|432:80,1,192,2|0,0:0|0:0,0:0:0:0:
256,160,210953,2,0,P|160:112|144:16,1,192,8|8,0:2|0:2,0:0:0:0:
320,64,211340,6,0,P|368:128|294:165,1,160,2|0,0:0|0:0,0:0:0:0:
112,192,211727,2,0,L|16:192,2,80,2|0|0,0:0|0:0|0:0,0:0:0:0:
224,160,212114,1,2,0:0:0:0:
144,160,212243,1,0,0:0:0:0:
64,160,212372,1,0,0:0:0:0:
176,128,212501,2,0,L|272:128,2,80,2|0|0,0:0|0:0|0:0,0:0:0:0:
368,192,212889,6,0,P|464:240|480:304,1,160,2|0,0:0|0:0,0:0:0:0:
288,352,213276,1,2,0:0:0:0:
368,352,213405,1,0,0:0:0:0:
448,352,213534,1,0,0:0:0:0:
336,304,213663,2,0,L|224:304,2,80,2|0|0,0:0|0:0|0:0,0:0:0:0:
448,240,214050,1,2,0:0:0:0:
368,240,214179,1,0,0:0:0:0:
288,240,214308,1,0,0:0:0:0:
64,192,214437,6,0,L|240:192,1,160,2|0,0:0|0:0,0:0:0:0:
416,144,214824,1,2,0:0:0:0:
336,144,214953,1,0,0:0:0:0:
256,144,215082,1,0,0:0:0:0:
144,112,215211,1,2,0:0:0:0:
224,112,215340,1,0,0:0:0:0:
304,112,215469,1,0,0:0:0:0:
192,64,215598,2,0,L|64:64,2,80,2|0|0,0:0|0:0|0:0,0:0:0:0:
416,160,215985,6,0,P|458:241|400:256,1,160,2|0,0:0|0:0,0:0:0:0:
224,256,216372,1,2,0:0:0:0:
144,256,216501,1,0,0:0:0:0:
64,256,216630,1,0,0:0:0:0:
176,192,216759,2,0,L|176:32,1,128,8|0,0:0|0:0,0:0:0:0:
16,176,217147,2,0,L|16:16,1,128,2|0,0:2|0:0,0:0:0:0:
304,64,217534,6,0,L|528:64,3,192,2|2|2|2,0:0|0:0|0:0|0:0,0:0:0:0:
112,64,218695,1,2,0:0:0:0:
320,128,219082,6,0,L|112:128,3,192,2|2|2|2,0:0|0:0|0:0|0:0,0:0:0:0:
192,144,220050,2,0,L|192:256,1,64,0|0,0:0|0:0,0:0:0:0:
32,192,220243,2,0,L|32:352,1,128,2|2,0:0|0:0,0:0:0:0:
304,320,220630,6,0,L|512:320,2,192,2|2|2,0:0|0:0|0:0,0:0:0:0:
16,320,221405,2,0,L|208:320,2,192,2|2|2,0:0|0:0|0:0,0:0:0:0:
208,272,222179,6,0,L|224:64,1,192,2|2,0:0|0:0,0:0:0:0:
16,80,222759,1,2,0:0:0:0:
176,80,222953,1,2,0:2:0:0:
16,80,223147,1,2,0:2:0:0:
279,175,223340,2,0,L|119:175,1,128,2|2,0:2|0:2,0:0:0:0:
416,288,223727,6,0,P|467:210|400:160,1,192,2|0,0:0|0:0,0:0:0:0:
240,144,224114,2,0,L|96:144,1,128,2|0,0:0|0:0,0:0:0:0:
272,192,224501,2,0,L|400:192,2,128,2|0|2,0:0|0:0|0:0,0:0:0:0:
112,224,225082,1,0,0:0:0:0:
416,288,225276,5,2,0:0:0:0:
256,256,225469,2,0,L|432:256,2,128,0|2|0,0:0|0:0|0:0,0:0:0:0:
416,192,226050,2,0,L|256:192,1,128,2|0,0:0|0:0,0:0:0:0:
432,128,226437,2,0,L|512:128,2,64,2|0|0,0:0|0:0|0:0,0:0:0:0:
128,208,226824,6,0,P|69:154|128:80,1,192,2|0,0:0|0:0,0:0:0:0:
320,80,227211,2,0,L|176:80,1,128,2|0,0:0|0:0,0:0:0:0:
368,160,227598,2,0,L|512:160,2,128,2|0|2,0:0|0:0|0:0,0:0:0:0:
192,192,228179,1,0,0:0:0:0:
464,288,228372,6,0,L|464:144,1,128,2|0,0:0|0:0,0:0:0:0:
304,144,228759,2,0,L|496:144,1,192,2|0,0:0|0:0,0:0:0:0:
304,208,229147,2,0,L|176:208,1,128,2|0,0:0|0:0,0:0:0:0:
304,160,229534,2,0,L|432:160,1,128,2|0,0:0|0:0,0:0:0:0:
144,304,229921,6,0,P|77:247|144:208,1,192,2|0,0:0|0:0,0:0:0:0:
336,208,230308,2,0,L|480:208,1,128,2|0,0:0|0:0,0:0:0:0:
304,128,230695,2,0,L|176:128,2,128,2|0|2,0:0|0:0|0:0,0:0:0:0:
464,80,231276,1,0,0:0:0:0:
188,95,231469,5,2,0:0:0:0:
336,160,231663,2,0,L|208:160,2,128,0|2|0,0:0|0:0|0:0,0:0:0:0:
176,256,232243,2,0,L|304:256,1,128,2|0,0:0|0:0,0:0:0:0:
144,208,232630,2,0,L|80:208,2,64,2|0|0,0:0|0:0|0:0,0:0:0:0:
432,224,233018,6,0,L|448:80,1,128,2|0,0:0|0:0,0:0:0:0:
288,160,233405,2,0,L|272:16,1,128,2|0,0:0|0:0,0:0:0:0:
448,16,233792,2,0,L|304:16,2,128,2|0|2,0:0|0:0|0:0,0:0:0:0:
160,48,234372,2,0,P|73:112|147:215,1,256,0|0,0:0|0:0,0:0:0:0:
267,223,234953,1,2,0:0:0:0:
84,242,235147,6,0,L|20:242,2,64,2|2|8,0:0|0:0|0:0,0:0:0:0:
260,242,235437,2,0,L|324:242,2,64,2|2|8,0:0|0:0|0:0,0:0:0:0:
84,242,235727,1,0,0:0:0:0:
27,222,235823,1,2,0:0:0:0:
24,162,235920,1,8,0:0:0:0:
79,137,236017,1,2,0:0:0:0:
237,115,236114,6,0,L|253:243,1,128,2|0,0:0|0:0,0:0:0:0:
173,227,236405,2,0,L|157:355,1,128,2|2,0:0|0:0,0:0:0:0:
237,355,236695,1,2,0:0:0:0:
496,342,236889,2,0,L|368:342,3,128,8|0|0|0,0:0|0:0|0:0|0:0,0:0:0:0:
192,336,237663,6,0,L|176:192,1,128,2|0,0:0|0:0,0:0:0:0:
304,192,238050,1,0,0:0:0:0:
176,160,238243,2,0,L|96:160,1,64,0|0,0:0|0:0,0:0:0:0:
208,112,238437,2,0,L|336:112,1,128,8|0,0:0|0:0,0:0:0:0:
176,160,238824,1,0,0:0:0:0:
121,187,238920,1,0,0:0:0:0:
116,248,239017,1,0,0:0:0:0:
166,283,239114,1,0,0:0:0:0:
326,288,239211,6,0,L|474:287,1,128,2|0,0:0|0:0,0:0:0:0:
377,250,239501,1,0,0:0:0:0:
294,239,239599,2,0,L|312:95,1,128,0|2,0:0|0:0,0:0:0:0:
498,134,239985,2,0,L|370:134,3,128,8|0|0|0,0:0|0:0|0:0|0:0,0:0:0:0:
206,140,240759,5,2,0:0:0:0:
464,128,240953,1,0,0:0:0:0:
336,224,241147,2,0,L|208:224,1,128,0|0,0:0|0:0,0:0:0:0:
272,224,241437,1,0,0:0:0:0:
448,208,241534,2,0,L|464:64,1,128,8|0,0:0|0:0,0:0:0:0:
320,64,241921,2,0,L|310:133,1,64,0|0,0:0|0:0,0:0:0:0:
374,162,242114,2,0,L|438:162,1,64,0|0,0:0|0:0,0:0:0:0:
277,115,242308,6,0,L|261:243,1,128,2|0,0:0|0:0,0:0:0:0:
340,252,242599,1,0,0:0:0:0:
418,250,242696,2,0,L|277:249,1,128,0|0,0:0|0:0,0:0:0:0:
31,333,243083,2,0,L|159:333,3,128,8|0|0|0,0:0|0:0|0:0|0:0,0:0:0:0:
331,323,243857,6,0,L|352:192,1,128,2|0,0:0|0:0,0:0:0:0:
224,192,244244,1,0,0:0:0:0:
352,160,244437,2,0,L|432:160,1,64,0|0,0:0|0:0,0:0:0:0:
240,224,244630,2,0,L|96:224,1,128,8|0,0:0|0:0,0:0:0:0:
272,224,245018,2,0,L|416:224,1,128,0|0,0:0|0:0,0:0:0:0:
80,272,245405,6,0,L|64:112,1,128,2|0,0:0|0:0,0:0:0:0:
146,139,245695,1,2,0:0:0:0:
243,267,245792,2,0,L|259:107,1,128,0|8,0:0|0:0,0:0:0:0:
432,272,246179,2,0,L|448:112,1,128,2|0,0:0|0:0,0:0:0:0:
366,139,246469,1,2,0:0:0:0:
256,208,246566,2,0,L|96:208,1,128,0|8,0:0|0:0,0:0:0:0:
416,176,246953,6,0,L|448:112,2,64,2|0|0,0:0|0:0|0:0,0:0:0:0:
336,176,247243,1,2,0:0:0:0:
144,144,247340,2,0,L|112:80,2,64,0|0|8,0:0|0:0|0:0,0:0:0:0:
224,144,247630,1,0,0:0:0:0:
416,240,247727,2,0,L|416:96,1,128,2|8,0:0|0:0,0:0:0:0:
352,112,248018,1,8,0:0:0:0:
256,128,248114,2,0,L|256:208,1,64,8|8,0:0|0:0,0:0:0:0:
352,192,248308,2,0,L|352:256,1,64,8|8,0:0|0:0,0:0:0:0:
160,320,248501,6,0,P|98:259|174:193,1,196.000007975261,4|2,0:0|0:0,0:0:0:0:
320,192,249276,1,2,0:0:0:0:
224,240,249469,2,0,L|400:240,1,147.000005981446,2|0,0:0|0:0,0:0:0:0:
320,368,249856,2,0,P|182:317|336:16,1,588.000023925782,2|2,0:0|0:0,0:0:0:0:
448,192,251598,6,0,L|208:192,1,196.000007975261,2|2,0:0|0:0,0:0:0:0:
112,192,252372,1,2,0:0:0:0:
240,192,252566,2,0,P|301:130|224:64,1,196.000007975261,2|2,0:0|0:0,0:0:0:0:
64,64,253340,2,0,L|192:64,1,98.0000039876304,2|0,0:0|0:0,0:0:0:0:
352,112,253921,2,0,L|240:112,1,98.0000039876304,0|0,0:0|0:0,0:0:0:0:
16,208,254695,6,0,L|240:208,1,196.000007975261,2|2,0:0|0:0,0:0:0:0:
400,192,255469,1,2,0:0:0:0:
272,160,255663,2,0,P|273:224|336:304,1,147.000005981446,2|0,0:0|0:0,0:0:0:0:
384,288,256050,2,0,P|307:125|32:304,1,588.000023925782,2|2,0:0|0:0,0:0:0:0:
224,288,257792,6,0,L|352:288,1,128,2|0,0:0|0:0,0:0:0:0:
256,224,258372,2,0,L|128:224,1,128,0|2,0:0|0:0,0:0:0:0:
368,240,259147,2,0,P|400:208|359:135,1,128,2|0,0:0|0:0,0:0:0:0:
256,128,259727,2,0,L|240:48,1,64,2|2,0:0|0:0,0:0:0:0:
368,96,260114,2,0,L|384:16,1,64,2|2,0:0|0:0,0:0:0:0:
240,32,260501,1,2,0:0:0:0:
16,64,260889,5,2,0:0:0:0:
208,160,261469,1,0,0:0:0:0:
64,256,261856,1,2,0:0:0:0:
272,288,262243,2,0,P|304:219|246:203,1,128,2|0,0:0|0:0,0:0:0:0:
176,176,262824,1,2,0:0:0:0:
256,144,263018,1,2,0:0:0:0:
160,112,263211,1,2,0:0:0:0:
240,80,263405,1,2,0:0:0:0:
416,64,263985,5,2,0:0:0:0:
224,160,264566,1,0,0:0:0:0:
336,192,264953,1,2,0:0:0:0:
192,272,265340,2,0,L|64:272,1,128,2|0,0:0|0:0,0:0:0:0:
144,224,265921,1,2,0:0:0:0:
224,192,266114,1,2,0:0:0:0:
144,160,266308,1,2,0:0:0:0:
64,144,266501,1,2,0:0:0:0:
160,112,266695,1,2,0:0:0:0:
352,96,267082,5,2,0:0:0:0:
496,192,267663,1,0,0:0:0:0:
384,240,268050,1,2,0:0:0:0:
240,304,268437,2,0,L|240:176,1,128,2|0,0:0|0:0,0:0:0:0:
336,176,269018,1,2,0:0:0:0:
336,112,269211,1,2,0:0:0:0:
432,176,269405,1,2,0:0:0:0:
432,112,269598,1,2,0:0:0:0:
224,64,270179,5,2,0:0:0:0:
96,144,270759,1,0,0:0:0:0:
64,256,271147,1,2,0:0:0:0:
192,320,271534,1,2,0:0:0:0:
256,192,271921,12,0,276372,0:0:0:0:
