osu file format v14

[General]
AudioFilename: audio.mp3
AudioLeadIn: 0
PreviewTime: 172924
Countdown: 1
SampleSet: Normal
StackLeniency: 0.7
Mode: 1
LetterboxInBreaks: 0
WidescreenStoryboard: 0

[Editor]
DistanceSpacing: 1.2
BeatDivisor: 4
GridSize: 32
TimelineZoom: 1

[Metadata]
Title:Senpai, Notice me!
TitleUnicode:Senpai, Notice me!
Artist:Camellia feat. Nanahira
ArtistUnicode:かめりあ feat. ななひら
Creator:a2805146
Version:Senpai, Notice Taiko!
Source:
Tags:
BeatmapID:2032155
BeatmapSetID:970601

[Difficulty]
HPDrainRate:5
CircleSize:5
OverallDifficulty:6.5
ApproachRate:5
SliderMultiplier:1.4
SliderTickRate:1

[Events]
//Background and Video events
0,0,"BG.jpg",0,0
//Break Periods
2,118737,123530
//Storyboard Layer 0 (Background)
//Storyboard Layer 1 (Fail)
//Storyboard Layer 2 (Pass)
//Storyboard Layer 3 (Foreground)
//Storyboard Sound Samples

[TimingPoints]
860,387.096774193548,4,1,0,45,1,0
860,-133.333333333333,4,1,0,45,0,0
11698,-105.263157894737,4,1,0,55,0,0
11795,-111.111111111111,4,1,0,55,0,0
11892,-117.647058823529,4,1,0,55,0,0
11989,-125,4,1,0,55,0,0
12085,-133.333333333333,4,1,0,55,0,0
12279,-133.333333333333,4,1,0,55,0,0
12343,-125,4,1,0,55,0,0
12408,-117.647058823529,4,1,0,55,0,0
12472,-111.111111111111,4,1,0,55,0,0
12666,-133.333333333333,4,1,0,55,0,0
12763,-126.582278481013,4,1,0,55,0,0
12859,-120.481927710843,4,1,0,55,0,0
12956,-114.942528735632,4,1,0,55,0,0
13053,-109.89010989011,4,1,0,55,0,0
13150,-105.263157894737,4,1,0,55,0,0
13247,-100,4,1,0,55,0,0
13634,-133.333333333333,4,1,0,55,0,0
14989,-133.333333333333,4,1,0,40,0,0
15763,-111.111111111111,4,1,0,40,0,0
16343,-133.333333333333,4,1,0,55,0,0
18085,-133.333333333333,4,1,0,40,0,0
19053,-111.111111111111,4,1,0,40,0,0
19440,-133.333333333333,4,1,0,55,0,0
21182,-133.333333333333,4,1,0,40,0,0
21956,-111.111111111111,4,1,0,40,0,0
22537,-133.333333333333,4,1,0,55,0,0
25247,-111.111111111111,4,1,0,55,0,0
25634,-117.647058823529,4,1,0,65,0,0
31827,-111.111111111111,4,1,0,65,0,0
34730,-108.695652173913,4,1,0,65,0,0
34827,-106.382978723404,4,1,0,65,0,0
34924,-104.166666666667,4,1,0,65,0,0
35021,-102.040816326531,4,1,0,65,0,0
35118,-100,4,1,0,65,0,0
35214,-98.0392156862745,4,1,0,65,0,0
35311,-96.1538461538461,4,1,0,65,0,0
35408,-94.3396226415094,4,1,0,65,0,0
35505,-92.5925925925926,4,1,0,65,0,0
35601,-90.9090909090909,4,1,0,65,0,0
35698,-89.2857142857143,4,1,0,65,0,0
35795,-87.719298245614,4,1,0,65,0,0
35892,-86.2068965517241,4,1,0,65,0,0
35989,-84.7457627118644,4,1,0,65,0,0
36085,-83.3333333333333,4,1,0,65,0,0
36134,-82.6446280991736,4,1,0,65,0,0
36182,-81.9672131147541,4,1,0,65,0,0
36230,-81.3008130081301,4,1,0,65,0,0
36279,-80.6451612903226,4,1,0,65,0,0
36327,-80,4,1,0,65,0,0
36376,-79.3650793650794,4,1,0,65,0,0
36424,-78.7401574803149,4,1,0,65,0,0
36472,-78.125,4,1,0,65,0,0
36859,-111.111111111111,4,1,0,65,0,0
37053,-111.111111111111,4,1,0,65,0,0
37101,-106.382978723404,4,1,0,65,0,0
37150,-102.040816326531,4,1,0,65,0,0
37198,-98.0392156862745,4,1,0,65,0,0
37247,-94.3396226415094,4,1,0,65,0,0
37343,-90.9090909090909,4,1,0,65,0,0
37440,-87.719298245614,4,1,0,65,0,0
37537,-90.9090909090909,4,1,0,65,0,0
37634,-94.3396226415094,4,1,0,65,0,0
37730,-98.0392156862745,4,1,0,65,0,0
37827,-102.040816326531,4,1,0,65,0,0
37924,-106.382978723404,4,1,0,65,0,0
38021,-66.6666666666667,4,1,0,75,0,1
38408,-100,4,1,0,75,0,1
43634,-105.263157894737,4,1,0,75,0,1
43827,-111.111111111111,4,1,0,75,0,1
44021,-117.647058823529,4,1,0,75,0,1
44214,-66.6666666666667,4,1,0,75,0,1
44795,-100,4,1,0,75,0,1
47311,-100,4,1,0,65,0,0
49634,-100,4,1,0,55,0,0
49682,-99.009900990099,4,1,0,55,0,0
49730,-98.0392156862745,4,1,0,55,0,0
49827,-100,4,1,0,55,0,0
49876,-99.009900990099,4,1,0,55,0,0
49924,-98.0392156862745,4,1,0,55,0,0
50021,-100,4,1,0,55,0,0
50069,-99.009900990099,4,1,0,55,0,0
50118,-98.0392156862745,4,1,0,55,0,0
50214,-100,4,1,0,55,0,0
50263,-99.009900990099,4,1,0,55,0,0
50311,-98.0392156862745,4,1,0,55,0,0
50408,-66.6666666666667,4,1,0,75,0,1
50795,-100,4,1,0,75,0,1
52924,-100,4,1,0,75,0,1
52972,-95.2380952380952,4,1,0,75,0,1
53118,-100,4,1,0,75,0,1
53166,-95.2380952380952,4,1,0,75,0,1
53311,-100,4,1,0,75,0,1
53359,-95.2380952380952,4,1,0,75,0,1
53505,-66.6666666666667,4,1,0,75,0,1
53892,-100,4,1,0,75,0,1
56021,-105.263157894737,4,1,0,75,0,1
56214,-111.111111111111,4,1,0,75,0,1
56408,-117.647058823529,4,1,0,75,0,1
56601,-66.6666666666667,4,1,0,75,0,1
56989,-100,4,1,0,75,0,1
59118,-100,4,1,0,75,0,1
59166,-95.2380952380952,4,1,0,75,0,1
59311,-100,4,1,0,75,0,1
59359,-95.2380952380952,4,1,0,75,0,1
59505,-100,4,1,0,75,0,1
59553,-95.2380952380952,4,1,0,75,0,1
59698,-66.6666666666667,4,1,0,75,0,1
60085,-100,4,1,0,75,0,1
62214,-66.6666666666667,4,1,0,75,0,1
62408,-50,4,1,0,75,0,0
62795,-117.647058823529,4,1,0,65,0,0
68989,-111.111111111111,4,1,0,65,0,0
71892,-108.695652173913,4,1,0,65,0,0
71989,-106.382978723404,4,1,0,65,0,0
72085,-104.166666666667,4,1,0,65,0,0
72182,-102.040816326531,4,1,0,65,0,0
72279,-100,4,1,0,65,0,0
72376,-98.0392156862745,4,1,0,65,0,0
72472,-96.1538461538461,4,1,0,65,0,0
72569,-94.3396226415094,4,1,0,65,0,0
72666,-92.5925925925926,4,1,0,65,0,0
72763,-90.9090909090909,4,1,0,65,0,0
72859,-89.2857142857143,4,1,0,65,0,0
72956,-87.719298245614,4,1,0,65,0,0
73053,-86.2068965517241,4,1,0,65,0,0
73150,-84.7457627118644,4,1,0,65,0,0
73247,-83.3333333333333,4,1,0,65,0,0
73295,-82.6446280991736,4,1,0,65,0,0
73343,-81.9672131147541,4,1,0,65,0,0
73392,-81.3008130081301,4,1,0,65,0,0
73440,-80.6451612903226,4,1,0,65,0,0
73489,-80,4,1,0,65,0,0
73537,-79.3650793650794,4,1,0,65,0,0
73585,-78.7401574803149,4,1,0,65,0,0
73634,-78.125,4,1,0,65,0,0
74021,-111.111111111111,4,1,0,65,0,0
74214,-111.111111111111,4,1,0,65,0,0
74263,-106.382978723404,4,1,0,65,0,0
74311,-102.040816326531,4,1,0,65,0,0
74359,-98.0392156862745,4,1,0,65,0,0
74408,-94.3396226415094,4,1,0,65,0,0
74505,-90.9090909090909,4,1,0,65,0,0
74601,-87.719298245614,4,1,0,65,0,0
74698,-90.9090909090909,4,1,0,65,0,0
74795,-94.3396226415094,4,1,0,65,0,0
74892,-98.0392156862745,4,1,0,65,0,0
74989,-102.040816326531,4,1,0,65,0,0
75085,-106.382978723404,4,1,0,65,0,0
75182,-66.6666666666667,4,1,0,75,0,1
75569,-100,4,1,0,75,0,1
75763,-100,4,1,0,75,0,1
75859,-102.040816326531,4,1,0,75,0,1
75956,-104.166666666667,4,1,0,75,0,1
76053,-106.382978723404,4,1,0,75,0,1
76150,-108.695652173913,4,1,0,75,0,1
76247,-111.111111111111,4,1,0,75,0,1
76343,-108.695652173913,4,1,0,75,0,1
76440,-106.382978723404,4,1,0,75,0,1
76537,-104.166666666667,4,1,0,75,0,1
76634,-102.040816326531,4,1,0,75,0,1
76730,-100,4,1,0,75,0,1
76827,-102.040816326531,4,1,0,75,0,1
76924,-104.166666666667,4,1,0,75,0,1
77021,-106.382978723404,4,1,0,75,0,1
77118,-108.695652173913,4,1,0,75,0,1
77214,-111.111111111111,4,1,0,75,0,1
77311,-108.695652173913,4,1,0,75,0,1
77408,-106.382978723404,4,1,0,75,0,1
77505,-100,4,1,0,75,0,1
77553,-95.2380952380952,4,1,0,75,0,1
77698,-100,4,1,0,75,0,1
77747,-95.2380952380952,4,1,0,75,0,1
77892,-100,4,1,0,75,0,1
77940,-95.2380952380952,4,1,0,75,0,1
78085,-100,4,1,0,75,0,1
78134,-95.2380952380952,4,1,0,75,0,1
78279,-66.6666666666667,4,1,0,75,0,1
78666,-100,4,1,0,75,0,1
78859,-100,4,1,0,75,0,1
78956,-98.0392156862745,4,1,0,75,0,1
79053,-96.1538461538461,4,1,0,75,0,1
79150,-94.3396226415094,4,1,0,75,0,1
79247,-92.5925925925926,4,1,0,75,0,1
79343,-90.9090909090909,4,1,0,75,0,1
79440,-92.5925925925926,4,1,0,75,0,1
79537,-94.3396226415094,4,1,0,75,0,1
79634,-96.1538461538461,4,1,0,75,0,1
79730,-98.0392156862745,4,1,0,75,0,1
79827,-100,4,1,0,75,0,1
79924,-98.0392156862745,4,1,0,75,0,1
80021,-96.1538461538461,4,1,0,75,0,1
80118,-94.3396226415094,4,1,0,75,0,1
80214,-92.5925925925926,4,1,0,75,0,1
80311,-90.9090909090909,4,1,0,75,0,1
80408,-92.5925925925926,4,1,0,75,0,1
80505,-94.3396226415094,4,1,0,75,0,1
80601,-96.1538461538461,4,1,0,75,0,1
80666,-98.0392156862745,4,1,0,75,0,1
80730,-100,4,1,0,75,0,1
80795,-102.040816326531,4,1,0,75,0,1
80989,-100,4,1,0,75,0,1
81053,-95.2380952380952,4,1,0,75,0,1
81118,-90.9090909090909,4,1,0,75,0,1
81182,-86.9565217391304,4,1,0,75,0,1
81279,-83.3333333333333,4,1,0,75,0,1
81376,-66.6666666666667,4,1,0,75,0,1
81763,-100,4,1,0,75,0,1
81956,-100,4,1,0,75,0,1
82053,-102.040816326531,4,1,0,75,0,1
82150,-104.166666666667,4,1,0,75,0,1
82247,-106.382978723404,4,1,0,75,0,1
82343,-108.695652173913,4,1,0,75,0,1
82440,-111.111111111111,4,1,0,75,0,1
82537,-108.695652173913,4,1,0,75,0,1
82634,-106.382978723404,4,1,0,75,0,1
82730,-104.166666666667,4,1,0,75,0,1
82827,-102.040816326531,4,1,0,75,0,1
82924,-100,4,1,0,75,0,1
83021,-102.040816326531,4,1,0,75,0,1
83118,-104.166666666667,4,1,0,75,0,1
83214,-106.382978723404,4,1,0,75,0,1
83311,-108.695652173913,4,1,0,75,0,1
83408,-111.111111111111,4,1,0,75,0,1
83505,-108.695652173913,4,1,0,75,0,1
83601,-106.382978723404,4,1,0,75,0,1
83698,-100,4,1,0,75,0,1
83747,-95.2380952380952,4,1,0,75,0,1
83892,-100,4,1,0,75,0,1
83940,-95.2380952380952,4,1,0,75,0,1
84085,-100,4,1,0,75,0,1
84134,-95.2380952380952,4,1,0,75,0,1
84279,-100,4,1,0,75,0,1
84327,-95.2380952380952,4,1,0,75,0,1
84472,-66.6666666666667,4,1,0,75,0,1
84859,-100,4,1,0,75,0,1
86795,-100,4,1,0,55,0,1
86843,-99.009900990099,4,1,0,55,0,1
86892,-98.0392156862745,4,1,0,55,0,1
86989,-100,4,1,0,55,0,1
87037,-99.009900990099,4,1,0,55,0,1
87085,-98.0392156862745,4,1,0,55,0,1
87182,-100,4,1,0,55,0,1
87230,-99.009900990099,4,1,0,55,0,1
87279,-98.0392156862745,4,1,0,55,0,1
87376,-100,4,1,0,55,0,1
87424,-99.009900990099,4,1,0,55,0,1
87472,-98.0392156862745,4,1,0,55,0,1
87569,-66.6666666666667,4,1,0,75,0,1
87956,-100,4,1,0,75,0,1
88150,-100,4,1,0,75,0,1
88247,-102.040816326531,4,1,0,75,0,1
88343,-104.166666666667,4,1,0,75,0,1
88440,-106.382978723404,4,1,0,75,0,1
88537,-108.695652173913,4,1,0,75,0,1
88634,-111.111111111111,4,1,0,75,0,1
88730,-108.695652173913,4,1,0,75,0,1
88827,-106.382978723404,4,1,0,75,0,1
88924,-104.166666666667,4,1,0,75,0,1
89021,-102.040816326531,4,1,0,75,0,1
89118,-100,4,1,0,75,0,1
89214,-102.040816326531,4,1,0,75,0,1
89311,-104.166666666667,4,1,0,75,0,1
89408,-106.382978723404,4,1,0,75,0,1
89505,-108.695652173913,4,1,0,75,0,1
89601,-111.111111111111,4,1,0,75,0,1
89698,-108.695652173913,4,1,0,75,0,1
89795,-106.382978723404,4,1,0,75,0,1
89892,-100,4,1,0,75,0,1
89940,-95.2380952380952,4,1,0,75,0,1
90085,-100,4,1,0,75,0,1
90134,-95.2380952380952,4,1,0,75,0,1
90279,-100,4,1,0,75,0,1
90327,-95.2380952380952,4,1,0,75,0,1
90472,-100,4,1,0,75,0,1
90521,-95.2380952380952,4,1,0,75,0,1
90666,-66.6666666666667,4,1,0,75,0,1
91053,-100,4,1,0,75,0,1
91247,-100,4,1,0,75,0,1
91343,-98.0392156862745,4,1,0,75,0,1
91440,-96.1538461538461,4,1,0,75,0,1
91537,-94.3396226415094,4,1,0,75,0,1
91634,-92.5925925925926,4,1,0,75,0,1
91730,-90.9090909090909,4,1,0,75,0,1
91827,-92.5925925925926,4,1,0,75,0,1
91924,-94.3396226415094,4,1,0,75,0,1
92021,-96.1538461538461,4,1,0,75,0,1
92118,-98.0392156862745,4,1,0,75,0,1
92214,-100,4,1,0,75,0,1
92311,-98.0392156862745,4,1,0,75,0,1
92408,-96.1538461538461,4,1,0,75,0,1
92505,-94.3396226415094,4,1,0,75,0,1
92601,-92.5925925925926,4,1,0,75,0,1
92698,-90.9090909090909,4,1,0,75,0,1
92795,-92.5925925925926,4,1,0,75,0,1
92892,-94.3396226415094,4,1,0,75,0,1
92989,-96.1538461538461,4,1,0,75,0,1
93053,-98.0392156862745,4,1,0,75,0,1
93118,-100,4,1,0,75,0,1
93182,-102.040816326531,4,1,0,75,0,1
93376,-100,4,1,0,75,0,1
93440,-95.2380952380952,4,1,0,75,0,1
93505,-90.9090909090909,4,1,0,75,0,1
93569,-86.9565217391304,4,1,0,75,0,1
93666,-83.3333333333333,4,1,0,75,0,1
93763,-66.6666666666667,4,1,0,75,0,1
94150,-100,4,1,0,75,0,1
94343,-100,4,1,0,75,0,1
94440,-102.040816326531,4,1,0,75,0,1
94537,-104.166666666667,4,1,0,75,0,1
94634,-106.382978723404,4,1,0,75,0,1
94730,-108.695652173913,4,1,0,75,0,1
94827,-111.111111111111,4,1,0,75,0,1
94924,-108.695652173913,4,1,0,75,0,1
95021,-106.382978723404,4,1,0,75,0,1
95118,-104.166666666667,4,1,0,75,0,1
95214,-102.040816326531,4,1,0,75,0,1
95311,-100,4,1,0,75,0,1
95408,-102.040816326531,4,1,0,75,0,1
95505,-104.166666666667,4,1,0,75,0,1
95601,-106.382978723404,4,1,0,75,0,1
95698,-108.695652173913,4,1,0,75,0,1
95795,-111.111111111111,4,1,0,75,0,1
95892,-108.695652173913,4,1,0,75,0,1
95989,-106.382978723404,4,1,0,75,0,1
96085,-104.166666666667,4,1,0,75,0,1
96182,-102.040816326531,4,1,0,75,0,1
96376,-100,4,1,0,75,0,1
96472,-95.2380952380952,4,1,0,75,0,1
96569,-90.9090909090909,4,1,0,75,0,1
96666,-86.9565217391304,4,1,0,75,0,1
96763,-83.3333333333333,4,1,0,75,0,1
96859,-66.6666666666667,4,1,0,75,0,1
97247,-100,4,1,0,75,0,1
99956,-66.6666666666667,4,1,0,65,0,0
100343,-133.333333333333,4,1,0,60,0,0
124730,-133.333333333333,4,1,0,55,0,0
132472,-133.333333333333,4,1,0,60,0,0
137118,-111.111111111111,4,1,0,60,0,0
137214,-125,4,1,0,60,0,0
139634,-111.111111111111,4,1,0,50,0,0
140214,-125,4,1,0,60,0,0
142924,-111.111111111111,4,1,0,50,0,0
143311,-125,4,1,0,60,0,0
146021,-111.111111111111,4,1,0,50,0,0
146214,-125,4,1,0,60,0,0
149118,-100,4,1,0,55,0,0
149505,-111.111111111111,4,1,0,65,0,0
152021,-100,4,1,0,50,0,0
152601,-111.111111111111,4,1,0,65,0,0
155311,-100,4,1,0,50,0,0
155505,-111.111111111111,4,1,0,65,0,0
155698,-105.263157894737,4,1,0,65,0,0
155892,-100,4,1,0,65,0,0
156279,-95.2380952380952,4,1,0,65,0,0
156666,-90.9090909090909,4,1,0,65,0,0
157053,-86.9565217391304,4,1,0,65,0,0
157440,-83.3333333333333,4,1,0,65,0,0
157827,-80,4,1,0,65,0,0
158214,-76.9230769230769,4,1,0,65,0,0
158601,-74.0740740740741,4,1,0,65,0,0
158989,-76.9230769230769,4,1,0,55,0,0
159182,-80,4,1,0,55,0,0
159376,-83.3333333333333,4,1,0,55,0,0
159569,-86.9565217391304,4,1,0,55,0,0
159763,-90.9090909090909,4,1,0,55,0,0
159956,-95.2380952380952,4,1,0,55,0,0
160150,-100,4,1,0,55,0,0
160343,-105.263157894737,4,1,0,55,0,0
160537,-111.111111111111,4,1,0,55,0,0
160730,-117.647058823529,4,1,0,55,0,0
160924,-125,4,1,0,55,0,0
161118,-133.333333333333,4,1,0,55,0,0
161311,-142.857142857143,4,1,0,55,0,0
161505,-153.846153846154,4,1,0,55,0,0
161698,-166.666666666667,4,1,0,55,0,0
161892,-55.5555555555556,4,1,0,65,0,0
162666,-100,4,1,0,65,0,0
163053,-90.9090909090909,4,1,0,65,0,0
163440,-55.5555555555556,4,1,0,65,0,0
164190,-90.9090909090909,4,1,0,65,0,0
164190,-83.3333333333333,4,1,0,65,0,0
164989,-55.5555555555556,4,1,0,65,0,0
165739,-83.3333333333333,4,1,0,65,0,0
166101,-76.9230769230769,4,1,0,65,0,0
166537,-55.5555555555556,4,1,0,65,0,0
167311,-76.9230769230769,4,1,0,50,0,0
167698,-40,4,1,0,50,0,0
168085,-100,4,1,0,65,0,0
168279,-111.111111111111,4,1,0,65,0,0
171182,-108.695652173913,4,1,0,65,0,0
171279,-106.382978723404,4,1,0,65,0,0
171376,-104.166666666667,4,1,0,65,0,0
171472,-102.040816326531,4,1,0,65,0,0
171569,-100,4,1,0,65,0,0
171666,-98.0392156862745,4,1,0,65,0,0
171763,-96.1538461538461,4,1,0,65,0,0
171859,-94.3396226415094,4,1,0,65,0,0
171956,-92.5925925925926,4,1,0,65,0,0
172053,-90.9090909090909,4,1,0,65,0,0
172150,-89.2857142857143,4,1,0,65,0,0
172247,-87.719298245614,4,1,0,65,0,0
172343,-86.2068965517241,4,1,0,65,0,0
172392,-85.4700854700855,4,1,0,65,0,0
172440,-84.7457627118644,4,1,0,65,0,0
172489,-84.0336134453781,4,1,0,65,0,0
172537,-83.3333333333333,4,1,0,65,0,0
172585,-82.6446280991736,4,1,0,65,0,0
172634,-81.9672131147541,4,1,0,65,0,0
172682,-81.3008130081301,4,1,0,65,0,0
172730,-80.6451612903226,4,1,0,65,0,0
173118,-100,4,1,0,65,0,0
173311,-106.382978723404,4,1,0,65,0,0
173359,-102.040816326531,4,1,0,65,0,0
173408,-98.0392156862745,4,1,0,65,0,0
173456,-94.3396226415094,4,1,0,65,0,0
173505,-90.9090909090909,4,1,0,65,0,0
173601,-87.719298245614,4,1,0,65,0,0
173698,-90.9090909090909,4,1,0,65,0,0
173795,-94.3396226415094,4,1,0,65,0,0
173892,-98.0392156862745,4,1,0,65,0,0
173989,-102.040816326531,4,1,0,65,0,0
174085,-106.382978723404,4,1,0,65,0,0
174182,-111.111111111111,4,1,0,65,0,0
174279,-66.6666666666667,4,1,0,65,0,1
174472,-100,4,1,0,65,0,1
174569,-102.040816326531,4,1,0,65,0,1
174666,-104.166666666667,4,1,0,65,0,1
174763,-106.382978723404,4,1,0,65,0,1
174859,-108.695652173913,4,1,0,65,0,1
174956,-111.111111111111,4,1,0,65,0,1
175053,-108.695652173913,4,1,0,65,0,1
175150,-106.382978723404,4,1,0,65,0,1
175247,-104.166666666667,4,1,0,65,0,1
175343,-102.040816326531,4,1,0,65,0,1
175440,-100,4,1,0,65,0,1
175537,-102.040816326531,4,1,0,65,0,1
175634,-104.166666666667,4,1,0,65,0,1
175730,-106.382978723404,4,1,0,65,0,1
175827,-108.695652173913,4,1,0,65,0,1
175924,-111.111111111111,4,1,0,65,0,1
176021,-108.695652173913,4,1,0,65,0,1
176118,-106.382978723404,4,1,0,65,0,1
176214,-104.166666666667,4,1,0,65,0,1
176311,-102.040816326531,4,1,0,65,0,1
176408,-100,4,1,0,65,0,1
176505,-102.040816326531,4,1,0,65,0,1
176601,-104.166666666667,4,1,0,65,0,1
176698,-106.382978723404,4,1,0,65,0,1
176795,-108.695652173913,4,1,0,65,0,1
176892,-111.111111111111,4,1,0,65,0,1
176989,-108.695652173913,4,1,0,65,0,1
177085,-106.382978723404,4,1,0,65,0,1
177182,-104.166666666667,4,1,0,65,0,1
177279,-102.040816326531,4,1,0,65,0,1
177376,-100,4,1,0,65,0,1
177440,-102.040816326531,4,1,0,65,0,1
177505,-104.166666666667,4,1,0,65,0,1
177569,-106.382978723404,4,1,0,65,0,1
177666,-108.695652173913,4,1,0,65,0,1
177763,-111.111111111111,4,1,0,65,0,1
177859,-108.695652173913,4,1,0,65,0,1
177956,-106.382978723404,4,1,0,65,0,1
178021,-104.166666666667,4,1,0,65,0,1
178085,-102.040816326531,4,1,0,65,0,1
178150,-100,4,1,0,65,0,1
178247,-102.040816326531,4,1,0,65,0,1
178343,-104.166666666667,4,1,0,65,0,1
178408,-106.382978723404,4,1,0,65,0,1
178472,-108.695652173913,4,1,0,65,0,1
178537,-111.111111111111,4,1,0,65,0,1
178634,-108.695652173913,4,1,0,65,0,1
178730,-106.382978723404,4,1,0,65,0,1
178827,-104.166666666667,4,1,0,65,0,1
178924,-102.040816326531,4,1,0,65,0,1
178989,-100,4,1,0,65,0,1
179053,-102.040816326531,4,1,0,65,0,1
179118,-104.166666666667,4,1,0,65,0,1
179182,-106.382978723404,4,1,0,65,0,1
179247,-108.695652173913,4,1,0,65,0,1
179311,-111.111111111111,4,1,0,65,0,1
179408,-108.695652173913,4,1,0,65,0,1
179505,-106.382978723404,4,1,0,65,0,1
179569,-104.166666666667,4,1,0,65,0,1
179634,-102.040816326531,4,1,0,65,0,1
179698,-100,4,1,0,65,0,1
179795,-102.040816326531,4,1,0,65,0,1
179892,-100,4,1,0,65,0,1
179940,-95.2380952380952,4,1,0,65,0,1
180085,-100,4,1,0,65,0,1
180134,-95.2380952380952,4,1,0,65,0,1
180279,-100,4,1,0,65,0,1
180327,-95.2380952380952,4,1,0,65,0,1
180472,-66.6666666666667,4,1,0,65,0,1
180666,-100,4,1,0,65,0,1
180763,-102.040816326531,4,1,0,65,0,1
180859,-104.166666666667,4,1,0,65,0,1
180956,-106.382978723404,4,1,0,65,0,1
181053,-108.695652173913,4,1,0,65,0,1
181150,-111.111111111111,4,1,0,65,0,1
181247,-108.695652173913,4,1,0,65,0,1
181343,-106.382978723404,4,1,0,65,0,1
181440,-104.166666666667,4,1,0,65,0,1
181537,-102.040816326531,4,1,0,65,0,1
181634,-100,4,1,0,65,0,1
181730,-102.040816326531,4,1,0,65,0,1
181827,-104.166666666667,4,1,0,65,0,1
181924,-106.382978723404,4,1,0,65,0,1
182021,-108.695652173913,4,1,0,65,0,1
182118,-111.111111111111,4,1,0,65,0,1
182214,-108.695652173913,4,1,0,65,0,1
182311,-106.382978723404,4,1,0,65,0,1
182408,-104.166666666667,4,1,0,65,0,1
182505,-102.040816326531,4,1,0,65,0,1
182601,-100,4,1,0,65,0,1
182698,-102.040816326531,4,1,0,65,0,1
182795,-104.166666666667,4,1,0,65,0,1
182892,-106.382978723404,4,1,0,65,0,1
182989,-108.695652173913,4,1,0,65,0,1
183053,-111.111111111111,4,1,0,65,0,1
183118,-108.695652173913,4,1,0,65,0,1
183182,-106.382978723404,4,1,0,65,0,1
183279,-104.166666666667,4,1,0,65,0,1
183376,-102.040816326531,4,1,0,65,0,1
183440,-100,4,1,0,65,0,1
183505,-102.040816326531,4,1,0,65,0,1
183569,-104.166666666667,4,1,0,65,0,1
183666,-106.382978723404,4,1,0,65,0,1
183763,-108.695652173913,4,1,0,65,0,1
183859,-111.111111111111,4,1,0,65,0,1
183956,-108.695652173913,4,1,0,65,0,1
184053,-106.382978723404,4,1,0,65,0,1
184150,-104.166666666667,4,1,0,65,0,1
184247,-102.040816326531,4,1,0,65,0,1
184343,-100,4,1,0,65,0,1
184440,-102.040816326531,4,1,0,65,0,1
184537,-104.166666666667,4,1,0,65,0,1
184634,-106.382978723404,4,1,0,65,0,1
184730,-108.695652173913,4,1,0,65,0,1
184827,-111.111111111111,4,1,0,65,0,1
184924,-108.695652173913,4,1,0,65,0,1
185021,-106.382978723404,4,1,0,65,0,1
185118,-104.166666666667,4,1,0,65,0,1
185214,-102.040816326531,4,1,0,65,0,1
185311,-100,4,1,0,65,0,1
185408,-102.040816326531,4,1,0,65,0,1
185505,-104.166666666667,4,1,0,65,0,1
185601,-106.382978723404,4,1,0,65,0,1
185698,-108.695652173913,4,1,0,65,0,1
185795,-111.111111111111,4,1,0,65,0,1
185892,-108.695652173913,4,1,0,65,0,1
186279,-55.5555555555556,4,1,0,65,0,1
186666,-50,4,1,0,65,0,1
186859,-100,4,1,0,65,0,1
186956,-102.040816326531,4,1,0,65,0,1
187053,-104.166666666667,4,1,0,65,0,1
187150,-106.382978723404,4,1,0,65,0,1
187247,-108.695652173913,4,1,0,65,0,1
187343,-111.111111111111,4,1,0,65,0,1
187440,-108.695652173913,4,1,0,65,0,1
187537,-106.382978723404,4,1,0,65,0,1
187634,-104.166666666667,4,1,0,65,0,1
187730,-102.040816326531,4,1,0,65,0,1
187827,-100,4,1,0,65,0,1
187924,-102.040816326531,4,1,0,65,0,1
188021,-104.166666666667,4,1,0,65,0,1
188118,-106.382978723404,4,1,0,65,0,1
188214,-108.695652173913,4,1,0,65,0,1
188311,-111.111111111111,4,1,0,65,0,1
188408,-108.695652173913,4,1,0,65,0,1
188505,-106.382978723404,4,1,0,65,0,1
188601,-104.166666666667,4,1,0,65,0,1
188698,-102.040816326531,4,1,0,65,0,1
188795,-100,4,1,0,65,0,1
188892,-102.040816326531,4,1,0,65,0,1
188989,-104.166666666667,4,1,0,65,0,1
189085,-106.382978723404,4,1,0,65,0,1
189182,-108.695652173913,4,1,0,65,0,1
189247,-111.111111111111,4,1,0,65,0,1
189311,-108.695652173913,4,1,0,65,0,1
189376,-106.382978723404,4,1,0,65,0,1
189472,-104.166666666667,4,1,0,65,0,1
189569,-102.040816326531,4,1,0,65,0,1
189634,-100,4,1,0,65,0,1
189698,-102.040816326531,4,1,0,65,0,1
189763,-104.166666666667,4,1,0,65,0,1
189859,-106.382978723404,4,1,0,65,0,1
189956,-108.695652173913,4,1,0,65,0,1
190053,-111.111111111111,4,1,0,65,0,1
190150,-108.695652173913,4,1,0,65,0,1
190214,-106.382978723404,4,1,0,65,0,1
190279,-104.166666666667,4,1,0,65,0,1
190343,-102.040816326531,4,1,0,65,0,1
190408,-100,4,1,0,65,0,1
190472,-102.040816326531,4,1,0,65,0,1
190537,-104.166666666667,4,1,0,65,0,1
190634,-106.382978723404,4,1,0,65,0,1
190730,-108.695652173913,4,1,0,65,0,1
190827,-111.111111111111,4,1,0,65,0,1
190924,-108.695652173913,4,1,0,65,0,1
191021,-106.382978723404,4,1,0,65,0,1
191118,-104.166666666667,4,1,0,65,0,1
191214,-102.040816326531,4,1,0,65,0,1
191311,-100,4,1,0,65,0,1
191408,-102.040816326531,4,1,0,65,0,1
191505,-104.166666666667,4,1,0,65,0,1
191601,-106.382978723404,4,1,0,65,0,1
191698,-108.695652173913,4,1,0,65,0,1
191795,-111.111111111111,4,1,0,65,0,1
191892,-108.695652173913,4,1,0,65,0,1
191989,-106.382978723404,4,1,0,65,0,1
192085,-104.166666666667,4,1,0,65,0,1
192182,-102.040816326531,4,1,0,65,0,1
192279,-100,4,1,0,65,0,1
192327,-95.2380952380952,4,1,0,65,0,1
192472,-100,4,1,0,65,0,1
192521,-95.2380952380952,4,1,0,65,0,1
192666,-100,4,1,0,65,0,1
192714,-95.2380952380952,4,1,0,65,0,1
192859,-66.6666666666667,4,1,0,65,0,1
193053,-100,4,1,0,65,0,1
193150,-102.040816326531,4,1,0,65,0,1
193150,-100,4,1,0,65,0,1
193247,-104.166666666667,4,1,0,65,0,1
193343,-106.382978723404,4,1,0,65,0,1
193440,-108.695652173913,4,1,0,65,0,1
193537,-111.111111111111,4,1,0,65,0,1
193634,-108.695652173913,4,1,0,65,0,1
193730,-106.382978723404,4,1,0,65,0,1
193827,-104.166666666667,4,1,0,65,0,1
193924,-102.040816326531,4,1,0,65,0,1
194021,-100,4,1,0,65,0,1
194118,-102.040816326531,4,1,0,65,0,1
194214,-104.166666666667,4,1,0,65,0,1
194311,-106.382978723404,4,1,0,65,0,1
194408,-108.695652173913,4,1,0,65,0,1
194505,-111.111111111111,4,1,0,65,0,1
194601,-108.695652173913,4,1,0,65,0,1
194698,-106.382978723404,4,1,0,65,0,1
194795,-104.166666666667,4,1,0,65,0,1
194892,-102.040816326531,4,1,0,65,0,1
194992,-100,4,1,0,65,0,1
195092,-102.040816326531,4,1,0,65,0,1
195192,-104.166666666667,4,1,0,65,0,1
195292,-106.382978723404,4,1,0,65,0,1
195392,-108.695652173913,4,1,0,65,0,1
195492,-111.111111111111,4,1,0,65,0,1
195569,-108.695652173913,4,1,0,65,0,1
195666,-106.382978723404,4,1,0,65,0,1
195763,-104.166666666667,4,1,0,65,0,1
195859,-102.040816326531,4,1,0,65,0,1
195956,-100,4,1,0,65,0,1
196053,-98.0392156862745,4,1,0,65,0,1
196150,-96.1538461538461,4,1,0,65,0,1
196247,-94.3396226415094,4,1,0,65,0,1
196343,-92.5925925925926,4,1,0,65,0,1
196440,-90.9090909090909,4,1,0,65,0,1
196537,-89.2857142857143,4,1,0,65,0,1
196634,-87.719298245614,4,1,0,65,0,1
196730,-86.2068965517241,4,1,0,65,0,1
196827,-84.7457627118644,4,1,0,65,0,1
196924,-83.3333333333333,4,1,0,65,0,1
197021,-81.9672131147541,4,1,0,65,0,1
197118,-80.6451612903226,4,1,0,65,0,1
197214,-79.3650793650794,4,1,0,65,0,1
197263,-78.7401574803149,4,1,0,65,0,1
197311,-78.125,4,1,0,65,0,1
197359,-77.5193798449612,4,1,0,65,0,1
197408,-76.9230769230769,4,1,0,65,0,1
197456,-76.3358778625954,4,1,0,65,0,1
197505,-75.7575757575758,4,1,0,65,0,0
197892,-100,4,1,0,65,0,0
199053,-66.6666666666667,4,1,0,65,0,1
199247,-100,4,1,0,65,0,1
199343,-102.040816326531,4,1,0,65,0,1
199440,-104.166666666667,4,1,0,65,0,1
199537,-106.382978723404,4,1,0,65,0,1
199634,-108.695652173913,4,1,0,65,0,1
199730,-111.111111111111,4,1,0,65,0,1
199827,-108.695652173913,4,1,0,65,0,1
199924,-106.382978723404,4,1,0,65,0,1
200021,-104.166666666667,4,1,0,65,0,1
200118,-102.040816326531,4,1,0,65,0,1
200214,-100,4,1,0,65,0,1
200311,-102.040816326531,4,1,0,65,0,1
200408,-104.166666666667,4,1,0,65,0,1
200505,-106.382978723404,4,1,0,65,0,1
200601,-108.695652173913,4,1,0,65,0,1
200698,-111.111111111111,4,1,0,65,0,1
200795,-108.695652173913,4,1,0,65,0,1
200892,-106.382978723404,4,1,0,65,0,1
200989,-104.166666666667,4,1,0,65,0,1
201085,-102.040816326531,4,1,0,65,0,1
201182,-100,4,1,0,65,0,1
201279,-102.040816326531,4,1,0,65,0,1
201376,-104.166666666667,4,1,0,65,0,1
201472,-106.382978723404,4,1,0,65,0,1
201569,-108.695652173913,4,1,0,65,0,1
201666,-111.111111111111,4,1,0,65,0,1
201763,-108.695652173913,4,1,0,65,0,1
201859,-106.382978723404,4,1,0,65,0,1
201956,-104.166666666667,4,1,0,65,0,1
202053,-102.040816326531,4,1,0,65,0,1
202150,-100,4,1,0,65,0,1
202247,-102.040816326531,4,1,0,65,0,1
202343,-104.166666666667,4,1,0,65,0,1
202440,-106.382978723404,4,1,0,65,0,1
202537,-108.695652173913,4,1,0,65,0,1
202634,-111.111111111111,4,1,0,65,0,1
202730,-108.695652173913,4,1,0,65,0,1
202827,-106.382978723404,4,1,0,65,0,1
202924,-104.166666666667,4,1,0,65,0,1
203021,-102.040816326531,4,1,0,65,0,1
203118,-100,4,1,0,65,0,1
203214,-102.040816326531,4,1,0,65,0,1
203311,-104.166666666667,4,1,0,65,0,1
203408,-106.382978723404,4,1,0,65,0,1
203505,-108.695652173913,4,1,0,65,0,1
203601,-111.111111111111,4,1,0,65,0,1
203698,-108.695652173913,4,1,0,65,0,1
203795,-106.382978723404,4,1,0,65,0,1
203892,-104.166666666667,4,1,0,65,0,1
203989,-102.040816326531,4,1,0,65,0,1
204085,-100,4,1,0,65,0,1
204182,-102.040816326531,4,1,0,65,0,1
204279,-104.166666666667,4,1,0,65,0,1
204376,-106.382978723404,4,1,0,65,0,1
204472,-108.695652173913,4,1,0,65,0,1
204569,-111.111111111111,4,1,0,65,0,1
204666,-100,4,1,0,65,0,1
204714,-95.2380952380952,4,1,0,65,0,1
204859,-100,4,1,0,65,0,1
204908,-95.2380952380952,4,1,0,65,0,1
205053,-100,4,1,0,65,0,1
205101,-95.2380952380952,4,1,0,65,0,1
205247,-66.6666666666667,4,1,0,65,0,1
205440,-100,4,1,0,65,0,1
205537,-102.040816326531,4,1,0,65,0,1
205634,-104.166666666667,4,1,0,65,0,1
205730,-106.382978723404,4,1,0,65,0,1
205827,-108.695652173913,4,1,0,65,0,1
205924,-111.111111111111,4,1,0,65,0,1
206021,-108.695652173913,4,1,0,65,0,1
206118,-106.382978723404,4,1,0,65,0,1
206214,-104.166666666667,4,1,0,65,0,1
206311,-102.040816326531,4,1,0,65,0,1
206408,-100,4,1,0,65,0,1
206505,-102.040816326531,4,1,0,65,0,1
206601,-104.166666666667,4,1,0,65,0,1
206698,-106.382978723404,4,1,0,65,0,1
206795,-108.695652173913,4,1,0,65,0,1
206892,-111.111111111111,4,1,0,65,0,1
206989,-108.695652173913,4,1,0,65,0,1
207085,-106.382978723404,4,1,0,65,0,1
207182,-104.166666666667,4,1,0,65,0,1
207279,-102.040816326531,4,1,0,65,0,1
207376,-100,4,1,0,65,0,1
207472,-102.040816326531,4,1,0,65,0,1
207569,-104.166666666667,4,1,0,65,0,1
207666,-106.382978723404,4,1,0,65,0,1
207763,-108.695652173913,4,1,0,65,0,1
207859,-111.111111111111,4,1,0,65,0,1
207956,-108.695652173913,4,1,0,65,0,1
208053,-106.382978723404,4,1,0,65,0,1
208150,-104.166666666667,4,1,0,65,0,1
208247,-102.040816326531,4,1,0,65,0,1
208343,-100,4,1,0,65,0,1
208440,-102.040816326531,4,1,0,65,0,1
208537,-104.166666666667,4,1,0,65,0,1
208634,-106.382978723404,4,1,0,65,0,1
208730,-108.695652173913,4,1,0,65,0,1
208827,-111.111111111111,4,1,0,65,0,1
208924,-108.695652173913,4,1,0,65,0,1
209021,-106.382978723404,4,1,0,65,0,1
209118,-104.166666666667,4,1,0,65,0,1
209214,-102.040816326531,4,1,0,65,0,1
209311,-100,4,1,0,65,0,1
209408,-102.040816326531,4,1,0,65,0,1
209505,-104.166666666667,4,1,0,65,0,1
209601,-106.382978723404,4,1,0,65,0,1
209698,-108.695652173913,4,1,0,65,0,1
209795,-111.111111111111,4,1,0,65,0,1
209892,-113.636363636364,4,1,0,65,0,1
210021,-116.279069767442,4,1,0,65,0,1
210150,-119.047619047619,4,1,0,65,0,1
210279,-121.951219512195,4,1,0,65,0,1
210408,-125,4,1,0,65,0,1
210537,-128.205128205128,4,1,0,65,0,1
210666,-131.578947368421,4,1,0,65,0,1
211053,-100,4,1,0,65,0,1
211440,-66.6666666666667,4,1,0,65,0,1
211698,-100,4,1,0,65,0,1
211827,-102.040816326531,4,1,0,65,0,1
211956,-104.166666666667,4,1,0,65,0,1
212085,-106.382978723404,4,1,0,65,0,1
212214,-108.695652173913,4,1,0,65,0,1
212343,-111.111111111111,4,1,0,65,0,1
212472,-108.695652173913,4,1,0,65,0,1
212601,-106.382978723404,4,1,0,65,0,1
212730,-104.166666666667,4,1,0,65,0,1
212859,-102.040816326531,4,1,0,65,0,1
212989,-100,4,1,0,65,0,1
213118,-102.040816326531,4,1,0,65,0,1
213247,-104.166666666667,4,1,0,65,0,1
213376,-106.382978723404,4,1,0,65,0,1
213505,-108.695652173913,4,1,0,65,0,1
213634,-111.111111111111,4,1,0,65,0,1
213763,-108.695652173913,4,1,0,65,0,1
213892,-106.382978723404,4,1,0,65,0,1
214021,-104.166666666667,4,1,0,65,0,1
214150,-102.040816326531,4,1,0,65,0,1
214279,-100,4,1,0,65,0,1
214408,-102.040816326531,4,1,0,65,0,1
214537,-104.166666666667,4,1,0,65,0,1
214666,-106.382978723404,4,1,0,65,0,1
214795,-108.695652173913,4,1,0,65,0,1
214924,-111.111111111111,4,1,0,65,0,1
215053,-108.695652173913,4,1,0,65,0,1
215182,-106.382978723404,4,1,0,65,0,1
215311,-104.166666666667,4,1,0,65,0,1
215440,-102.040816326531,4,1,0,65,0,1
215569,-100,4,1,0,65,0,1
215698,-102.040816326531,4,1,0,65,0,1
215827,-104.166666666667,4,1,0,65,0,1
215956,-106.382978723404,4,1,0,65,0,1
216085,-108.695652173913,4,1,0,65,0,1
216214,-111.111111111111,4,1,0,65,0,1
216343,-108.695652173913,4,1,0,65,0,1
216472,-106.382978723404,4,1,0,65,0,1
216601,-104.166666666667,4,1,0,65,0,1
216730,-102.040816326531,4,1,0,65,0,1
216859,-100,4,1,0,65,0,1
216908,-95.2380952380952,4,1,0,65,0,1
217053,-100,4,1,0,65,0,1
217101,-95.2380952380952,4,1,0,65,0,1
217247,-100,4,1,0,65,0,1
217295,-95.2380952380952,4,1,0,65,0,1
217440,-100,4,1,0,65,0,1
217489,-95.2380952380952,4,1,0,65,0,1
217634,-66.6666666666667,4,1,0,65,0,1
217827,-100,4,1,0,65,0,1
217924,-102.040816326531,4,1,0,65,0,1
218021,-104.166666666667,4,1,0,65,0,1
218118,-106.382978723404,4,1,0,65,0,1
218214,-108.695652173913,4,1,0,65,0,1
218311,-111.111111111111,4,1,0,65,0,1
218408,-108.695652173913,4,1,0,65,0,1
218505,-106.382978723404,4,1,0,65,0,1
218601,-104.166666666667,4,1,0,65,0,1
218698,-102.040816326531,4,1,0,65,0,1
218795,-100,4,1,0,65,0,1
218892,-102.040816326531,4,1,0,65,0,1
218989,-104.166666666667,4,1,0,65,0,1
219085,-106.382978723404,4,1,0,65,0,1
219182,-108.695652173913,4,1,0,65,0,1
219279,-111.111111111111,4,1,0,65,0,1
219376,-108.695652173913,4,1,0,65,0,1
219472,-106.382978723404,4,1,0,65,0,1
219569,-104.166666666667,4,1,0,65,0,1
219666,-102.040816326531,4,1,0,65,0,1
219763,-100,4,1,0,65,0,1
219859,-102.040816326531,4,1,0,65,0,1
219956,-104.166666666667,4,1,0,65,0,1
220053,-106.382978723404,4,1,0,65,0,1
220150,-108.695652173913,4,1,0,65,0,1
220247,-111.111111111111,4,1,0,65,0,1
220343,-108.695652173913,4,1,0,65,0,1
220440,-106.382978723404,4,1,0,65,0,1
220537,-104.166666666667,4,1,0,65,0,1
220634,-102.040816326531,4,1,0,65,0,1
220730,-100,4,1,0,65,0,1
220827,-102.040816326531,4,1,0,65,0,1
220924,-104.166666666667,4,1,0,65,0,1
221021,-106.382978723404,4,1,0,65,0,1
221118,-108.695652173913,4,1,0,65,0,1
221214,-111.111111111111,4,1,0,65,0,1
221311,-108.695652173913,4,1,0,65,0,1
221408,-106.382978723404,4,1,0,65,0,1
221505,-104.166666666667,4,1,0,65,0,1
221601,-102.040816326531,4,1,0,65,0,1
221698,-100,4,1,0,65,0,1
221795,-102.040816326531,4,1,0,65,0,1
221892,-104.166666666667,4,1,0,65,0,1
221989,-106.382978723404,4,1,0,65,0,1
222085,-108.695652173913,4,1,0,65,0,1
222182,-111.111111111111,4,1,0,65,0,1
222279,-108.695652173913,4,1,0,65,0,1
222376,-106.382978723404,4,1,0,65,0,1
222472,-104.166666666667,4,1,0,65,0,1
222569,-102.040816326531,4,1,0,65,0,1
222666,-100,4,1,0,65,0,1
222763,-102.040816326531,4,1,0,65,0,1
222859,-104.166666666667,4,1,0,65,0,0
223247,-100,4,1,0,65,0,0
223827,-66.6666666666667,4,1,0,65,0,1
224021,-100,4,1,0,65,0,1
235247,-102.040816326531,4,1,0,65,0,1
235343,-104.166666666667,4,1,0,65,0,1
235440,-106.382978723404,4,1,0,65,0,1
235537,-108.695652173913,4,1,0,65,0,1
235634,-111.111111111111,4,1,0,65,0,1
235730,-113.636363636364,4,1,0,65,0,1
235827,-116.279069767442,4,1,0,65,0,1
235924,-119.047619047619,4,1,0,65,0,1
236021,-121.951219512195,4,1,0,65,0,1
236214,-100,4,1,0,65,0,0
236214,-133.333333333333,4,1,0,65,0,0
236989,-66.6666666666667,4,1,0,65,0,1
237182,-117.647058823529,4,1,0,65,0,1
245505,-114.942528735632,4,1,0,65,0,1
245795,-112.359550561798,4,1,0,65,0,1
246085,-109.89010989011,4,1,0,65,0,1
246279,-107.52688172043,4,1,0,65,0,1
246569,-105.263157894737,4,1,0,65,0,1
246859,-103.092783505155,4,1,0,65,0,1
246956,-101.010101010101,4,1,0,65,0,1
247053,-99.009900990099,4,1,0,65,0,1
247343,-97.0873786407767,4,1,0,65,0,1
247634,-95.2380952380952,4,1,0,65,0,1
247827,-93.4579439252336,4,1,0,65,0,1
248021,-98.0392156862745,4,1,0,60,0,1
248118,-103.092783505155,4,1,0,60,0,1
248214,-108.695652173913,4,1,0,60,0,1
248311,-114.942528735632,4,1,0,60,0,1
248408,-121.951219512195,4,1,0,60,0,1
248505,-129.87012987013,4,1,0,60,0,1
248601,-66.6666666666667,4,1,0,55,0,0
248989,-133.333333333333,4,1,0,50,0,0
260989,-142.857142857143,4,1,0,40,0,0
264085,-153.846153846154,4,1,0,35,0,0
267182,-166.666666666667,4,1,0,30,0,0
270279,-181.818181818182,4,1,0,25,0,0

[HitObjects]
256,192,860,5,8,0:0:0:0:
256,192,1440,1,0,0:0:0:0:
256,192,1827,1,8,0:0:0:0:
256,192,2214,1,8,0:0:0:0:
256,192,2601,1,8,0:0:0:0:
256,192,2795,1,8,0:0:0:0:
256,192,2989,1,8,0:0:0:0:
256,192,3182,1,8,0:0:0:0:
256,192,3376,1,8,0:0:0:0:
256,192,3956,1,0,0:0:0:0:
256,192,4537,1,0,0:0:0:0:
256,192,4924,1,8,0:0:0:0:
256,192,5311,1,0,0:0:0:0:
256,192,5698,1,8,0:0:0:0:
256,192,5892,1,8,0:0:0:0:
256,192,6085,1,8,0:0:0:0:
256,192,6279,1,8,0:0:0:0:
256,192,6472,1,8,0:0:0:0:
256,192,6666,1,0,0:0:0:0:
256,192,7053,1,8,0:0:0:0:
256,192,7634,1,0,0:0:0:0:
256,192,8021,1,8,0:0:0:0:
256,192,8408,1,8,0:0:0:0:
256,192,8795,1,8,0:0:0:0:
256,192,8989,1,8,0:0:0:0:
256,192,9182,1,8,0:0:0:0:
256,192,9376,1,8,0:0:0:0:
256,192,9569,1,8,0:0:0:0:
256,192,10150,1,0,0:0:0:0:
256,192,10730,1,0,0:0:0:0:
256,192,11118,1,8,0:0:0:0:
256,192,11505,1,0,0:0:0:0:
256,192,11698,1,8,0:0:0:0:
256,192,11795,1,0,0:0:0:0:
256,192,11892,1,8,0:0:0:0:
256,192,11989,1,0,0:0:0:0:
256,192,12085,1,0,0:0:0:0:
256,192,12279,1,0,0:0:0:0:
256,192,12343,1,0,0:0:0:0:
256,192,12408,1,0,0:0:0:0:
256,192,12472,1,8,0:0:0:0:
256,192,12666,1,0,0:0:0:0:
256,192,12763,1,0,0:0:0:0:
256,192,12859,1,8,0:0:0:0:
256,192,12956,1,8,0:0:0:0:
256,192,13053,1,0,0:0:0:0:
256,192,13150,1,0,0:0:0:0:
256,192,13247,1,12,0:0:0:0:
256,192,13634,1,8,0:0:0:0:
256,192,14021,1,8,0:0:0:0:
256,192,14214,1,0,0:0:0:0:
256,192,14601,1,0,0:0:0:0:
256,192,14989,1,0,0:0:0:0:
256,192,15182,1,8,0:0:0:0:
256,192,15376,1,0,0:0:0:0:
256,192,15569,1,0,0:0:0:0:
256,192,15763,1,12,0:0:0:0:
256,192,15956,1,12,0:0:0:0:
256,192,16343,1,8,0:0:0:0:
256,192,16730,1,8,0:0:0:0:
256,192,17118,1,8,0:0:0:0:
256,192,17311,1,0,0:0:0:0:
256,192,17698,1,0,0:0:0:0:
256,192,18085,1,0,0:0:0:0:
256,192,18279,1,0,0:0:0:0:
256,192,18666,1,8,0:0:0:0:
256,192,18859,1,8,0:0:0:0:
256,192,19053,1,12,0:0:0:0:
256,192,19440,1,8,0:0:0:0:
256,192,19827,1,8,0:0:0:0:
256,192,20214,1,8,0:0:0:0:
256,192,20408,1,0,0:0:0:0:
256,192,20795,1,0,0:0:0:0:
256,192,21182,1,0,0:0:0:0:
256,192,21376,1,8,0:0:0:0:
256,192,21569,1,0,0:0:0:0:
256,192,21763,1,0,0:0:0:0:
256,192,21956,1,12,0:0:0:0:
256,192,22150,1,12,0:0:0:0:
256,192,22537,1,0,0:0:0:0:
256,192,22924,1,0,0:0:0:0:
256,192,23311,1,8,0:0:0:0:
256,192,23505,1,0,0:0:0:0:
256,192,23698,1,0,0:0:0:0:
256,192,23892,1,8,0:0:0:0:
256,192,24279,1,8,0:0:0:0:
256,192,24666,1,0,0:0:0:0:
256,192,25053,1,0,0:0:0:0:
256,192,25247,1,12,0:0:0:0:
256,192,25634,1,8,0:0:0:0:
256,192,25924,1,0,0:0:0:0:
256,192,26021,1,8,0:0:0:0:
256,192,26214,1,0,0:0:0:0:
256,192,26408,1,8,0:0:0:0:
256,192,26698,1,0,0:0:0:0:
256,192,26795,1,8,0:0:0:0:
256,192,26989,1,0,0:0:0:0:
256,192,27182,1,8,0:0:0:0:
256,192,27472,1,0,0:0:0:0:
256,192,27569,1,8,0:0:0:0:
256,192,27763,1,0,0:0:0:0:
256,192,27956,1,8,0:0:0:0:
256,192,28150,1,0,0:0:0:0:
256,192,28247,1,0,0:0:0:0:
256,192,28343,1,8,0:0:0:0:
256,192,28537,1,0,0:0:0:0:
256,192,28730,1,8,0:0:0:0:
256,192,29021,1,0,0:0:0:0:
256,192,29118,1,8,0:0:0:0:
256,192,29311,1,0,0:0:0:0:
256,192,29505,1,8,0:0:0:0:
256,192,29795,1,0,0:0:0:0:
256,192,29892,1,8,0:0:0:0:
256,192,30085,1,0,0:0:0:0:
256,192,30279,1,8,0:0:0:0:
256,192,30569,1,0,0:0:0:0:
256,192,30666,1,8,0:0:0:0:
256,192,30859,1,0,0:0:0:0:
256,192,31053,1,8,0:0:0:0:
256,192,31247,1,0,0:0:0:0:
256,192,31343,1,0,0:0:0:0:
256,192,31440,1,8,0:0:0:0:
256,192,31634,1,0,0:0:0:0:
256,192,31827,1,12,0:0:0:0:
256,192,32021,1,8,0:0:0:0:
256,192,32118,1,0,0:0:0:0:
256,192,32214,1,8,0:0:0:0:
256,192,32408,1,8,0:0:0:0:
256,192,32505,1,0,0:0:0:0:
256,192,32601,1,8,0:0:0:0:
256,192,32795,1,8,0:0:0:0:
256,192,32892,1,0,0:0:0:0:
256,192,32989,1,8,0:0:0:0:
256,192,33182,1,8,0:0:0:0:
256,192,33279,1,0,0:0:0:0:
256,192,33376,1,8,0:0:0:0:
256,192,33569,1,8,0:0:0:0:
256,192,33666,1,0,0:0:0:0:
256,192,33763,1,8,0:0:0:0:
256,192,33956,1,8,0:0:0:0:
256,192,34053,1,0,0:0:0:0:
256,192,34150,1,8,0:0:0:0:
256,192,34343,1,8,0:0:0:0:
256,192,34440,1,0,0:0:0:0:
256,192,34537,1,8,0:0:0:0:
256,192,34730,1,8,0:0:0:0:
256,192,34827,1,0,0:0:0:0:
256,192,34924,1,0,0:0:0:0:
256,192,35021,1,0,0:0:0:0:
256,192,35118,1,8,0:0:0:0:
256,192,35214,1,8,0:0:0:0:
256,192,35311,1,0,0:0:0:0:
256,192,35408,1,0,0:0:0:0:
256,192,35505,1,8,0:0:0:0:
256,192,35601,1,8,0:0:0:0:
256,192,35698,1,0,0:0:0:0:
256,192,35795,1,8,0:0:0:0:
256,192,35892,1,0,0:0:0:0:
256,192,35989,1,8,0:0:0:0:
256,192,36085,1,0,0:0:0:0:
256,192,36134,1,8,0:0:0:0:
256,192,36182,1,8,0:0:0:0:
256,192,36230,1,8,0:0:0:0:
256,192,36279,1,8,0:0:0:0:
256,192,36327,1,8,0:0:0:0:
256,192,36376,1,8,0:0:0:0:
256,192,36424,1,8,0:0:0:0:
256,192,36472,1,0,0:0:0:0:
256,192,36859,1,8,0:0:0:0:
256,192,37053,1,8,0:0:0:0:
256,192,37101,1,8,0:0:0:0:
256,192,37150,1,8,0:0:0:0:
256,192,37198,1,8,0:0:0:0:
256,192,37247,1,8,0:0:0:0:
256,192,37343,1,0,0:0:0:0:
256,192,37440,1,0,0:0:0:0:
256,192,37537,1,0,0:0:0:0:
256,192,37634,1,0,0:0:0:0:
256,192,37730,1,0,0:0:0:0:
256,192,37827,1,0,0:0:0:0:
256,192,37924,1,0,0:0:0:0:
256,192,38021,1,12,0:0:0:0:
256,192,38601,1,0,0:0:0:0:
256,192,38698,1,8,0:0:0:0:
256,192,38795,1,8,0:0:0:0:
256,192,38892,1,8,0:0:0:0:
256,192,38989,1,0,0:0:0:0:
256,192,39085,1,0,0:0:0:0:
256,192,39182,1,8,0:0:0:0:
256,192,39376,1,8,0:0:0:0:
256,192,39424,1,8,0:0:0:0:
256,192,39472,1,8,0:0:0:0:
256,192,39521,1,8,0:0:0:0:
256,192,39569,1,0,0:0:0:0:
256,192,39666,1,0,0:0:0:0:
256,192,39763,1,8,0:0:0:0:
256,192,39859,1,0,0:0:0:0:
256,192,39956,1,8,0:0:0:0:
256,192,40150,1,8,0:0:0:0:
256,192,40198,1,8,0:0:0:0:
256,192,40247,1,8,0:0:0:0:
256,192,40295,1,8,0:0:0:0:
256,192,40343,1,0,0:0:0:0:
256,192,40440,1,0,0:0:0:0:
256,192,40537,1,8,0:0:0:0:
256,192,40634,1,0,0:0:0:0:
256,192,40730,1,8,0:0:0:0:
256,192,40795,1,8,0:0:0:0:
256,192,40859,1,8,0:0:0:0:
256,192,40924,1,0,0:0:0:0:
256,192,40989,1,0,0:0:0:0:
256,192,41053,1,0,0:0:0:0:
256,192,41118,1,8,0:0:0:0:
256,192,41214,1,8,0:0:0:0:
256,192,41311,1,8,0:0:0:0:
256,192,41376,1,8,0:0:0:0:
256,192,41440,1,8,0:0:0:0:
256,192,41505,1,0,0:0:0:0:
256,192,41698,1,4,0:0:0:0:
256,192,41892,1,12,0:0:0:0:
256,192,42085,1,8,0:0:0:0:
256,192,42182,1,8,0:0:0:0:
256,192,42279,1,8,0:0:0:0:
256,192,42376,1,8,0:0:0:0:
256,192,42569,1,8,0:0:0:0:
256,192,42666,1,4,0:0:0:0:
256,192,42859,1,8,0:0:0:0:
256,192,42956,1,8,0:0:0:0:
256,192,43053,1,8,0:0:0:0:
256,192,43150,1,8,0:0:0:0:
256,192,43343,1,0,0:0:0:0:
256,192,43440,1,12,0:0:0:0:
256,192,43634,1,8,0:0:0:0:
256,192,43827,1,8,0:0:0:0:
256,192,44021,1,0,0:0:0:0:
256,192,44214,1,4,0:0:0:0:
256,192,44795,1,0,0:0:0:0:
256,192,44892,1,0,0:0:0:0:
256,192,44989,1,8,0:0:0:0:
256,192,45085,1,8,0:0:0:0:
256,192,45182,1,8,0:0:0:0:
256,192,45279,1,0,0:0:0:0:
256,192,45376,1,8,0:0:0:0:
256,192,45569,1,8,0:0:0:0:
256,192,45618,1,8,0:0:0:0:
256,192,45666,1,8,0:0:0:0:
256,192,45714,1,8,0:0:0:0:
256,192,45763,1,0,0:0:0:0:
256,192,45859,1,0,0:0:0:0:
256,192,45956,1,8,0:0:0:0:
256,192,46053,1,0,0:0:0:0:
256,192,46150,1,8,0:0:0:0:
256,192,46343,1,8,0:0:0:0:
256,192,46392,1,8,0:0:0:0:
256,192,46440,1,8,0:0:0:0:
256,192,46489,1,8,0:0:0:0:
256,192,46537,1,0,0:0:0:0:
256,192,46634,1,0,0:0:0:0:
256,192,46730,1,8,0:0:0:0:
256,192,46827,1,8,0:0:0:0:
256,192,46924,1,0,0:0:0:0:
256,192,46989,1,0,0:0:0:0:
256,192,47053,1,0,0:0:0:0:
256,192,47118,1,8,0:0:0:0:
256,192,47182,1,8,0:0:0:0:
256,192,47247,1,8,0:0:0:0:
256,192,47311,1,0,0:0:0:0:
256,192,47698,1,0,0:0:0:0:
256,192,47892,1,0,0:0:0:0:
256,192,48085,1,8,0:0:0:0:
256,192,48472,1,0,0:0:0:0:
256,192,48666,1,0,0:0:0:0:
256,192,48859,1,8,0:0:0:0:
256,192,49053,1,0,0:0:0:0:
256,192,49247,1,8,0:0:0:0:
256,192,49440,1,0,0:0:0:0:
256,192,49634,1,8,0:0:0:0:
256,192,49682,1,8,0:0:0:0:
256,192,49730,1,8,0:0:0:0:
256,192,49827,1,8,0:0:0:0:
256,192,49876,1,8,0:0:0:0:
256,192,49924,1,8,0:0:0:0:
256,192,50021,1,8,0:0:0:0:
256,192,50069,1,0,0:0:0:0:
256,192,50118,1,0,0:0:0:0:
256,192,50214,1,8,0:0:0:0:
256,192,50263,1,0,0:0:0:0:
256,192,50311,1,0,0:0:0:0:
256,192,50408,1,4,0:0:0:0:
256,192,50795,1,8,0:0:0:0:
256,192,50989,1,0,0:0:0:0:
256,192,51085,1,8,0:0:0:0:
256,192,51182,1,8,0:0:0:0:
256,192,51279,1,8,0:0:0:0:
256,192,51376,1,0,0:0:0:0:
256,192,51424,1,0,0:0:0:0:
256,192,51472,1,0,0:0:0:0:
256,192,51569,1,8,0:0:0:0:
256,192,51763,1,0,0:0:0:0:
256,192,51811,1,0,0:0:0:0:
256,192,51859,1,8,0:0:0:0:
256,192,51956,1,4,0:0:0:0:
256,192,52150,1,0,0:0:0:0:
256,192,52198,1,0,0:0:0:0:
256,192,52247,1,0,0:0:0:0:
256,192,52343,1,8,0:0:0:0:
256,192,52537,1,8,0:0:0:0:
256,192,52730,1,12,0:0:0:0:
256,192,52924,1,0,0:0:0:0:
256,192,52972,1,0,0:0:0:0:
256,192,53118,1,8,0:0:0:0:
256,192,53166,1,8,0:0:0:0:
256,192,53311,1,0,0:0:0:0:
256,192,53359,1,0,0:0:0:0:
256,192,53505,1,4,0:0:0:0:
256,192,53892,1,8,0:0:0:0:
256,192,53956,1,8,0:0:0:0:
256,192,54021,1,8,0:0:0:0:
256,192,54085,1,0,0:0:0:0:
256,192,54182,1,0,0:0:0:0:
256,192,54279,1,8,0:0:0:0:
256,192,54376,1,0,0:0:0:0:
256,192,54472,1,0,0:0:0:0:
256,192,54537,1,0,0:0:0:0:
256,192,54601,1,0,0:0:0:0:
256,192,54666,1,8,0:0:0:0:
256,192,54730,1,8,0:0:0:0:
256,192,54795,1,8,0:0:0:0:
256,192,54859,1,0,0:0:0:0:
256,192,54956,1,0,0:0:0:0:
256,192,55053,1,0,0:0:0:0:
256,192,55150,1,0,0:0:0:0:
256,192,55247,1,8,0:0:0:0:
256,192,55343,1,0,0:0:0:0:
256,192,55440,1,8,0:0:0:0:
256,192,55505,1,8,0:0:0:0:
256,192,55569,1,8,0:0:0:0:
256,192,55634,1,0,0:0:0:0:
256,192,55730,1,0,0:0:0:0:
256,192,55827,1,8,0:0:0:0:
256,192,56021,1,8,0:0:0:0:
256,192,56214,1,8,0:0:0:0:
256,192,56408,1,0,0:0:0:0:
256,192,56601,1,4,0:0:0:0:
256,192,56989,1,8,0:0:0:0:
256,192,57053,1,8,0:0:0:0:
256,192,57118,1,8,0:0:0:0:
256,192,57182,1,0,0:0:0:0:
256,192,57279,1,0,0:0:0:0:
256,192,57376,1,8,0:0:0:0:
256,192,57472,1,0,0:0:0:0:
256,192,57569,1,0,0:0:0:0:
256,192,57634,1,0,0:0:0:0:
256,192,57698,1,0,0:0:0:0:
256,192,57763,1,8,0:0:0:0:
256,192,57827,1,8,0:0:0:0:
256,192,57892,1,8,0:0:0:0:
256,192,57956,1,0,0:0:0:0:
256,192,58053,1,0,0:0:0:0:
256,192,58150,1,0,0:0:0:0:
256,192,58247,1,8,0:0:0:0:
256,192,58343,1,0,0:0:0:0:
256,192,58392,1,0,0:0:0:0:
256,192,58440,1,0,0:0:0:0:
256,192,58537,1,8,0:0:0:0:
256,192,58730,1,8,0:0:0:0:
256,192,58795,1,8,0:0:0:0:
256,192,58859,1,8,0:0:0:0:
256,192,58924,1,0,0:0:0:0:
256,192,59021,1,8,0:0:0:0:
256,192,59118,1,0,0:0:0:0:
256,192,59166,1,0,0:0:0:0:
256,192,59311,1,8,0:0:0:0:
256,192,59359,1,8,0:0:0:0:
256,192,59505,1,0,0:0:0:0:
256,192,59553,1,0,0:0:0:0:
256,192,59698,1,4,0:0:0:0:
256,192,60085,1,8,0:0:0:0:
256,192,60150,1,8,0:0:0:0:
256,192,60214,1,8,0:0:0:0:
256,192,60279,1,0,0:0:0:0:
256,192,60376,1,0,0:0:0:0:
256,192,60472,1,8,0:0:0:0:
256,192,60569,1,0,0:0:0:0:
256,192,60666,1,0,0:0:0:0:
256,192,60730,1,0,0:0:0:0:
256,192,60795,1,0,0:0:0:0:
256,192,60859,1,8,0:0:0:0:
256,192,60924,1,8,0:0:0:0:
256,192,60989,1,8,0:0:0:0:
256,192,61053,1,0,0:0:0:0:
256,192,61150,1,0,0:0:0:0:
256,192,61247,1,0,0:0:0:0:
256,192,61343,1,0,0:0:0:0:
256,192,61440,1,8,0:0:0:0:
256,192,61537,1,0,0:0:0:0:
256,192,61634,1,8,0:0:0:0:
256,192,61698,1,8,0:0:0:0:
256,192,61763,1,8,0:0:0:0:
256,192,61827,1,0,0:0:0:0:
256,192,61924,1,0,0:0:0:0:
256,192,62021,1,8,0:0:0:0:
256,192,62214,1,12,0:0:0:0:
256,192,62408,1,12,0:0:0:0:
256,192,62795,1,12,0:0:0:0:
256,192,63085,1,0,0:0:0:0:
256,192,63182,1,8,0:0:0:0:
256,192,63376,1,0,0:0:0:0:
256,192,63569,1,8,0:0:0:0:
256,192,63859,1,0,0:0:0:0:
256,192,63956,1,8,0:0:0:0:
256,192,64150,1,0,0:0:0:0:
256,192,64343,1,8,0:0:0:0:
256,192,64634,1,0,0:0:0:0:
256,192,64730,1,8,0:0:0:0:
256,192,64924,1,0,0:0:0:0:
256,192,65118,1,8,0:0:0:0:
256,192,65311,1,0,0:0:0:0:
256,192,65408,1,0,0:0:0:0:
256,192,65505,1,8,0:0:0:0:
256,192,65698,1,0,0:0:0:0:
256,192,65892,1,8,0:0:0:0:
256,192,66182,1,0,0:0:0:0:
256,192,66279,1,8,0:0:0:0:
256,192,66472,1,0,0:0:0:0:
256,192,66666,1,8,0:0:0:0:
256,192,66956,1,0,0:0:0:0:
256,192,67053,1,8,0:0:0:0:
256,192,67247,1,0,0:0:0:0:
256,192,67440,1,8,0:0:0:0:
256,192,67730,1,0,0:0:0:0:
256,192,67827,1,8,0:0:0:0:
256,192,68021,1,0,0:0:0:0:
256,192,68214,1,8,0:0:0:0:
256,192,68408,1,0,0:0:0:0:
256,192,68505,1,0,0:0:0:0:
256,192,68601,1,8,0:0:0:0:
256,192,68795,1,0,0:0:0:0:
256,192,68989,1,12,0:0:0:0:
256,192,69182,1,8,0:0:0:0:
256,192,69279,1,0,0:0:0:0:
256,192,69376,1,8,0:0:0:0:
256,192,69569,1,8,0:0:0:0:
256,192,69666,1,0,0:0:0:0:
256,192,69763,1,8,0:0:0:0:
256,192,69956,1,8,0:0:0:0:
256,192,70053,1,0,0:0:0:0:
256,192,70150,1,8,0:0:0:0:
256,192,70343,1,8,0:0:0:0:
256,192,70440,1,0,0:0:0:0:
256,192,70537,1,8,0:0:0:0:
256,192,70730,1,8,0:0:0:0:
256,192,70827,1,0,0:0:0:0:
256,192,70924,1,8,0:0:0:0:
256,192,71118,1,8,0:0:0:0:
256,192,71214,1,0,0:0:0:0:
256,192,71311,1,8,0:0:0:0:
256,192,71505,1,8,0:0:0:0:
256,192,71601,1,0,0:0:0:0:
256,192,71698,1,8,0:0:0:0:
256,192,71892,1,8,0:0:0:0:
256,192,71989,1,0,0:0:0:0:
256,192,72085,1,0,0:0:0:0:
256,192,72182,1,0,0:0:0:0:
256,192,72279,1,8,0:0:0:0:
256,192,72376,1,8,0:0:0:0:
256,192,72472,1,0,0:0:0:0:
256,192,72569,1,0,0:0:0:0:
256,192,72666,1,8,0:0:0:0:
256,192,72763,1,8,0:0:0:0:
256,192,72859,1,0,0:0:0:0:
256,192,72956,1,8,0:0:0:0:
256,192,73053,1,0,0:0:0:0:
256,192,73150,1,8,0:0:0:0:
256,192,73247,1,0,0:0:0:0:
256,192,73295,1,8,0:0:0:0:
256,192,73343,1,8,0:0:0:0:
256,192,73392,1,8,0:0:0:0:
256,192,73440,1,8,0:0:0:0:
256,192,73489,1,8,0:0:0:0:
256,192,73537,1,8,0:0:0:0:
256,192,73585,1,8,0:0:0:0:
256,192,73634,1,0,0:0:0:0:
256,192,74021,1,8,0:0:0:0:
256,192,74214,1,8,0:0:0:0:
256,192,74263,1,8,0:0:0:0:
256,192,74311,1,8,0:0:0:0:
256,192,74359,1,8,0:0:0:0:
256,192,74408,1,8,0:0:0:0:
256,192,74505,1,0,0:0:0:0:
256,192,74601,1,0,0:0:0:0:
256,192,74698,1,0,0:0:0:0:
256,192,74795,1,0,0:0:0:0:
256,192,74892,1,0,0:0:0:0:
256,192,74989,1,0,0:0:0:0:
256,192,75085,1,0,0:0:0:0:
256,192,75182,1,12,0:0:0:0:
256,192,75569,1,8,0:0:0:0:
256,192,75763,1,0,0:0:0:0:
256,192,75859,1,0,0:0:0:0:
256,192,75956,1,8,0:0:0:0:
256,192,76053,1,0,0:0:0:0:
256,192,76150,1,8,0:0:0:0:
256,192,76247,1,8,0:0:0:0:
256,192,76343,1,0,0:0:0:0:
256,192,76440,1,8,0:0:0:0:
256,192,76537,1,8,0:0:0:0:
256,192,76634,1,8,0:0:0:0:
256,192,76730,1,0,0:0:0:0:
256,192,76827,1,8,0:0:0:0:
256,192,76924,1,8,0:0:0:0:
256,192,77021,1,8,0:0:0:0:
256,192,77118,1,0,0:0:0:0:
256,192,77214,1,0,0:0:0:0:
256,192,77311,1,8,0:0:0:0:
256,192,77408,1,0,0:0:0:0:
256,192,77505,1,8,0:0:0:0:
256,192,77553,1,8,0:0:0:0:
256,192,77698,1,0,0:0:0:0:
256,192,77747,1,0,0:0:0:0:
256,192,77892,1,0,0:0:0:0:
256,192,77940,1,0,0:0:0:0:
256,192,78085,1,8,0:0:0:0:
256,192,78134,1,8,0:0:0:0:
256,192,78279,1,4,0:0:0:0:
256,192,78666,1,8,0:0:0:0:
256,192,78859,1,0,0:0:0:0:
256,192,78956,1,0,0:0:0:0:
256,192,79053,1,8,0:0:0:0:
256,192,79150,1,0,0:0:0:0:
256,192,79247,1,8,0:0:0:0:
256,192,79343,1,8,0:0:0:0:
256,192,79440,1,0,0:0:0:0:
256,192,79537,1,8,0:0:0:0:
256,192,79634,1,8,0:0:0:0:
256,192,79730,1,8,0:0:0:0:
256,192,79827,1,0,0:0:0:0:
256,192,79924,1,8,0:0:0:0:
256,192,80021,1,8,0:0:0:0:
256,192,80118,1,8,0:0:0:0:
256,192,80214,1,0,0:0:0:0:
256,192,80311,1,8,0:0:0:0:
256,192,80408,1,8,0:0:0:0:
256,192,80505,1,0,0:0:0:0:
256,192,80601,1,8,0:0:0:0:
256,192,80666,1,0,0:0:0:0:
256,192,80730,1,0,0:0:0:0:
256,192,80795,1,8,0:0:0:0:
256,192,80989,1,0,0:0:0:0:
256,192,81053,1,0,0:0:0:0:
256,192,81118,1,0,0:0:0:0:
256,192,81182,1,0,0:0:0:0:
256,192,81279,1,0,0:0:0:0:
256,192,81376,1,12,0:0:0:0:
256,192,81763,1,8,0:0:0:0:
256,192,81956,1,0,0:0:0:0:
256,192,82053,1,0,0:0:0:0:
256,192,82150,1,8,0:0:0:0:
256,192,82247,1,0,0:0:0:0:
256,192,82343,1,8,0:0:0:0:
256,192,82440,1,8,0:0:0:0:
256,192,82537,1,0,0:0:0:0:
256,192,82634,1,8,0:0:0:0:
256,192,82730,1,8,0:0:0:0:
256,192,82827,1,8,0:0:0:0:
256,192,82924,1,0,0:0:0:0:
256,192,83021,1,8,0:0:0:0:
256,192,83118,1,8,0:0:0:0:
256,192,83214,1,8,0:0:0:0:
256,192,83311,1,0,0:0:0:0:
256,192,83408,1,8,0:0:0:0:
256,192,83505,1,8,0:0:0:0:
256,192,83601,1,0,0:0:0:0:
256,192,83698,1,8,0:0:0:0:
256,192,83747,1,8,0:0:0:0:
256,192,83892,1,0,0:0:0:0:
256,192,83940,1,0,0:0:0:0:
256,192,84085,1,0,0:0:0:0:
256,192,84134,1,0,0:0:0:0:
256,192,84279,1,8,0:0:0:0:
256,192,84327,1,8,0:0:0:0:
256,192,84472,1,4,0:0:0:0:
256,192,84859,1,8,0:0:0:0:
256,192,85247,1,8,0:0:0:0:
256,192,85440,1,0,0:0:0:0:
256,192,85634,1,0,0:0:0:0:
256,192,85827,1,8,0:0:0:0:
256,192,86214,1,8,0:0:0:0:
256,192,86408,1,0,0:0:0:0:
256,192,86795,1,0,0:0:0:0:
256,192,86843,1,0,0:0:0:0:
256,192,86892,1,0,0:0:0:0:
256,192,86989,1,0,0:0:0:0:
256,192,87037,1,0,0:0:0:0:
256,192,87085,1,0,0:0:0:0:
256,192,87182,1,0,0:0:0:0:
256,192,87230,1,8,0:0:0:0:
256,192,87279,1,8,0:0:0:0:
256,192,87376,1,0,0:0:0:0:
256,192,87424,1,8,0:0:0:0:
256,192,87472,1,8,0:0:0:0:
256,192,87569,1,4,0:0:0:0:
256,192,87956,1,8,0:0:0:0:
256,192,88150,1,0,0:0:0:0:
256,192,88247,1,8,0:0:0:0:
256,192,88343,1,0,0:0:0:0:
256,192,88440,1,8,0:0:0:0:
256,192,88537,1,8,0:0:0:0:
256,192,88634,1,8,0:0:0:0:
256,192,88730,1,0,0:0:0:0:
256,192,88827,1,0,0:0:0:0:
256,192,88924,1,8,0:0:0:0:
256,192,89021,1,0,0:0:0:0:
256,192,89118,1,0,0:0:0:0:
256,192,89214,1,0,0:0:0:0:
256,192,89311,1,8,0:0:0:0:
256,192,89408,1,8,0:0:0:0:
256,192,89505,1,0,0:0:0:0:
256,192,89601,1,0,0:0:0:0:
256,192,89698,1,8,0:0:0:0:
256,192,89795,1,0,0:0:0:0:
256,192,89892,1,8,0:0:0:0:
256,192,89940,1,8,0:0:0:0:
256,192,90085,1,0,0:0:0:0:
256,192,90134,1,0,0:0:0:0:
256,192,90279,1,0,0:0:0:0:
256,192,90327,1,0,0:0:0:0:
256,192,90472,1,8,0:0:0:0:
256,192,90521,1,8,0:0:0:0:
256,192,90666,1,4,0:0:0:0:
256,192,91053,1,8,0:0:0:0:
256,192,91247,1,0,0:0:0:0:
256,192,91343,1,8,0:0:0:0:
256,192,91440,1,0,0:0:0:0:
256,192,91537,1,8,0:0:0:0:
256,192,91634,1,8,0:0:0:0:
256,192,91730,1,8,0:0:0:0:
256,192,91827,1,0,0:0:0:0:
256,192,91924,1,0,0:0:0:0:
256,192,92021,1,8,0:0:0:0:
256,192,92118,1,0,0:0:0:0:
256,192,92214,1,0,0:0:0:0:
256,192,92311,1,0,0:0:0:0:
256,192,92408,1,8,0:0:0:0:
256,192,92505,1,8,0:0:0:0:
256,192,92601,1,0,0:0:0:0:
256,192,92698,1,0,0:0:0:0:
256,192,92795,1,8,0:0:0:0:
256,192,92892,1,0,0:0:0:0:
256,192,92989,1,8,0:0:0:0:
256,192,93053,1,0,0:0:0:0:
256,192,93118,1,0,0:0:0:0:
256,192,93182,1,8,0:0:0:0:
256,192,93376,1,0,0:0:0:0:
256,192,93440,1,0,0:0:0:0:
256,192,93505,1,0,0:0:0:0:
256,192,93569,1,0,0:0:0:0:
256,192,93666,1,0,0:0:0:0:
256,192,93763,1,12,0:0:0:0:
256,192,94150,1,8,0:0:0:0:
256,192,94343,1,0,0:0:0:0:
256,192,94440,1,0,0:0:0:0:
256,192,94537,1,8,0:0:0:0:
256,192,94634,1,0,0:0:0:0:
256,192,94730,1,8,0:0:0:0:
256,192,94827,1,8,0:0:0:0:
256,192,94924,1,0,0:0:0:0:
256,192,95021,1,8,0:0:0:0:
256,192,95118,1,8,0:0:0:0:
256,192,95214,1,8,0:0:0:0:
256,192,95311,1,0,0:0:0:0:
256,192,95408,1,0,0:0:0:0:
256,192,95505,1,8,0:0:0:0:
256,192,95601,1,0,0:0:0:0:
256,192,95698,1,0,0:0:0:0:
256,192,95795,1,0,0:0:0:0:
256,192,95892,1,8,0:0:0:0:
256,192,95989,1,8,0:0:0:0:
256,192,96085,1,0,0:0:0:0:
256,192,96182,1,8,0:0:0:0:
256,192,96376,1,8,0:0:0:0:
256,192,96472,1,0,0:0:0:0:
256,192,96569,1,8,0:0:0:0:
256,192,96666,1,8,0:0:0:0:
256,192,96763,1,0,0:0:0:0:
256,192,96859,1,12,0:0:0:0:
256,192,97247,1,8,0:0:0:0:
256,192,97440,1,8,0:0:0:0:
256,192,97537,1,0,0:0:0:0:
256,192,97634,1,8,0:0:0:0:
256,192,97682,1,8,0:0:0:0:
256,192,97730,1,8,0:0:0:0:
256,192,97827,1,0,0:0:0:0:
256,192,97924,1,8,0:0:0:0:
256,192,97972,1,8,0:0:0:0:
256,192,98021,1,8,0:0:0:0:
256,192,98118,1,0,0:0:0:0:
256,192,98214,1,8,0:0:0:0:
256,192,98311,1,8,0:0:0:0:
256,192,98408,1,8,0:0:0:0:
256,192,98456,1,8,0:0:0:0:
256,192,98505,1,8,0:0:0:0:
256,192,98601,1,0,0:0:0:0:
256,192,98698,1,8,0:0:0:0:
256,192,98747,1,8,0:0:0:0:
256,192,98795,1,8,0:0:0:0:
256,192,98892,1,0,0:0:0:0:
256,192,98989,1,8,0:0:0:0:
256,192,99085,1,0,0:0:0:0:
256,192,99182,1,8,0:0:0:0:
256,192,99230,1,8,0:0:0:0:
256,192,99279,1,8,0:0:0:0:
256,192,99376,1,0,0:0:0:0:
256,192,99472,1,8,0:0:0:0:
256,192,99521,1,8,0:0:0:0:
256,192,99569,1,8,0:0:0:0:
256,192,99666,1,0,0:0:0:0:
256,192,99763,1,8,0:0:0:0:
256,192,99859,1,0,0:0:0:0:
256,192,99956,1,12,0:0:0:0:
256,192,100343,1,8,0:0:0:0:
256,192,100730,1,8,0:0:0:0:
256,192,100924,1,0,0:0:0:0:
256,192,101311,1,8,0:0:0:0:
256,192,101505,1,0,0:0:0:0:
256,192,101698,1,0,0:0:0:0:
256,192,101892,1,8,0:0:0:0:
256,192,102085,1,0,0:0:0:0:
256,192,102279,1,0,0:0:0:0:
256,192,102472,1,8,0:0:0:0:
256,192,102666,1,8,0:0:0:0:
256,192,103053,1,8,0:0:0:0:
256,192,103440,1,8,0:0:0:0:
256,192,103634,1,0,0:0:0:0:
256,192,103827,1,8,0:0:0:0:
256,192,104021,1,0,0:0:0:0:
256,192,104408,1,8,0:0:0:0:
256,192,104601,1,0,0:0:0:0:
256,192,104795,1,8,0:0:0:0:
256,192,104989,1,8,0:0:0:0:
256,192,105376,1,8,0:0:0:0:
256,192,105569,1,8,0:0:0:0:
256,192,105763,1,0,0:0:0:0:
256,192,106150,1,8,0:0:0:0:
256,192,106537,1,8,0:0:0:0:
256,192,106924,1,8,0:0:0:0:
256,192,107118,1,0,0:0:0:0:
256,192,107505,1,8,0:0:0:0:
256,192,107698,1,0,0:0:0:0:
256,192,107892,1,0,0:0:0:0:
256,192,108085,1,8,0:0:0:0:
256,192,108279,1,0,0:0:0:0:
256,192,108472,1,0,0:0:0:0:
256,192,108666,1,8,0:0:0:0:
256,192,108859,1,8,0:0:0:0:
256,192,109247,1,0,0:0:0:0:
256,192,109440,1,8,0:0:0:0:
256,192,109634,1,8,0:0:0:0:
256,192,109827,1,0,0:0:0:0:
256,192,109924,1,0,0:0:0:0:
256,192,110021,1,8,0:0:0:0:
256,192,110408,1,0,0:0:0:0:
256,192,110601,1,8,0:0:0:0:
256,192,110795,1,0,0:0:0:0:
256,192,110892,1,8,0:0:0:0:
256,192,110989,1,0,0:0:0:0:
256,192,111085,1,8,0:0:0:0:
256,192,111182,1,0,0:0:0:0:
256,192,111279,1,8,0:0:0:0:
256,192,111376,1,0,0:0:0:0:
256,192,111472,1,8,0:0:0:0:
256,192,111569,1,0,0:0:0:0:
256,192,111666,1,8,0:0:0:0:
256,192,111763,1,8,0:0:0:0:
256,192,111859,1,8,0:0:0:0:
256,192,111956,1,8,0:0:0:0:
256,192,112053,1,8,0:0:0:0:
256,192,112150,1,8,0:0:0:0:
256,192,112247,1,8,0:0:0:0:
256,192,112343,1,0,0:0:0:0:
256,192,112440,12,0,118537,0:0:0:0:
256,192,124730,5,8,0:0:0:0:
256,192,125118,1,8,0:0:0:0:
256,192,125505,1,8,0:0:0:0:
256,192,125698,1,0,0:0:0:0:
256,192,126085,1,0,0:0:0:0:
256,192,127827,1,8,0:0:0:0:
256,192,128214,1,8,0:0:0:0:
256,192,128601,1,8,0:0:0:0:
256,192,128795,1,0,0:0:0:0:
256,192,129182,1,0,0:0:0:0:
256,192,129569,1,0,0:0:0:0:
256,192,129763,1,0,0:0:0:0:
256,192,130150,1,8,0:0:0:0:
256,192,130343,1,8,0:0:0:0:
256,192,130924,1,8,0:0:0:0:
256,192,131311,1,8,0:0:0:0:
256,192,131698,1,8,0:0:0:0:
256,192,131892,1,0,0:0:0:0:
256,192,132279,1,0,0:0:0:0:
256,192,132472,12,0,135182,0:0:0:0:
256,192,135569,5,8,0:0:0:0:
256,192,135666,1,0,0:0:0:0:
256,192,135763,1,8,0:0:0:0:
256,192,135859,1,8,0:0:0:0:
256,192,135956,1,0,0:0:0:0:
256,192,136150,1,0,0:0:0:0:
256,192,136343,1,8,0:0:0:0:
256,192,136537,1,0,0:0:0:0:
256,192,136634,1,8,0:0:0:0:
256,192,136730,1,0,0:0:0:0:
256,192,136827,1,0,0:0:0:0:
256,192,136924,1,8,0:0:0:0:
256,192,137021,1,8,0:0:0:0:
256,192,137118,1,4,0:0:0:0:
256,192,137311,1,0,0:0:0:0:
256,192,137505,1,8,0:0:0:0:
256,192,137698,1,0,0:0:0:0:
256,192,137795,1,0,0:0:0:0:
256,192,137892,1,8,0:0:0:0:
256,192,137989,1,8,0:0:0:0:
256,192,138085,1,0,0:0:0:0:
256,192,138182,1,0,0:0:0:0:
256,192,138279,1,8,0:0:0:0:
256,192,138472,1,0,0:0:0:0:
256,192,138569,1,8,0:0:0:0:
256,192,138666,1,0,0:0:0:0:
256,192,138859,1,0,0:0:0:0:
256,192,139053,1,8,0:0:0:0:
256,192,139247,1,0,0:0:0:0:
256,192,139343,1,8,0:0:0:0:
256,192,139440,1,0,0:0:0:0:
256,192,139634,1,12,0:0:0:0:
256,192,139827,1,12,0:0:0:0:
256,192,140214,1,0,0:0:0:0:
256,192,140408,1,0,0:0:0:0:
256,192,140601,1,8,0:0:0:0:
256,192,140795,1,8,0:0:0:0:
256,192,140892,1,0,0:0:0:0:
256,192,140989,1,8,0:0:0:0:
256,192,141085,1,8,0:0:0:0:
256,192,141182,1,0,0:0:0:0:
256,192,141279,1,0,0:0:0:0:
256,192,141376,1,8,0:0:0:0:
256,192,141569,1,0,0:0:0:0:
256,192,141666,1,8,0:0:0:0:
256,192,141763,1,0,0:0:0:0:
256,192,141956,1,8,0:0:0:0:
256,192,142150,1,0,0:0:0:0:
256,192,142343,1,0,0:0:0:0:
256,192,142440,1,0,0:0:0:0:
256,192,142537,1,8,0:0:0:0:
256,192,142730,1,8,0:0:0:0:
256,192,142924,1,12,0:0:0:0:
256,192,143311,1,0,0:0:0:0:
256,192,143505,1,0,0:0:0:0:
256,192,143698,1,8,0:0:0:0:
256,192,143892,1,8,0:0:0:0:
256,192,143989,1,0,0:0:0:0:
256,192,144085,1,8,0:0:0:0:
256,192,144182,1,8,0:0:0:0:
256,192,144279,1,0,0:0:0:0:
256,192,144376,1,0,0:0:0:0:
256,192,144472,1,8,0:0:0:0:
256,192,144666,1,0,0:0:0:0:
256,192,144763,1,8,0:0:0:0:
256,192,144859,1,0,0:0:0:0:
256,192,145053,1,0,0:0:0:0:
256,192,145247,1,8,0:0:0:0:
256,192,145440,1,0,0:0:0:0:
256,192,145537,1,0,0:0:0:0:
256,192,145634,1,8,0:0:0:0:
256,192,145827,1,0,0:0:0:0:
256,192,146021,1,12,0:0:0:0:
256,192,146214,1,0,0:0:0:0:
256,192,146311,1,8,0:0:0:0:
256,192,146408,1,0,0:0:0:0:
256,192,146601,1,0,0:0:0:0:
256,192,146795,1,8,0:0:0:0:
256,192,146989,1,8,0:0:0:0:
256,192,147085,1,0,0:0:0:0:
256,192,147182,1,0,0:0:0:0:
256,192,147279,1,8,0:0:0:0:
256,192,147376,1,0,0:0:0:0:
256,192,147472,1,0,0:0:0:0:
256,192,147569,1,8,0:0:0:0:
256,192,147763,1,8,0:0:0:0:
256,192,148150,1,0,0:0:0:0:
256,192,148343,1,8,0:0:0:0:
256,192,148537,1,0,0:0:0:0:
256,192,148634,1,0,0:0:0:0:
256,192,148730,1,8,0:0:0:0:
256,192,148827,1,8,0:0:0:0:
256,192,148924,1,0,0:0:0:0:
256,192,149021,1,0,0:0:0:0:
256,192,149118,1,12,0:0:0:0:
256,192,149505,1,12,0:0:0:0:
256,192,149698,1,0,0:0:0:0:
256,192,149795,1,0,0:0:0:0:
256,192,149892,1,8,0:0:0:0:
256,192,150085,1,0,0:0:0:0:
256,192,150182,1,0,0:0:0:0:
256,192,150279,1,8,0:0:0:0:
256,192,150472,1,0,0:0:0:0:
256,192,150569,1,0,0:0:0:0:
256,192,150666,1,8,0:0:0:0:
256,192,150859,1,0,0:0:0:0:
256,192,150956,1,0,0:0:0:0:
256,192,151053,1,8,0:0:0:0:
256,192,151247,1,8,0:0:0:0:
256,192,151440,1,0,0:0:0:0:
256,192,151634,1,0,0:0:0:0:
256,192,151730,1,8,0:0:0:0:
256,192,151827,1,0,0:0:0:0:
256,192,152021,1,12,0:0:0:0:
256,192,152214,1,12,0:0:0:0:
256,192,152601,1,8,0:0:0:0:
256,192,152795,1,0,0:0:0:0:
256,192,152989,1,8,0:0:0:0:
256,192,153182,1,0,0:0:0:0:
256,192,153279,1,0,0:0:0:0:
256,192,153376,1,8,0:0:0:0:
256,192,153569,1,0,0:0:0:0:
256,192,153666,1,0,0:0:0:0:
256,192,153763,1,8,0:0:0:0:
256,192,153956,1,0,0:0:0:0:
256,192,154053,1,0,0:0:0:0:
256,192,154150,1,8,0:0:0:0:
256,192,154343,1,0,0:0:0:0:
256,192,154537,1,0,0:0:0:0:
256,192,154924,1,8,0:0:0:0:
256,192,155118,1,8,0:0:0:0:
256,192,155311,1,12,0:0:0:0:
256,192,155698,1,8,0:0:0:0:
256,192,155892,1,0,0:0:0:0:
256,192,155989,1,0,0:0:0:0:
256,192,156085,1,8,0:0:0:0:
256,192,156279,1,0,0:0:0:0:
256,192,156376,1,0,0:0:0:0:
256,192,156472,1,8,0:0:0:0:
256,192,156666,1,0,0:0:0:0:
256,192,156763,1,0,0:0:0:0:
256,192,156859,1,8,0:0:0:0:
256,192,157053,1,0,0:0:0:0:
256,192,157150,1,0,0:0:0:0:
256,192,157247,1,8,0:0:0:0:
256,192,157440,1,0,0:0:0:0:
256,192,157537,1,0,0:0:0:0:
256,192,157634,1,8,0:0:0:0:
256,192,157827,1,0,0:0:0:0:
256,192,157924,1,0,0:0:0:0:
256,192,158021,1,8,0:0:0:0:
256,192,158214,1,0,0:0:0:0:
256,192,158311,1,0,0:0:0:0:
256,192,158408,1,8,0:0:0:0:
256,192,158601,1,0,0:0:0:0:
256,192,158698,1,0,0:0:0:0:
256,192,158795,1,8,0:0:0:0:
256,192,158989,1,8,0:0:0:0:
256,192,159182,1,8,0:0:0:0:
256,192,159376,1,8,0:0:0:0:
256,192,159569,1,8,0:0:0:0:
256,192,159763,1,8,0:0:0:0:
256,192,159956,1,8,0:0:0:0:
256,192,160150,1,8,0:0:0:0:
256,192,160343,1,8,0:0:0:0:
256,192,160537,1,8,0:0:0:0:
256,192,160730,1,8,0:0:0:0:
256,192,160924,1,8,0:0:0:0:
256,192,161118,1,8,0:0:0:0:
256,192,161311,1,8,0:0:0:0:
256,192,161505,1,8,0:0:0:0:
256,192,161698,1,8,0:0:0:0:
256,192,161892,1,4,0:0:0:0:
256,192,162666,1,0,0:0:0:0:
256,192,163053,1,8,0:0:0:0:
256,192,163440,1,4,0:0:0:0:
256,192,164190,1,0,0:0:0:0:
256,192,164553,1,8,0:0:0:0:
256,192,164989,1,4,0:0:0:0:
256,192,165739,1,0,0:0:0:0:
256,192,166101,1,8,0:0:0:0:
256,192,166537,1,4,0:0:0:0:
256,192,167311,1,0,0:0:0:0:
256,192,167698,1,12,0:0:0:0:
256,192,168085,1,4,0:0:0:0:
256,192,168279,1,8,0:0:0:0:
256,192,168472,1,8,0:0:0:0:
256,192,168666,1,8,0:0:0:0:
256,192,168763,1,0,0:0:0:0:
256,192,168859,1,8,0:0:0:0:
256,192,169053,1,8,0:0:0:0:
256,192,169247,1,8,0:0:0:0:
256,192,169343,1,0,0:0:0:0:
256,192,169440,1,8,0:0:0:0:
256,192,169634,1,4,0:0:0:0:
256,192,169827,1,8,0:0:0:0:
256,192,169924,1,0,0:0:0:0:
256,192,170021,1,8,0:0:0:0:
256,192,170214,1,8,0:0:0:0:
256,192,170408,1,8,0:0:0:0:
256,192,170505,1,0,0:0:0:0:
256,192,170601,1,8,0:0:0:0:
256,192,170795,1,8,0:0:0:0:
256,192,170989,1,8,0:0:0:0:
256,192,171182,1,0,0:0:0:0:
256,192,171279,1,0,0:0:0:0:
256,192,171376,1,0,0:0:0:0:
256,192,171472,1,0,0:0:0:0:
256,192,171569,1,0,0:0:0:0:
256,192,171666,1,0,0:0:0:0:
256,192,171763,1,0,0:0:0:0:
256,192,171859,1,0,0:0:0:0:
256,192,171956,1,0,0:0:0:0:
256,192,172053,1,0,0:0:0:0:
256,192,172150,1,0,0:0:0:0:
256,192,172247,1,0,0:0:0:0:
256,192,172343,1,0,0:0:0:0:
256,192,172392,1,8,0:0:0:0:
256,192,172440,1,8,0:0:0:0:
256,192,172489,1,8,0:0:0:0:
256,192,172537,1,8,0:0:0:0:
256,192,172585,1,8,0:0:0:0:
256,192,172634,1,8,0:0:0:0:
256,192,172682,1,8,0:0:0:0:
256,192,172730,1,0,0:0:0:0:
256,192,173118,1,8,0:0:0:0:
256,192,173311,1,8,0:0:0:0:
256,192,173359,1,8,0:0:0:0:
256,192,173408,1,8,0:0:0:0:
256,192,173456,1,8,0:0:0:0:
256,192,173505,1,8,0:0:0:0:
256,192,173601,1,0,0:0:0:0:
256,192,173698,1,0,0:0:0:0:
256,192,173795,1,0,0:0:0:0:
256,192,173892,1,0,0:0:0:0:
256,192,173989,1,0,0:0:0:0:
256,192,174085,1,0,0:0:0:0:
256,192,174182,1,0,0:0:0:0:
256,192,174279,1,12,0:0:0:0:
256,192,174472,1,8,0:0:0:0:
256,192,174569,1,8,0:0:0:0:
256,192,174666,1,0,0:0:0:0:
256,192,174763,1,0,0:0:0:0:
256,192,174859,1,8,0:0:0:0:
256,192,174956,1,0,0:0:0:0:
256,192,175053,1,0,0:0:0:0:
256,192,175150,1,0,0:0:0:0:
256,192,175247,1,8,0:0:0:0:
256,192,175343,1,8,0:0:0:0:
256,192,175440,1,0,0:0:0:0:
256,192,175537,1,0,0:0:0:0:
256,192,175634,1,8,0:0:0:0:
256,192,175730,1,0,0:0:0:0:
256,192,175827,1,0,0:0:0:0:
256,192,175924,1,8,0:0:0:0:
256,192,176021,1,8,0:0:0:0:
256,192,176118,1,8,0:0:0:0:
256,192,176214,1,0,0:0:0:0:
256,192,176311,1,0,0:0:0:0:
256,192,176408,1,8,0:0:0:0:
256,192,176505,1,0,0:0:0:0:
256,192,176601,1,0,0:0:0:0:
256,192,176698,1,0,0:0:0:0:
256,192,176795,1,8,0:0:0:0:
256,192,176892,1,8,0:0:0:0:
256,192,176989,1,0,0:0:0:0:
256,192,177085,1,8,0:0:0:0:
256,192,177182,1,8,0:0:0:0:
256,192,177279,1,8,0:0:0:0:
256,192,177376,1,0,0:0:0:0:
256,192,177440,1,8,0:0:0:0:
256,192,177505,1,8,0:0:0:0:
256,192,177569,1,8,0:0:0:0:
256,192,177666,1,0,0:0:0:0:
256,192,177763,1,0,0:0:0:0:
256,192,177859,1,0,0:0:0:0:
256,192,177956,1,8,0:0:0:0:
256,192,178021,1,8,0:0:0:0:
256,192,178085,1,8,0:0:0:0:
256,192,178150,1,0,0:0:0:0:
256,192,178247,1,0,0:0:0:0:
256,192,178343,1,8,0:0:0:0:
256,192,178408,1,8,0:0:0:0:
256,192,178472,1,8,0:0:0:0:
256,192,178537,1,0,0:0:0:0:
256,192,178634,1,0,0:0:0:0:
256,192,178730,1,8,0:0:0:0:
256,192,178827,1,0,0:0:0:0:
256,192,178924,1,0,0:0:0:0:
256,192,178989,1,0,0:0:0:0:
256,192,179053,1,0,0:0:0:0:
256,192,179118,1,8,0:0:0:0:
256,192,179182,1,8,0:0:0:0:
256,192,179247,1,8,0:0:0:0:
256,192,179311,1,0,0:0:0:0:
256,192,179408,1,0,0:0:0:0:
256,192,179505,1,8,0:0:0:0:
256,192,179569,1,8,0:0:0:0:
256,192,179634,1,8,0:0:0:0:
256,192,179698,1,0,0:0:0:0:
256,192,179795,1,0,0:0:0:0:
256,192,179892,1,8,0:0:0:0:
256,192,179940,1,8,0:0:0:0:
256,192,180085,1,0,0:0:0:0:
256,192,180134,1,0,0:0:0:0:
256,192,180279,1,8,0:0:0:0:
256,192,180327,1,8,0:0:0:0:
256,192,180472,1,0,0:0:0:0:
256,192,180666,1,8,0:0:0:0:
256,192,180763,1,8,0:0:0:0:
256,192,180859,1,0,0:0:0:0:
256,192,180956,1,0,0:0:0:0:
256,192,181053,1,8,0:0:0:0:
256,192,181150,1,0,0:0:0:0:
256,192,181247,1,0,0:0:0:0:
256,192,181343,1,0,0:0:0:0:
256,192,181440,1,8,0:0:0:0:
256,192,181537,1,8,0:0:0:0:
256,192,181634,1,0,0:0:0:0:
256,192,181730,1,8,0:0:0:0:
256,192,181827,1,8,0:0:0:0:
256,192,181924,1,0,0:0:0:0:
256,192,182021,1,0,0:0:0:0:
256,192,182118,1,0,0:0:0:0:
256,192,182214,1,8,0:0:0:0:
256,192,182311,1,0,0:0:0:0:
256,192,182408,1,0,0:0:0:0:
256,192,182505,1,0,0:0:0:0:
256,192,182601,1,8,0:0:0:0:
256,192,182698,1,8,0:0:0:0:
256,192,182795,1,0,0:0:0:0:
256,192,182892,1,0,0:0:0:0:
256,192,182989,1,8,0:0:0:0:
256,192,183053,1,8,0:0:0:0:
256,192,183118,1,8,0:0:0:0:
256,192,183182,1,0,0:0:0:0:
256,192,183279,1,0,0:0:0:0:
256,192,183376,1,8,0:0:0:0:
256,192,183440,1,8,0:0:0:0:
256,192,183505,1,8,0:0:0:0:
256,192,183569,1,0,0:0:0:0:
256,192,183666,1,0,0:0:0:0:
256,192,183763,1,8,0:0:0:0:
256,192,183859,1,0,0:0:0:0:
256,192,183956,1,0,0:0:0:0:
256,192,184053,1,0,0:0:0:0:
256,192,184150,1,8,0:0:0:0:
256,192,184247,1,8,0:0:0:0:
256,192,184343,1,0,0:0:0:0:
256,192,184440,1,0,0:0:0:0:
256,192,184537,1,8,0:0:0:0:
256,192,184634,1,0,0:0:0:0:
256,192,184730,1,0,0:0:0:0:
256,192,184827,1,0,0:0:0:0:
256,192,184924,1,8,0:0:0:0:
256,192,185021,1,8,0:0:0:0:
256,192,185118,1,0,0:0:0:0:
256,192,185214,1,0,0:0:0:0:
256,192,185311,1,8,0:0:0:0:
256,192,185408,1,0,0:0:0:0:
256,192,185505,1,0,0:0:0:0:
256,192,185601,1,0,0:0:0:0:
256,192,185698,1,8,0:0:0:0:
256,192,185795,1,0,0:0:0:0:
256,192,185892,1,0,0:0:0:0:
256,192,186279,1,12,0:0:0:0:
256,192,186666,1,4,0:0:0:0:
256,192,186859,1,8,0:0:0:0:
256,192,186956,1,0,0:0:0:0:
256,192,187053,1,0,0:0:0:0:
256,192,187150,1,0,0:0:0:0:
256,192,187247,1,8,0:0:0:0:
256,192,187343,1,0,0:0:0:0:
256,192,187440,1,0,0:0:0:0:
256,192,187537,1,0,0:0:0:0:
256,192,187634,1,8,0:0:0:0:
256,192,187730,1,8,0:0:0:0:
256,192,187827,1,0,0:0:0:0:
256,192,187924,1,0,0:0:0:0:
256,192,188021,1,8,0:0:0:0:
256,192,188118,1,0,0:0:0:0:
256,192,188214,1,0,0:0:0:0:
256,192,188311,1,0,0:0:0:0:
256,192,188408,1,8,0:0:0:0:
256,192,188505,1,8,0:0:0:0:
256,192,188601,1,0,0:0:0:0:
256,192,188698,1,8,0:0:0:0:
256,192,188795,1,8,0:0:0:0:
256,192,188892,1,8,0:0:0:0:
256,192,188989,1,0,0:0:0:0:
256,192,189085,1,0,0:0:0:0:
256,192,189182,1,8,0:0:0:0:
256,192,189247,1,8,0:0:0:0:
256,192,189311,1,8,0:0:0:0:
256,192,189376,1,0,0:0:0:0:
256,192,189472,1,0,0:0:0:0:
256,192,189569,1,8,0:0:0:0:
256,192,189634,1,8,0:0:0:0:
256,192,189698,1,8,0:0:0:0:
256,192,189763,1,0,0:0:0:0:
256,192,189859,1,0,0:0:0:0:
256,192,189956,1,8,0:0:0:0:
256,192,190053,1,0,0:0:0:0:
256,192,190150,1,0,0:0:0:0:
256,192,190214,1,0,0:0:0:0:
256,192,190279,1,0,0:0:0:0:
256,192,190343,1,8,0:0:0:0:
256,192,190408,1,8,0:0:0:0:
256,192,190472,1,8,0:0:0:0:
256,192,190537,1,0,0:0:0:0:
256,192,190634,1,8,0:0:0:0:
256,192,190730,1,8,0:0:0:0:
256,192,190827,1,8,0:0:0:0:
256,192,190924,1,0,0:0:0:0:
256,192,191021,1,8,0:0:0:0:
256,192,191118,1,8,0:0:0:0:
256,192,191214,1,0,0:0:0:0:
256,192,191311,1,0,0:0:0:0:
256,192,191408,1,0,0:0:0:0:
256,192,191505,1,8,0:0:0:0:
256,192,191601,1,0,0:0:0:0:
256,192,191698,1,0,0:0:0:0:
256,192,191795,1,8,0:0:0:0:
256,192,191892,1,8,0:0:0:0:
256,192,191989,1,8,0:0:0:0:
256,192,192085,1,0,0:0:0:0:
256,192,192182,1,0,0:0:0:0:
256,192,192279,1,8,0:0:0:0:
256,192,192327,1,8,0:0:0:0:
256,192,192472,1,0,0:0:0:0:
256,192,192521,1,0,0:0:0:0:
256,192,192666,1,8,0:0:0:0:
256,192,192714,1,8,0:0:0:0:
256,192,192859,1,4,0:0:0:0:
256,192,193053,1,0,0:0:0:0:
256,192,193150,1,0,0:0:0:0:
256,192,193247,1,8,0:0:0:0:
256,192,193343,1,0,0:0:0:0:
256,192,193440,1,8,0:0:0:0:
256,192,193537,1,8,0:0:0:0:
256,192,193634,1,0,0:0:0:0:
256,192,193730,1,8,0:0:0:0:
256,192,193827,1,8,0:0:0:0:
256,192,193924,1,8,0:0:0:0:
256,192,194021,1,0,0:0:0:0:
256,192,194118,1,0,0:0:0:0:
256,192,194214,1,8,0:0:0:0:
256,192,194311,1,0,0:0:0:0:
256,192,194408,1,0,0:0:0:0:
256,192,194505,1,0,0:0:0:0:
256,192,194601,1,8,0:0:0:0:
256,192,194698,1,8,0:0:0:0:
256,192,194795,1,0,0:0:0:0:
256,192,194892,1,8,0:0:0:0:
256,192,194989,1,0,0:0:0:0:
256,192,195085,1,8,0:0:0:0:
256,192,195182,1,0,0:0:0:0:
256,192,195279,1,0,0:0:0:0:
256,192,195376,1,8,0:0:0:0:
256,192,195472,1,0,0:0:0:0:
256,192,195569,1,0,0:0:0:0:
256,192,195666,1,8,0:0:0:0:
256,192,195763,1,0,0:0:0:0:
256,192,195859,1,8,0:0:0:0:
256,192,195956,1,0,0:0:0:0:
256,192,196053,1,0,0:0:0:0:
256,192,196150,1,8,0:0:0:0:
256,192,196247,1,0,0:0:0:0:
256,192,196343,1,0,0:0:0:0:
256,192,196440,1,0,0:0:0:0:
256,192,196537,1,8,0:0:0:0:
256,192,196634,1,0,0:0:0:0:
256,192,196730,1,0,0:0:0:0:
256,192,196827,1,0,0:0:0:0:
256,192,196924,1,8,0:0:0:0:
256,192,197021,1,0,0:0:0:0:
256,192,197118,1,0,0:0:0:0:
256,192,197214,1,0,0:0:0:0:
256,192,197263,1,8,0:0:0:0:
256,192,197311,1,8,0:0:0:0:
256,192,197359,1,8,0:0:0:0:
256,192,197408,1,8,0:0:0:0:
256,192,197456,1,8,0:0:0:0:
256,192,197505,1,0,0:0:0:0:
256,192,197892,1,8,0:0:0:0:
256,192,198085,1,8,0:0:0:0:
256,192,198279,1,8,0:0:0:0:
256,192,198376,1,8,0:0:0:0:
256,192,198472,1,0,0:0:0:0:
256,192,198569,1,0,0:0:0:0:
256,192,198666,1,8,0:0:0:0:
256,192,199053,1,4,0:0:0:0:
256,192,199247,1,8,0:0:0:0:
256,192,199343,1,8,0:0:0:0:
256,192,199440,1,0,0:0:0:0:
256,192,199537,1,0,0:0:0:0:
256,192,199634,1,8,0:0:0:0:
256,192,199730,1,0,0:0:0:0:
256,192,199827,1,0,0:0:0:0:
256,192,199924,1,0,0:0:0:0:
256,192,200021,1,8,0:0:0:0:
256,192,200118,1,8,0:0:0:0:
256,192,200214,1,0,0:0:0:0:
256,192,200311,1,0,0:0:0:0:
256,192,200408,1,8,0:0:0:0:
256,192,200505,1,0,0:0:0:0:
256,192,200601,1,0,0:0:0:0:
256,192,200698,1,0,0:0:0:0:
256,192,200795,1,8,0:0:0:0:
256,192,200892,1,8,0:0:0:0:
256,192,200989,1,0,0:0:0:0:
256,192,201085,1,8,0:0:0:0:
256,192,201182,1,8,0:0:0:0:
256,192,201279,1,8,0:0:0:0:
256,192,201376,1,0,0:0:0:0:
256,192,201472,1,0,0:0:0:0:
256,192,201569,1,8,0:0:0:0:
256,192,201666,1,8,0:0:0:0:
256,192,201763,1,0,0:0:0:0:
256,192,201859,1,0,0:0:0:0:
256,192,201956,1,8,0:0:0:0:
256,192,202053,1,0,0:0:0:0:
256,192,202150,1,0,0:0:0:0:
256,192,202247,1,0,0:0:0:0:
256,192,202343,1,8,0:0:0:0:
256,192,202440,1,0,0:0:0:0:
256,192,202537,1,0,0:0:0:0:
256,192,202634,1,8,0:0:0:0:
256,192,202730,1,8,0:0:0:0:
256,192,202827,1,8,0:0:0:0:
256,192,202924,1,0,0:0:0:0:
256,192,203021,1,0,0:0:0:0:
256,192,203118,1,8,0:0:0:0:
256,192,203214,1,0,0:0:0:0:
256,192,203311,1,0,0:0:0:0:
256,192,203408,1,0,0:0:0:0:
256,192,203505,1,8,0:0:0:0:
256,192,203601,1,8,0:0:0:0:
256,192,203698,1,0,0:0:0:0:
256,192,203795,1,0,0:0:0:0:
256,192,203892,1,8,0:0:0:0:
256,192,203989,1,8,0:0:0:0:
256,192,204085,1,0,0:0:0:0:
256,192,204182,1,8,0:0:0:0:
256,192,204279,1,8,0:0:0:0:
256,192,204376,1,8,0:0:0:0:
256,192,204472,1,0,0:0:0:0:
256,192,204569,1,0,0:0:0:0:
256,192,204666,1,8,0:0:0:0:
256,192,204714,1,8,0:0:0:0:
256,192,204859,1,0,0:0:0:0:
256,192,204908,1,0,0:0:0:0:
256,192,205053,1,8,0:0:0:0:
256,192,205101,1,8,0:0:0:0:
256,192,205247,1,4,0:0:0:0:
256,192,205440,1,0,0:0:0:0:
256,192,205537,1,8,0:0:0:0:
256,192,205634,1,0,0:0:0:0:
256,192,205730,1,8,0:0:0:0:
256,192,205827,1,8,0:0:0:0:
256,192,205924,1,8,0:0:0:0:
256,192,206021,1,0,0:0:0:0:
256,192,206118,1,0,0:0:0:0:
256,192,206214,1,8,0:0:0:0:
256,192,206311,1,0,0:0:0:0:
256,192,206408,1,0,0:0:0:0:
256,192,206505,1,0,0:0:0:0:
256,192,206601,1,8,0:0:0:0:
256,192,206698,1,8,0:0:0:0:
256,192,206795,1,0,0:0:0:0:
256,192,206892,1,0,0:0:0:0:
256,192,206989,1,8,0:0:0:0:
256,192,207085,1,0,0:0:0:0:
256,192,207182,1,0,0:0:0:0:
256,192,207279,1,8,0:0:0:0:
256,192,207376,1,8,0:0:0:0:
256,192,207472,1,8,0:0:0:0:
256,192,207569,1,0,0:0:0:0:
256,192,207666,1,0,0:0:0:0:
256,192,207763,1,8,0:0:0:0:
256,192,207859,1,8,0:0:0:0:
256,192,207956,1,0,0:0:0:0:
256,192,208053,1,0,0:0:0:0:
256,192,208150,1,8,0:0:0:0:
256,192,208247,1,0,0:0:0:0:
256,192,208343,1,0,0:0:0:0:
256,192,208440,1,0,0:0:0:0:
256,192,208537,1,8,0:0:0:0:
256,192,208634,1,0,0:0:0:0:
256,192,208730,1,0,0:0:0:0:
256,192,208827,1,0,0:0:0:0:
256,192,208924,1,8,0:0:0:0:
256,192,209021,1,8,0:0:0:0:
256,192,209118,1,0,0:0:0:0:
256,192,209214,1,8,0:0:0:0:
256,192,209311,1,8,0:0:0:0:
256,192,209408,1,8,0:0:0:0:
256,192,209505,1,0,0:0:0:0:
256,192,209601,1,0,0:0:0:0:
256,192,209698,1,8,0:0:0:0:
256,192,209795,1,0,0:0:0:0:
256,192,209892,1,0,0:0:0:0:
256,192,210021,1,0,0:0:0:0:
256,192,210150,1,0,0:0:0:0:
256,192,210279,1,0,0:0:0:0:
256,192,210408,1,0,0:0:0:0:
256,192,210537,1,0,0:0:0:0:
256,192,210666,1,0,0:0:0:0:
256,192,211053,1,8,0:0:0:0:
256,192,211440,1,4,0:0:0:0:
256,192,211698,1,0,0:0:0:0:
256,192,211827,1,0,0:0:0:0:
256,192,211956,1,8,0:0:0:0:
256,192,212085,1,8,0:0:0:0:
256,192,212214,1,0,0:0:0:0:
256,192,212343,1,8,0:0:0:0:
256,192,212472,1,8,0:0:0:0:
256,192,212601,1,0,0:0:0:0:
256,192,212730,1,8,0:0:0:0:
256,192,212859,1,0,0:0:0:0:
256,192,212989,1,0,0:0:0:0:
256,192,213118,1,0,0:0:0:0:
256,192,213247,1,8,0:0:0:0:
256,192,213376,1,0,0:0:0:0:
256,192,213505,1,8,0:0:0:0:
256,192,213634,1,8,0:0:0:0:
256,192,213763,1,0,0:0:0:0:
256,192,213892,1,8,0:0:0:0:
256,192,214021,1,0,0:0:0:0:
256,192,214150,1,0,0:0:0:0:
256,192,214279,1,0,0:0:0:0:
256,192,214408,1,8,0:0:0:0:
256,192,214537,1,0,0:0:0:0:
256,192,214666,1,8,0:0:0:0:
256,192,214795,1,8,0:0:0:0:
256,192,214924,1,0,0:0:0:0:
256,192,215053,1,8,0:0:0:0:
256,192,215182,1,0,0:0:0:0:
256,192,215311,1,0,0:0:0:0:
256,192,215440,1,8,0:0:0:0:
256,192,215569,1,8,0:0:0:0:
256,192,215698,1,0,0:0:0:0:
256,192,215827,1,8,0:0:0:0:
256,192,215956,1,8,0:0:0:0:
256,192,216085,1,0,0:0:0:0:
256,192,216214,1,0,0:0:0:0:
256,192,216343,1,8,0:0:0:0:
256,192,216472,1,0,0:0:0:0:
256,192,216601,1,8,0:0:0:0:
256,192,216730,1,0,0:0:0:0:
256,192,216859,1,8,0:0:0:0:
256,192,216908,1,8,0:0:0:0:
256,192,217053,1,0,0:0:0:0:
256,192,217101,1,0,0:0:0:0:
256,192,217247,1,0,0:0:0:0:
256,192,217295,1,0,0:0:0:0:
256,192,217440,1,8,0:0:0:0:
256,192,217489,1,8,0:0:0:0:
256,192,217634,1,4,0:0:0:0:
256,192,217827,1,8,0:0:0:0:
256,192,217924,1,0,0:0:0:0:
256,192,218021,1,8,0:0:0:0:
256,192,218118,1,8,0:0:0:0:
256,192,218214,1,0,0:0:0:0:
256,192,218311,1,8,0:0:0:0:
256,192,218408,1,8,0:0:0:0:
256,192,218505,1,0,0:0:0:0:
256,192,218601,1,8,0:0:0:0:
256,192,218698,1,8,0:0:0:0:
256,192,218795,1,0,0:0:0:0:
256,192,218892,1,8,0:0:0:0:
256,192,218989,1,8,0:0:0:0:
256,192,219085,1,8,0:0:0:0:
256,192,219182,1,0,0:0:0:0:
256,192,219279,1,8,0:0:0:0:
256,192,219376,1,8,0:0:0:0:
256,192,219472,1,0,0:0:0:0:
256,192,219569,1,8,0:0:0:0:
256,192,219666,1,8,0:0:0:0:
256,192,219763,1,0,0:0:0:0:
256,192,219859,1,8,0:0:0:0:
256,192,219956,1,8,0:0:0:0:
256,192,220053,1,0,0:0:0:0:
256,192,220150,1,8,0:0:0:0:
256,192,220247,1,8,0:0:0:0:
256,192,220343,1,0,0:0:0:0:
256,192,220440,1,8,0:0:0:0:
256,192,220537,1,0,0:0:0:0:
256,192,220634,1,8,0:0:0:0:
256,192,220730,1,0,0:0:0:0:
256,192,220827,1,8,0:0:0:0:
256,192,220924,1,8,0:0:0:0:
256,192,221021,1,0,0:0:0:0:
256,192,221118,1,8,0:0:0:0:
256,192,221214,1,8,0:0:0:0:
256,192,221311,1,0,0:0:0:0:
256,192,221408,1,8,0:0:0:0:
256,192,221505,1,0,0:0:0:0:
256,192,221601,1,8,0:0:0:0:
256,192,221698,1,8,0:0:0:0:
256,192,221795,1,0,0:0:0:0:
256,192,221892,1,8,0:0:0:0:
256,192,221989,1,8,0:0:0:0:
256,192,222085,1,0,0:0:0:0:
256,192,222182,1,8,0:0:0:0:
256,192,222279,1,0,0:0:0:0:
256,192,222376,1,8,0:0:0:0:
256,192,222472,1,8,0:0:0:0:
256,192,222569,1,0,0:0:0:0:
256,192,222666,1,8,0:0:0:0:
256,192,222763,1,8,0:0:0:0:
256,192,222859,1,0,0:0:0:0:
256,192,223247,1,8,0:0:0:0:
256,192,223440,1,8,0:0:0:0:
256,192,223634,1,0,0:0:0:0:
256,192,223827,1,4,0:0:0:0:
256,192,224021,1,8,0:0:0:0:
256,192,224118,1,8,0:0:0:0:
256,192,224214,1,0,0:0:0:0:
256,192,224311,1,8,0:0:0:0:
256,192,224408,1,8,0:0:0:0:
256,192,224505,1,8,0:0:0:0:
256,192,224601,1,0,0:0:0:0:
256,192,224698,1,0,0:0:0:0:
256,192,224795,1,8,0:0:0:0:
256,192,224892,1,0,0:0:0:0:
256,192,224989,1,0,0:0:0:0:
256,192,225085,1,0,0:0:0:0:
256,192,225182,1,8,0:0:0:0:
256,192,225279,1,8,0:0:0:0:
256,192,225376,1,0,0:0:0:0:
256,192,225472,1,0,0:0:0:0:
256,192,225569,1,8,0:0:0:0:
256,192,225666,1,0,0:0:0:0:
256,192,225763,1,0,0:0:0:0:
256,192,225859,1,8,0:0:0:0:
256,192,225956,1,0,0:0:0:0:
256,192,226053,1,0,0:0:0:0:
256,192,226150,1,0,0:0:0:0:
256,192,226247,1,8,0:0:0:0:
256,192,226343,1,8,0:0:0:0:
256,192,226440,1,0,0:0:0:0:
256,192,226537,1,0,0:0:0:0:
256,192,226634,1,0,0:0:0:0:
256,192,226730,1,8,0:0:0:0:
256,192,226827,1,8,0:0:0:0:
256,192,226924,1,0,0:0:0:0:
256,192,227021,1,0,0:0:0:0:
256,192,227118,1,8,0:0:0:0:
256,192,227214,1,0,0:0:0:0:
256,192,227311,1,0,0:0:0:0:
256,192,227408,1,0,0:0:0:0:
256,192,227505,1,8,0:0:0:0:
256,192,227601,1,8,0:0:0:0:
256,192,227698,1,0,0:0:0:0:
256,192,227795,1,8,0:0:0:0:
256,192,227892,1,8,0:0:0:0:
256,192,227989,1,0,0:0:0:0:
256,192,228085,1,0,0:0:0:0:
256,192,228182,1,0,0:0:0:0:
256,192,228279,1,8,0:0:0:0:
256,192,228376,1,0,0:0:0:0:
256,192,228472,1,0,0:0:0:0:
256,192,228569,1,0,0:0:0:0:
256,192,228666,1,8,0:0:0:0:
256,192,228763,1,0,0:0:0:0:
256,192,228859,1,0,0:0:0:0:
256,192,228956,1,0,0:0:0:0:
256,192,229053,1,8,0:0:0:0:
256,192,229150,1,8,0:0:0:0:
256,192,229247,1,0,0:0:0:0:
256,192,229343,1,8,0:0:0:0:
256,192,229440,1,8,0:0:0:0:
256,192,229537,1,0,0:0:0:0:
256,192,229634,1,0,0:0:0:0:
256,192,229730,1,0,0:0:0:0:
256,192,229827,1,8,0:0:0:0:
256,192,229924,1,0,0:0:0:0:
256,192,230021,1,0,0:0:0:0:
256,192,230118,1,0,0:0:0:0:
256,192,230214,1,8,0:0:0:0:
256,192,230311,1,0,0:0:0:0:
256,192,230408,1,0,0:0:0:0:
256,192,230505,1,0,0:0:0:0:
256,192,230601,1,8,0:0:0:0:
256,192,230698,1,8,0:0:0:0:
256,192,230795,1,0,0:0:0:0:
256,192,230892,1,8,0:0:0:0:
256,192,230989,1,8,0:0:0:0:
256,192,231085,1,8,0:0:0:0:
256,192,231182,1,0,0:0:0:0:
256,192,231279,1,0,0:0:0:0:
256,192,231376,1,8,0:0:0:0:
256,192,231472,1,0,0:0:0:0:
256,192,231569,1,0,0:0:0:0:
256,192,231666,1,0,0:0:0:0:
256,192,231763,1,8,0:0:0:0:
256,192,231859,1,8,0:0:0:0:
256,192,231956,1,0,0:0:0:0:
256,192,232053,1,0,0:0:0:0:
256,192,232150,1,8,0:0:0:0:
256,192,232247,1,0,0:0:0:0:
256,192,232343,1,0,0:0:0:0:
256,192,232440,1,8,0:0:0:0:
256,192,232537,1,8,0:0:0:0:
256,192,232634,1,8,0:0:0:0:
256,192,232730,1,0,0:0:0:0:
256,192,232827,1,0,0:0:0:0:
256,192,232924,1,8,0:0:0:0:
256,192,233021,1,8,0:0:0:0:
256,192,233118,1,0,0:0:0:0:
256,192,233214,1,8,0:0:0:0:
256,192,233311,1,8,0:0:0:0:
256,192,233408,1,0,0:0:0:0:
256,192,233505,1,0,0:0:0:0:
256,192,233601,1,0,0:0:0:0:
256,192,233698,1,8,0:0:0:0:
256,192,233795,1,0,0:0:0:0:
256,192,233892,1,0,0:0:0:0:
256,192,233989,1,8,0:0:0:0:
256,192,234085,1,8,0:0:0:0:
256,192,234182,1,8,0:0:0:0:
256,192,234279,1,0,0:0:0:0:
256,192,234376,1,0,0:0:0:0:
256,192,234472,1,8,0:0:0:0:
256,192,234569,1,0,0:0:0:0:
256,192,234666,1,0,0:0:0:0:
256,192,234763,1,0,0:0:0:0:
256,192,234859,1,8,0:0:0:0:
256,192,234956,1,8,0:0:0:0:
256,192,235053,1,0,0:0:0:0:
256,192,235150,1,8,0:0:0:0:
256,192,235247,1,0,0:0:0:0:
256,192,235343,1,0,0:0:0:0:
256,192,235440,1,8,0:0:0:0:
256,192,235537,1,0,0:0:0:0:
256,192,235634,1,0,0:0:0:0:
256,192,235730,1,8,0:0:0:0:
256,192,235827,1,0,0:0:0:0:
256,192,235924,1,0,0:0:0:0:
256,192,236021,1,8,0:0:0:0:
256,192,236214,1,0,0:0:0:0:
256,192,236505,1,0,0:0:0:0:
256,192,236698,1,0,0:0:0:0:
256,192,236795,1,0,0:0:0:0:
256,192,236989,1,12,0:0:0:0:
256,192,237569,1,8,0:0:0:0:
256,192,237763,1,0,0:0:0:0:
256,192,237956,1,0,0:0:0:0:
256,192,238150,1,8,0:0:0:0:
256,192,238343,1,0,0:0:0:0:
256,192,238537,1,0,0:0:0:0:
256,192,238730,1,8,0:0:0:0:
256,192,238924,1,8,0:0:0:0:
256,192,239311,1,8,0:0:0:0:
256,192,239698,1,8,0:0:0:0:
256,192,239892,1,0,0:0:0:0:
256,192,240085,1,8,0:0:0:0:
256,192,240279,1,0,0:0:0:0:
256,192,240666,1,8,0:0:0:0:
256,192,240859,1,0,0:0:0:0:
256,192,241053,1,8,0:0:0:0:
256,192,241247,1,8,0:0:0:0:
256,192,241634,1,8,0:0:0:0:
256,192,241827,1,8,0:0:0:0:
256,192,242021,1,0,0:0:0:0:
256,192,242408,1,8,0:0:0:0:
256,192,242795,1,8,0:0:0:0:
256,192,243182,1,8,0:0:0:0:
256,192,243376,1,0,0:0:0:0:
256,192,243763,1,8,0:0:0:0:
256,192,243956,1,0,0:0:0:0:
256,192,244150,1,0,0:0:0:0:
256,192,244343,1,8,0:0:0:0:
256,192,244537,1,0,0:0:0:0:
256,192,244730,1,0,0:0:0:0:
256,192,244924,1,8,0:0:0:0:
256,192,245118,1,8,0:0:0:0:
256,192,245505,1,0,0:0:0:0:
256,192,245795,1,0,0:0:0:0:
256,192,246085,1,8,0:0:0:0:
256,192,246279,1,0,0:0:0:0:
256,192,246569,1,0,0:0:0:0:
256,192,246859,1,8,0:0:0:0:
256,192,246956,1,8,0:0:0:0:
256,192,247053,1,0,0:0:0:0:
256,192,247343,1,0,0:0:0:0:
256,192,247634,1,8,0:0:0:0:
256,192,247827,1,0,0:0:0:0:
256,192,248021,1,8,0:0:0:0:
256,192,248118,1,8,0:0:0:0:
256,192,248214,1,8,0:0:0:0:
256,192,248311,1,8,0:0:0:0:
256,192,248408,1,8,0:0:0:0:
256,192,248505,1,8,0:0:0:0:
256,192,248601,1,4,0:0:0:0:
256,192,248989,1,8,0:0:0:0:
256,192,249376,1,8,0:0:0:0:
256,192,249569,1,0,0:0:0:0:
256,192,249956,1,0,0:0:0:0:
256,192,251698,1,8,0:0:0:0:
256,192,252085,1,8,0:0:0:0:
256,192,252472,1,8,0:0:0:0:
256,192,252666,1,0,0:0:0:0:
256,192,253053,1,0,0:0:0:0:
256,192,253440,1,0,0:0:0:0:
256,192,253634,1,0,0:0:0:0:
256,192,254021,1,8,0:0:0:0:
256,192,254214,1,8,0:0:0:0:
256,192,254795,1,8,0:0:0:0:
256,192,255182,1,8,0:0:0:0:
256,192,255569,1,8,0:0:0:0:
256,192,255763,1,0,0:0:0:0:
256,192,256150,1,0,0:0:0:0:
256,192,257892,1,0,0:0:0:0:
256,192,258472,1,0,0:0:0:0:
256,192,258859,1,8,0:0:0:0:
256,192,259247,1,0,0:0:0:0:
256,192,259634,1,8,0:0:0:0:
256,192,259827,1,8,0:0:0:0:
256,192,260021,1,8,0:0:0:0:
256,192,260214,1,8,0:0:0:0:
256,192,260408,1,8,0:0:0:0:
256,192,260601,1,0,0:0:0:0:
256,192,260989,1,8,0:0:0:0:
256,192,261569,1,0,0:0:0:0:
256,192,261956,1,8,0:0:0:0:
256,192,262343,1,8,0:0:0:0:
256,192,262730,1,8,0:0:0:0:
256,192,262924,1,8,0:0:0:0:
256,192,263118,1,8,0:0:0:0:
256,192,263311,1,8,0:0:0:0:
256,192,263505,1,8,0:0:0:0:
256,192,264085,1,8,0:0:0:0:
256,192,264666,1,0,0:0:0:0:
256,192,265053,1,8,0:0:0:0:
256,192,265440,1,8,0:0:0:0:
256,192,265827,1,8,0:0:0:0:
256,192,266021,1,8,0:0:0:0:
256,192,266214,1,8,0:0:0:0:
256,192,266408,1,8,0:0:0:0:
256,192,266601,1,8,0:0:0:0:
256,192,266795,1,0,0:0:0:0:
256,192,267182,1,8,0:0:0:0:
256,192,267763,1,0,0:0:0:0:
256,192,268150,1,8,0:0:0:0:
256,192,268537,1,8,0:0:0:0:
256,192,268924,1,8,0:0:0:0:
256,192,269118,1,8,0:0:0:0:
256,192,269311,1,8,0:0:0:0:
256,192,269505,1,8,0:0:0:0:
256,192,269698,1,8,0:0:0:0:
256,192,270279,1,8,0:0:0:0:
256,192,270859,1,0,0:0:0:0:
256,192,271247,1,8,0:0:0:0:
256,192,271634,1,8,0:0:0:0:
256,192,272021,1,8,0:0:0:0:
256,192,272214,1,8,0:0:0:0:
256,192,272408,1,8,0:0:0:0:
256,192,272601,1,8,0:0:0:0:
256,192,272795,1,8,0:0:0:0:
256,192,272989,1,0,0:0:0:0:
