osu file format v14

[General]
AudioFilename: audio.mp3
AudioLeadIn: 0
PreviewTime: 36689
Countdown: 0
SampleSet: Normal
StackLeniency: 0.3
Mode: 0
LetterboxInBreaks: 0
WidescreenStoryboard: 0

[Editor]
Bookmarks: 201205,226947,246980,247173,247367
DistanceSpacing: 1.9
BeatDivisor: 8
GridSize: 4
TimelineZoom: 4.3

[Metadata]
Title:Senpai, Notice Me!
TitleUnicode:Senpai, Notice Me!
Artist:Camellia feat. Nanahira
ArtistUnicode:かめりあ feat. ななひら
Creator:TouchTouchKing
Version:Senpai Noticed You!
Source:
Tags:camellia senpai notice me ttk nanahira かめりあ ななひら japanese
BeatmapID:1824577
BeatmapSetID:872831

[Difficulty]
HPDrainRate:3
CircleSize:4.2
OverallDifficulty:8
ApproachRate:10
SliderMultiplier:1.4
SliderTickRate:1

[Events]
//Background and Video events
0,0,"maxresdefault.jpg",0,0
//Break Periods
2,112566,121132
//Storyboard Layer 0 (Background)
//Storyboard Layer 1 (Fail)
//Storyboard Layer 2 (Pass)
//Storyboard Layer 3 (Foreground)
//Storyboard Sound Samples

[TimingPoints]
883,387.096774193548,4,1,0,100,1,0
883,-66.6666666666667,4,1,0,60,0,0
11818,-66.6666666666667,4,1,0,100,0,0
13270,-100,4,1,0,60,0,0
17915,-25,4,1,0,100,0,0
19076,-100,4,1,0,100,0,0
20818,-133.333333333333,4,1,0,100,0,0
22320,-100,4,1,0,100,0,0
25463,-66.6666666666667,4,1,0,100,0,0
30399,-25,4,1,0,100,0,0
34947,-50,4,1,0,100,0,0
37753,-50,4,1,0,5,0,0
38044,-200,4,1,0,100,0,1
38624,-66.6666666666667,4,1,0,100,0,1
39399,-55.5555555555556,4,1,0,100,0,1
39592,-50,4,1,0,100,0,1
39870,-200,4,1,0,100,0,1
40366,-33.3333333333333,4,1,0,100,0,1
40753,-200,4,1,0,100,0,1
41141,-33.3333333333333,4,1,0,100,0,1
42012,-66.6666666666667,4,1,0,100,0,1
42689,-133.333333333333,4,1,0,100,0,1
42834,-33.3333333333333,4,1,0,100,0,1
43173,-40,4,1,0,100,0,1
43318,-100,4,1,0,100,0,1
43608,-200,4,1,0,100,0,1
43802,-100,4,1,0,100,0,1
43995,-50,4,1,0,100,0,1
44189,-25,4,1,0,100,0,1
44382,-33.3333333333333,4,1,0,100,0,1
47334,-133.333333333333,4,1,0,100,0,0
50431,-100,4,1,0,100,0,1
51302,-200,4,1,0,100,0,1
52463,-66.6666666666667,4,1,0,100,0,1
56528,-100,4,1,0,100,0,1
57495,-33.3333333333333,4,1,0,100,0,1
59576,-50,4,1,0,100,0,1
60205,-33.3333333333333,4,1,0,100,0,1
61221,-100,4,1,0,100,0,1
62141,-33.3333333333333,4,1,0,100,0,1
62818,-100,4,1,0,80,0,0
67560,-25,4,1,0,80,0,0
72012,-100,4,1,0,80,0,0
74963,-100,4,1,0,5,0,0
75205,-25,4,1,0,100,0,1
77040,-100,4,1,0,100,0,1
77624,-200,4,1,0,100,0,1
78253,-33.3333333333333,4,1,0,100,0,1
78786,-100,4,1,0,100,0,1
80721,-133.333333333333,4,1,0,100,0,1
80963,-66.6666666666667,4,1,0,100,0,1
81205,-133.333333333333,4,1,0,100,0,1
81447,-25,4,1,0,100,0,1
81882,-133.333333333333,4,1,0,100,0,1
83673,-25,4,1,0,100,0,1
84302,-25,4,1,0,5,0,1
84495,-100,4,1,0,100,0,0
87592,-100,4,1,0,100,0,1
88753,-66.6666666666667,4,1,0,100,0,1
89286,-50,4,1,0,100,0,1
89866,-25,4,1,0,100,0,1
90399,-25,4,1,0,5,0,1
90592,-25,4,1,0,100,0,1
90737,-133.333333333333,4,1,0,100,0,1
91270,-33.3333333333333,4,1,0,100,0,1
93181,-133.333333333333,4,1,0,100,0,1
93834,-50,4,1,0,100,0,1
94270,-100,4,1,0,100,0,1
96060,-25,4,1,0,100,0,1
97415,-66.6666666666667,4,1,0,100,0,1
99979,-100,4,1,0,70,0,0
104721,-25,4,1,0,70,0,0
105689,-100,4,1,0,70,0,0
110721,-66.6666666666667,4,1,0,50,0,0
124463,-66.6666666666667,4,1,0,5,0,0
124657,-66.6666666666667,4,1,0,65,0,0
125866,-133.333333333333,4,1,0,65,0,0
127463,-100,4,1,0,65,0,0
129495,-28.5714285714286,4,1,0,65,0,0
130512,-100,4,1,0,65,0,0
131209,-50,4,1,0,60,0,0
131866,-133.333333333333,4,1,0,60,0,0
136802,-400,4,1,0,60,0,0
137092,-100,4,1,0,70,0,0
141931,-25,4,1,0,70,0,0
142939,-100,4,1,0,70,0,0
144447,-133.333333333333,4,1,0,70,0,0
146334,-100,4,1,0,70,0,0
149431,-50,4,1,0,80,0,0
150979,-66.6666666666667,4,1,0,80,0,0
154270,-25,4,1,0,80,0,0
155286,-66.6666666666667,4,1,0,70,0,0
157753,-100,4,1,0,60,0,0
158141,-200,4,1,0,56,0,0
158528,-200,4,1,0,50,0,0
158963,-200,4,1,0,45,0,0
159108,-200,4,1,0,40,0,0
159302,-200,4,1,0,30,0,0
160463,-200,4,1,0,20,0,0
161818,-200,4,1,0,100,0,0
163318,-200,4,1,0,5,0,0
163415,-200,4,1,0,100,0,0
163918,-200,4,1,0,5,0,0
164963,-200,4,1,0,100,0,0
166366,-200,4,1,0,5,0,0
166512,-200,4,1,0,100,0,0
166657,-200,4,1,0,5,0,0
168060,-133.333333333333,4,1,0,100,0,0
172270,-66.6666666666667,4,1,0,100,0,0
174108,-66.6666666666667,4,1,0,5,0,0
174302,-33.3333333333333,4,1,0,100,0,1
174786,-133.333333333333,4,1,0,100,0,1
177350,-25,4,1,0,100,0,1
177834,-50,4,1,0,100,0,1
179866,-200,4,1,0,100,0,1
180060,-100,4,1,0,100,0,1
180253,-50,4,1,0,100,0,1
180447,-25,4,1,0,100,0,1
180979,-100,4,1,0,100,0,1
182189,-50,4,1,0,100,0,1
182818,-100,4,1,0,100,0,1
183592,-100,4,1,0,70,0,0
186689,-100,4,1,0,100,0,1
187270,-100,4,1,0,100,0,1
187608,-66.6666666666667,4,1,0,100,0,1
187995,-40,4,1,0,100,0,1
188382,-25,4,1,0,100,0,1
188770,-100,4,1,0,100,0,1
189689,-25,4,1,0,100,0,1
190221,-66.6666666666667,4,1,0,100,0,1
192253,-25,4,1,0,100,0,1
195931,-133.333333333333,4,1,0,100,0,1
197141,-66.6666666666667,4,1,0,100,0,1
197528,-100,4,1,0,100,0,0
199076,-100,4,1,0,100,0,1
199415,-33.3333333333333,4,1,0,100,0,1
200382,-100,4,1,0,100,0,1
200770,-33.3333333333333,4,1,0,100,0,1
201931,-133.333333333333,4,1,0,100,0,1
202415,-33.3333333333333,4,1,0,100,0,1
203382,-133.333333333333,4,1,0,100,0,1
203770,-50,4,1,0,100,0,1
204350,-133.333333333333,4,1,0,100,0,1
204641,-50,4,1,0,100,0,1
204834,-100,4,1,0,100,0,1
205899,-66.6666666666667,4,1,0,100,0,1
206286,-50,4,1,0,100,0,1
206770,-100,4,1,0,100,0,1
207350,-66.6666666666667,4,1,0,100,0,1
207737,-50,4,1,0,100,0,1
208366,-100,4,1,0,70,0,1
209931,128.47965738758,6,1,0,100,1,1
210573,-100,6,1,0,100,0,0
211472,-100,6,1,0,100,0,1
212564,-66.6666666666667,6,1,0,100,0,1
212857,-400,6,1,0,100,0,1
214028,-66.6666666666667,6,1,0,100,0,1
214270,-400,6,1,0,100,0,1
215528,-66.6666666666667,6,1,0,100,0,1
215794,-400,6,1,0,100,0,1
216804,-66.6666666666667,6,1,0,100,0,1
217077,387.096774193548,4,1,0,100,1,1
217657,-133.333333333333,4,1,0,100,0,1
217996,-66.6666666666667,4,1,0,100,0,1
218189,-133.333333333333,4,1,0,100,0,1
222254,-50,4,1,0,100,0,1
222544,-100,4,1,0,100,0,1
222835,-133.333333333333,4,1,0,100,0,1
223270,-66.6666666666667,4,1,0,100,0,1
223464,-33.3333333333333,4,1,0,100,0,1
223851,-100,4,1,0,100,0,0
224189,-40,4,1,0,100,0,0
225060,-28.5714285714286,4,1,0,100,0,0
225593,-36.3636363636364,4,1,0,100,0,0
225689,-36.3636363636364,4,1,0,5,0,0
225786,-36.3636363636364,4,1,0,100,0,0
225883,-36.3636363636364,4,1,0,5,0,0
225980,-36.3636363636364,4,1,0,100,0,0
226077,-36.3636363636364,4,1,0,5,0,0
226173,-36.3636363636364,4,1,0,100,0,0
226270,-36.3636363636364,4,1,0,5,0,0
226367,-36.3636363636364,4,1,0,100,0,0
226415,-36.3636363636364,4,1,0,5,0,0
226560,-36.3636363636364,4,1,0,100,0,0
227335,-40,4,1,0,100,0,0
228689,-100,4,1,0,100,0,0
230915,-66.6666666666667,4,1,0,100,0,0
232318,-50,4,1,0,100,0,0
236238,-100,4,1,0,100,0,0
237980,-50,4,1,0,100,0,0
241076,-100,4,1,0,100,0,0
241899,-50,4,1,0,100,0,0
243786,-100,4,1,0,100,0,0
245528,-33.3333333333333,4,1,0,100,0,0
245915,-66.6666666666667,4,1,0,100,0,0
246883,-50,4,1,0,100,0,0
247464,-33.3333333333333,4,1,0,100,0,0
248624,-100,4,1,0,50,0,0
249979,-400,4,1,0,50,0,0
251721,-133.333333333333,4,1,0,40,0,0
253415,-33.3333333333333,4,1,0,40,0,0
254818,-133.333333333333,4,1,0,40,0,0
255592,-66.6666666666667,4,1,0,40,0,0
256173,-100,4,1,0,40,0,0
257915,-400,4,1,0,40,0,0
259125,-400,4,1,0,30,0,0
261012,-1000,4,1,0,20,0,0
262753,-500,4,1,0,20,0,0
264108,-1000,4,1,0,10,0,0
267738,-400,4,1,0,5,0,0
268947,-1000,4,1,0,5,0,0

[HitObjects]
184,96,883,6,0,P|92:164|60:256,1,210.000008010865
208,340,1463,2,0,B|320:348|416:296,1,210.000008010865
408,160,2237,2,0,B|376:116|320:104,1,105.000004005432
129,150,2624,5,0,0:0:0:0:
347,221,2818,1,0,0:0:0:0:
129,292,3012,1,0,0:0:0:0:
264,106,3205,1,0,0:0:0:0:
264,336,3399,1,0,0:0:0:0:
440,40,3979,6,0,B|408:168|261:149,1,210.000008010865
352,268,4560,2,0,P|270:328|166:348,1,210.000008010865
80,168,5334,2,0,P|80:116|108:68,1,105.000004005432
268,128,5721,5,0,0:0:0:0:
120,260,5915,1,0,0:0:0:0:
372,228,6108,1,0,0:0:0:0:
284,344,6302,1,0,0:0:0:0:
168,160,6495,2,0,B|200:108|256:96,1,105.000004005432
408,112,7076,6,0,B|420:228|296:272,1,210.000008010865
68,280,7657,2,0,B|144:220|32:140|156:88,1,210.000008010865
312,56,8431,2,0,B|371:60|404:100,1,105.000004005432
312,188,8818,5,0,0:0:0:0:
172,296,9012,1,0,0:0:0:0:
400,272,9205,1,0,0:0:0:0:
112,168,9398,1,0,0:0:0:0:
412,76,9592,1,0,0:0:0:0:
432,344,10173,6,0,B|328:368|224:312,1,210.000008010865
44,216,10753,2,0,B|92:112|232:104,1,210.000008010865
371,50,11334,2,0,B|416:80|440:128,1,105.000004005432
88,96,11721,5,0,0:0:0:0:
376,328,11915,1,8,0:0:0:0:
356,312,12012,1,0,0:0:0:0:
336,296,12108,2,0,L|272:232,1,52.5000020027161
460,72,12302,1,8,0:0:0:0:
428,84,12399,1,0,0:0:0:0:
396,96,12495,2,0,L|340:120,1,52.5000020027161
48,304,12689,1,8,0:0:0:0:
92,276,12786,1,0,0:0:0:0:
136,248,12882,2,0,L|184:216,3,52.5000020027161
392,160,13270,6,4,B|396:238|319:303,1,140
176,288,14044,2,0,P|138:256|128:212,1,70
48,72,14624,2,0,B|37:69|165:101|245:193|245:193|301:33|448:72,1,490
328,232,16366,6,0,B|304:307|210:342,1,140
200,248,17141,2,0,P|160:276|115:277,1,70
120,192,17721,1,0,0:0:0:0:
272,88,18108,2,0,B|328:120|328:120|338:101|338:101|317:144|317:144|338:101|338:101|317:144|338:101|317:144|328:120|328:120|384:152,1,280
380,150,18689,2,0,B|328:120|328:120|317:144|338:101|317:144|338:101|338:101|317:144|317:144|338:101|338:101|328:120|328:120|272:88,1,280
280,216,19076,1,12,0:0:0:0:
48,95,19463,6,0,B|103:40|175:49,1,140
64,200,20238,2,0,P|86:173|118:159,1,70
104,316,20818,2,0,B|324:244|132:124|320:44,1,367.500014019013,0|4,0:0|0:0,0:0:0:0:
448,112,22560,6,0,P|401:166|335:171,1,140
404,288,23334,2,0,P|356:336|280:356,1,140
76,228,23915,2,0,P|116:164|180:152,1,140
252,236,24689,2,0,P|318:219|352:160,1,140
252,132,25270,1,4,0:0:0:0:
424,96,25657,5,0,0:0:0:0:
128,116,25850,2,0,L|88:80,2,52.5000020027161
336,184,26237,1,0,0:0:0:0:
176,224,26431,1,0,0:0:0:0:
384,264,26624,1,0,0:0:0:0:
88,292,26818,1,0,0:0:0:0:
424,352,27012,1,4,0:0:0:0:
464,152,27205,5,0,0:0:0:0:
304,64,27399,2,0,L|288:120,2,52.5000020027161
128,112,27786,1,0,0:0:0:0:
80,304,27979,2,0,L|169:248,1,105.000004005432
331,250,28366,2,0,L|416:312,1,105.000004005432
144,104,28753,5,0,0:0:0:0:
80,304,28947,1,0,0:0:0:0:
80,304,29044,1,0,0:0:0:0:
80,304,29141,1,0,0:0:0:0:
345,94,29334,1,0,0:0:0:0:
345,94,29528,1,0,0:0:0:0:
256,328,29721,1,0,0:0:0:0:
256,328,29818,1,0,0:0:0:0:
256,328,29915,1,0,0:0:0:0:
448,192,30108,2,0,P|456:248|408:296,1,105.000004005432
256,88,30495,6,0,B|184:120|144:192|184:264|256:304,1,280
256,304,31076,2,0,B|328:264|368:192|328:120|256:88,1,280
256,196,31463,1,12,0:0:0:0:
183,139,31850,5,0,0:0:0:0:
170,261,32044,1,0,0:0:0:0:
313,269,32237,1,0,0:0:0:0:
326,142,32431,1,0,0:0:0:0:
230,69,32624,5,0,0:0:0:0:
96,200,32818,1,0,0:0:0:0:
240,320,33012,1,0,0:0:0:0:
368,184,33205,1,0,0:0:0:0:
301,49,33399,5,0,0:0:0:0:
379,293,33592,1,0,0:0:0:0:
136,360,33786,1,0,0:0:0:0:
64,128,33979,1,0,0:0:0:0:
368,64,34173,5,0,0:0:0:0:
356,353,34366,1,0,0:0:0:0:
64,336,34560,1,0,0:0:0:0:
88,48,34753,1,0,0:0:0:0:
386,38,34947,5,0,0:0:0:0:
425,76,35043,1,0,0:0:0:0:
445,128,35140,1,0,0:0:0:0:
446,184,35237,1,0,0:0:0:0:
425,235,35334,1,0,0:0:0:0:
389,278,35430,1,0,0:0:0:0:
336,328,35527,5,0,0:0:0:0:
272,352,35624,1,0,0:0:0:0:
208,360,35721,1,0,0:0:0:0:
144,344,35817,1,0,0:0:0:0:
88,312,35914,1,0,0:0:0:0:
40,272,36011,1,0,0:0:0:0:
24,192,36108,6,8,L|92:193,1,35
48,112,36205,2,8,L|80:128,1,35
112,56,36302,2,8,L|136:88,1,35
192,32,36399,2,8,L|200:72,1,35
256,192,36495,12,0,37947,0:0:0:0:
414,237,38044,6,0,P|406:194|377:162,1,87.5
300,108,38624,1,0,0:0:0:0:
208,124,38721,1,0,0:0:0:0:
168,200,38818,5,0,0:0:0:0:
84,220,38915,1,0,0:0:0:0:
72,308,39012,1,0,0:0:0:0:
152,340,39108,1,0,0:0:0:0:
216,284,39205,2,0,P|240:268|264:268,1,52.5000020027161
364,152,39399,6,0,L|308:128,1,31.4999990386963
300,124,39495,2,0,L|241:105,1,31.4999990386963
228,116,39592,1,0,0:0:0:0:
97,133,39689,6,0,L|104:64,2,70
168,256,39979,2,0,P|186:275|216:279,1,52.5
352,288,40366,1,0,0:0:0:0:
432,176,40463,2,0,P|456:136|432:80,2,105.000004005432
144,128,40753,6,0,L|136:104,1,26.25
400,264,40947,2,0,L|408:289,1,26.25
248,272,41141,2,0,B|249:357|164:358|179:291|158:255|81:314|78:263,1,210.000008010865
264,160,41431,2,0,B|202:101|261:40|299:97|312:176|352:224|392:103|384:40|448:40|472:72,1,315.000012016297
436,288,41818,1,0,0:0:0:0:
224,336,41915,1,0,0:0:0:0:
96,160,42108,5,0,0:0:0:0:
188,140,42205,1,0,0:0:0:0:
256,68,42302,1,0,0:0:0:0:
340,96,42399,2,0,L|412:120,1,52.5000020027161
304,180,42592,5,0,0:0:0:0:
336,216,42689,2,0,L|328:248,1,26.2500010013581
348,336,42882,5,0,0:0:0:0:
248,304,42979,1,0,0:0:0:0:
160,360,43076,1,0,0:0:0:0:
100,284,43173,2,0,L|48:204,1,87.5
176,216,43366,5,0,0:0:0:0:
208,240,43463,2,0,L|252:232,1,35
288,128,43657,6,0,L|312:152,1,26.25
288,128,43850,2,0,L|334:83,1,52.5
285,134,44044,2,0,L|204:52,1,105
285,134,44237,2,0,L|83:334,1,280
344,200,44624,5,0,0:0:0:0:
136,64,44818,5,0,0:0:0:0:
120,112,44915,1,0,0:0:0:0:
104,160,45012,1,0,0:0:0:0:
88,208,45108,2,0,L|64:264,1,52.5000020027161
128,296,45205,5,0,0:0:0:0:
208,304,45302,1,0,0:0:0:0:
288,312,45399,1,0,0:0:0:0:
368,320,45495,1,0,0:0:0:0:
440,328,45592,2,0,L|496:336,2,52.5000020027161
432,104,45786,6,0,L|312:104,1,105.000004005432
352,240,45979,2,0,L|232:240,1,105.000004005432
168,152,46173,2,0,L|48:152,1,105.000004005432
216,320,46366,2,0,L|96:320,1,105.000004005432
88,232,46560,5,0,0:0:0:0:
120,176,46657,1,0,0:0:0:0:
184,184,46753,1,0,0:0:0:0:
208,128,46850,1,0,0:0:0:0:
376,80,46947,5,0,0:0:0:0:
440,136,47044,1,0,0:0:0:0:
376,184,47141,1,0,0:0:0:0:
440,224,47237,1,0,0:0:0:0:
402,304,47334,6,0,B|352:341|295:322,1,105.000004005432
195,307,47915,1,0,0:0:0:0:
134,223,48108,2,0,P|114:175|135:126,1,105.000004005432
212,76,48689,2,0,B|292:75|366:109|415:165|428:214,1,262.500010013581
256,192,49705,12,0,50431,0:0:0:0:
256,192,50624,5,0,0:0:0:0:
349,65,50818,5,0,0:0:0:0:
368,109,50915,1,0,0:0:0:0:
380,156,51011,1,0,0:0:0:0:
384,207,51108,1,0,0:0:0:0:
370,256,51205,1,0,0:0:0:0:
345,301,51302,2,0,P|336:320|320:328,1,35
88,272,51592,5,0,0:0:0:0:
121,207,51689,1,0,0:0:0:0:
151,150,51786,1,0,0:0:0:0:
182,93,51882,2,0,L|200:65,1,17.5
320,80,52076,1,0,0:0:0:0:
365,147,52173,1,0,0:0:0:0:
411,214,52270,1,0,0:0:0:0:
457,282,52366,2,0,L|472:304,1,17.5
328,144,52560,6,0,L|376:112,1,52.5
192,240,52753,2,0,L|144:272,1,52.5
162,92,52947,2,0,L|192:136,1,52.5
349,291,53141,2,0,L|320:248,1,52.5
128,168,53334,2,0,L|72:152,1,52.5000020027161
384,216,53528,2,0,L|440:200,3,52.5000020027161
336,88,53915,5,0,0:0:0:0:
168,272,54108,1,0,0:0:0:0:
392,320,54302,2,0,L|384:288,1,26.2500010013581
176,88,54399,6,0,L|152:64,1,26.2500010013581
136,152,54495,2,0,L|96:144,1,26.2500010013581
136,224,54592,2,0,L|104:232,1,26.2500010013581
184,280,54689,2,0,L|152:304,1,26.2500010013581
368,336,54786,6,0,L|389:351,1,26.2500010013581
432,240,54883,2,0,L|457:246,1,26.2500010013581
432,136,54980,2,0,L|457:122,1,26.2500010013581
376,56,55076,2,0,L|394:37,1,26.2500010013581
264,88,55173,5,0,0:0:0:0:
192,112,55270,1,0,0:0:0:0:
128,136,55366,1,0,0:0:0:0:
64,160,55463,2,0,L|40:168,1,26.2500010013581
112,304,55560,5,0,0:0:0:0:
216,256,55657,1,0,0:0:0:0:
312,208,55753,1,0,0:0:0:0:
400,160,55850,2,0,L|440:136,1,26.2500010013581
56,208,56044,5,0,0:0:0:0:
476,168,56237,1,0,0:0:0:0:
128,280,56431,5,0,0:0:0:0:
424,96,56624,2,0,B|432:80|432:64|416:48|392:40|360:40|336:48|320:72,1,140
112,208,57108,5,0,0:0:0:0:
208,176,57205,1,0,0:0:0:0:
304,208,57302,1,0,0:0:0:0:
392,176,57399,2,0,L|416:184,1,17.5
368,56,57495,6,0,L|320:152,1,105.000004005432
144,112,57689,2,0,L|192:208,1,105.000004005432
448,168,57882,2,0,L|424:272,1,105.000004005432
80,208,58076,2,0,L|104:312,1,105.000004005432
408,88,58270,2,0,L|296:120,1,105.000004005432
112,320,58463,2,0,L|184:232,1,105.000004005432
88,136,58657,2,0,L|48:32,1,105.000004005432
328,288,58850,2,0,L|440:320,1,105.000004005432
240,208,59141,5,0,0:0:0:0:
248,200,59334,1,0,0:0:0:0:
252,196,59528,1,0,0:0:0:0:
256,192,59721,2,0,B|296:216|320:192|312:152|272:136|216:144|192:192|208:240|248:272|296:272|320:232,1,280
102,81,60302,5,0,0:0:0:0:
86,132,60399,1,0,0:0:0:0:
132,166,60495,1,0,0:0:0:0:
115,217,60592,1,0,0:0:0:0:
161,250,60689,1,0,0:0:0:0:
129,304,60786,2,0,L|176:336,1,52.5000020027161
320,320,60882,5,0,0:0:0:0:
398,286,60979,1,0,0:0:0:0:
357,205,61076,1,0,0:0:0:0:
435,172,61173,1,0,0:0:0:0:
392,96,61270,2,0,B|360:64|312:72|280:104|232:96|208:64|160:48|112:80,1,280
192,192,62189,2,0,L|144:288,1,105.000004005432
376,224,62431,2,0,L|424:328,1,105.000004005432
160,88,62818,6,0,B|142:115|72:144|104:96|112:152|144:168|112:192,1,140
168,304,63399,1,0,0:0:0:0:
288,328,63592,2,0,P|327:324|355:294,1,70
424,224,63979,1,0,0:0:0:0:
432,128,64173,2,0,B|376:40|152:120|312:144|192:216|280:240|174:333|58:282,1,490
48,176,65721,1,0,0:0:0:0:
384,80,65915,6,0,P|432:136|424:208,1,140
368,288,66495,1,0,0:0:0:0:
216,296,66689,2,0,P|176:296|152:280,1,70
88,184,67076,1,0,0:0:0:0:
152,72,67270,1,0,0:0:0:0:
288,80,67463,1,0,0:0:0:0:
48,352,67657,6,0,B|158:372|119:265|172:259|173:133|235:247|244:148|276:227,1,280
447,37,68237,2,0,B|337:16|376:123|323:129|322:255|260:141|251:240|219:161,1,280
246,193,68624,1,8,0:0:0:0:
250,197,68818,1,8,0:0:0:0:
160,232,69012,5,0,0:0:0:0:
344,144,69205,1,0,0:0:0:0:
120,176,69399,5,0,0:0:0:0:
376,200,69592,1,0,0:0:0:0:
97,242,69786,5,0,0:0:0:0:
416,136,69979,1,0,0:0:0:0:
56,184,70173,5,0,0:0:0:0:
448,200,70366,1,0,0:0:0:0:
32,248,70560,5,0,0:0:0:0:
488,144,70753,1,0,0:0:0:0:
72,304,70947,5,0,0:0:0:0:
464,80,71141,1,0,0:0:0:0:
136,296,71334,5,0,0:0:0:0:
408,72,71528,1,0,0:0:0:0:
96,240,71721,5,0,0:0:0:0:
424,128,71915,1,0,0:0:0:0:
304,128,72108,6,0,L|280:96,3,35
200,160,72495,2,0,L|168:200,3,35
280,208,72882,2,0,L|296:256,3,35
208,272,73270,2,8,L|200:296,7,17.5
256,192,73657,12,0,75012,0:0:0:0:
112,120,75205,6,0,B|119:193|193:110|166:211|291:78|220:219|428:33|301:209|307:48|413:114|265:255|245:219|452:236|408:288|296:264|312:312|232:328|160:280,1,560,0|8,0:0|0:0,0:0:0:0:
376,336,75786,5,0,0:0:0:0:
400,256,75882,1,0,0:0:0:0:
424,176,75979,1,0,0:0:0:0:
448,96,76076,1,0,0:0:0:0:
328,40,76173,5,0,0:0:0:0:
320,104,76270,1,0,0:0:0:0:
312,176,76366,1,0,0:0:0:0:
304,248,76463,1,0,0:0:0:0:
216,200,76560,5,0,0:0:0:0:
208,152,76657,1,0,0:0:0:0:
200,104,76753,1,0,0:0:0:0:
192,56,76850,1,0,0:0:0:0:
64,96,76947,5,0,0:0:0:0:
80,128,77043,1,0,0:0:0:0:
96,160,77140,1,0,0:0:0:0:
112,192,77237,1,0,0:0:0:0:
128,224,77334,2,0,L|152:264,2,35
384,96,77721,6,0,L|408:72,1,26.25
264,296,77915,2,0,L|272:328,1,26.25
136,128,78108,2,0,L|104:120,1,26.25
256,176,78302,2,0,B|264:208|304:192|304:160|288:136|248:128|216:136|216:176|232:216|272:224|320:208|328:168|320:136|296:112|256:104|216:128|200:168|208:192|216:224|248:232|288:240|312:226|344:208|344:168|336:136|304:104,1,420.000016021729,0|8,0:0|0:0,0:0:0:0:
144,121,78882,5,0,0:0:0:0:
136,128,78979,1,0,0:0:0:0:
144,134,79076,1,0,0:0:0:0:
150,128,79173,1,0,0:0:0:0:
128,136,79270,5,0,0:0:0:0:
155,190,79367,1,0,0:0:0:0:
203,160,79464,1,0,0:0:0:0:
180,115,79561,1,0,0:0:0:0:
182,141,79657,5,0,0:0:0:0:
202,224,79753,1,0,0:0:0:0:
278,213,79850,1,0,0:0:0:0:
275,128,79947,1,0,0:0:0:0:
240,136,80044,5,0,0:0:0:0:
176,216,80141,1,0,0:0:0:0:
224,304,80237,1,0,0:0:0:0:
320,296,80334,1,0,0:0:0:0:
376,224,80431,1,0,0:0:0:0:
336,144,80528,1,0,0:0:0:0:
278,213,80624,1,0,0:0:0:0:
208,136,80818,6,0,L|184:120,1,26.2500010013581
208,248,81012,2,0,L|192:280,3,26.2500010013581
288,192,81205,2,0,L|320:184,2,26.2500010013581
176,264,81495,6,0,B|229:277|189:203|254:249|192:125|274:212|195:17|288:152|175:106|249:48|311:190|280:195|346:52|371:97|325:170|364:171|354:232|302:271,1,420,0|8,0:0|0:0,0:0:0:0:
112,80,81979,6,0,L|88:56,1,26.2500010013581
368,104,82173,2,0,L|392:80,1,26.2500010013581
256,296,82366,2,0,L|248:328,1,26.2500010013581
88,224,82560,6,0,L|112:216,1,26.2500010013581
248,56,82753,2,0,L|256:88,1,26.2500010013581
384,256,82947,2,0,L|352:240,1,26.2500010013581
136,128,83141,6,0,L|114:102,1,26.2500010013581
343,83,83334,2,0,L|333:107,1,26.2500010013581
232,296,83528,2,0,L|227:270,1,26.2500010013581
336,64,83721,6,0,B|256:104|176:72|176:72|256:120|328:104|328:104|256:136|192:112|192:112|256:152|312:136|312:136|256:168|208:152|208:152|256:184|296:168|296:168|256:200|224:192|224:192|256:216|280:200|280:200|232:208,1,980,0|8,0:0|0:0,0:0:0:0:
104,248,84495,6,0,B|100:267|141:266|119:282|164:279|149:309|123:303|136:333|171:334|195:315,1,140
400,320,85270,2,0,P|440:296|448:264,1,70
368,96,85850,2,0,B|321:72|335:207|279:170|265:114|265:114|242:72|214:109|160:192|144:137|133:114|112:104|88:104,1,350,0|8,0:0|0:0,0:0:0:0:
256,192,86866,12,0,87592,0:0:0:0:
252,188,87786,5,0,0:0:0:0:
256,192,87979,2,0,P|259:213|277:227,1,35
416,336,88173,5,0,0:0:0:0:
380,296,88270,1,0,0:0:0:0:
344,215,88366,5,0,0:0:0:0:
368,164,88463,1,0,0:0:0:0:
432,108,88560,5,0,0:0:0:0:
432,52,88657,2,0,L|423:32,1,17.5
272,24,88753,5,0,0:0:0:0:
264,76,88850,1,0,0:0:0:0:
216,144,88947,5,0,0:0:0:0:
248,200,89044,1,0,0:0:0:0:
292,300,89141,5,0,0:0:0:0:
248,336,89237,2,0,L|220:344,1,26.2500010013581
120,352,89334,5,0,0:0:0:0:
87,308,89431,1,0,0:0:0:0:
71,204,89528,5,0,0:0:0:0:
55,152,89624,1,0,0:0:0:0:
28,64,89721,5,0,0:0:0:0:
62,32,89818,2,0,L|96:44,1,35
176,76,89915,6,0,B|145:76|127:114|152:132|189:151|145:207|102:213|127:275|207:281|201:132|263:281|294:269|332:244|201:201|257:207|387:188|456:182|207:157|220:194|232:138|276:95|344:126|418:70|449:76|487:95|499:182|481:250|437:312|425:331|307:337|195:306,1,840
184,304,90689,1,0,0:0:0:0:
144,296,91076,2,0,L|112:288,1,26.2500010013581
224,208,91270,6,0,L|168:120,1,105.000004005432
296,176,91463,2,0,L|352:264,1,105.000004005432
264,104,91657,2,0,L|352:48,1,105.000004005432
272,272,91850,2,0,L|183:328,1,105.000004005432
160,256,92044,2,0,L|58:233,1,105.000004005432
360,136,92237,2,0,L|461:158,1,105.000004005432
117,203,92431,6,0,L|216:168,1,105.000004005432
394,180,92624,2,0,L|296:215,1,105.000004005432
256,40,92818,2,0,L|291:138,1,105.000004005432,0|0,2:0|2:0,2:0:0:0:
256,344,93012,2,0,L|220:245,1,105.000004005432,0|0,2:0|2:0,2:0:0:0:
192,176,93205,6,0,B|185:169|185:169|180:172|180:172|178:167|178:167|169:168,1,26.2500010013581
216,112,93399,2,0,L|232:128,4,13.125000500679
144,96,93689,2,0,L|128:128,1,26.2500010013581
144,192,93882,2,0,B|176:240|176:240|208:192|208:192|232:240|232:240|264:192,1,210,0|8,0:0|0:0,0:0:0:0:
352,40,94366,5,0,0:0:0:0:
384,88,94463,1,0,0:0:0:0:
360,136,94560,1,0,0:0:0:0:
400,176,94657,1,0,0:0:0:0:
384,224,94754,1,0,0:0:0:0:
408,272,94851,1,0,0:0:0:0:
384,320,94947,2,0,P|368:336|344:336,3,35
200,360,95334,5,0,0:0:0:0:
136,320,95431,1,0,0:0:0:0:
184,256,95528,1,0,0:0:0:0:
128,200,95625,1,0,0:0:0:0:
184,128,95722,1,0,0:0:0:0:
120,72,95818,2,0,P|128:56|144:48,2,35
214,259,96108,6,8,B|241:267|256:239|256:239|235:218|200:218|200:218|187:235|179:267|179:267|194:294|221:307|221:307|248:301|269:280|275:252|275:252|262:225|235:205|235:205|214:198|179:205|160:225|160:252|160:252|160:294|187:314|187:314|228:335|262:307|262:307|296:280|296:218|256:55|256:55|323:55|365:81|385:123|378:157|339:222,1,1120
112,88,97463,5,8,0:0:0:0:
112,88,97560,1,8,0:0:0:0:
112,88,97657,2,8,P|96:120|106:155,1,52.5000020027161,8|0,0:0|0:0,0:0:0:0:
120,240,97850,1,8,0:0:0:0:
120,240,97947,2,8,P|152:256|184:248,1,52.5000020027161
456,128,98237,5,8,0:0:0:0:
424,104,98334,1,8,0:0:0:0:
400,96,98431,2,0,P|374:92|350:101,1,52.5000020027161,8|0,0:0|0:0,0:0:0:0:
248,136,98624,1,8,0:0:0:0:
240,176,98721,2,0,P|245:211|270:233,1,52.5000020027161,8|0,0:0|0:0,0:0:0:0:
104,304,99012,5,8,0:0:0:0:
168,320,99109,1,8,0:0:0:0:
232,328,99206,2,0,P|266:319|286:288,1,52.5000020027161,8|0,0:0|0:0,0:0:0:0:
336,216,99399,1,8,0:0:0:0:
320,152,99496,2,0,P|311:117|284:98,1,52.5000020027161,8|0,0:0|0:0,0:0:0:0:
168,72,99786,2,0,P|176:106|203:125,1,52.5000020027161,2|4,0:0|0:0,0:0:0:0:
424,104,99979,6,0,B|424:176|376:240,1,140
232,304,100753,2,0,P|192:304|160:280,1,70
88,80,101334,2,0,B|152:64|208:72|256:104|304:128|368:136|440:128,1,350
160,88,103076,6,0,P|112:136|112:216,1,140
192,296,103657,1,0,0:0:0:0:
312,304,103850,2,0,P|354:300|387:276,1,70
408,120,104431,2,0,P|384:96|344:88,1,70
88,48,104818,2,0,P|218:116|363:77,1,280
360,344,105399,2,0,P|397:201|327:68,1,280
136,80,106173,6,0,B|96:96|88:128|176:112|128:176|96:192,1,140
104,280,106947,2,0,P|120:312|152:320,1,70
280,296,107528,2,0,B|356:312|413:296|448:252|448:176|392:120|312:100,1,350,0|8,0:0|0:0,0:0:0:0:
128,184,109270,6,0,P|168:240|240:248,1,140
232,336,109850,2,0,P|274:329|304:301,1,70
328,224,110237,2,0,P|288:184|208:160,1,140
160,104,110818,6,0,P|136:96|104:112,7,52.5000020027161
144,176,111592,2,0,P|168:184|200:168,7,52.5000020027161
260,132,112366,1,12,0:0:0:0:
256,192,121657,12,0,124560,0:0:0:0:
128,80,124753,6,0,B|128:200|232:120|240:264,1,210.000008010865
152,264,125528,2,0,P|184:312|232:328,1,105.000004005432
396,312,126108,2,0,B|284:280|380:224|268:188|408:180|372:108|192:72,1,367.500014019013,0|8,0:0|0:0,0:0:0:0:
376,224,127850,6,0,B|332:247|368:271|336:316|368:288|376:300|296:239|288:284,1,140
156,264,128624,2,0,P|135:238|136:202,1,70
240,112,129205,2,0,P|276:104|312:116,1,70
252,280,129592,6,0,B|233:259|233:259|243:271|243:271|233:259|233:259|243:271|243:271|233:259|233:259|243:271|243:271|233:259|233:259|243:271|243:271|176:192,1,245.000002336502
260,280,130173,2,0,B|278:259|278:259|268:271|268:271|278:259|278:259|268:271|268:271|278:259|278:259|268:271|268:271|278:259|278:259|268:271|268:271|340:192,1,245.000002336502
464,224,130947,6,0,P|440:280|360:320,1,140
48,224,131721,2,0,P|72:280|152:320,1,140
256,360,132302,2,0,B|195:309|205:238|205:238|134:238|104:198|104:198|64:144|94:87|94:87|120:32|165:27|165:27|215:27|235:47|256:77|256:107|256:107|256:77|276:47|296:27|346:27|346:27|408:40|427:87|427:87|448:152|407:198|407:198|377:238|316:238|316:238|316:309|256:370,1,1207.50004606247
256,352,136850,2,4,L|264:352,2,8.75
96,352,137141,6,0,P|38:306|24:235,1,140
120,264,137721,1,0,0:0:0:0:
120,264,137915,2,0,P|100:236|106:197,1,70
184,216,138302,1,0,0:0:0:0:
134,126,138495,2,0,B|240:112|336:192|288:288|176:328,1,350
248,200,139850,1,0,0:0:0:0:
424,152,140237,6,0,P|408:88|344:56,1,140
160,112,141012,2,0,P|120:120|96:152,1,70
144,240,141592,2,0,P|134:274|147:307,1,70
400,176,141979,2,0,B|208:160|208:160|272:96,1,280
208,160,142560,2,0,B|400:176|400:176|336:240,1,280
256,312,142947,1,12,0:0:0:0:
424,80,143334,6,0,B|405:130|351:105|315:165,1,140
392,216,144108,2,0,P|374:243|336:256,1,70
236,72,144689,2,4,B|0:208|232:340,1,367.500014019013
352,80,146431,6,0,B|336:128|288:144|264:192,1,140
208,112,147205,2,0,P|176:128|156:156,1,70
104,264,147592,1,0,0:0:0:0:
280,224,147786,2,0,P|304:160|376:120,1,140
448,208,148560,2,0,P|424:272|352:312,1,140
352,320,149141,1,8,0:0:0:0:
336,328,149334,1,8,0:0:0:0:
368,120,149528,5,0,0:0:0:0:
328,320,149721,2,0,P|360:312|392:288,2,70
164,232,150108,1,0,0:0:0:0:
416,176,150302,1,0,0:0:0:0:
120,160,150495,1,0,0:0:0:0:
460,276,150689,1,0,0:0:0:0:
88,68,150882,1,0,0:0:0:0:
416,40,151076,6,0,L|304:96,1,105.000004005432
136,104,151463,2,0,L|248:152,1,105.000004005432
344,176,151850,2,0,L|384:280,1,105.000004005432
256,240,152237,2,0,L|208:352,1,105.000004005432
104,184,152624,5,0,0:0:0:0:
306,304,152818,1,0,0:0:0:0:
303,89,153012,1,0,0:0:0:0:
344,208,153205,1,0,0:0:0:0:
408,192,153302,1,0,0:0:0:0:
424,128,153399,1,0,0:0:0:0:
136,256,153592,1,0,0:0:0:0:
188,316,153689,1,0,0:0:0:0:
268,328,153786,1,0,0:0:0:0:
128,88,153979,2,0,P|160:45|220:32,1,105.000004005432
144,232,154366,6,0,B|208:112|208:112|360:120,1,280
248,176,154753,1,8,0:0:0:0:
351,119,154947,2,0,B|287:239|287:239|135:231,1,280
368,272,155334,2,0,P|336:312|280:328,1,105.000004005432,8|4,0:0|0:0,0:0:0:0:
392,80,155721,5,0,0:0:0:0:
120,96,155915,2,0,L|160:144,2,52.5000020027161
400,232,156302,1,0,0:0:0:0:
372,268,156399,1,0,0:0:0:0:
332,292,156495,1,0,0:0:0:0:
120,220,156689,2,0,P|136:268|176:312,1,105.000004005432
296,116,157076,2,0,P|251:91|196:100,1,105.000004005432
352,232,157463,2,0,P|408:227|450:196,1,105.000004005432
252,234,157850,2,0,P|266:272|303:291,1,70
380,160,158237,2,0,P|374:140|358:127,1,35
256,88,158624,2,0,P|238:86|220:95,1,35
88,168,159012,5,0,0:0:0:0:
152,192,159205,1,0,0:0:0:0:
216,212,159399,1,0,0:0:0:0:
268,228,159592,1,0,0:0:0:0:
316,244,159786,1,0,0:0:0:0:
348,256,159979,1,0,0:0:0:0:
376,264,160173,1,0,0:0:0:0:
400,272,160366,1,0,0:0:0:0:
416,288,160560,5,0,0:0:0:0:
396,300,160753,1,0,0:0:0:0:
380,312,160947,1,0,0:0:0:0:
368,320,161140,1,0,0:0:0:0:
364,324,161334,1,0,0:0:0:0:
360,328,161527,1,0,0:0:0:0:
356,332,161721,1,0,0:0:0:0:
256,192,161915,5,0,0:0:0:0:
256,192,161963,12,0,163366,0:0:0:0:
256,192,163463,5,0,0:0:0:0:
256,192,163512,12,0,164915,0:0:0:0:
256,192,165012,5,0,0:0:0:0:
256,192,165060,12,0,166463,0:0:0:0:
256,192,166560,5,0,0:0:0:0:
256,192,166608,12,0,168012,0:0:0:0:
192,224,168108,6,0,L|184:192,1,26.2500010013581
320,159,168302,2,0,L|328:192,1,26.2500010013581
180,304,168495,6,0,L|164:328,1,26.2500010013581
332,79,168689,2,0,L|348:56,1,26.2500010013581
148,156,168882,6,0,L|136:120,1,26.2500010013581
363,227,169076,2,0,L|376:260,1,26.2500010013581
136,240,169270,6,0,L|156:264,1,26.2500010013581
375,144,169464,2,0,L|356:120,1,26.2500010013581
76,188,169657,6,0,L|88:156,1,26.2500010013581
436,196,169851,2,0,L|420:228,1,26.2500010013581
64,264,170044,6,0,L|52:296,1,26.2500010013581
448,120,170238,2,0,L|460:92,1,26.2500010013581
120,316,170431,6,0,L|140:284,1,26.2500010013581
392,68,170625,2,0,L|371:100,1,26.2500010013581
8,212,170818,6,0,L|24:236,1,26.2500010013581
504,171,171012,2,0,L|488:148,1,26.2500010013581
376,56,171205,5,0,0:0:0:0:
325,81,171302,1,0,0:0:0:0:
271,66,171399,1,0,0:0:0:0:
221,92,171495,1,0,0:0:0:0:
167,71,171592,1,0,0:0:0:0:
118,103,171689,1,0,0:0:0:0:
80,192,171786,5,0,0:0:0:0:
135,273,171883,1,0,0:0:0:0:
221,214,171980,1,0,0:0:0:0:
279,288,172076,1,0,0:0:0:0:
363,236,172173,1,0,0:0:0:0:
423,311,172270,1,0,0:0:0:0:
348,160,172366,6,0,L|328:184,1,26.2500010013581
280,216,172463,2,0,L|252:200,1,26.2500010013581
224,152,172560,2,0,L|196:168,1,26.2500010013581
156,216,172657,2,0,L|124:208,1,26.2500010013581,0|8,0:0|0:0,0:0:0:0:
256,192,172753,12,0,174205,0:0:0:0:
208,316,174302,6,8,B|364:312|424:180|336:108|184:92,1,420.000016021729,0|8,0:0|0:0,0:0:0:0:
96,80,174882,6,0,L|76:48,1,26.2500010013581
212,296,175076,2,0,L|188:320,1,26.2500010013581
392,132,175270,2,0,L|424:120,1,26.2500010013581
112,224,175463,2,0,L|137:204,1,26.2500010013581
304,56,175657,2,0,L|320:83,1,26.2500010013581
424,288,175850,2,0,L|428:252,1,26.2500010013581
416,32,176044,2,0,L|392:56,1,26.2500010013581
60,200,176237,2,0,L|88:200,1,26.2500010013581
468,324,176431,2,0,L|448:300,1,26.2500010013581
344,368,176624,5,0,0:0:0:0:
112,188,176818,1,0,0:0:0:0:
112,188,176915,2,0,L|144:172,1,26.2500010013581
376,20,177108,1,0,0:0:0:0:
376,20,177205,2,0,L|372:48,1,26.2500010013581
468,196,177399,6,0,B|444:220|408:236|364:244|309:242|273:231|273:231|268:212|272:196|272:196|280:180|300:180|300:180|320:180|328:196|328:196|332:212|324:231|324:231|260:228|212:236|160:252|108:288,1,560
172,144,177979,6,0,P|164:108|180:76,1,70
344,232,178173,2,0,P|352:268|336:300,1,70
192,260,178366,2,0,P|161:280|125:276,1,70
320,116,178560,2,0,P|350:95|386:99,1,70
144,64,178753,2,0,P|112:88|104:132,1,70
396,296,178947,2,0,P|428:272|436:228,1,70
108,232,179141,2,0,P|68:240|44:272,1,70
408,152,179334,2,0,P|448:144|472:112,1,70
236,76,179528,2,0,P|268:39|272:1,1,70
308,316,179721,2,0,P|275:352|271:390,1,70
100,312,179915,6,0,L|92:284,1,26.25
100,312,180108,2,0,L|112:252,1,52.5
100,312,180302,2,0,L|156:208,1,105
100,312,180495,2,0,L|296:112,1,280
376,28,180882,5,0,0:0:0:0:
60,72,181076,5,0,0:0:0:0:
112,92,181173,1,0,0:0:0:0:
168,96,181270,1,0,0:0:0:0:
224,92,181366,1,0,0:0:0:0:
280,92,181463,2,0,P|300:88|320:92,4,35
432,204,181947,5,0,0:0:0:0:
367,239,182044,1,0,0:0:0:0:
297,259,182141,1,0,0:0:0:0:
224,272,182238,1,0,0:0:0:0:
152,276,182335,1,0,0:0:0:0:
80,272,182431,2,0,P|43:269|6:251,3,70
52,48,182818,6,0,L|68:72,1,17.5
232,356,183012,2,0,L|244:324,1,17.5
232,356,183108,2,0,L|244:336,1,17.5
448,104,183302,2,0,L|420:96,1,17.5
448,104,183399,2,0,L|428:100,1,17.5
84,228,183592,6,0,P|122:288|198:316,1,140
372,296,184366,2,0,P|412:284|436:256,1,70
432,120,184947,2,0,B|403:78|349:64|306:76|277:104|277:104|251:82|198:76|152:97|121:148,1,350
256,192,185963,12,0,186689,0:0:0:0:
256,192,187076,5,0,0:0:0:0:
224,336,187270,6,0,P|200:344|192:364,1,35
288,336,187463,2,0,P|312:344|320:364,1,35
212,260,187657,2,0,P|176:264|152:284,1,52.5000020027161
300,260,187850,2,0,P|336:264|360:284,1,52.5000020027161
200,184,188044,2,0,P|155:179|109:202,1,87.5,0|0,3:0|3:0,3:0:0:0:
312,184,188237,2,0,P|356:179|402:202,1,87.5,0|0,3:0|3:0,3:0:0:0:
184,108,188431,2,0,P|120:92|44:88,1,140
328,108,188624,2,0,B|358:89|392:92|468:88,1,140
256,56,188818,2,0,L|256:16,1,35
104,212,189012,6,0,L|128:224,1,17.5
352,320,189205,2,0,L|360:292,1,17.5
352,320,189302,2,0,L|364:296,1,17.5
452,96,189495,2,0,L|424:88,1,17.5
452,96,189592,2,0,L|428:92,1,17.5
192,72,189786,6,8,B|145:144|119:214|121:282|160:329|220:300|220:300|244:292|252:256|232:232|232:232|208:216|176:220|176:220|160:252|160:252|168:280|168:280|204:288|204:288|203:242|203:242|188:257,1,560,0|8,0:0|0:0,0:0:0:0:
352,76,190366,6,0,P|357:106|344:129,1,52.5000020027161
160,308,190560,2,0,P|154:277|167:254,1,52.5000020027161
400,212,190753,6,0,P|368:236|336:234,1,52.5000020027161
112,172,190947,2,0,P|143:147|175:149,1,52.5000020027161
300,336,191141,6,0,P|272:328|247:300,1,52.5000020027161
212,48,191335,2,0,P|244:56|264:83,1,52.5000020027161
129,252,191528,6,0,P|134:277|148:300,1,52.5000020027161
382,131,191722,2,0,P|377:106|364:84,1,52.5000020027161
371,368,191915,6,0,P|406:362|424:347,1,52.5000020027161
140,15,192108,2,0,P|105:21|87:36,1,52.5000020027161
132,120,192302,6,0,L|344:120,1,210
342,120,192495,2,0,L|342:330,1,210
342,330,192689,2,0,L|132:330,1,210
132,330,192882,2,0,L|132:120,1,210
108,60,193076,5,0,0:0:0:0:
172,48,193173,1,0,0:0:0:0:
240,52,193270,1,0,0:0:0:0:
308,72,193366,1,0,0:0:0:0:
368,108,193463,1,0,0:0:0:0:
416,160,193560,1,0,0:0:0:0:
432,228,193657,1,0,0:0:0:0:
352,168,193753,5,0,0:0:0:0:
288,136,193850,1,0,0:0:0:0:
220,124,193947,1,0,0:0:0:0:
140,148,194044,1,0,0:0:0:0:
72,196,194141,1,0,0:0:0:0:
36,272,194237,1,0,0:0:0:0:
24,356,194334,1,0,0:0:0:0:
120,380,194431,5,0,0:0:0:0:
216,352,194528,1,0,0:0:0:0:
292,292,194624,1,0,0:0:0:0:
336,204,194721,1,0,0:0:0:0:
312,108,194818,1,0,0:0:0:0:
240,40,194915,1,0,0:0:0:0:
144,12,195012,1,0,0:0:0:0:
48,24,195108,1,0,0:0:0:0:
16,104,195205,5,0,0:0:0:0:
84,176,195302,1,0,0:0:0:0:
180,188,195399,1,0,0:0:0:0:
256,124,195495,1,0,0:0:0:0:
352,100,195592,1,0,0:0:0:0:
444,136,195689,1,0,0:0:0:0:
508,212,195786,1,0,0:0:0:0:
472,304,195882,1,0,0:0:0:0:
377,217,195979,6,0,L|390:211,1,13.125000500679
329,179,196076,2,0,L|339:169,1,13.125000500679
272,156,196173,2,0,L|275:144,1,13.125000500679
211,172,196270,2,0,L|201:156,1,13.125000500679
156,204,196366,2,0,L|144:195,1,13.125000500679
134,262,196463,2,0,L|121:265,1,13.125000500679
295,321,196560,6,0,L|306:332,1,13.125000500679
346,256,196657,2,0,L|364:264,1,13.125000500679
335,177,196753,2,0,L|349:170,1,13.125000500679
270,127,196850,2,0,L|277:116,1,13.125000500679
191,112,196947,2,0,L|184:98,1,13.125000500679
122,156,197044,2,0,L|108:148,1,13.125000500679
76,236,197141,2,0,L|60:236,16,13.125000500679
256,192,197576,12,0,199076,0:0:0:0:
256,192,199270,5,0,0:0:0:0:
96,128,199463,6,0,L|181:60,1,105.000004005432
280,332,199657,2,0,L|164:304,1,105.000004005432
392,128,199850,2,0,L|424:228,1,105.000004005432
200,60,200044,2,0,L|320:64,1,105.000004005432
156,280,200237,2,0,L|152:172,1,105.000004005432
386,194,200431,2,0,L|320:276,1,105
80,44,200818,6,0,L|180:0,1,105.000004005432
432,88,201012,2,0,L|332:44,1,105.000004005432
144,120,201205,2,0,L|230:179,1,105.000004005432
392,184,201399,2,0,L|305:243,1,105.000004005432
157,225,201592,2,0,L|189:325,1,105.000004005432
384,280,201786,2,0,L|352:380,1,105.000004005432
288,240,201979,2,0,L|312:136,1,105.000004005432
172,272,202463,6,0,L|252:192,1,105.000004005432
352,180,202657,2,0,L|247:196,1,105.000004005432
152,148,202850,2,0,L|249:196,1,105.000004005432
292,292,203044,2,0,L|247:196,1,105.000004005432
259,91,203237,2,0,L|247:195,1,105.000004005432
168,332,203431,2,0,P|118:311|95:256,1,105.000004005432
144,44,203915,5,0,0:0:0:0:
216,64,204012,1,0,0:0:0:0:
280,100,204108,1,0,0:0:0:0:
332,148,204205,1,0,0:0:0:0:
368,212,204302,1,0,0:0:0:0:
384,284,204399,2,0,P|376:308|352:328,1,52.5000020027161
168,336,204689,2,0,P|132:320|116:288,1,70
180,252,204882,2,0,P|169:237|175:217,3,35
200,108,205270,6,0,P|224:80|264:56,1,70
404,104,205560,6,0,L|420:136,3,35
312,188,205947,2,0,L|288:240,3,52.5000020027161
188,276,206334,2,0,L|204:348,4,70
120,48,206818,6,0,L|104:80,1,35
140,192,207012,6,0,L|168:224,3,35
248,152,207399,2,0,L|300:140,3,52.5000020027161
376,68,207786,2,0,L|448:88,5,70
464,184,208366,6,0,P|444:252|388:304,1,140
272,360,208947,1,0,0:0:0:0:
148,320,209141,2,0,P|109:308|78:278,1,70
56,164,209528,2,0,P|78:133|113:115,1,70
320,64,209931,5,0,0:0:0:0:
340,312,210059,1,0,0:0:0:0:
104,204,210187,1,0,0:0:0:0:
428,144,210316,1,0,0:0:0:0:
228,352,210444,1,0,0:0:0:0:
144,52,210573,1,0,0:0:0:0:
256,192,210605,12,0,211472,0:0:0:0:
292,118,211858,5,0,0:0:0:0:
244,279,211986,1,0,0:0:0:0:
154,159,212115,1,0,0:0:0:0:
375,212,212243,1,0,0:0:0:0:
166,274,212372,1,0,0:0:0:0:
223,104,212500,1,0,0:0:0:0:
424,156,212629,2,0,B|378:232|378:232|408:224|408:224|360:304,1,210.000008010865
160,336,212886,2,0,P|124:308|112:284,1,70
247,97,213271,5,0,0:0:0:0:
345,281,213399,1,0,0:0:0:0:
100,232,213528,1,0,0:0:0:0:
422,180,213656,1,0,0:0:0:0:
235,321,213785,1,0,0:0:0:0:
106,71,213913,1,0,0:0:0:0:
424,124,214042,2,0,B|378:200|378:200|408:192|408:192|360:272,1,210.000008010865
136,292,214299,2,0,P|100:284|80:256,1,70
88,132,214684,1,0,0:0:0:0:
376,85,214813,5,0,0:0:0:0:
291,312,214941,1,0,0:0:0:0:
121,128,215070,1,0,0:0:0:0:
348,326,215198,1,0,0:0:0:0:
426,57,215327,1,0,0:0:0:0:
248,355,215455,1,0,0:0:0:0:
84,72,215584,2,0,B|171:87|171:87|145:104|145:104|234:120,1,210.000008010865
424,184,215841,2,0,P|409:215|380:240,1,70
392,72,216226,5,0,0:0:0:0:
84,324,216354,1,0,0:0:0:0:
168,88,216483,1,0,0:0:0:0:
432,320,216611,1,0,0:0:0:0:
312,32,216740,1,0,0:0:0:0:
72,196,216868,2,0,P|84:224|100:240,1,52.5000020027161
184,296,217077,5,0,0:0:0:0:
248,312,217270,1,0,0:0:0:0:
312,328,217464,1,0,0:0:0:0:
376,148,217657,6,0,P|360:120|336:104,1,52.5000020027161
196,72,217947,1,0,0:0:0:0:
152,132,218044,2,0,L|160:192,1,52.5000020027161
256,248,218238,2,0,P|288:248|312:232,1,52.5000020027161
376,188,218528,1,0,0:0:0:0:
404,272,218625,2,0,P|380:288|368:320,2,52.5000020027161
192,372,219206,6,0,L|163:356,1,26.2500010013581
96,292,219399,1,0,0:0:0:0:
68,256,219496,1,0,0:0:0:0:
72,212,219593,2,0,L|88:184,1,26.2500010013581
168,232,219786,2,0,P|185:212|192:187,1,52.5000020027161
124,136,220077,1,0,0:0:0:0:
200,100,220173,2,0,P|232:105|255:123,1,52.5000020027161
192,180,220464,1,0,0:0:0:0:
264,204,220560,2,0,P|292:198|317:177,1,52.5000020027161
208,56,220947,5,0,0:0:0:0:
248,124,221044,2,0,P|228:140|200:136,1,52.5000020027161
124,104,221335,1,0,0:0:0:0:
136,201,221528,2,0,L|124:253,1,52.5000020027161
220,296,221818,2,0,L|256:288,2,26.2500010013581
324,196,222109,2,0,L|332:224,1,26.2500010013581
348,302,222302,2,0,L|408:176,1,140
337,103,222593,2,0,L|272:128,1,70
220,48,222883,1,0,0:0:0:0:
108,108,223077,6,0,L|92:152,1,39.3750015020371
88,184,223270,2,0,P|120:216|168:224,1,78.7500030040742
180,236,223464,2,0,P|236:288|320:292,1,157.500006008148
348,288,223657,2,0,P|404:224|400:124,1,157.500006008148
344,52,223851,5,0,0:0:0:0:
276,60,223947,1,0,0:0:0:0:
212,68,224044,1,0,0:0:0:0:
148,76,224141,1,0,0:0:0:0:
84,120,224238,2,0,P|108:156|164:168,1,87.5
228,200,224431,2,0,P|196:240|132:264,1,87.5
100,336,224625,5,0,0:0:0:0:
160,368,224722,1,0,0:0:0:0:
284,352,224818,1,0,0:0:0:0:
352,328,224915,1,0,0:0:0:0:
408,288,225012,1,0,0:0:0:0:
432,224,225109,1,0,0:0:0:0:
424,148,225206,2,0,B|412:104|412:104|403:114|403:114|396:88|396:88|408:92|408:92|396:40,1,122.500001168251
304,32,225399,2,0,B|291:50|291:50|303:51|303:51|286:73|286:73|282:60|282:60|255:96,1,122.500001168251
39,225,225593,6,0,P|111:185|147:117,1,144.375001376867
142,133,225786,2,0,P|220:152|284:188,1,144.375001376867
277,185,225980,2,0,B|232:248|224:324,1,144.375001376867
224,318,226173,2,0,P|300:344|376:336,1,144.375001376867
363,339,226367,2,0,L|460:224,1,144.375001376867
456,228,226560,2,0,P|428:140|352:72,1,192.500001835823
100,64,226947,5,0,0:0:0:0:
64,120,227044,1,0,0:0:0:0:
52,184,227141,1,0,0:0:0:0:
72,240,227238,1,0,0:0:0:0:
160,280,227335,2,0,P|179:225|214:205,1,87.5
92,336,227528,2,0,P|136:364|176:368,1,87.5
372,328,227722,5,0,0:0:0:0:
432,272,227818,1,0,0:0:0:0:
456,196,227915,1,0,0:0:0:0:
436,120,228012,1,0,0:0:0:0:
336,168,228109,1,0,0:0:0:0:
264,152,228206,1,0,0:0:0:0:
192,164,228302,2,0,P|155:186|127:226,1,87.5
124,112,228496,2,0,P|76:107|36:124,1,87.5
100,324,228689,6,0,P|60:312|44:284,1,70
28,216,228980,1,0,0:0:0:0:
68,172,229077,1,0,0:0:0:0:
124,192,229173,1,0,0:0:0:0:
82,237,229270,2,0,P|67:276|39:290,1,70
60,48,229560,5,0,0:0:0:0:
124,44,229657,2,0,L|144:48,1,17.5
172,124,229754,5,0,0:0:0:0:
232,140,229851,2,0,L|268:152,1,35
368,84,230044,5,0,0:0:0:0:
416,144,230141,1,0,0:0:0:0:
392,212,230238,1,0,0:0:0:0:
428,276,230335,1,0,0:0:0:0:
380,328,230431,2,0,L|376:352,1,17.5
264,368,230528,5,0,0:0:0:0:
220,288,230625,1,0,0:0:0:0:
260,204,230722,1,0,0:0:0:0:
200,128,230818,1,0,0:0:0:0:
264,56,230915,2,0,L|324:68,4,52.5000020027161
104,116,231399,2,0,L|80:180,3,52.5000020027161
144,288,231786,5,0,0:0:0:0:
168,340,231883,1,0,0:0:0:0:
276,304,231980,1,0,0:0:0:0:
324,272,232077,1,0,0:0:0:0:
360,228,232173,1,0,0:0:0:0:
380,176,232270,1,0,0:0:0:0:
472,112,232367,2,0,P|446:86|412:75,1,70
288,156,232560,2,0,P|292:116|316:84,1,70
208,48,232754,2,0,P|176:28|136:28,1,70
140,176,232947,2,0,P|160:144|212:120,1,70
252,200,233141,5,0,0:0:0:0:
280,240,233238,1,0,0:0:0:0:
324,264,233335,1,0,0:0:0:0:
260,320,233431,1,0,0:0:0:0:
208,336,233528,1,0,0:0:0:0:
168,368,233625,1,0,0:0:0:0:
68,332,233722,2,0,P|44:288|48:256,1,70
128,272,233915,2,0,P|160:256|180:224,1,70
16,176,234109,2,0,P|56:156|100:156,1,70
204,124,234302,5,0,0:0:0:0:
248,96,234399,2,0,L|288:88,1,35
344,160,234496,5,0,0:0:0:0:
392,172,234593,2,0,L|428:176,1,35
468,264,234689,5,0,0:0:0:0:
432,300,234786,2,0,L|400:320,1,35
320,268,234883,5,0,0:0:0:0:
276,300,234980,2,0,L|260:332,1,35
184,260,235076,5,0,0:0:0:0:
136,228,235173,2,0,L|124:184,1,35
204,88,235270,5,0,0:0:0:0:
268,52,235367,2,0,P|308:40|352:56,1,70
396,104,235560,2,0,P|360:124|316:120,1,70
240,152,235754,1,0,0:0:0:0:
324,200,235851,2,0,P|364:212|408:208,2,70
208,264,236238,6,0,P|220:300|256:320,1,70
288,244,236528,1,0,0:0:0:0:
320,320,236722,2,0,L|354:326,1,35
452,216,237012,5,0,0:0:0:0:
416,144,237109,1,0,0:0:0:0:
356,92,237206,1,0,0:0:0:0:
284,60,237302,1,0,0:0:0:0:
208,48,237399,1,0,0:0:0:0:
236,120,237496,1,0,0:0:0:0:
228,196,237593,1,0,0:0:0:0:
196,264,237689,1,0,0:0:0:0:
136,308,237786,2,0,P|120:320|96:328,1,35
140,128,237980,6,0,P|192:112|228:116,1,70
204,196,238173,2,0,P|176:228|168:264,1,70
268,252,238367,2,0,P|292:284|324:292,1,70
340,216,238560,2,0,P|328:172|296:144,1,70
224,116,238754,2,0,P|252:80|284:64,1,70
232,200,238947,2,0,P|200:212|160:200,1,70
132,116,239141,2,0,P|99:141|81:172,1,70
88,348,239335,6,0,P|224:384|364:336,1,280
388,316,239818,1,0,0:0:0:0:
420,280,239915,1,0,0:0:0:0:
440,236,240012,1,0,0:0:0:0:
452,188,240109,1,0,0:0:0:0:
440,92,240206,1,0,0:0:0:0:
372,56,240302,1,0,0:0:0:0:
296,80,240399,1,0,0:0:0:0:
220,52,240496,1,0,0:0:0:0:
136,80,240593,2,0,B|100:152|100:152|136:144|136:144|96:228,1,210
256,308,241076,6,0,P|292:320|324:312,1,70
376,268,241367,1,0,0:0:0:0:
444,280,241464,1,0,0:0:0:0:
436,344,241560,1,0,0:0:0:0:
373,358,241657,2,0,P|341:338|317:302,1,70
428,148,241947,5,0,0:0:0:0:
358,152,242043,1,0,0:0:0:0:
288,157,242140,1,0,0:0:0:0:
218,162,242237,1,0,0:0:0:0:
148,167,242334,1,0,0:0:0:0:
80,168,242431,2,0,B|24:176|24:176|8:296|120:364,1,280
204,380,242915,5,0,0:0:0:0:
268,368,243012,1,0,0:0:0:0:
288,288,243109,1,0,0:0:0:0:
347,269,243206,1,0,0:0:0:0:
390,233,243302,1,0,0:0:0:0:
416,180,243399,1,0,0:0:0:0:
420,120,243496,1,0,0:0:0:0:
392,64,243593,2,0,P|369:29|336:13,1,70
144,16,243786,6,0,L|96:16,1,35
100,84,243980,2,0,L|54:100,1,35
88,164,244173,2,0,L|51:194,1,35
104,244,244367,2,0,L|80:285,1,35
156,308,244560,2,0,L|147:355,1,35
224,344,244754,2,0,L|232:391,1,35
300,352,244947,2,0,L|323:393,1,35
376,336,245141,2,0,L|412:366,1,35
436,288,245335,2,0,L|481:304,1,35
304,248,245528,6,0,L|276:144,1,105.000004005432
120,192,245722,2,0,L|180:96,1,105.000004005432
284,48,245915,1,0,0:0:0:0:
344,60,246012,1,0,0:0:0:0:
396,92,246109,2,0,P|421:109|432:135,1,52.5000020027161
296,132,246302,2,0,P|264:136|236:168,1,52.5000020027161
84,220,246496,5,0,0:0:0:0:
108,280,246593,1,0,0:0:0:0:
164,316,246689,2,0,P|190:328|217:323,1,52.5000020027161
400,344,246883,1,0,0:0:0:0:
389,274,246979,1,0,0:0:0:0:
367,208,247076,1,0,0:0:0:0:
334,146,247173,1,0,0:0:0:0:
292,91,247270,1,0,0:0:0:0:
241,43,247366,1,0,0:0:0:0:
176,144,247464,6,0,P|124:160|88:208,1,105.000004005432
176,240,247657,2,0,P|208:296|252:320,1,105.000004005432
264,200,247851,2,0,P|283:151|275:95,1,105.000004005432
120,60,248044,5,0,0:0:0:0:
224,40,248141,1,0,0:0:0:0:
92,140,248238,5,0,0:0:0:0:
252,120,248335,1,0,0:0:0:0:
56,208,248431,5,0,0:0:0:0:
280,208,248528,1,0,0:0:0:0:
56,320,248624,6,0,B|99:263|99:263|133:287|171:261,1,140
128,364,249399,2,0,P|172:360|197:345,1,70
228,248,249979,2,0,P|204:204|156:184,1,105
408,312,251721,6,0,B|380:300|347:318|347:318|330:267,1,105.000004005432
404,228,252495,2,0,P|440:220|448:208,1,52.5000020027161
364,144,253076,2,0,P|328:152|320:164,1,52.5000020027161
180,232,253463,2,0,B|136:288|136:288|148:272|148:272|136:288|136:288|136:288|136:288|148:272|148:272|148:272|148:272|136:288|136:288|136:288|136:288|136:288|136:288|200:336,1,210.000008010865
180,232,254044,2,0,B|224:288|224:288|212:272|212:272|224:288|224:288|224:288|224:288|212:272|212:272|212:272|212:272|224:288|224:288|224:288|224:288|224:288|224:288|160:336,1,210.000008010865
220,232,254818,6,0,B|181:193|181:193|222:152,1,105.000004005432
217,157,255592,2,0,B|181:193|181:193|220:232,1,105.000004005432
268,98,256173,2,0,B|307:81|353:85|387:115|379:166|345:183|281:192|281:192|345:196|387:209|404:238|396:272|358:298|311:302|268:294,1,490
88,80,257915,6,0,L|54:90,1,35
108,140,258495,2,0,L|144:148,1,35
142,147,259270,1,0,0:0:0:0:
164,120,259657,1,0,0:0:0:0:
288,148,259850,1,0,0:0:0:0:
204,168,260044,1,0,0:0:0:0:
364,196,260237,1,0,0:0:0:0:
432,208,260431,2,0,L|452:212,1,17.5
376,236,261012,6,0,L|363:240,1,14
296,252,261592,1,0,0:0:0:0:
200,268,261979,2,0,L|187:270,1,14
56,279,262753,2,0,L|71:281,1,14
83,279,263141,2,0,L|68:281,1,14
72,280,263528,1,0,0:0:0:0:
164,292,264108,6,0,L|177:295,1,14
244,308,264689,2,0,L|257:309,1,14
260,308,265463,1,0,0:0:0:0:
312,316,265850,2,0,L|319:318,1,7
344,320,266237,2,0,L|351:322,1,7
416,332,266624,2,0,L|408:333,1,7
348,348,267205,5,0,0:0:0:0:
296,356,267786,2,0,L|284:358,1,8.75
248,364,268173,2,0,L|236:366,1,8.75
172,376,268560,2,0,L|183:378,1,8.75
248,384,268947,2,0,L|255:385,4,7
256,384,270302,1,0,0:0:0:0:
256,192,270350,12,0,273108,0:0:0:0:
