osu file format v14

[General]
AudioFilename: audio.mp3
AudioLeadIn: 0
PreviewTime: 195478
Countdown: 0
SampleSet: Soft
StackLeniency: 0.2
Mode: 0
LetterboxInBreaks: 0
WidescreenStoryboard: 1

[Editor]
Bookmarks: 869,15869,30869,45869,60869,75869,90869,105869,120869,135869,150869,165869,180869,195869,210869,225869,240869
DistanceSpacing: 1
BeatDivisor: 6
GridSize: 32
TimelineZoom: 1.68

[Metadata]
Title:Seashore on the moon
TitleUnicode:Seashore on the moon
Artist:Camellia feat. Nanahira
ArtistUnicode:かめりあ feat. ななひら
Creator:Mir
Version:Normal
Source:東方永夜抄 ~ Imperishable Night.
Tags:house bass touhou 2hu project lcfc lowcombofc LMT kaguya houraisan 輝夜 竹取飛翔 Flight of the Bamboo Cutter Lunatic Princess ZUN Alstroemeria Records Pop Culture 6
BeatmapID:1506006
BeatmapSetID:712171

[Difficulty]
HPDrainRate:3
CircleSize:3
OverallDifficulty:4
ApproachRate:4
SliderMultiplier:1.3
SliderTickRate:1

[Events]
//Background and Video events
0,0,"seashore.jpg",0,0
//Break Periods
2,31069,44549
2,123881,134549
//Storyboard Layer 0 (Background)
//Storyboard Layer 1 (Fail)
//Storyboard Layer 2 (Pass)
//Storyboard Layer 3 (Foreground)
//Storyboard Sound Samples

[TimingPoints]
869,468.75,4,2,1,50,1,0
28994,-100,4,2,2,50,0,0
30165,-100,4,2,1,50,0,0
46806,-100,4,2,1,5,0,0
46884,-100,4,2,1,50,0,0
47040,-100,4,2,1,5,0,0
47118,-100,4,2,1,50,0,0
48212,-100,4,2,1,5,0,0
48290,-100,4,2,1,50,0,0
48447,-100,4,2,1,5,0,0
48525,-100,4,2,1,50,0,0
48681,-100,4,2,1,5,0,0
48759,-100,4,2,1,50,0,0
48994,-100,4,2,1,5,0,0
49072,-100,4,2,1,50,0,0
49540,-100,4,2,1,5,0,0
49618,-100,4,2,1,50,0,0
50556,-100,4,2,1,5,0,0
50634,-100,4,2,1,50,0,0
50790,-100,4,2,1,5,0,0
50868,-100,4,2,1,50,0,0
51962,-100,4,2,1,5,0,0
52040,-100,4,2,1,50,0,0
52197,-100,4,2,1,5,0,0
52275,-100,4,2,1,50,0,0
54306,-100,4,2,1,5,0,0
54384,-100,4,2,1,50,0,0
54540,-100,4,2,1,5,0,0
54618,-100,4,2,1,50,0,0
55712,-100,4,2,1,5,0,0
55790,-100,4,2,1,50,0,0
55947,-100,4,2,1,5,0,0
56025,-100,4,2,1,50,0,0
56181,-100,4,2,1,5,0,0
56259,-100,4,2,1,50,0,0
56494,-100,4,2,1,5,0,0
56572,-100,4,2,1,50,0,0
57040,-100,4,2,1,5,0,0
57118,-100,4,2,1,50,0,0
58056,-100,4,2,1,5,0,0
58134,-100,4,2,1,50,0,0
58290,-100,4,2,1,5,0,0
58368,-100,4,2,1,50,0,0
59462,-100,4,2,1,5,0,0
59540,-100,4,2,1,50,0,0
59697,-100,4,2,1,5,0,0
59775,-100,4,2,1,50,0,0
60322,-100,4,2,1,5,0,0
60400,-100,4,2,1,50,0,0
63134,-100,4,2,1,5,0,0
63212,-100,4,2,1,50,0,0
63369,-100,4,2,1,5,0,0
63447,-100,4,2,1,50,0,0
63603,-100,4,2,1,5,0,0
63681,-100,4,2,1,50,0,0
66806,-100,4,2,1,5,0,0
66884,-100,4,2,1,50,0,0
67119,-100,4,2,1,5,0,0
67197,-100,4,2,1,50,0,0
67822,-100,4,2,1,5,0,0
67900,-100,4,2,1,50,0,0
70634,-100,4,2,1,5,0,0
70712,-100,4,2,1,50,0,0
70869,-100,4,2,1,5,0,0
70947,-100,4,2,1,50,0,0
71103,-100,4,2,1,5,0,0
71181,-100,4,2,1,50,0,0
74306,-100,4,2,1,5,0,0
74384,-100,4,2,1,50,0,0
74619,-100,4,2,1,5,0,0
74697,-100,4,2,1,50,0,0
75322,-100,4,2,1,5,0,0
75400,-100,4,2,1,50,0,0
75712,-100,4,2,1,5,0,0
75790,-100,4,2,1,50,0,0
89228,-100,4,2,2,50,0,0
90165,-100,4,2,1,50,0,0
90790,-100,4,2,1,5,0,0
90869,-100,4,2,1,90,0,0
92197,-100,4,2,1,5,0,0
92275,-100,4,2,1,90,0,0
92665,-100,4,2,1,5,0,0
92743,-100,4,2,1,90,0,0
93056,-100,4,2,1,5,0,0
93134,-100,4,2,1,90,0,0
93447,-100,4,2,1,5,0,0
93525,-100,4,2,1,90,0,0
94072,-100,4,2,1,5,0,0
94150,-100,4,2,1,90,0,0
95947,-100,4,2,1,5,0,0
96025,-100,4,2,1,90,0,0
96415,-100,4,2,1,5,0,0
96493,-100,4,2,1,90,0,0
96806,-100,4,2,1,5,0,0
96884,-100,4,2,1,90,0,0
97197,-100,4,2,1,5,0,0
97275,-100,4,2,1,90,0,0
98290,-100,4,2,1,5,0,0
98368,-100,4,2,1,90,0,0
99697,-100,4,2,1,5,0,0
99775,-100,4,2,1,90,0,0
100165,-100,4,2,1,5,0,0
100243,-100,4,2,1,90,0,0
100556,-100,4,2,1,5,0,0
100634,-100,4,2,1,90,0,0
100947,-100,4,2,1,5,0,0
101025,-100,4,2,1,90,0,0
101572,-100,4,2,1,5,0,0
101650,-100,4,2,1,90,0,0
103915,-100,4,2,1,5,0,0
103993,-100,4,2,1,90,0,0
104697,-100,4,2,1,5,0,0
104775,-100,4,2,1,90,0,0
104931,-100,4,2,1,5,0,0
105009,-100,4,2,1,90,0,0
105478,-100,4,2,1,5,0,0
105556,-100,4,2,1,90,0,0
105790,-100,4,2,1,5,0,0
105869,-100,4,2,1,90,0,0
108525,-100,4,2,1,90,0,0
112275,-100,4,2,1,90,0,0
113369,-100,4,2,1,90,0,1
114462,-100,4,2,1,90,0,0
114540,-100,4,2,1,5,0,0
114618,-100,4,2,1,90,0,0
115947,-100,4,2,1,5,0,0
116025,-100,4,2,1,90,0,0
120009,-100,4,2,1,90,0,0
123681,-100,4,2,1,5,0,0
135556,-100,4,2,1,50,0,0
136806,-100,4,2,1,5,0,0
136884,-100,4,2,1,50,0,0
137040,-100,4,2,1,5,0,0
137118,-100,4,2,1,50,0,0
138212,-100,4,2,1,5,0,0
138290,-100,4,2,1,50,0,0
138447,-100,4,2,1,5,0,0
138525,-100,4,2,1,50,0,0
138681,-100,4,2,1,5,0,0
138759,-100,4,2,1,50,0,0
138994,-100,4,2,1,5,0,0
139072,-100,4,2,1,50,0,0
140556,-100,4,2,1,5,0,0
140634,-100,4,2,1,50,0,0
140790,-100,4,2,1,5,0,0
140868,-100,4,2,1,50,0,0
141962,-100,4,2,1,5,0,0
142040,-100,4,2,1,50,0,0
142197,-100,4,2,1,5,0,0
142275,-100,4,2,1,50,0,0
144306,-100,4,2,1,5,0,0
144384,-100,4,2,1,50,0,0
144540,-100,4,2,1,5,0,0
144618,-100,4,2,1,50,0,0
145712,-100,4,2,1,5,0,0
145790,-100,4,2,1,50,0,0
145947,-100,4,2,1,5,0,0
146025,-100,4,2,1,50,0,0
146181,-100,4,2,1,5,0,0
146259,-100,4,2,1,50,0,0
146494,-100,4,2,1,5,0,0
146572,-100,4,2,1,50,0,0
148056,-100,4,2,1,5,0,0
148134,-100,4,2,1,50,0,0
148290,-100,4,2,1,5,0,0
148368,-100,4,2,1,50,0,0
149462,-100,4,2,1,5,0,0
149540,-100,4,2,1,50,0,0
149697,-100,4,2,1,5,0,0
149775,-100,4,2,1,50,0,0
149931,-100,4,2,1,5,0,0
150009,-100,4,2,1,50,0,0
153134,-100,4,2,1,5,0,0
153212,-100,4,2,1,50,0,0
157822,-100,4,2,1,5,0,0
157900,-100,4,2,1,50,0,0
160634,-100,4,2,1,5,0,0
160712,-100,4,2,1,50,0,0
160869,-100,4,2,1,5,0,0
160947,-100,4,2,1,50,0,0
161103,-100,4,2,1,5,0,0
161181,-100,4,2,1,50,0,0
180165,-100,4,2,1,90,0,0
182197,-100,4,2,1,5,0,0
182275,-100,4,2,1,90,0,0
182665,-100,4,2,1,5,0,0
182743,-100,4,2,1,90,0,0
183056,-100,4,2,1,5,0,0
183134,-100,4,2,1,90,0,0
183447,-100,4,2,1,5,0,0
183525,-100,4,2,1,90,0,0
184072,-100,4,2,1,5,0,0
184150,-100,4,2,1,90,0,0
185947,-100,4,2,1,5,0,0
186025,-100,4,2,1,90,0,0
186415,-100,4,2,1,5,0,0
186493,-100,4,2,1,90,0,0
186806,-100,4,2,1,5,0,0
186884,-100,4,2,1,90,0,0
187197,-100,4,2,1,5,0,0
187275,-100,4,2,1,90,0,0
188290,-100,4,2,1,5,0,0
188369,-100,4,2,1,90,0,0
189697,-100,4,2,1,5,0,0
189775,-100,4,2,1,90,0,0
190165,-100,4,2,1,5,0,0
190243,-100,4,2,1,90,0,0
190556,-100,4,2,1,5,0,0
190634,-100,4,2,1,90,0,0
190947,-100,4,2,1,5,0,0
191025,-100,4,2,1,90,0,0
191572,-100,4,2,1,5,0,0
191650,-100,4,2,1,90,0,0
193915,-100,4,2,1,5,0,0
193993,-100,4,2,1,90,0,0
194462,-100,4,2,1,5,0,0
194540,-100,4,2,1,90,0,0
194697,-100,4,2,1,5,0,0
194775,-100,4,2,1,90,0,0
194931,-100,4,2,1,5,0,0
195009,-100,4,2,1,90,0,0
195478,-100,4,2,1,5,0,0
195556,-100,4,2,1,90,0,0
203369,-100,4,2,1,90,0,1
204462,-100,4,2,1,90,0,0
204540,-100,4,2,1,5,0,0
204618,-100,4,2,1,90,0,0
205947,-100,4,2,1,5,0,0
206025,-100,4,2,1,90,0,0
207119,-100,4,2,1,90,0,1
208525,-100,4,2,1,90,0,1
210009,-100,4,2,1,90,0,1
210400,-100,4,2,1,90,0,0
214619,-100,4,2,1,50,0,0
225869,-100,4,2,2,50,0,0
240400,-100,4,2,1,90,0,0

[Colours]
Combo1 : 226,186,239
Combo2 : 191,252,255
Combo3 : 119,181,255
Combo4 : 250,156,170

[HitObjects]
85,95,15869,6,0,L|159:90,1,65,0|0,3:2|0:2,0:0:0:0:
207,60,16337,2,0,L|281:63,1,65,8|2,3:2|0:2,0:0:0:0:
325,100,16806,1,0,3:2:0:0:
425,17,17275,1,8,3:2:0:0:
472,138,17744,6,0,P|475:186|464:213,1,65,0|0,3:2|0:2,0:0:0:0:
405,208,18212,2,0,P|402:256|413:283,1,65,8|2,3:2|0:2,0:0:0:0:
442,326,18681,1,0,3:2:0:0:
321,276,19150,1,8,3:2:0:0:
229,368,19619,6,0,L|150:360,1,65,0|0,3:2|0:2,0:0:0:0:
130,306,20087,2,0,L|51:298,1,65,8|2,3:2|0:2,0:0:0:0:
28,245,20556,1,0,3:2:0:0:
0,102,21025,1,8,3:2:0:0:
127,97,21494,6,0,P|177:110|200:107,1,65,0|0,3:2|0:2,0:0:0:0:
254,111,21962,2,0,P|283:109|324:90,1,65,8|2,3:2|0:2,0:0:0:0:
363,50,22431,1,0,3:2:0:0:
450,145,22900,2,0,L|440:209,1,65,8|2,3:2|0:2,0:0:0:0:
383,241,23369,6,0,P|312:228|250:253,1,130,0|8,3:2|3:2,0:0:0:0:
270,310,24072,1,2,0:2:0:0:
270,310,24306,2,0,L|136:292,1,130,0|8,3:2|3:2,0:0:0:0:
17,328,25244,6,0,P|9:288|53:211,1,130,0|8,3:2|3:2,0:0:0:0:
103,175,25947,1,2,0:2:0:0:
103,175,26181,2,0,L|122:41,1,130,0|8,3:2|3:2,0:0:0:0:
256,192,27119,12,0,28994,3:2:0:0:
276,109,30400,5,8,0:2:0:0:
247,235,30869,1,4,0:2:0:0:
381,141,45869,5,2,0:2:0:0:
265,81,46337,2,0,P|212:70|152:89,1,108.333333333333,0|0,0:2|0:2,0:0:0:0:
114,129,46962,1,0,0:2:0:0:
12,241,47509,1,0,0:0:0:0:
12,241,47744,2,0,P|60:266|124:261,1,108.333333333333,2|0,0:2|0:2,0:0:0:0:
151,239,48369,1,0,0:2:0:0:
151,239,48603,2,0,L|249:237,1,86.6666666666667,0|2,0:2|0:2,0:0:0:0:
302,235,49150,1,2,0:2:0:0:
387,333,49619,5,2,0:2:0:0:
456,223,50087,2,0,P|459:172|431:118,1,108.333333333333,0|0,0:2|0:2,0:0:0:0:
383,81,50712,1,0,0:2:0:0:
350,229,51259,1,0,0:0:0:0:
350,229,51494,2,0,L|231:216,1,108.333333333333,2|0,0:2|0:2,0:0:0:0:
201,267,52119,1,0,0:2:0:0:
201,267,52353,2,0,P|223:206|197:118,1,151.666666666667,0|2,0:2|0:2,0:0:0:0:
126,18,53369,5,2,0:2:0:0:
255,24,53837,2,0,L|375:27,1,108.333333333333,0|0,0:2|0:2,0:0:0:0:
428,31,54462,1,0,0:2:0:0:
469,177,55009,1,0,0:0:0:0:
469,177,55244,2,0,P|485:216|466:286,1,108.333333333333,2|0,0:2|0:2,0:0:0:0:
450,340,55869,1,0,0:2:0:0:
450,340,56103,2,0,L|357:338,1,86.6666666666667,0|2,0:2|0:2,0:0:0:0:
299,323,56650,1,2,0:2:0:0:
173,356,57119,5,2,0:2:0:0:
167,226,57587,2,0,L|158:110,1,108.333333333333,0|0,0:2|0:2,0:0:0:0:
154,52,58212,1,0,0:2:0:0:
267,152,58759,1,0,0:0:0:0:
267,152,58994,2,0,B|317:159|317:159|376:147,1,108.333333333333,2|0,0:2|0:2,0:0:0:0:
438,148,59619,1,0,0:2:0:0:
438,148,59853,2,0,B|447:186|447:186|438:251,1,86.6666666666667,0|0,0:2|0:2,0:0:0:0:
438,298,60400,2,0,L|436:358,1,43.3333333333333
285,332,61103,6,0,L|213:327,2,65,2|2|2,0:2|0:2|0:2,0:0:0:0:
314,273,61806,2,0,P|320:228|316:156,1,108.333333333333,2|2,0:2|0:2,0:0:0:0:
307,79,62509,1,2,0:2:0:0:
177,65,62978,2,0,L|164:-16,2,65,0|0|0,0:2|0:2|0:2,0:0:0:0:
134,117,63681,2,0,L|140:161,1,43.3333333333333
90,202,64072,2,0,L|104:295,1,86.6666666666667,0|0,0:2|0:2,0:0:0:0:
228,321,64853,6,0,L|236:240,2,65,2|2|2,0:2|0:2|0:2,0:0:0:0:
279,360,65556,2,0,L|405:356,1,108.333333333333,2|2,0:2|0:2,0:0:0:0:
459,309,66259,2,0,P|461:272|341:190,1,195,2|0,0:2|0:0,0:0:0:0:
236,257,67431,1,0,0:2:0:0:
106,249,67900,2,0,B|93:205|93:205|107:114,1,130,0|0,0:2|0:2,0:0:0:0:
91,58,68603,6,0,L|21:58,2,65,2|2|2,0:2|0:2|0:2,0:0:0:0:
143,19,69306,2,0,L|258:19,1,108.333333333333,2|2,0:2|0:2,0:0:0:0:
338,21,70009,1,2,0:2:0:0:
409,129,70478,2,0,L|473:126,2,65,0|0|0,0:2|0:2|0:2,0:0:0:0:
346,145,71181,2,0,L|348:202,1,43.3333333333333
382,246,71572,2,0,L|386:347,1,86.6666666666667,0|0,0:2|0:2,0:0:0:0:
256,318,72353,6,0,L|181:322,2,65,2|2|2,0:2|0:2|0:2,0:0:0:0:
266,253,73056,2,0,B|290:209|290:209|291:147,1,108.333333333333,2|2,0:2|0:2,0:0:0:0:
288,64,73759,1,2,0:2:0:0:
288,64,73994,5,0,0:2:0:0:
169,12,74462,2,0,P|104:3|27:19,2,130
183,141,75869,6,0,L|182:274,1,130,0|0,3:2|3:2,0:0:0:0:
285,354,76806,2,0,L|283:225,1,130,0|0,3:2|3:2,0:0:0:0:
291,93,77744,1,0,3:0:0:0:
413,49,78212,1,0,3:0:0:0:
484,157,78681,1,0,3:0:0:0:
396,253,79150,1,0,3:0:0:0:
448,372,79619,6,0,L|306:363,1,130,0|0,3:2|3:2,0:0:0:0:
249,235,80556,2,0,P|195:211|129:234,1,130,0|0,3:2|3:2,0:0:0:0:
11,285,81494,1,0,3:0:0:0:
99,379,81962,1,0,3:0:0:0:
229,379,82431,1,0,3:0:0:0:
358,373,82900,1,0,3:0:0:0:
256,192,83369,12,8,86650,3:2:0:0:
256,192,87119,12,0,88994,3:2:0:0:
102,104,90400,5,0,3:2:0:0:
193,196,90869,6,0,P|273:213|320:195,1,130,4|8,3:2|3:2,0:0:0:0:
427,129,91806,2,0,B|444:174|444:174|433:259,1,130,0|8,3:2|3:2,0:0:0:0:
413,317,92509,1,0,0:2:0:0:
413,317,92744,1,0,3:2:0:0:
294,263,93212,1,8,3:2:0:0:
166,236,93681,2,0,B|133:232|133:232|90:236,1,65,0|0,3:2|0:2,0:0:0:0:
41,259,94150,1,8,3:2:0:0:
1,148,94619,6,0,P|-11:98|21:24,1,130,0|8,3:2|3:2,0:0:0:0:
112,104,95556,2,0,L|249:98,1,130,0|8,3:2|3:2,0:0:0:0:
289,53,96259,1,0,0:2:0:0:
289,53,96494,1,0,3:2:0:0:
387,104,96962,2,0,B|372:160|372:160|386:244,1,130,8|0,3:2|3:2,0:0:0:0:
422,355,97900,2,0,L|341:349,1,65,8|0,3:2|0:2,0:0:0:0:
292,343,98369,6,0,B|250:358|250:358|164:345,1,130,8|8,3:2|3:2,0:0:0:0:
59,306,99306,2,0,P|35:248|53:179,1,130,8|8,3:2|3:2,0:0:0:0:
100,144,100009,1,0,0:2:0:0:
100,144,100244,1,8,3:2:0:0:
198,228,100712,1,8,3:2:0:0:
288,135,101181,2,0,L|362:127,1,65,8|0,3:2|0:2,0:0:0:0:
416,115,101650,1,8,3:2:0:0:
256,192,102119,12,8,104853,3:2:0:0:
383,124,105869,6,0,L|250:120,1,130,4|8,3:2|3:2,0:0:0:0:
193,93,106572,1,0,0:2:0:0:
193,93,106806,2,0,L|200:171,1,65,0|0,3:2|0:0,0:0:0:0:
211,221,107275,1,8,3:2:0:0:
266,338,107744,2,0,P|181:353|137:332,1,130,0|8,3:2|3:2,0:0:0:0:
113,294,108447,1,0,0:2:0:0:
113,294,108681,2,0,L|34:293,2,65,0|0|8,3:2|0:2|3:2,0:0:0:0:
143,167,109619,6,0,L|136:34,1,130,0|8,3:2|3:2,0:0:0:0:
195,10,110322,1,0,0:2:0:0:
195,10,110556,2,0,P|226:3|268:4,1,65,0|0,3:2|0:0,0:0:0:0:
318,30,111025,1,8,3:2:0:0:
270,151,111494,1,0,3:2:0:0:
382,209,111962,2,0,L|379:290,1,65,8|0,3:2|0:2,0:0:0:0:
377,339,112431,1,0,3:2:0:0:
250,369,112900,1,8,3:2:0:0:
254,245,113369,6,0,B|118:194|138:311|3:243,1,260,0|0,3:2|3:2,0:0:0:0:
77,135,114775,1,8,3:2:0:0:
13,21,115244,2,0,L|144:12,1,130,0|8,3:2|3:2,0:0:0:0:
248,87,116181,2,0,B|281:96|281:96|322:88,1,65,0|0,3:2|0:2,0:0:0:0:
374,72,116650,1,8,3:2:0:0:
489,12,117119,6,0,P|506:55|485:136,1,130,0|8,3:2|3:2,0:0:0:0:
365,180,118056,2,0,L|377:323,1,130,0|8,3:2|3:2,0:0:0:0:
315,334,118759,1,0,0:2:0:0:
315,334,118994,2,0,B|249:337|211:310|211:310|161:335|161:335|124:313|124:313|77:321,1,238.333333333333,0|0,3:2|0:2,0:0:0:0:
9,192,120400,2,0,L|11:108,1,65,0|0,3:2|3:2,0:0:0:0:
10,61,120869,5,6,3:2:0:0:
256,192,121103,12,0,123681,0:0:0:0:
131,141,135869,5,0,0:0:0:0:
252,96,136337,2,0,P|298:90|361:104,1,108.333333333333
414,135,136962,1,0,0:2:0:0:
506,330,137744,2,0,B|452:351|452:351|396:353,1,108.333333333333,2|0,0:2|0:2,0:0:0:0:
362,300,138369,1,0,0:2:0:0:
362,300,138603,2,0,B|319:300|319:300|265:321,1,86.6666666666667,0|2,0:2|0:2,0:0:0:0:
221,348,139150,1,2,0:2:0:0:
93,372,139619,5,2,0:2:0:0:
30,258,140087,2,0,P|12:181|25:138,1,108.333333333333,0|0,0:2|0:2,0:0:0:0:
52,98,140712,1,0,0:2:0:0:
264,56,141494,2,0,L|381:55,1,108.333333333333,2|0,0:2|0:2,0:0:0:0:
432,80,142119,1,0,0:2:0:0:
432,80,142353,2,0,P|410:141|437:229,1,151.666666666667,0|2,0:2|0:2,0:0:0:0:
482,342,143369,5,2,0:2:0:0:
363,295,143837,2,0,B|308:281|308:281|252:290,1,108.333333333333,0|0,0:2|0:2,0:0:0:0:
193,303,144462,1,0,0:2:0:0:
4,196,145244,2,0,P|-6:147|9:92,1,108.333333333333,2|0,0:2|0:2,0:0:0:0:
46,38,145869,1,0,0:2:0:0:
46,38,146103,2,0,L|141:34,1,86.6666666666667,0|2,0:2|0:2,0:0:0:0:
197,32,146650,1,2,0:2:0:0:
244,153,147119,5,0,0:2:0:0:
389,212,147587,2,0,P|399:165|379:91,1,108.333333333333,0|0,0:2|0:2,0:0:0:0:
348,53,148212,1,0,0:2:0:0:
132,31,148994,2,0,L|22:27,1,108.333333333333,2|0,0:2|0:2,0:0:0:0:
22,92,149619,1,0,0:2:0:0:
22,92,149853,2,0,B|13:130|13:130|23:192,1,86.6666666666667,0|0,0:2|0:2,0:0:0:0:
32,241,150400,2,0,L|42:295,1,43.3333333333333
187,318,151103,6,0,L|266:308,1,65,0|0,0:2|3:2,0:0:0:0:
274,251,151572,1,0,0:2:0:0:
274,251,151806,2,0,L|392:254,1,108.333333333333,0|0,3:2|0:2,0:0:0:0:
468,258,152509,1,0,0:2:0:0:
433,132,152978,2,0,P|441:101|439:66,2,65,0|0|0,0:2|3:2|0:2,0:0:0:0:
377,165,153681,2,0,L|319:161,1,43.3333333333333,0|0,3:0|0:0,0:0:0:0:
329,96,154072,2,0,P|279:90|238:101,1,86.6666666666667,0|0,0:2|0:2,0:0:0:0:
136,26,154853,6,0,L|127:93,1,65,0|0,0:2|3:2,0:0:0:0:
68,119,155322,1,0,0:2:0:0:
68,119,155556,2,0,L|81:234,1,108.333333333333,0|0,3:2|0:2,0:0:0:0:
100,311,156259,1,0,0:0:0:0:
100,311,156494,2,0,P|152:318|215:302,1,108.333333333333,0|0,3:2|0:2,0:0:0:0:
267,246,157197,1,0,0:0:0:0:
267,246,157431,2,0,P|326:237|396:249,1,130,0|0,3:2|3:2,0:0:0:0:
454,79,158603,6,0,L|385:97,1,65,0|0,0:2|3:2,0:0:0:0:
357,48,159072,1,0,0:2:0:0:
357,48,159306,2,0,B|301:32|301:32|243:35,1,108.333333333333,0|0,3:2|0:2,0:0:0:0:
164,39,160009,1,0,0:2:0:0:
203,161,160478,2,0,L|196:230,2,65,0|0|0,0:2|3:2|0:2,0:0:0:0:
255,131,161181,2,0,L|312:132,1,43.3333333333333,0|0,3:0|0:0,0:0:0:0:
324,184,161572,2,0,P|368:184|408:166,1,86.6666666666667,0|0,0:2|0:2,0:0:0:0:
497,73,162353,6,0,L|509:147,1,65,0|0,0:2|3:2,0:0:0:0:
507,202,162822,1,0,0:2:0:0:
507,202,163056,2,0,L|497:317,1,108.333333333333,0|0,3:2|0:2,0:0:0:0:
417,343,163759,2,0,P|356:331|239:332,1,173.333333333333,0|0,0:2|0:0,0:0:0:0:
159,344,164697,1,0,0:2:0:0:
159,344,164931,2,0,P|140:305|159:217,1,130,0|0,0:2|0:0,0:0:0:0:
194,170,165634,1,0,0:0:0:0:
194,170,165869,6,0,L|59:170,1,130,0|0,3:2|3:2,0:0:0:0:
25,45,166806,2,0,L|155:45,1,130,0|0,3:2|3:2,0:0:0:0:
284,57,167744,1,0,3:0:0:0:
411,34,168212,1,0,3:0:0:0:
472,148,168681,1,0,3:0:0:0:
380,245,169150,1,0,3:0:0:0:
264,186,169619,6,0,P|246:242|271:314,1,130,0|0,3:2|3:2,0:0:0:0:
380,245,170556,2,0,L|515:239,1,130,0|0,3:2|3:2,0:0:0:0:
483,111,171494,1,0,3:0:0:0:
384,26,171962,1,0,3:0:0:0:
255,44,172431,1,0,3:0:0:0:
126,63,172900,1,0,3:0:0:0:
256,192,173369,12,0,176650,0:2:0:0:
256,192,177119,12,8,178994,3:2:0:0:
102,104,180400,5,0,3:2:0:0:
196,193,180869,6,0,P|276:210|323:189,1,130,12|8,3:2|3:2,0:0:0:0:
424,117,181806,2,0,B|419:247,1,130,8|8,3:2|3:2,0:0:0:0:
418,312,182509,1,0,0:2:0:0:
418,312,182744,1,8,3:2:0:0:
293,349,183212,1,8,3:2:0:0:
171,303,183681,2,0,B|95:301,1,65,8|0,3:2|0:2,0:0:0:0:
40,300,184150,1,8,3:2:0:0:
57,186,184619,6,0,P|45:136|78:61,1,130,8|8,3:2|3:2,0:0:0:0:
171,138,185556,2,0,L|304:132,1,130,8|8,3:2|3:2,0:0:0:0:
339,184,186259,1,0,0:2:0:0:
339,184,186494,1,8,3:2:0:0:
439,231,186962,2,0,B|449:169|449:169|432:96,1,130,8|8,3:2|3:2,0:0:0:0:
357,21,187900,2,0,L|276:15,1,65,8|0,3:2|0:2,0:0:0:0:
237,24,188369,6,0,B|195:39|195:39|101:24,1,130,8|8,3:2|3:2,0:0:0:0:
14,81,189306,2,0,P|3:139|38:204,1,130,8|8,3:2|3:2,0:0:0:0:
82,243,190009,1,0,0:2:0:0:
82,243,190244,1,8,3:2:0:0:
187,167,190712,1,8,3:2:0:0:
295,241,191181,2,0,L|373:233,1,65,8|0,3:2|0:2,0:0:0:0:
424,228,191650,1,8,3:2:0:0:
256,192,192119,12,8,194853,3:2:0:0:
129,124,195869,6,0,B|189:141|189:141|263:123,1,130,4|8,3:2|3:2,0:0:0:0:
307,86,196572,1,0,0:2:0:0:
307,86,196806,2,0,L|301:170,1,65,0|0,3:2|0:0,0:0:0:0:
296,215,197275,1,8,3:2:0:0:
353,331,197744,2,0,P|268:346|226:326,1,130,0|8,3:2|3:2,0:0:0:0:
172,299,198447,1,0,0:2:0:0:
172,299,198681,2,0,L|92:299,2,65,0|0|8,3:2|0:2|3:2,0:0:0:0:
226,180,199619,6,0,B|240:125|240:125|215:48,1,130,0|8,3:2|3:2,0:0:0:0:
159,24,200322,1,0,0:2:0:0:
159,24,200556,2,0,P|128:17|81:19,1,65,0|0,3:2|0:0,0:0:0:0:
32,36,201025,1,8,3:2:0:0:
110,139,201494,1,0,3:2:0:0:
13,226,201962,2,0,L|8:304,1,65,8|0,3:2|0:2,0:0:0:0:
4,355,202431,1,0,3:2:0:0:
133,365,202900,1,8,3:2:0:0:
143,235,203369,6,0,B|266:295|250:174|399:231,1,260,0|0,3:2|3:2,0:0:0:0:
479,323,204775,1,8,3:2:0:0:
507,196,205244,2,0,L|497:65,1,130,0|8,3:2|3:2,0:0:0:0:
367,69,206181,2,0,B|334:78|334:78|291:69,1,65,0|0,3:2|0:2,0:0:0:0:
244,44,206650,1,8,3:2:0:0:
116,16,207119,6,0,B|50:73|19:192|39:236|97:267|191:246|174:147,1,390,0|8,3:2|3:2,0:0:0:0:
259,53,208994,2,0,B|318:83|371:57|371:57|421:80|421:80|451:57|488:57,1,243.75,0|0,3:2|0:2,0:0:0:0:
476,202,210400,2,0,L|475:266,1,65,8|0,0:2|3:2,0:0:0:0:
473,332,210869,5,4,3:2:0:0:
256,192,211103,12,0,214619,3:0:0:0:
