osu file format v14

[General]
AudioFilename: audio.mp3
AudioLeadIn: 0
PreviewTime: 195478
Countdown: 0
SampleSet: Soft
StackLeniency: 0.2
Mode: 0
LetterboxInBreaks: 0
WidescreenStoryboard: 1

[Editor]
Bookmarks: 869,15869,30869,45869,60869,75869,90869,105869,120869,135869,150869,165869,180869,195869,210869,225869,240869
DistanceSpacing: 1
BeatDivisor: 6
GridSize: 32
TimelineZoom: 2.18

[Metadata]
Title:Seashore on the moon
TitleUnicode:Seashore on the moon
Artist:Camellia feat. Nanahira
ArtistUnicode:かめりあ feat. ななひら
Creator:Mir
Version:LCFC's Easy
Source:東方永夜抄 ~ Imperishable Night.
Tags:house bass touhou 2hu project lcfc lowcombofc LMT kaguya houraisan 輝夜 竹取飛翔 Flight of the Bamboo Cutter Lunatic Princess ZUN Alstroemeria Records Pop Culture 6
BeatmapID:1526020
BeatmapSetID:712171

[Difficulty]
HPDrainRate:2
CircleSize:3
OverallDifficulty:3
ApproachRate:3
SliderMultiplier:1.1
SliderTickRate:1

[Events]
//Background and Video events
0,0,"seashore.jpg",0,0
//Break Periods
2,31068,44429
2,121068,134429
//Storyboard Layer 0 (Background)
//Storyboard Layer 1 (Fail)
//Storyboard Layer 2 (Pass)
//Storyboard Layer 3 (Foreground)
//Storyboard Sound Samples

[TimingPoints]
869,468.75,4,2,1,50,1,0
28994,-100,4,2,2,50,0,0
30165,-100,4,2,1,50,0,0
90869,-100,4,2,1,90,0,0
105869,-100,4,2,1,90,0,1
120400,-100,4,2,1,90,0,0
135869,-100,4,2,1,50,0,0
180869,-100,4,2,1,90,0,0
195869,-100,4,2,1,90,0,1
209931,-100,4,2,1,90,0,0
214619,-100,4,2,1,50,0,0

[Colours]
Combo1 : 253,224,172
Combo2 : 193,193,255
Combo3 : 119,181,255
Combo4 : 250,156,170

[HitObjects]
90,207,15869,5,0,3:2:0:0:
43,107,16337,2,0,P|86:58|250:67,1,220,8|8,3:2|3:2,0:0:0:0:
285,149,17744,2,0,P|339:160|415:166,1,110,0|8,3:2|3:2,0:0:0:0:
454,257,18681,2,0,P|399:262|345:273,1,110,0|8,3:2|3:2,0:0:0:0:
270,354,19619,5,0,3:2:0:0:
169,310,20087,2,0,P|155:269|171:75,1,220,8|8,3:2|3:2,0:0:0:0:
261,44,21494,2,0,L|376:57,1,110,0|8,3:2|3:2,0:0:0:0:
471,13,22431,2,0,L|484:128,1,110,0|8,3:2|3:2,0:0:0:0:
389,180,23369,5,0,3:2:0:0:
360,286,23837,2,0,P|320:322|266:320,2,110,0|8|0,3:2|3:2|0:0,0:0:0:0:
281,209,25244,2,0,P|227:206|187:243,1,110,0|8,3:2|3:2,0:0:0:0:
159,349,26181,2,0,P|119:312|65:314,1,110,0|8,3:2|3:2,0:0:0:0:
256,192,27119,12,0,28994,3:2:0:0:
59,109,30400,6,0,P|56:162|92:201,1,110,8|4,0:2|0:2,0:0:0:0:
92,201,45869,6,0,L|75:327,2,110,2|0|0,0:2|0:2|0:2,0:0:0:0:
56,39,47509,1,0,0:0:0:0:
89,82,47744,2,0,P|170:108|236:111,1,146.666666666667,2|0,0:2|0:2,0:0:0:0:
263,66,48603,2,0,L|398:81,1,128.333333333333,2|0,0:2|0:2,0:0:0:0:
499,102,49619,6,0,L|482:228,2,110,2|0|0,0:2|0:2|0:2,0:0:0:0:
360,11,51259,1,0,0:0:0:0:
332,58,51494,2,0,P|260:69|200:31,1,146.666666666667
153,3,52353,2,0,P|115:54|105:116,1,128.333333333333
167,207,53369,6,0,P|158:260|129:306,2,110,2|0|0,0:2|0:2|0:2,0:0:0:0:
73,71,55009,1,0,0:0:0:0:
124,50,55244,2,0,P|196:46|260:79,1,146.666666666667,2|0,0:2|0:2,0:0:0:0:
315,73,56103,2,0,P|339:111|343:207,1,128.333333333333,2|0,0:2|0:2,0:0:0:0:
271,273,57119,6,0,P|267:327|295:373,2,110,2|0|0,0:2|0:2|0:2,0:0:0:0:
415,193,58759,1,0,0:0:0:0:
408,138,58994,2,0,P|349:109|261:107,1,146.666666666667,2|0,0:2|0:0,0:0:0:0:
243,154,59853,2,0,L|105:136,1,128.333333333333
50,226,60869,5,0,0:2:0:0:
120,310,61337,2,0,P|154:265|309:284,1,220,2|2,0:2|0:2,0:0:0:0:
336,380,62744,1,0,0:2:0:0:
440,346,63212,2,0,L|467:222,2,110,0|0|0,0:2|0:2|0:0,0:0:0:0:
336,380,64619,5,0,0:2:0:0:
332,270,65087,2,0,P|239:212|131:204,1,220,2|2,0:2|0:2,0:0:0:0:
34,257,66494,2,0,B|15:93,2,165,0|0|0,0:2|0:2|0:2,0:0:0:0:
15,365,68369,5,0,0:2:0:0:
123,354,68837,2,0,P|160:333|157:170,1,220,2|2,0:2|0:2,0:0:0:0:
96,88,70244,1,0,0:2:0:0:
204,70,70712,2,0,P|257:80|306:104,2,110,0|0|0,0:2|0:2|0:0,0:0:0:0:
163,175,72119,5,0,0:2:0:0:
258,228,72587,2,0,P|365:214|442:138,1,220,2|2,0:2|0:2,0:0:0:0:
374,51,73994,2,0,L|197:32,2,165,0|0|0,0:2|0:2|0:2,0:0:0:0:
442,138,75869,6,0,P|437:191|401:232,1,110,0|0,3:2|3:2,0:0:0:0:
301,187,76806,1,0,3:2:0:0:
234,99,77275,1,0,3:2:0:0:
185,197,77744,2,0,L|165:325,1,110,0|0,3:2|3:2,0:0:0:0:
261,362,78681,2,0,L|369:345,1,110,0|0,3:2|3:2,0:0:0:0:
447,266,79619,6,0,P|474:222|479:153,1,110,0|0,3:2|3:2,0:0:0:0:
395,95,80556,1,0,3:2:0:0:
298,147,81025,1,0,3:2:0:0:
212,78,81494,2,0,P|171:62|92:56,1,110,0|0,3:2|3:2,0:0:0:0:
35,139,82431,2,0,P|51:180|57:259,1,110,0|0,3:2|3:2,0:0:0:0:
13,345,83369,6,0,L|148:326,2,110,8|8|8,3:2|3:2|3:2,0:0:0:0:
58,245,84775,1,8,3:2:0:0:
159,203,85244,2,0,L|294:222,2,110,8|8|8,3:2|3:2|3:2,0:0:0:0:
204,303,86650,1,8,3:2:0:0:
256,192,87119,12,0,88994,3:2:0:0:
204,303,90869,6,0,B|181:189|288:218|268:104,1,220,4|0,3:2|3:2,0:0:0:0:
173,50,92275,1,8,3:2:0:0:
88,120,92744,2,0,P|106:160|119:234,1,110,0|8,3:2|3:2,0:0:0:0:
99,333,93681,2,0,P|139:315|213:302,1,110,0|8,3:2|3:2,0:0:0:0:
299,357,94619,5,0,3:2:0:0:
387,292,95087,2,0,P|421:242|423:83,1,220,8|8,3:2|3:2,0:0:0:0:
323,43,96494,2,0,L|202:60,2,110,0|8|0,3:2|3:2|3:2,0:0:0:0:
121,129,98369,6,0,P|96:232|166:311,1,220,8|8,3:2|3:2,0:0:0:0:
276,314,99775,1,8,3:2:0:0:
357,239,100244,2,0,P|362:185|328:144,1,110,8|8,3:2|3:2,0:0:0:0:
230,93,101181,2,0,P|195:51|201:-1,1,110,8|8,3:2|3:2,0:0:0:0:
308,24,102119,5,8,3:2:0:0:
343,127,102587,2,0,P|287:221|277:330,1,220,8|8,3:2|3:2,0:0:0:0:
386,343,103994,2,0,P|425:326|507:315,2,110,8|8|0,3:2|3:2|0:2,0:0:0:0:
343,127,105869,6,0,P|292:106|237:98,2,110,4|8|0,3:2|3:2|3:2,0:0:0:0:
403,219,107275,1,8,3:2:0:0:
304,267,107744,2,0,L|195:256,1,110,0|8,3:2|3:2,0:0:0:0:
149,155,108681,2,0,L|40:166,1,110,0|8,3:2|3:2,0:0:0:0:
5,60,109619,5,0,3:2:0:0:
106,18,110087,2,0,P|160:23|202:56,2,110,8|0|8,3:2|3:2|3:2,0:0:0:0:
5,60,111494,2,0,P|15:113|39:162,1,110,0|8,3:2|3:2,0:0:0:0:
137,214,112431,2,0,P|112:263|102:316,1,110,0|8,3:2|3:2,0:0:0:0:
204,358,113369,6,0,L|313:372,2,110,0|8|0,3:2|3:2|3:2,0:0:0:0:
102,316,114775,1,8,3:2:0:0:
16,246,115244,2,0,P|13:204|46:130,1,110,0|8,3:2|3:2,0:0:0:0:
142,109,116181,2,0,P|192:130|246:129,1,110,0|8,3:2|3:2,0:0:0:0:
331,59,117119,5,0,3:2:0:0:
412,132,117587,2,0,P|422:186|428:240,2,110,8|0|8,3:2|3:2|3:2,0:0:0:0:
331,59,118994,2,0,P|271:148|285:255,1,220,0|0,3:2|0:2,0:0:0:0:
394,240,120400,2,0,L|411:131,1,110,0|6,3:2|3:2,0:0:0:0:
411,131,135869,6,0,L|393:239,2,110,2|0|0,0:2|0:2|0:2,0:0:0:0:
291,17,137509,1,0,0:0:0:0:
293,72,137744,2,0,P|192:113|157:107,1,146.666666666667,2|0,0:2|0:2,0:0:0:0:
125,63,138603,2,0,L|106:206,1,128.333333333333
88,298,139619,6,0,L|197:312,2,110,2|0|0,0:2|0:2|0:2,0:0:0:0:
7,154,141259,1,0,0:0:0:0:
43,112,141494,2,0,P|114:100|178:132,1,146.666666666667,2|0,0:2|0:0,0:0:0:0:
197,184,142353,2,0,P|255:210|318:203,1,128.333333333333
379,111,143369,6,0,P|365:57|357:3,2,110,2|0|0,0:2|0:2|0:2,0:0:0:0:
479,241,145009,1,0,0:0:0:0:
459,292,145244,2,0,P|392:319|319:319,1,146.666666666667,2|0,0:2|0:2,0:0:0:0:
269,343,146103,2,0,P|209:322|164:277,1,128.333333333333
199,172,147119,6,0,L|321:152,2,110,0|0|0,0:2|0:2|0:2,0:0:0:0:
54,92,148759,1,0,0:0:0:0:
93,53,148994,2,0,L|238:68,1,146.666666666667,2|0,0:2|0:2,0:0:0:0:
279,30,149853,2,0,P|341:31|389:72,1,128.333333333333
380,182,150869,5,0,3:2:0:0:
326,278,151337,2,0,P|221:290|146:215,1,220,0|0,3:2|3:2,0:0:0:0:
201,119,152744,1,0,3:2:0:0:
292,180,153212,2,0,P|346:185|399:171,2,110,0|0|0,3:2|3:2|3:2,0:0:0:0:
301,70,154619,5,0,3:2:0:0:
201,119,155087,2,0,P|180:146|137:341,1,220,0|0,3:2|3:2,0:0:0:0:
244,328,156494,2,0,P|274:281|292:170,2,165,0|0|0,3:2|0:2|3:2,0:0:0:0:
137,353,158369,5,0,3:2:0:0:
53,282,158837,2,0,P|37:177|117:108,1,220,0|0,3:2|3:2,0:0:0:0:
218,152,160244,1,0,3:2:0:0:
283,63,160712,2,0,P|333:43|388:39,2,110,0|0|0,3:2|3:2|3:2,0:0:0:0:
218,152,162119,1,0,3:2:0:0:
218,261,162587,6,0,P|315:312|424:312,1,220,0|0,3:2|3:2,0:0:0:0:
386,208,163994,2,0,L|365:31,2,165,0|0|0,3:2|0:2|0:0,0:0:0:0:
314,288,165869,6,0,P|269:295|215:255,1,110,0|0,3:2|3:2,0:0:0:0:
185,155,166806,1,0,3:2:0:0:
266,81,167275,1,0,3:2:0:0:
160,48,167744,2,0,L|42:64,1,110,0|0,3:2|3:2,0:0:0:0:
17,167,168681,2,0,L|126:152,1,110,0|0,3:2|3:2,0:0:0:0:
219,206,169619,6,0,P|230:240|234:313,1,110,0|0,3:2|3:2,0:0:0:0:
133,358,170556,1,0,3:2:0:0:
46,289,171025,1,0,3:2:0:0:
112,201,171494,2,0,P|111:146|97:93,1,110,0|0,3:2|3:2,0:0:0:0:
175,16,172431,2,0,P|229:16|282:30,1,110,0|0,3:2|3:2,0:0:0:0:
323,133,173369,6,0,L|297:250,2,110,8|8|8,3:2|3:2|3:2,0:0:0:0:
417,76,174775,1,8,3:2:0:0:
418,186,175244,2,0,L|392:303,2,110,8|8|8,3:2|3:2|3:2,0:0:0:0:
512,129,176650,1,8,3:2:0:0:
256,192,177119,12,8,178994,3:2:0:0:
512,129,180869,6,0,B|398:152|427:45|313:65,1,220,12|8,3:2|3:2,0:0:0:0:
241,147,182275,1,8,3:2:0:0:
296,241,182744,2,0,P|350:240|392:207,1,110,8|8,3:2|3:2,0:0:0:0:
409,97,183681,2,0,P|367:64|313:64,1,110,8|8,3:2|3:2,0:0:0:0:
241,147,184619,5,8,3:2:0:0:
141,97,185087,2,0,P|85:189|86:298,1,220,8|8,3:2|3:2,0:0:0:0:
195,284,186494,2,0,L|220:176,2,110,8|8|8,3:2|3:2|3:2,0:0:0:0:
361,140,188369,6,0,P|313:48|211:65,1,220,8|8,3:2|3:2,0:0:0:0:
123,129,189775,1,8,3:2:0:0:
82,231,190244,2,0,P|90:299|108:348,1,110,8|8,3:2|3:2,0:0:0:0:
209,308,191181,2,0,P|263:312|316:329,1,110,8|8,3:2|3:2,0:0:0:0:
417,372,192119,5,8,3:2:0:0:
404,262,192587,2,0,P|370:159|386:51,1,220,8|8,3:2|3:2,0:0:0:0:
487,93,193994,2,0,L|472:205,2,110,8|0|0,3:2|0:2|0:2,0:0:0:0:
277,160,195869,6,0,L|165:175,2,110,4|8|0,3:2|3:2|3:2,0:0:0:0:
346,245,197275,1,8,3:2:0:0:
416,160,197744,2,0,P|445:113|452:59,1,110,0|8,3:2|3:2,0:0:0:0:
346,29,198681,2,0,P|299:57|245:64,1,110,0|8,3:2|3:2,0:0:0:0:
139,31,199619,5,0,3:2:0:0:
81,125,200087,2,0,L|109:238,2,110,8|0|8,3:2|3:2|3:2,0:0:0:0:
136,30,201494,2,0,L|242:56,1,110,0|8,3:2|3:2,0:0:0:0:
302,148,202431,2,0,L|408:121,1,110,0|8,3:2|3:2,0:0:0:0:
495,187,203369,6,0,P|497:242|480:294,2,110,0|8|0,3:2|3:2|3:2,0:0:0:0:
408,121,204775,1,8,3:2:0:0:
316,60,205244,2,0,P|261:58|209:75,1,110,0|8,3:2|3:2,0:0:0:0:
142,163,206181,2,0,P|89:146|35:147,1,110,0|8,3:2|3:2,0:0:0:0:
74,250,207119,5,0,3:2:0:0:
182,268,207587,2,0,L|290:251,2,110,8|0|8,3:2|3:2|3:2,0:0:0:0:
74,250,208994,2,0,P|39:214|43:145,1,110,0|0,3:2|0:2,0:0:0:0:
130,98,209931,2,0,P|165:62|161:-7,1,110,0|8,0:2|0:2,0:0:0:0:
256,192,210869,12,4,214619,3:2:0:0:
