osu file format v14

[General]
AudioFilename: audio.mp3
AudioLeadIn: 0
PreviewTime: 224210
Countdown: 0
SampleSet: Soft
StackLeniency: 0.7
Mode: 0
LetterboxInBreaks: 0
WidescreenStoryboard: 1

[Editor]
Bookmarks: 1085,11085,21085,31085,51085,74835,84835,94835,114835,135460,144835,158585,178585,188585,198897,218585,218897,219210,219522,219835,220147,220460,220772,221085,224210,244835,254835,265147,283741,284835,304835,310460,324835,340772
DistanceSpacing: 1.3
BeatDivisor: 4
GridSize: 8
TimelineZoom: 2.071584

[Metadata]
Title:Petals
TitleUnicode:Petals
Artist:Camellia feat. Nanahira
ArtistUnicode:かめりあ feat. ななひら
Creator:big snag
Version:drowning in the fragmented scales of reality
Source:
Tags:electronic japanese secretale confetto cametek milo milkshake milo_milkshake kalibe featured artist fa drum and bass dnb comiket 91 c91 toybot vikala
BeatmapID:3645642
BeatmapSetID:1780166

[Difficulty]
HPDrainRate:5.1
CircleSize:4.3
OverallDifficulty:8.8
ApproachRate:9.6
SliderMultiplier:2
SliderTickRate:1

[Events]
//Background and Video events
0,0,"petals.png",0,0
//Break Periods
2,178785,179638
2,180347,188076
//Storyboard Layer 0 (Background)
//Storyboard Layer 1 (Fail)
//Storyboard Layer 2 (Pass)
//Storyboard Layer 3 (Foreground)
//Storyboard Layer 4 (Overlay)
//Storyboard Sound Samples

[TimingPoints]
1085,312.5,4,2,4,40,1,0
11085,-333.333333333333,4,2,4,40,0,0
14835,-500,4,2,4,40,0,0
16710,-285.714285714286,4,2,4,40,0,0
17335,-222.222222222222,4,2,4,40,0,0
17960,-400,4,2,4,40,0,0
18585,-500,4,2,4,40,0,0
19835,-333.333333333333,4,2,4,40,0,0
21085,-285.714285714286,4,2,4,40,0,0
22335,-250,4,2,4,40,0,0
23585,-333.333333333333,4,2,4,40,0,0
24835,-500,4,2,4,40,0,0
26710,-285.714285714286,4,2,4,40,0,0
27335,-222.222222222222,4,2,4,40,0,0
27960,-181.818181818182,4,2,4,40,0,0
28585,-400,4,2,4,40,0,0
29835,-142.857142857143,4,2,4,40,0,0
30772,-111.111111111111,4,2,4,50,0,0
31085,-250,4,2,1,50,0,0
31553,-333.333333333333,4,2,1,50,0,0
32647,-250,4,2,1,50,0,0
34835,-250,4,2,1,50,0,0
37335,-666.666666666667,4,2,1,50,0,0
38585,-250,4,2,1,50,0,0
39835,-200,4,2,1,50,0,0
41085,-222.222222222222,4,2,1,50,0,0
41553,-285.714285714286,4,2,1,50,0,0
42647,-250,4,2,1,50,0,0
44835,-250,4,2,1,50,0,0
45772,-222.222222222222,4,2,1,50,0,0
46085,-200,4,2,1,50,0,0
47335,-200,4,2,1,50,0,0
48585,-181.818181818182,4,2,1,50,0,0
49835,-222.222222222222,4,2,1,50,0,0
50460,-222.222222222222,4,2,1,55,0,0
51085,-222.222222222222,4,2,5,55,0,0
51163,-222.222222222222,4,2,1,55,0,0
51397,-285.714285714286,4,2,1,55,0,0
51710,-200,4,2,1,55,0,0
53585,-222.222222222222,4,2,1,55,0,0
55460,-117.647058823529,4,2,5,55,0,0
55538,-117.647058823529,4,2,1,55,0,0
56085,-666.666666666667,4,2,1,55,0,0
56710,-181.818181818182,4,2,1,55,0,0
58585,-222.222222222222,4,2,1,55,0,0
60460,-117.647058823529,4,2,5,55,0,0
60538,-117.647058823529,4,2,1,55,0,0
60772,-285.714285714286,4,2,1,55,0,0
61085,-222.222222222222,4,2,1,55,0,0
62335,-181.818181818182,4,2,1,55,0,0
63585,-181.818181818182,4,2,1,55,0,0
65460,-117.647058823529,4,2,5,55,0,0
65538,-117.647058823529,4,2,1,55,0,0
66085,-181.818181818182,4,2,1,55,0,0
66553,-181.818181818182,4,2,1,55,0,0
69053,-238.095238095238,4,2,1,55,0,0
70460,-117.647058823529,4,2,5,55,0,0
70538,-117.647058823529,4,2,1,55,0,0
71085,-285.714285714286,4,2,1,55,0,0
71397,-222.222222222222,4,2,1,55,0,0
71866,-181.818181818182,4,2,1,55,0,0
72335,-166.666666666667,4,2,1,55,0,0
73428,-200,4,2,1,55,0,0
74210,-333.333333333333,4,2,1,55,0,0
74835,-153.846153846154,4,2,1,60,0,0
75772,-285.714285714286,4,2,1,60,0,0
76085,-133.333333333333,4,2,5,60,0,0
76163,-133.333333333333,4,2,1,60,0,0
76710,-117.647058823529,4,2,5,60,0,0
76788,-117.647058823529,4,2,1,60,0,0
77960,-133.333333333333,4,2,1,60,0,0
78585,-166.666666666667,4,2,5,60,0,0
78663,-166.666666666667,4,2,1,60,0,0
79210,-153.846153846154,4,2,1,60,0,0
79835,-133.333333333333,4,2,1,60,0,0
80772,-285.714285714286,4,2,1,60,0,0
81085,-133.333333333333,4,2,5,60,0,0
81163,-133.333333333333,4,2,1,60,0,0
81710,-133.333333333333,4,2,5,60,0,0
81788,-133.333333333333,4,2,1,60,0,0
82335,-153.846153846154,4,2,1,60,0,0
83272,-500,4,2,5,60,0,0
83663,-500,4,2,1,60,0,0
84210,-166.666666666667,4,2,5,60,0,0
84288,-166.666666666667,4,2,1,60,0,0
85147,-250,4,2,1,60,0,0
87335,-181.818181818182,4,2,1,60,0,0
89210,-166.666666666667,4,2,1,60,0,0
92335,-166.666666666667,4,2,1,65,0,0
93585,-105.263157894737,4,2,1,50,0,0
93897,-105.263157894737,4,2,1,50,0,0
94210,-90.9090909090909,4,2,1,50,0,0
94522,-74.0740740740741,4,2,1,50,0,0
94835,-90.9090909090909,4,2,1,80,0,1
98116,-133.333333333333,4,2,1,80,0,1
98428,-90.9090909090909,4,2,1,80,0,1
98585,-90.9090909090909,4,2,5,80,0,1
98663,-90.9090909090909,4,2,1,80,0,1
99210,-90.9090909090909,4,2,5,80,0,1
99288,-90.9090909090909,4,2,1,80,0,1
101397,-83.3333333333333,4,2,1,80,0,1
101866,-90.9090909090909,4,2,1,80,0,1
102335,-83.3333333333333,4,2,1,80,0,1
102960,-90.9090909090909,4,2,1,80,0,1
103116,-117.647058823529,4,2,1,80,0,1
103272,-117.647058823529,4,2,5,80,0,1
103350,-117.647058823529,4,2,1,80,0,1
103585,-90.9090909090909,4,2,5,80,0,1
103663,-90.9090909090909,4,2,1,80,0,1
104210,-90.9090909090909,4,2,5,80,0,1
104288,-90.9090909090909,4,2,1,80,0,1
105772,-80,4,2,1,80,0,1
106085,-90.9090909090909,4,2,1,80,0,1
108116,-125,4,2,1,80,0,1
108585,-125,4,2,5,80,0,1
108663,-125,4,2,1,80,0,1
108741,-90.9090909090909,4,2,1,80,0,1
109210,-90.9090909090909,4,2,5,80,0,1
109288,-90.9090909090909,4,2,1,80,0,1
113116,-125,4,2,1,80,0,1
113585,-90.9090909090909,4,2,1,80,0,1
114053,-76.9230769230769,4,2,1,80,0,1
114210,-80,4,2,1,80,0,1
114835,-111.111111111111,4,2,2,70,0,0
124835,-95.2380952380952,4,2,2,70,0,0
125147,-111.111111111111,4,2,2,70,0,0
129835,-95.2380952380952,4,2,2,70,0,0
130303,-111.111111111111,4,2,2,70,0,0
134835,-111.111111111111,4,2,5,70,0,0
134913,-111.111111111111,4,2,2,70,0,0
135460,-166.666666666667,4,2,2,50,0,0
137335,-222.222222222222,4,2,2,50,0,0
138272,-153.846153846154,4,2,2,55,0,0
139210,-105.263157894737,4,2,5,55,0,0
139288,-105.263157894737,4,2,2,55,0,0
139835,-153.846153846154,4,2,2,55,0,0
142335,-133.333333333333,4,2,2,55,0,0
144210,-105.263157894737,4,2,5,55,0,0
144288,-105.263157894737,4,2,2,55,0,0
144835,-133.333333333333,4,2,2,55,0,0
145772,-153.846153846154,4,2,2,55,0,0
149210,-105.263157894737,4,2,5,55,0,0
149288,-105.263157894737,4,2,2,55,0,0
149522,-181.818181818182,4,2,2,55,0,0
149835,-153.846153846154,4,2,2,55,0,0
151710,-125,4,2,2,55,0,0
154835,-153.846153846154,4,2,2,60,0,0
156085,-222.222222222222,4,2,5,55,0,0
156163,-222.222222222222,4,2,2,55,0,0
157335,-153.846153846154,4,2,2,50,0,0
157647,-117.647058823529,4,2,2,50,0,0
157960,-100,4,2,2,50,0,0
158272,-83.3333333333333,4,2,1,50,0,0
158585,-86.9565217391304,4,2,1,80,0,1
159835,-86.9565217391304,4,2,5,80,0,1
159913,-86.9565217391304,4,2,1,80,0,1
160460,-86.9565217391304,4,2,5,80,0,1
160538,-86.9565217391304,4,2,1,80,0,1
161085,-83.3333333333333,4,2,1,80,0,1
161553,-86.9565217391304,4,2,1,80,0,1
162335,-86.9565217391304,4,2,5,80,0,1
162413,-86.9565217391304,4,2,1,80,0,1
162960,-86.9565217391304,4,2,5,80,0,1
163038,-86.9565217391304,4,2,1,80,0,1
163585,-80,4,2,1,80,0,1
163897,-86.9565217391304,4,2,1,80,0,1
164835,-86.9565217391304,4,2,5,80,0,1
164913,-86.9565217391304,4,2,1,80,0,1
165460,-86.9565217391304,4,2,5,80,0,1
165538,-86.9565217391304,4,2,1,80,0,1
166866,-117.647058823529,4,2,1,80,0,1
167022,-117.647058823529,4,2,5,80,0,1
167100,-117.647058823529,4,2,1,80,0,1
167335,-86.9565217391304,4,2,5,80,0,1
167413,-86.9565217391304,4,2,1,80,0,1
167960,-86.9565217391304,4,2,5,80,0,1
168038,-86.9565217391304,4,2,1,80,0,1
168585,-80,4,2,1,80,0,1
169053,-86.9565217391304,4,2,1,80,0,1
169835,-86.9565217391304,4,2,5,80,0,1
169913,-86.9565217391304,4,2,1,80,0,1
170460,-86.9565217391304,4,2,5,80,0,1
170538,-86.9565217391304,4,2,1,80,0,1
171085,-83.3333333333333,4,2,1,80,0,1
171397,-86.9565217391304,4,2,1,80,0,1
172960,-86.9565217391304,4,2,5,80,0,1
173038,-86.9565217391304,4,2,1,80,0,1
173585,-80,4,2,1,80,0,1
173897,-86.9565217391304,4,2,1,80,0,1
174835,-86.9565217391304,4,2,5,80,0,1
174913,-86.9565217391304,4,2,1,80,0,1
175460,-86.9565217391304,4,2,5,80,0,1
175538,-86.9565217391304,4,2,1,80,0,1
176085,-80,4,2,1,80,0,1
176553,-86.9565217391304,4,2,1,80,0,1
177803,-83.3333333333333,4,2,1,80,0,1
177960,-83.3333333333333,4,2,1,80,0,1
178585,-166.666666666667,4,2,1,80,0,0
178663,-166.666666666667,4,2,2,80,0,0
180147,-166.666666666667,4,2,2,40,0,0
183585,-166.666666666667,4,2,1,65,0,0
188585,-142.857142857143,4,2,2,60,0,0
189678,-133.333333333333,4,2,2,60,0,0
189835,-142.857142857143,4,2,2,60,0,0
190147,-142.857142857143,4,2,2,35,0,0
190303,-142.857142857143,4,2,2,60,0,0
191866,-125,4,2,2,60,0,0
196085,-117.647058823529,4,2,2,65,0,0
198585,-117.647058823529,4,2,1,65,0,0
198897,-117.647058823529,4,2,1,55,0,0
199210,-181.818181818182,4,2,1,55,0,0
202960,-133.333333333333,4,2,1,55,0,0
203272,-100,4,2,2,55,0,0
203897,-166.666666666667,4,2,1,55,0,0
208272,-100,4,2,2,55,0,0
208897,-100,4,2,1,55,0,0
209210,-153.846153846154,4,2,1,55,0,0
211085,-181.818181818182,4,2,1,55,0,0
213272,-100,4,2,2,55,0,0
213897,-142.857142857143,4,2,1,55,0,0
215772,-142.857142857143,4,2,2,55,0,0
216085,-222.222222222222,4,2,1,50,0,0
218585,-196.078431372549,4,2,1,50,0,0
224210,-400,4,2,1,35,0,0
226085,-400,4,2,1,35,0,0
227803,-222.222222222222,4,2,1,35,0,0
229835,-333.333333333333,4,2,1,35,0,0
232647,-222.222222222222,4,2,1,35,0,0
234210,-333.333333333333,4,2,1,35,0,0
237803,-200,4,2,1,35,0,0
242335,-250,4,2,1,40,0,0
243585,-250,4,2,1,45,0,0
244053,-250,4,2,1,65,0,0
244835,-200,4,2,1,60,0,0
246710,-250,4,2,1,60,0,0
247335,-285.714285714286,4,2,1,60,0,0
248585,-200,4,2,5,60,0,0
249835,-222.222222222222,4,2,1,60,0,0
250460,-200,4,2,1,60,0,0
251085,-250,4,2,1,60,0,0
251710,-285.714285714286,4,2,1,60,0,0
253272,-400,4,2,1,60,0,0
254210,-166.666666666667,4,2,5,60,0,0
254288,-166.666666666667,4,2,1,60,0,0
255147,-250,4,2,1,60,0,0
257335,-181.818181818182,4,2,1,60,0,0
259210,-166.666666666667,4,2,1,60,0,0
259835,-166.666666666667,4,2,1,65,0,0
262335,-166.666666666667,4,2,1,70,0,0
263585,-166.666666666667,4,2,1,60,0,0
264522,-83.3333333333333,4,2,1,60,0,0
264835,-153.846153846154,4,2,1,55,0,0
265147,-86.9565217391304,4,2,1,80,0,1
266085,-86.9565217391304,4,2,5,80,0,1
266163,-86.9565217391304,4,2,1,80,0,1
266710,-86.9565217391304,4,2,5,80,0,1
266788,-86.9565217391304,4,2,1,80,0,1
267335,-105.263157894737,4,2,1,80,0,1
267803,-86.9565217391304,4,2,1,80,0,1
269210,-86.9565217391304,4,2,5,80,0,1
269288,-86.9565217391304,4,2,1,80,0,1
269835,-80,4,2,1,80,0,1
270616,-86.9565217391304,4,2,1,80,0,1
270772,-83.3333333333333,4,2,1,80,0,1
271085,-86.9565217391304,4,2,5,80,0,1
271163,-86.9565217391304,4,2,1,80,0,1
271710,-86.9565217391304,4,2,5,80,0,1
271788,-86.9565217391304,4,2,1,80,0,1
272335,-83.3333333333333,4,2,1,80,0,1
273116,-117.647058823529,4,2,1,80,0,1
273272,-117.647058823529,4,2,5,80,0,1
273350,-117.647058823529,4,2,1,80,0,1
273585,-86.9565217391304,4,2,5,80,0,1
273663,-86.9565217391304,4,2,1,80,0,1
274210,-86.9565217391304,4,2,5,80,0,1
274288,-86.9565217391304,4,2,1,80,0,1
274835,-80,4,2,1,80,0,1
275147,-86.9565217391304,4,2,1,80,0,1
276085,-86.9565217391304,4,2,5,80,0,1
276163,-86.9565217391304,4,2,1,80,0,1
276710,-86.9565217391304,4,2,5,80,0,1
276788,-86.9565217391304,4,2,1,80,0,1
277335,-83.3333333333333,4,2,1,80,0,1
277960,-86.9565217391304,4,2,1,80,0,1
279210,-86.9565217391304,4,2,5,80,0,1
279288,-86.9565217391304,4,2,1,80,0,1
279835,-76.9230769230769,4,2,1,80,0,1
280147,-86.9565217391304,4,2,1,80,0,1
281085,-80,4,2,5,80,0,1
281163,-80,4,2,1,80,0,1
281710,-80,4,2,5,80,0,1
281788,-80,4,2,1,80,0,1
283741,-80,4,2,1,80,0,0
284835,-83.3333333333333,4,2,1,85,0,1
285772,-74.0740740740741,4,2,1,85,0,1
286241,-83.3333333333333,4,2,1,85,0,1
287335,-76.9230769230769,4,2,1,85,0,1
287647,-83.3333333333333,4,2,1,85,0,1
288116,-117.647058823529,4,2,1,85,0,1
288428,-100,4,2,1,85,0,1
288741,-83.3333333333333,4,2,1,85,0,1
289835,-90.9090909090909,4,2,1,85,0,1
290303,-83.3333333333333,4,2,1,85,0,1
292335,-80,4,2,1,85,0,1
292647,-83.3333333333333,4,2,1,85,0,1
294835,-74.0740740740741,4,2,1,85,0,1
295147,-83.3333333333333,4,2,1,85,0,1
297335,-80,4,2,1,85,0,1
297803,-83.3333333333333,4,2,1,85,0,1
298116,-117.647058823529,4,2,1,85,0,1
298428,-100,4,2,1,85,0,1
298585,-100,4,2,1,85,0,1
299835,-80,4,2,1,85,0,1
300303,-83.3333333333333,4,2,1,85,0,1
300460,-83.3333333333333,4,2,1,90,0,1
303585,-71.4285714285714,4,2,1,90,0,1
304053,-66.6666666666667,4,2,1,90,0,1
304835,-250,4,2,4,65,0,0
310460,-285.714285714286,4,2,4,40,0,0
311085,-222.222222222222,4,2,4,40,0,0
311710,-400,4,2,4,40,0,0
312335,-500,4,2,4,40,0,0
313585,-333.333333333333,4,2,4,40,0,0
314835,-285.714285714286,4,2,4,40,0,0
316085,-250,4,2,4,40,0,0
317335,-333.333333333333,4,2,4,40,0,0
318585,-500,4,2,4,40,0,0
320460,-285.714285714286,4,2,4,40,0,0
321085,-222.222222222222,4,2,4,40,0,0
321710,-181.818181818182,4,2,4,40,0,0
322335,-400,4,2,4,40,0,0
323585,-142.857142857143,4,2,4,40,0,0
324522,-100,4,2,4,40,0,0

[Colours]
Combo1 : 0,0,128
Combo2 : 0,106,157
Combo3 : 235,149,33
Combo4 : 240,200,15
Combo5 : 0,91,91

[HitObjects]
256,192,8585,12,0,10928,0:0:0:0:
250,367,11085,6,0,B|197:172|376:290|388:74|318:6|210:5|177:62,1,479.999985351563,4|0,0:3|0:0,0:0:0:0:
179,57,14835,6,0,P|191:100|200:218,1,160,2|0,0:0|0:0,0:0:0:0:
200,214,16710,6,0,P|143:211|112:250,1,104.999996795654,2|0,0:0|0:0,0:0:0:0:
276,178,17335,2,0,P|275:127|210:81,1,134.999995880127,2|0,0:0|0:0,0:0:0:0:
325,242,17960,2,0,P|376:216|384:194,1,75,2|0,0:0|0:0,0:0:0:0:
253,301,18585,6,0,B|186:301|203:332|140:335,1,120,2|0,0:0|0:0,0:0:0:0:
325,242,19678,5,2,0:0:0:0:
325,242,19756,1,2,0:0:0:0:
325,242,19835,2,0,P|337:199|361:148,1,89.9999972534181,2|0,0:0|0:0,0:0:0:0:
417,110,20460,1,2,0:0:0:0:
413,125,20772,5,2,0:0:0:0:
404,104,20850,1,2,0:0:0:0:
376,86,20928,1,2,0:0:0:0:
359,54,21006,1,2,0:0:0:0:
314,48,21085,6,0,B|194:43|270:138|176:168|116:158,1,244.999992523194,4|0,0:3|0:0,0:0:0:0:
260,199,22335,2,0,P|262:256|276:366,1,160,2|2,0:0|0:0,0:0:0:0:
305,139,23428,5,2,0:0:0:0:
305,139,23506,1,2,0:0:0:0:
305,139,23585,2,0,P|216:144|198:38,1,209.999993591309,2|0,0:0|0:0,0:0:0:0:
127,161,24835,6,0,P|87:165|56:249,1,140,2|0,0:0|0:0,0:0:0:0:
100,308,26085,1,0,0:0:0:0:
100,308,26710,6,0,P|134:312|168:327,1,69.9999978637696,2|0,0:0|0:0,0:0:0:0:
227,373,27178,1,0,0:0:0:0:
189,244,27335,2,0,P|223:240|275:211,1,89.9999972534181,2|0,0:0|0:0,0:0:0:0:
312,150,27803,1,0,0:0:0:0:
297,298,27960,2,0,P|331:294|406:322,1,110.000003356934,2|0,0:0|0:0,0:0:0:0:
456,373,28428,1,0,0:0:0:0:
510,195,28585,6,0,B|423:186|426:230|335:221,1,175,2|0,0:0|0:0,0:0:0:0:
263,374,29835,6,0,P|268:282|255:163,1,209.999993591309,2|2,0:0|0:0,0:0:0:0:
209,108,30381,1,2,0:0:0:0:
190,117,30460,1,2,0:0:0:0:
177,144,30538,1,0,0:0:0:0:
185,184,30616,1,2,0:0:0:0:
229,209,30694,1,0,0:0:0:0:
255,165,30772,6,0,B|315:163|300:130|366:129|383:131,1,134.999995880127,2|0,0:0|0:0,0:0:0:0:
418,149,31085,6,0,P|426:98|434:61,1,80,4|0,0:1|0:0,0:0:0:0:
368,356,31553,2,0,P|372:282|364:207,1,149.999995422363
364,207,32647,6,0,P|321:215|269:219,1,80
252,373,33272,2,0,P|240:330|232:278,1,80,0|2,0:0|0:0,0:0:0:0:
245,281,33897,1,0,0:0:0:0:
150,321,34053,2,0,L|157:235,1,80
164,166,34522,1,0,0:0:0:0:
164,166,34835,6,0,B|83:168|94:126|8:130,1,160,2|0,0:0|0:0,0:0:0:0:
89,107,35772,6,0,P|93:69|101:25,1,80,0|2,0:0|0:0,0:0:0:0:
96,126,36397,1,0,0:0:0:0:
39,183,36553,2,0,P|46:253|46:312,1,120
132,372,37335,6,0,P|135:338|142:309,1,59.9999981689454,2|2,0:0|0:0,0:0:0:0:
220,229,38585,6,0,B|214:141|257:164|253:67,1,160,2|0,0:0|0:0,0:0:0:0:
128,257,39835,2,0,B|261:239|215:357|350:338,1,250,2|0,0:0|0:0,0:0:0:0:
442,292,40772,1,0,0:0:0:0:
442,292,41085,6,0,P|444:243|461:190,1,89.9999972534181,2|0,0:0|0:0,0:0:0:0:
386,349,41553,2,0,B|310:346|331:287|231:273,1,174.999994659424
233,273,42647,6,0,L|238:184,1,80
386,349,43272,2,0,L|376:256,1,80,0|2,0:0|0:0,0:0:0:0:
362,256,43897,5,0,0:0:0:0:
454,288,44053,2,0,P|456:245|462:203,1,80
489,136,44522,1,0,0:0:0:0:
489,136,44835,2,0,B|406:125|422:166|331:165,1,160,2|0,0:0|0:0,0:0:0:0:
132,218,45772,2,0,P|151:214|175:206,1,44.999998626709
214,136,46085,6,0,P|270:129|302:162,1,100,2|0,0:0|0:0,0:0:0:0:
284,322,46553,2,0,P|259:271|279:230,1,100
354,222,47022,1,0,0:0:0:0:
354,222,47335,6,0,P|356:128|362:56,1,150,2|0,0:0|0:0,0:0:0:0:
277,152,47960,2,0,P|185:131|113:119,1,150,2|0,0:0|0:0,0:0:0:0:
354,222,48585,6,0,B|209:217|261:341|87:324,1,275.000008392334,2|0,0:0|0:0,0:0:0:0:
323,306,49522,2,0,P|318:335|309:368,1,55.0000016784668
140,238,49835,6,0,P|139:189|215:164,1,134.999995880127,2|0,0:0|0:0,0:0:0:0:
300,206,50460,1,0,0:0:0:0:
380,176,50616,1,0,0:0:0:0:
438,232,50772,5,2,0:0:0:0:
457,213,50850,1,0,0:0:0:0:
457,191,50928,1,2,0:0:0:0:
469,180,51006,1,0,0:0:0:0:
480,159,51085,6,0,L|474:111,1,44.999998626709,2|0,0:3|0:0,0:0:0:0:
399,101,51397,2,0,L|402:59,1,34.9999989318848
438,232,51710,6,0,B|364:234|375:199|293:201,1,150
238,269,52335,2,0,L|234:324,1,50
158,282,52647,2,0,L|154:337,1,50
97,208,52960,2,0,L|93:153,1,50,2|0,0:0|0:0,0:0:0:0:
17,144,53272,2,0,L|13:89,1,50
101,18,53585,6,0,P|208:15|235:131,1,224.999993133545,2|0,0:0|0:0,0:0:0:0:
190,185,54522,2,0,P|194:208|196:232,1,44.999998626709
255,336,54835,2,0,P|253:349|252:375,7,22.4999993133545
245,377,55460,6,0,B|228:341|232:229|327:255|287:97,1,255.000004863739,2|0,0:3|0:0,0:0:0:0:
305,121,56085,6,0,L|296:70,1,52.4999983978272,2|0,0:0|0:0,0:0:0:0:
260,201,56710,6,0,P|192:192|170:101,1,165.000005035401
213,32,57335,2,0,P|243:28|285:21,1,55.0000016784668
317,135,57647,2,0,P|323:105|328:63,1,55.0000016784668
258,206,57960,2,0,P|227:202|186:195,1,55.0000016784668,2|0,0:0|0:0,0:0:0:0:
250,362,58272,2,0,P|243:332|238:290,1,55.0000016784668
372,273,58585,6,0,P|385:201|421:93,1,179.999994506836,2|0,0:0|0:0,0:0:0:0:
260,74,59366,2,0,P|281:69|304:62,1,44.999998626709,2|0,0:0|0:0,0:0:0:0:
368,20,59678,1,0,0:0:0:0:
400,155,59835,2,0,P|380:221|370:288,1,134.999995880127,2|0,0:0|0:0,0:0:0:0:
234,377,60460,6,0,B|286:370|269:362|317:356,1,85.0000016212464,2|0,0:3|0:0,0:0:0:0:
376,303,60772,2,0,P|372:283|365:257,1,34.9999989318848
162,342,61085,6,0,P|172:278|172:153,1,179.999994506836,2|0,0:0|0:0,0:0:0:0:
133,94,61866,1,0,0:0:0:0:
49,147,62022,2,0,P|52:174|58:200,1,44.999998626709
91,346,62335,2,0,P|102:293|123:242,1,110.000003356934,2|0,0:0|0:0,0:0:0:0:
192,158,62803,2,0,P|202:218|225:276,1,110.000003356934,2|0,0:0|0:0,0:0:0:0:
257,340,63272,1,2,0:0:0:0:
257,340,63585,5,2,0:0:0:0:
324,300,63741,1,0,0:0:0:0:
362,318,63897,1,0,0:0:0:0:
383,308,64053,1,0,0:0:0:0:
461,348,64210,6,0,P|414:341|336:338,1,110.000003356934
280,365,64678,1,0,0:0:0:0:
217,316,64835,2,0,P|215:288|209:252,1,55.0000016784668,2|0,0:0|0:0,0:0:0:0:
207,336,65147,1,0,0:0:0:0:
294,288,65303,1,0,0:0:0:0:
143,208,65460,6,0,B|91:215|108:223|60:229,1,85.0000016212464,2|0,0:3|0:0,0:0:0:0:
200,150,65772,5,0,0:0:0:0:
298,206,65928,1,0,0:0:0:0:
374,179,66085,2,0,P|378:118|386:55,1,110.000003356934,2|0,0:0|0:0,0:0:0:0:
416,274,66553,6,0,B|291:293|323:209|190:225,1,220.000006713867,2|0,0:0|0:0,0:0:0:0:
468,218,67335,2,0,P|470:190|474:159,1,55.0000016784668
496,94,67647,5,0,0:0:0:0:
495,77,67803,1,2,0:0:0:0:
410,122,67960,5,2,0:0:0:0:
395,84,68116,1,2,0:0:0:0:
346,174,68272,5,0,0:1:0:0:
279,125,68428,1,0,0:0:0:0:
386,266,68585,6,0,P|330:254|271:244,1,110.000003356934,2|0,0:0|0:0,0:0:0:0:
45,369,69053,2,0,B|25:329|35:286|103:250|125:317|224:303|241:112|115:118|69:207|120:241|155:221,1,335.999989746094,2|0,0:0|0:0,0:0:0:0:
141,207,70460,6,0,B|261:202|182:124|308:108|386:108,1,255.000004863739,2|0,0:3|0:0,0:0:0:0:
432,151,71085,6,0,L|429:189,1,34.9999989318848,2|0,0:0|0:0,0:0:0:0:
334,23,71397,6,0,L|340:101,1,67.4999979400635,2|0,0:0|0:0,0:0:0:0:
341,108,71710,1,0,0:0:0:0:
222,253,71866,6,0,L|231:125,1,110.000003356934,2|0,0:0|0:0,0:0:0:0:
193,47,72256,5,0,0:0:0:0:
187,60,72335,2,0,B|296:62|261:10|388:21,1,179.999994506836,2|0,0:0|0:0,0:0:0:0:
450,50,72960,1,0,0:0:0:0:
354,192,73116,6,0,P|343:148|338:103,1,89.9999972534181,2|0,0:0|0:0,0:0:0:0:
271,45,73428,6,0,P|170:52|151:151,1,200,2|0,0:0|0:0,0:0:0:0:
92,246,74210,6,0,P|119:257|145:275,1,59.9999981689454,0|2,0:0|0:0,0:0:0:0:
157,287,74835,6,0,P|160:239|142:152,1,129.999994049073,4|0,0:1|0:0,0:0:0:0:
96,102,75303,1,0,0:0:0:0:
229,172,75460,2,0,P|264:166|302:153,1,64.9999970245363
333,71,75772,6,0,P|302:66|271:55,1,52.4999983978272
264,45,76085,6,0,B|271:168|204:133|216:288,1,225.000008583069,2|0,0:0|0:0,0:0:0:0:
242,368,76710,2,0,P|307:286|183:262,1,255.000004863739,2|0,0:3|0:0,0:0:0:0:
119,309,77335,5,4,0:3:0:0:
122,328,77491,1,0,0:0:0:0:
171,357,77647,1,0,0:0:0:0:
240,300,77803,1,0,0:0:0:0:
170,226,77960,2,0,B|267:228|243:143|383:144,1,225.000008583069
448,170,78506,5,0,0:0:0:0:
440,187,78585,2,0,L|445:218,3,29.9999990844727,2|0|0|0,0:0|0:0|0:0|0:0,0:0:0:0:
432,98,78897,2,0,L|439:69,3,29.9999990844727
372,144,79210,2,0,P|342:141|306:135,1,64.9999970245363,2|0,0:0|0:0,0:0:0:0:
225,226,79522,2,0,P|192:229|160:234,1,64.9999970245363
9,37,79835,6,0,P|72:25|101:109,1,150.000005722046,4|0,0:3|0:0,0:0:0:0:
67,157,80303,1,0,0:0:0:0:
147,252,80460,2,0,P|139:293|137:342,1,75.0000028610231
54,372,80772,6,0,P|48:344|36:313,1,52.4999983978272
15,317,81085,6,0,B|18:186|101:243|100:88,1,225.000008583069,2|0,0:0|0:0,0:0:0:0:
91,354,81710,2,0,P|188:332|333:326,1,225.000008583069,2|0,0:3|0:0,0:0:0:0:
202,286,82335,2,0,P|207:255|209:211,1,64.9999970245363,4|0,0:3|0:0,0:0:0:0:
251,98,82647,1,0,0:0:0:0:
226,130,82803,1,0,0:0:0:0:
310,231,82960,2,0,P|304:197|301:155,1,64.9999970245363
180,21,83272,6,0,P|178:47|174:68,1,40,2|2,0:0|0:0,0:0:0:0:
175,60,84210,6,0,P|182:100|185:147,1,59.9999981689454,2|0,0:3|0:0,0:0:0:0:
296,293,84522,2,0,P|298:252|308:205,1,59.9999981689454
361,123,84835,5,8,0:1:0:0:
348,113,85147,2,0,P|343:89|341:63,1,40,8|0,0:1|0:0,0:0:0:0:
271,213,85460,2,0,P|232:203|179:195,1,80,8|8,0:1|0:1,0:0:0:0:
76,182,86085,5,8,0:1:0:0:
85,166,86397,2,0,P|85:146|82:126,1,40,8|0,0:1|0:0,0:0:0:0:
16,86,86710,2,0,P|6:68|-4:52,1,40,8|0,0:1|0:0,0:0:0:0:
159,140,87022,2,0,P|183:132|209:119,1,40,8|0,0:1|0:0,0:0:0:0:
276,65,87335,5,8,0:1:0:0:
266,53,87647,2,0,P|266:37|277:9,3,27.5000008392334,8|0|0|0,0:2|0:0|0:0|0:0,0:0:0:0:
300,144,87960,2,0,P|312:139|326:135,3,27.5000008392334,8|0|0|0,0:1|0:0|0:0|0:0,0:0:0:0:
242,195,88272,2,0,P|240:227|233:256,1,55.0000016784668,8|0,0:2|0:0,0:0:0:0:
289,376,88585,5,8,0:1:0:0:
291,357,88741,1,0,0:0:0:0:
362,328,88897,1,8,0:2:0:0:
347,254,89053,1,0,0:0:0:0:
215,352,89210,6,0,B|149:349|174:320|95:322,1,119.999996337891,8|8,0:1|0:2,0:0:0:0:
24,358,89678,1,0,0:0:0:0:
100,193,89835,5,8,0:1:0:0:
114,238,89991,1,8,0:1:0:0:
151,136,90147,1,8,0:2:0:0:
88,178,90303,1,8,0:1:0:0:
188,205,90460,5,8,0:1:0:0:
223,194,90616,1,8,0:1:0:0:
297,228,90772,1,8,0:2:0:0:
394,250,90928,1,8,0:1:0:0:
258,372,91085,5,8,0:1:0:0:
195,327,91241,1,8,0:1:0:0:
331,309,91397,1,8,0:2:0:0:
358,167,91553,1,8,0:1:0:0:
137,278,91710,5,8,0:1:0:0:
220,252,91866,1,8,0:1:0:0:
49,169,92022,1,8,0:2:0:0:
297,229,92178,1,8,0:1:0:0:
238,174,92335,6,0,L|236:128,1,29.9999990844727,8|8,0:1|0:1,0:0:0:0:
262,109,92491,2,0,L|264:59,1,29.9999990844727,8|8,0:1|0:1,0:0:0:0:
196,5,92647,2,0,L|198:34,1,29.9999990844727,8|8,0:2|0:1,0:0:0:0:
334,129,92803,2,0,L|331:162,1,29.9999990844727,8|8,0:1|0:1,0:0:0:0:
137,278,92960,5,8,0:1:0:0:
145,299,93038,1,8,0:1:0:0:
169,312,93116,1,8,0:1:0:0:
198,332,93194,1,8,0:1:0:0:
224,362,93272,5,8,0:2:0:0:
252,326,93350,5,8,0:1:0:0:
301,308,93428,5,8,0:1:0:0:
313,247,93506,5,8,0:1:0:0:
363,194,93585,6,0,P|369:145|384:67,1,94.9999974632264,2|0,0:0|0:0,0:0:0:0:
213,239,93819,1,0,0:0:0:0:
230,247,93897,2,0,P|226:185|212:98,1,142.49999619484
239,72,94210,2,0,P|266:64|298:60,1,55.0000016784668
151,186,94366,2,0,P|123:179|95:176,1,55.0000016784668,8|0,0:1|0:0,0:0:0:0:
305,288,94522,2,0,P|310:272|317:258,6,33.750000128746,8|0|0|0|0|0|0,0:0|0:0|0:0|0:0|0:0|0:0|0:0,0:0:0:0:
243,342,94835,6,0,B|215:347|152:339|184:285|82:301,1,165.000005035401,12|0,0:1|0:0,0:0:0:0:
71,315,95147,2,0,P|68:272|29:185,1,110.000003356934,8|0,0:0|0:0,0:0:0:0:
228,258,95460,5,2,0:0:0:0:
241,235,95538,1,0,0:0:0:0:
229,209,95616,2,0,P|225:174|229:136,1,55.0000016784668,8|0,0:1|0:0,0:0:0:0:
313,289,95773,2,0,P|370:282|463:279,1,110.000003356934,8|0,0:0|0:0,0:0:0:0:
243,342,96085,5,2,0:0:0:0:
140,283,96241,2,0,P|153:251|159:200,1,55.0000016784668,8|0,0:1|0:0,0:0:0:0:
314,207,96397,2,0,P|300:154|294:93,1,110.000003356934,8|0,0:0|0:0,0:0:0:0:
302,83,96631,1,0,0:0:0:0:
302,83,96710,1,2,0:0:0:0:
104,8,96866,6,0,P|102:35|98:62,1,55.0000016784668,8|0,0:1|0:0,0:0:0:0:
53,122,97022,1,8,0:0:0:0:
70,144,97100,1,0,0:0:0:0:
102,153,97178,1,0,0:0:0:0:
143,149,97256,1,0,0:0:0:0:
188,177,97335,6,0,B|245:175|245:132|325:115|365:143,1,165.000005035401,8|0,0:1|0:0,0:0:0:0:
356,145,97647,1,8,0:0:0:0:
471,202,97803,1,0,0:0:0:0:
488,183,97881,1,0,0:0:0:0:
481,153,97960,2,0,P|485:121|490:87,1,55.0000016784668
302,0,98116,6,0,P|245:-1|222:65,1,112.500004291535,8|0,0:1|0:0,0:0:0:0:
237,113,98428,1,8,0:0:0:0:
398,215,98585,5,2,0:3:0:0:
403,239,98663,1,0,0:0:0:0:
381,261,98741,2,0,P|351:256|291:255,1,55.0000016784668,8|0,0:1|0:0,0:0:0:0:
259,296,98897,1,8,0:0:0:0:
239,274,98975,1,0,0:0:0:0:
234,241,99053,1,0,0:0:0:0:
242,204,99131,1,0,0:0:0:0:
269,167,99210,6,0,P|283:140|291:103,1,55.0000016784668,2|0,0:0|0:0,0:0:0:0:
182,104,99366,2,0,P|178:76|182:46,1,55.0000016784668,8|0,0:1|0:0,0:0:0:0:
276,6,99522,1,10,0:0:0:0:
309,2,99600,1,2,0:0:0:0:
352,24,99678,1,8,0:2:0:0:
372,77,99756,1,8,0:2:0:0:
358,144,99835,6,0,B|374:222|313:212|344:311,1,165.000005035401,12|0,0:1|0:0,0:0:0:0:
333,321,100147,1,8,0:0:0:0:
430,260,100303,2,0,P|456:256|490:248,1,55.0000016784668
269,168,100460,5,2,0:0:0:0:
238,176,100538,1,0,0:0:0:0:
212,163,100616,2,0,P|185:156|158:151,1,55.0000016784668,8|0,0:1|0:0,0:0:0:0:
298,80,100772,2,0,P|359:75|439:58,1,110.000003356934,8|0,0:0|0:0,0:0:0:0:
221,47,101085,5,2,0:0:0:0:
348,213,101241,2,0,P|354:186|367:157,1,55.0000016784668
268,262,101397,2,0,P|213:255|183:338,1,119.999996337891,8|0,0:0|0:0,0:0:0:0:
179,319,101631,1,0,0:0:0:0:
179,319,101710,1,2,0:0:0:0:
495,334,101866,6,0,P|467:336|441:344,1,55.0000016784668,8|0,0:1|0:0,0:0:0:0:
372,377,102022,1,8,0:0:0:0:
368,350,102100,1,0,0:0:0:0:
348,323,102178,1,0,0:0:0:0:
354,286,102256,1,0,0:0:0:0:
399,259,102335,6,0,P|398:167|311:152,1,179.999994506836,8|0,0:1|0:0,0:0:0:0:
309,157,102647,1,8,0:0:0:0:
179,319,102803,1,0,0:0:0:0:
179,348,102881,1,0,0:0:0:0:
199,368,102960,2,0,P|235:361|261:360,1,55.0000016784668
172,197,103116,6,0,B|99:202|126:157|17:179,1,127.50000243187,8|0,0:1|0:0,0:0:0:0:
0,229,103428,1,8,0:0:0:0:
231,138,103585,5,2,0:0:0:0:
237,110,103663,1,0,0:0:0:0:
221,84,103741,2,0,P|220:54|215:25,1,55.0000016784668,8|0,0:1|0:0,0:0:0:0:
335,134,103897,1,8,0:0:0:0:
120,265,104053,1,0,0:0:0:0:
270,374,104210,5,2,0:3:0:0:
278,356,104288,1,0,0:0:0:0:
279,326,104366,1,8,0:1:0:0:
292,300,104444,1,0,0:0:0:0:
290,268,104522,5,10,0:0:0:0:
267,235,104600,1,2,0:0:0:0:
271,186,104678,1,2,0:0:0:0:
238,133,104756,1,2,0:0:0:0:
264,70,104835,6,0,B|350:68|331:21|422:23,1,165.000005035401,12|0,0:1|0:0,0:0:0:0:
434,12,105147,2,0,P|437:69|448:144,1,110.000003356934,8|0,0:0|0:0,0:0:0:0:
249,59,105460,5,2,0:0:0:0:
221,65,105538,1,0,0:0:0:0:
194,52,105616,2,0,P|163:47|119:43,1,55.0000016784668,8|0,0:1|0:0,0:0:0:0:
11,141,105772,2,0,P|59:133|98:197,1,125,8|0,0:0|0:0,0:0:0:0:
13,240,106085,5,2,0:0:0:0:
184,131,106241,2,0,P|176:161|174:189,1,55.0000016784668,8|0,0:1|0:0,0:0:0:0:
94,372,106397,2,0,P|75:309|109:256,1,110.000003356934,8|0,0:0|0:0,0:0:0:0:
110,268,106631,1,0,0:0:0:0:
110,268,106710,1,2,0:0:0:0:
258,343,106866,6,0,P|287:336|319:336,1,55.0000016784668
380,371,107022,1,8,0:0:0:0:
397,348,107100,1,0,0:0:0:0:
402,310,107178,1,0,0:0:0:0:
383,270,107256,1,0,0:0:0:0:
333,249,107335,6,0,B|248:252|290:205|139:208,1,165.000005035401,8|0,0:1|0:0,0:0:0:0:
162,216,107647,1,8,0:0:0:0:
37,276,107803,1,0,0:0:0:0:
12,257,107881,1,0,0:0:0:0:
20,230,107960,2,0,P|24:199|25:167,1,55.0000016784668,0|8,0:0|0:1,0:0:0:0:
139,13,108116,6,0,P|195:27|193:101,1,120,8|0,0:1|0:0,0:0:0:0:
156,138,108428,1,8,0:0:0:0:
302,222,108585,5,2,0:3:0:0:
294,253,108663,1,0,0:0:0:0:
308,284,108741,2,0,P|309:313|313:341,1,55.0000016784668,8|0,0:1|0:0,0:0:0:0:
383,243,108897,1,8,0:0:0:0:
400,219,108975,1,0,0:0:0:0:
401,187,109053,1,0,0:0:0:0:
380,150,109131,1,0,0:0:0:0:
338,137,109210,6,0,P|311:136|283:142,1,55.0000016784668,2|0,0:0|0:0,0:0:0:0:
213,243,109366,2,0,P|187:239|160:227,1,55.0000016784668,8|0,0:1|0:0,0:0:0:0:
62,206,109522,1,10,0:0:0:0:
40,177,109600,1,2,0:0:0:0:
34,134,109678,1,2,0:0:0:0:
50,88,109756,1,2,0:0:0:0:
108,58,109835,6,0,B|200:53|144:9|312:9,1,165.000005035401,12|0,0:1|0:0,0:0:0:0:
281,24,110147,1,8,0:0:0:0:
168,148,110303,2,0,P|141:144|114:144,1,55.0000016784668
345,65,110460,5,2,0:0:0:0:
359,93,110538,1,0,0:0:0:0:
350,119,110616,2,0,P|351:147|357:182,1,55.0000016784668,8|0,0:1|0:0,0:0:0:0:
202,329,110772,2,0,P|205:274|215:220,1,110.000003356934,8|0,0:0|0:0,0:0:0:0:
273,158,111085,5,2,0:0:0:0:
127,269,111241,2,0,P|123:241|116:215,1,55.0000016784668,8|0,0:1|0:0,0:0:0:0:
215,344,111397,2,0,P|270:331|326:329,1,110.000003356934,8|0,0:0|0:0,0:0:0:0:
340,338,111631,1,0,0:0:0:0:
340,338,111710,1,2,0:0:0:0:
442,150,111866,6,0,P|431:178|426:206,1,55.0000016784668,8|0,0:1|0:0,0:0:0:0:
459,273,112022,1,8,0:0:0:0:
434,286,112100,1,0,0:0:0:0:
402,284,112178,1,0,0:0:0:0:
373,262,112256,1,2,0:0:0:0:
326,244,112335,6,0,P|314:178|320:62,1,165.000005035401,8|0,0:1|0:0,0:0:0:0:
322,62,112647,1,8,0:0:0:0:
236,287,112803,1,0,0:0:0:0:
207,291,112881,1,2,0:0:0:0:
182,274,112960,2,0,P|155:268|120:266,1,55.0000016784668,8|0,0:1|0:0,0:0:0:0:
306,150,113116,6,0,B|378:141|358:175|422:165,1,120
488,127,113428,1,8,0:0:0:0:
235,205,113585,6,0,P|227:148|212:80,1,110.000003356934,2|8,0:0|0:1,0:0:0:0:
301,19,113819,1,8,0:1:0:0:
301,19,113897,2,0,P|295:46|290:76,1,55.0000016784668,8|0,0:0|0:0,0:0:0:0:
161,227,114053,2,0,P|150:216|138:206,2,32.4999985122681,8|0|8,0:1|0:0|0:1,0:0:0:0:
203,347,114210,6,0,P|212:313|220:270,1,62.5,8|0,0:0|0:1,0:0:0:0:
296,260,114366,1,0,0:0:0:0:
306,246,114444,2,0,P|340:240|382:228,1,62.5,8|8,0:0|0:1,0:0:0:0:
201,92,114600,1,0,0:0:0:0:
190,76,114678,2,0,P|159:70|128:62,1,62.5,8|0,0:0|0:0,0:0:0:0:
347,112,114835,6,0,B|420:108|404:66|477:67,1,134.999995880127,12|0,0:1|0:0,0:0:0:0:
489,76,115147,1,8,0:0:0:0:
286,161,115303,2,0,P|226:163|183:274,1,179.999994506836,2|8,0:0|0:1,0:0:0:0:
236,324,115772,6,0,P|234:346|229:378,1,44.999998626709,8|0,0:0|0:0,0:0:0:0:
361,287,115928,1,0,0:0:0:0:
352,269,116006,1,0,0:0:0:0:
352,269,116085,2,0,P|346:244|341:203,1,44.999998626709,2|0,0:0|0:0,0:0:0:0:
390,134,116241,1,8,0:1:0:0:
181,236,116397,2,0,P|175:190|163:148,1,89.9999972534181,10|0,0:0|0:0,0:0:0:0:
117,89,116631,5,0,0:0:0:0:
117,89,116710,2,0,P|128:58|135:15,1,44.999998626709,2|8,0:0|0:1,0:0:0:0:
219,0,116866,2,0,P|225:21|233:42,1,44.999998626709,8|0,0:1|0:0,0:0:0:0:
278,164,117022,1,8,0:0:0:0:
273,185,117100,1,0,0:0:0:0:
272,214,117178,1,0,0:0:0:0:
262,248,117256,1,2,0:0:0:0:
262,286,117335,6,0,B|177:272|191:343|66:333,1,179.999994506836,8|8,0:1|0:0,0:0:0:0:
17,298,117803,1,2,0:0:0:0:
17,279,117881,1,2,0:0:0:0:
17,279,117960,1,0,0:0:0:0:
96,203,118116,2,0,P|142:211|215:219,1,89.9999972534181,8|2,0:1|0:0,0:0:0:0:
340,311,118428,1,8,0:0:0:0:
428,251,118585,6,0,P|434:228|447:194,3,44.999998626709,2|0|0|0,0:0|0:0|0:0|0:0,0:0:0:0:
364,112,118897,2,0,P|371:133|377:155,3,44.999998626709,8|0|0|0,0:0|0:0|0:0|0:0,0:0:0:0:
306,197,119210,2,0,P|302:219|295:245,1,44.999998626709,2|0,0:0|0:0,0:0:0:0:
237,325,119366,2,0,P|233:302|226:277,1,44.999998626709,8|8,0:1|0:1,0:0:0:0:
171,217,119522,5,10,0:0:0:0:
135,198,119600,1,8,0:1:0:0:
106,163,119678,1,10,0:0:0:0:
69,148,119756,1,10,0:0:0:0:
35,113,119835,6,0,B|107:119|108:43|224:49,1,179.999994506836,8|8,0:1|0:0,0:0:0:0:
267,9,120303,2,0,P|292:15|332:21,1,44.999998626709,2|8,0:0|0:0,0:0:0:0:
461,19,120460,1,0,0:0:0:0:
447,25,120538,1,0,0:0:0:0:
440,30,120616,1,0,0:0:0:0:
373,69,120772,6,0,P|375:92|381:120,1,44.999998626709,10|0,0:0|0:0,0:0:0:0:
436,172,120928,1,0,0:0:0:0:
384,262,121085,2,0,P|337:258|261:255,1,89.9999972534181,2|8,0:0|0:1,0:0:0:0:
124,52,121397,2,0,P|169:51|214:48,1,89.9999972534181,8|0,0:0|0:0,0:0:0:0:
234,39,121631,1,0,0:0:0:0:
225,26,121710,1,2,0:0:0:0:
363,134,121866,1,8,0:1:0:0:
176,194,122022,1,8,0:0:0:0:
212,311,122178,5,2,0:0:0:0:
217,328,122256,1,8,0:0:0:0:
201,340,122335,2,0,P|153:326|103:318,1,89.9999972534181
15,215,122647,2,0,P|36:203|74:180,1,44.999998626709,8|0,0:0|0:0,0:0:0:0:
110,138,122803,1,0,0:0:0:0:
125,141,122881,1,8,0:0:0:0:
147,123,122960,1,2,0:0:0:0:
187,122,123038,1,8,0:1:0:0:
216,99,123116,2,0,P|203:149|217:195,1,89.9999972534181,8|2,0:0|0:0,0:0:0:0:
383,45,123428,5,8,0:0:0:0:
383,45,123506,1,0,0:0:0:0:
392,55,123585,2,0,P|419:53|453:48,1,44.999998626709,2|8,0:0|0:0,0:0:0:0:
357,127,123741,1,8,0:1:0:0:
357,127,123819,1,0,0:0:0:0:
348,137,123898,2,0,P|321:136|286:132,1,44.999998626709,8|0,0:0|0:0,0:0:0:0:
405,199,124053,2,0,P|432:201|466:206,1,44.999998626709,2|8,0:0|0:0,0:0:0:0:
492,276,124210,5,2,0:0:0:0:
468,286,124288,1,8,0:1:0:0:
440,285,124366,1,8,0:1:0:0:
407,298,124444,1,0,0:0:0:0:
370,302,124522,5,10,0:0:0:0:
334,318,124600,1,10,0:0:0:0:
301,315,124678,1,10,0:0:0:0:
267,327,124756,1,10,0:0:0:0:
222,312,124835,6,0,B|143:303|179:267|78:258,1,157.499995193482,12|0,0:1|0:0,0:0:0:0:
38,269,125147,1,8,0:0:0:0:
76,151,125303,5,2,0:0:0:0:
84,170,125381,1,0,0:0:0:0:
67,160,125460,1,0,0:0:0:0:
86,155,125538,1,0,0:0:0:0:
75,172,125616,1,8,0:1:0:0:
128,319,125772,1,8,0:0:0:0:
170,229,125928,5,0,0:0:0:0:
181,220,126006,1,8,0:1:0:0:
170,229,126085,2,0,P|194:231|277:250,1,89.9999972534181,0|8,0:0|0:1,0:0:0:0:
107,55,126397,2,0,P|151:52|203:41,1,89.9999972534181,8|0,0:0|0:0,0:0:0:0:
262,8,126631,5,0,0:0:0:0:
262,8,126710,2,0,P|283:14|334:19,1,44.999998626709,2|2,0:0|0:0,0:0:0:0:
407,90,126866,2,0,P|384:93|336:111,1,44.999998626709
226,179,127022,5,10,0:0:0:0:
256,215,127100,1,0,0:0:0:0:
298,220,127178,1,0,0:0:0:0:
329,207,127256,1,0,0:0:0:0:
336,194,127335,6,0,P|267:196|256:313,1,179.999994506836,8|8,0:1|0:0,0:0:0:0:
293,359,127803,1,2,0:0:0:0:
306,350,127881,1,8,0:0:0:0:
306,343,127960,1,2,0:0:0:0:
153,234,128116,2,0,P|148:278|162:324,1,89.9999972534181,8|2,0:1|0:0,0:0:0:0:
374,286,128428,1,8,0:0:0:0:
285,184,128585,6,0,P|289:161|291:139,3,44.999998626709,0|2|0|0,0:0|0:0|0:0|0:0,0:0:0:0:
367,65,128897,2,0,P|369:87|372:109,3,44.999998626709,8|0|0|0,0:0|0:0|0:0|0:0,0:0:0:0:
436,176,129210,2,0,P|417:193|399:214,1,44.999998626709,2|0,0:0|0:0,0:0:0:0:
346,296,129366,2,0,P|338:271|327:245,1,44.999998626709,8|8,0:1|0:1,0:0:0:0:
186,140,129522,5,10,0:0:0:0:
146,125,129600,1,10,0:0:0:0:
111,98,129678,1,10,0:0:0:0:
62,90,129756,1,10,0:0:0:0:
19,105,129835,6,0,B|-15:210|66:186|46:317,1,209.999993591309,8|8,0:1|0:0,0:0:0:0:
109,363,130303,2,0,P|135:356|161:352,1,44.999998626709,2|2,0:0|0:0,0:0:0:0:
334,372,130460,1,0,0:0:0:0:
322,364,130538,1,0,0:0:0:0:
313,361,130616,1,0,0:0:0:0:
230,380,130772,6,0,P|235:353|237:327,1,44.999998626709,8|0,0:0|0:0,0:0:0:0:
234,250,130928,1,2,0:0:0:0:
354,143,131085,2,0,P|399:136|468:113,1,89.9999972534181,8|8,0:1|0:1,0:0:0:0:
149,248,131397,2,0,P|109:233|36:222,1,89.9999972534181,8|2,0:0|0:0,0:0:0:0:
39,226,131631,1,2,0:0:0:0:
49,242,131710,1,0,0:0:0:0:
130,112,131866,1,8,0:1:0:0:
227,310,132022,1,8,0:0:0:0:
340,273,132178,5,0,0:0:0:0:
358,269,132256,1,8,0:1:0:0:
375,282,132335,2,0,P|370:325|357:375,1,89.9999972534181,8|0,0:1|0:0,0:0:0:0:
501,175,132647,2,0,P|477:183|446:190,1,44.999998626709,8|0,0:0|0:0,0:0:0:0:
383,164,132803,1,0,0:0:0:0:
367,159,132881,1,8,0:0:0:0:
342,137,132960,1,2,0:0:0:0:
304,136,133038,1,8,0:1:0:0:
272,113,133116,2,0,P|258:155|264:201,1,89.9999972534181,0|2,0:0|0:0,0:0:0:0:
81,39,133428,5,8,0:0:0:0:
81,39,133506,1,0,0:0:0:0:
72,49,133585,2,0,P|45:48|11:44,1,44.999998626709,2|0,0:0|0:0,0:0:0:0:
135,116,133741,1,8,0:1:0:0:
135,116,133819,1,0,0:0:0:0:
144,125,133898,2,0,P|142:151|137:185,1,44.999998626709,8|0,0:0|0:0,0:0:0:0:
203,60,134053,2,0,P|226:58|259:54,1,44.999998626709,0|8,0:0|0:1,0:0:0:0:
388,29,134210,5,2,0:0:0:0:
390,16,134288,1,2,0:0:0:0:
360,9,134366,1,8,0:1:0:0:
333,31,134444,1,0,0:0:0:0:
328,74,134522,5,10,0:0:0:0:
346,123,134600,5,2,0:0:0:0:
373,176,134678,5,2,0:0:0:0:
367,244,134756,5,2,0:0:0:0:
315,296,134835,5,6,0:0:0:0:
315,296,135460,6,0,B|221:304|243:237|141:248,1,179.999994506836,2|0,0:0|0:0,0:0:0:0:
73,282,136085,2,0,P|72:252|41:142,1,119.999996337891
165,26,136710,2,0,P|148:83|143:143,1,119.999996337891,2|2,0:0|0:0,0:0:0:0:
188,225,137335,2,0,P|276:209|413:198,1,224.999993133545,2|8,0:0|0:1,0:0:0:0:
245,173,138272,6,0,P|251:140|253:101,1,64.9999970245363,8|0,0:0|0:0,0:0:0:0:
297,12,138585,2,0,P|345:41|331:129,1,129.999994049073,0|8,0:0|0:0,0:0:0:0:
245,173,139053,1,0,0:0:0:0:
235,188,139131,1,0,0:0:0:0:
233,198,139210,2,0,B|228:239|250:245|242:303,1,94.9999974632264,2|8,0:3|0:1,0:0:0:0:
202,359,139522,1,8,0:1:0:0:
332,292,139678,1,8,0:1:0:0:
146,217,139835,6,0,P|149:183|149:145,1,64.9999970245363,8|0,0:1|0:0,0:0:0:0:
322,227,140147,2,0,P|325:260|332:298,1,64.9999970245363,8|0,0:0|0:0,0:0:0:0:
280,351,140460,1,0,0:0:0:0:
145,231,140616,1,8,0:1:0:0:
236,197,140772,2,0,P|232:144|233:94,1,97.4999955368044,8|0,0:0|0:0,0:0:0:0:
251,88,141085,6,0,P|251:55|248:23,1,64.9999970245363,0|8,0:0|0:1,0:0:0:0:
345,187,141397,2,0,P|385:185|430:176,1,64.9999970245363,8|0,0:0|0:0,0:0:0:0:
241,276,141710,2,0,P|241:308|245:340,1,64.9999970245363,0|8,0:0|0:1,0:0:0:0:
152,172,142022,2,0,P|120:165|87:163,1,64.9999970245363,8|0,0:0|0:0,0:0:0:0:
321,113,142335,2,0,B|399:110|374:56|470:64,1,150.000005722046,8|8,0:1|0:0,0:0:0:0:
458,63,143116,5,8,0:1:0:0:
394,15,143272,1,0,0:0:0:0:
307,103,143428,1,8,0:1:0:0:
360,166,143585,2,0,P|354:205|352:248,1,75.0000028610231,2|8,0:0|0:1,0:0:0:0:
252,294,143897,1,8,0:0:0:0:
175,181,144053,1,0,0:0:0:0:
176,175,144131,1,0,0:0:0:0:
168,169,144210,2,0,B|113:170|131:149|74:150,1,94.9999974632264,2|8,0:3|0:1,0:0:0:0:
7,182,144522,1,8,0:0:0:0:
98,313,144678,1,8,0:1:0:0:
28,348,144835,6,0,P|18:316|111:237,1,150.000005722046,6|8,0:0|0:1,0:0:0:0:
154,261,145303,1,0,0:0:0:0:
177,157,145460,1,8,0:1:0:0:
187,179,145616,1,0,0:0:0:0:
106,124,145772,2,0,P|114:92|119:58,1,64.9999970245363,8|0,0:1|0:0,0:0:0:0:
228,13,146085,2,0,P|241:88|265:156,1,129.999994049073,2|8,0:0|0:1,0:0:0:0:
323,181,146553,1,2,0:0:0:0:
155,279,146710,2,0,P|158:263|160:247,3,32.4999985122681
205,339,147022,2,0,P|206:355|209:371,3,32.4999985122681,8|0|0|0,0:1|0:0|0:0|0:0,0:0:0:0:
280,280,147335,6,0,B|329:281|324:245|405:251,1,129.999994049073,2|8,0:0|0:1,0:0:0:0:
471,285,147803,1,2,0:0:0:0:
429,164,147960,1,0,0:0:0:0:
419,181,148116,1,0,0:0:0:0:
498,210,148272,2,0,P|507:167|523:126,1,64.9999970245363,8|0,0:1|0:0,0:0:0:0:
369,355,148585,2,0,P|366:298|349:215,1,129.999994049073,2|8,0:0|0:2,0:0:0:0:
419,162,149053,1,2,0:0:0:0:
419,162,149131,1,0,0:0:0:0:
424,153,149210,2,0,B|439:111|418:109|435:53,1,94.9999974632264,2|0,0:3|0:0,0:0:0:0:
331,220,149522,2,0,P|304:215|258:212,1,55.0000016784668,8|0,0:2|0:0,0:0:0:0:
198,49,149835,6,0,P|253:46|331:35,1,129.999994049073,8|8,0:1|0:2,0:0:0:0:
264,144,150303,2,0,P|255:198|236:275,1,129.999994049073
268,345,150772,1,8,0:2:0:0:
175,202,150928,1,0,0:0:0:0:
157,211,151006,1,0,0:0:0:0:
146,204,151085,6,0,P|125:199|100:190,3,32.4999985122681,8|0|0|0,0:1|0:0|0:0|0:0,0:0:0:0:
335,244,151397,2,0,P|355:239|380:230,3,32.4999985122681,8|0|0|0,0:2|0:0|0:0|0:0,0:0:0:0:
228,364,151710,2,0,B|211:262|267:291|263:211|247:177,1,160,8|8,0:1|0:2,0:0:0:0:
203,152,152178,1,0,0:0:0:0:
403,133,152335,5,8,0:1:0:0:
369,122,152491,1,8,0:1:0:0:
385,217,152647,1,8,0:2:0:0:
445,171,152803,1,8,0:1:0:0:
360,106,152960,5,8,0:1:0:0:
311,111,153116,1,8,0:1:0:0:
252,155,153272,1,8,0:2:0:0:
159,139,153428,1,8,0:1:0:0:
232,10,153585,5,8,0:1:0:0:
281,78,153741,1,8,0:1:0:0:
142,44,153897,1,8,0:2:0:0:
178,234,154053,1,8,0:1:0:0:
331,144,154210,5,8,0:1:0:0:
200,82,154366,1,8,0:1:0:0:
404,179,154522,1,8,0:2:0:0:
100,316,154678,1,8,0:1:0:0:
58,244,154835,5,8,0:1:0:0:
115,235,154913,1,8,0:1:0:0:
157,257,154991,1,8,0:1:0:0:
176,293,155069,1,8,0:1:0:0:
180,320,155147,1,8,0:2:0:0:
199,343,155225,1,8,0:1:0:0:
209,350,155303,2,0,L|257:347,1,32.4999985122681,8|8,0:1|0:1,0:0:0:0:
315,317,155460,5,8,0:1:0:0:
322,299,155538,1,8,0:1:0:0:
319,275,155616,1,8,0:1:0:0:
340,252,155694,1,8,0:1:0:0:
351,218,155772,5,8,0:2:0:0:
341,175,155850,5,8,0:1:0:0:
304,139,155928,5,2,0:0:0:0:
278,82,156006,5,2,0:0:0:0:
298,15,156085,6,0,B|390:145|237:175|314:314,1,314.999990386963,2|2,0:3|0:0,0:0:0:0:
423,364,157335,6,0,P|435:328|454:297,1,64.9999970245363,8|0,0:1|0:0,0:0:0:0:
506,177,157569,1,8,0:0:0:0:
496,191,157647,2,0,P|441:221|369:233,1,127.50000243187,8|0,0:0|0:0,0:0:0:0:
356,229,157960,2,0,P|365:251|369:280,1,50,8|0,0:1|0:0,0:0:0:0:
273,150,158116,2,0,P|283:127|287:102,1,50,8|0,0:0|0:0,0:0:0:0:
194,289,158272,2,0,P|181:281|167:276,6,29.9999990844727,8|0|0|0|0|0|0,0:0|0:0|0:0|0:0|0:0|0:0|0:0,0:0:0:0:
229,363,158585,6,0,P|278:297|190:213,1,172.500003290176,12|0,0:1|0:0,0:0:0:0:
221,217,158897,1,8,0:0:0:0:
74,283,159053,1,0,0:0:0:0:
45,289,159131,1,0,0:0:0:0:
22,273,159210,2,0,P|18:242|26:211,1,57.5000010967255
77,141,159366,1,8,0:1:0:0:
147,331,159522,6,0,B|222:337|205:288|312:293,1,172.500003290176,10|0,0:0|0:0,0:0:0:0:
332,282,159835,2,0,P|329:310|329:339,1,57.5000010967255,2|0,0:3|0:0,0:0:0:0:
429,311,159991,1,8,0:1:0:0:
235,367,160147,2,0,P|238:298|249:228,1,115.000002193451,8|0,0:0|0:0,0:0:0:0:
259,235,160381,1,0,0:0:0:0:
259,235,160460,1,2,0:0:0:0:
157,130,160616,1,8,0:1:0:0:
337,22,160772,5,8,0:0:0:0:
340,44,160850,1,0,0:0:0:0:
330,88,160928,1,0,0:0:0:0:
338,135,161006,1,0,0:0:0:0:
315,185,161085,6,0,P|223:169|183:233,1,179.999994506836,8|0,0:1|0:0,0:0:0:0:
186,251,161397,1,8,0:0:0:0:
394,194,161553,2,0,P|400:226|410:255,1,57.5000010967255,2|0,0:0|0:0,0:0:0:0:
460,313,161710,1,2,0:0:0:0:
367,378,161866,1,8,0:1:0:0:
246,288,162022,1,0,0:0:0:0:
297,195,162178,6,0,P|296:168|286:116,1,57.5000010967255,8|0,0:0|0:0,0:0:0:0:
212,138,162335,1,2,0:0:0:0:
205,108,162413,1,0,0:0:0:0:
221,83,162491,2,0,P|222:56|232:4,1,57.5000010967255,8|0,0:1|0:0,0:0:0:0:
143,177,162647,2,0,P|135:150|124:123,1,57.5000010967255,8|0,0:0|0:0,0:0:0:0:
294,115,162803,5,0,0:0:0:0:
328,118,162881,1,0,0:0:0:0:
365,94,162960,1,2,0:3:0:0:
410,79,163038,1,0,0:0:0:0:
462,97,163116,2,0,P|466:129|469:162,1,57.5000010967255,8|0,0:1|0:0,0:0:0:0:
496,254,163272,5,10,0:0:0:0:
461,239,163350,1,2,0:0:0:0:
416,255,163428,1,10,0:2:0:0:
403,306,163506,1,10,0:2:0:0:
431,366,163585,6,0,B|341:363|378:319|238:316,1,187.5,12|0,0:1|0:0,0:0:0:0:
234,327,163897,2,0,P|238:359|251:405,1,57.5000010967255,8|0,0:0|0:0,0:0:0:0:
340,254,164053,1,0,0:0:0:0:
334,228,164131,1,0,0:0:0:0:
349,204,164210,2,0,P|355:180|362:148,1,57.5000010967255
288,78,164366,1,8,0:1:0:0:
449,151,164522,2,0,P|452:81|491:9,1,115.000002193451,10|0,0:0|0:0,0:0:0:0:
486,30,164756,1,0,0:0:0:0:
486,30,164835,1,2,0:3:0:0:
364,197,164991,6,0,P|362:165|350:128,1,57.5000010967255
436,227,165147,1,8,0:0:0:0:
449,263,165225,1,0,0:0:0:0:
432,297,165303,1,0,0:0:0:0:
390,309,165381,1,0,0:0:0:0:
344,287,165460,2,0,P|314:279|256:277,1,57.5000010967255,2|0,0:0|0:0,0:0:0:0:
211,333,165616,1,8,0:1:0:0:
100,253,165772,5,8,0:0:0:0:
63,241,165850,1,0,0:0:0:0:
23,258,165928,1,0,0:0:0:0:
12,307,166006,1,0,0:0:0:0:
58,355,166085,6,0,P|58:255|74:156,1,172.500003290176,8|0,0:1|0:0,0:0:0:0:
77,168,166397,1,8,0:0:0:0:
280,265,166553,1,0,0:0:0:0:
249,275,166631,1,0,0:0:0:0:
222,259,166710,2,0,P|220:228|225:200,1,57.5000010967255
320,70,166866,6,0,P|307:19|234:7,1,127.50000243187,8|0,0:1|0:0,0:0:0:0:
175,37,167178,1,8,0:0:0:0:
290,150,167335,5,2,0:0:0:0:
320,159,167413,1,0,0:0:0:0:
350,150,167491,2,0,P|376:142|417:136,1,57.5000010967255,8|0,0:1|0:0,0:0:0:0:
483,173,167647,1,8,0:0:0:0:
320,70,167803,1,2,0:0:0:0:
225,209,167960,5,0,0:0:0:0:
202,220,168038,1,0,0:0:0:0:
171,220,168116,1,0,0:0:0:0:
140,206,168194,1,0,0:0:0:0:
115,171,168272,5,10,0:0:0:0:
76,147,168350,1,2,0:0:0:0:
28,153,168428,1,2,0:0:0:0:
3,195,168506,1,2,0:0:0:0:
34,242,168585,6,0,P|91:188|208:131,1,187.5,12|0,0:1|0:0,0:0:0:0:
206,137,168897,1,8,0:0:0:0:
299,233,169053,1,0,0:0:0:0:
326,243,169131,1,0,0:0:0:0:
354,226,169210,2,0,P|384:217|410:216,1,57.5000010967255
491,240,169366,1,8,0:1:0:0:
402,13,169522,2,0,P|418:77|425:147,1,115.000002193451,10|0,0:0|0:0,0:0:0:0:
425,148,169756,1,0,0:0:0:0:
425,148,169835,1,2,0:3:0:0:
211,60,169991,6,0,P|241:67|266:84,1,57.5000010967255
335,127,170147,1,8,0:0:0:0:
323,152,170225,1,0,0:0:0:0:
297,168,170303,1,0,0:0:0:0:
259,169,170381,1,0,0:0:0:0:
226,200,170460,6,0,P|193:190|142:187,1,57.5000010967255,2|0,0:0|0:0,0:0:0:0:
139,107,170616,2,0,P|108:111|79:120,1,57.5000010967255,8|0,0:1|0:0,0:0:0:0:
12,170,170772,1,8,0:0:0:0:
2,208,170850,1,0,0:0:0:0:
16,254,170928,1,0,0:0:0:0:
67,273,171006,1,8,0:1:0:0:
121,242,171085,6,0,B|201:235|193:186|304:188,1,179.999994506836,8|0,0:1|0:0,0:0:0:0:
309,173,171397,2,0,P|312:209|319:235,1,57.5000010967255,8|0,0:0|0:0,0:0:0:0:
131,321,171553,1,0,0:0:0:0:
152,339,171631,1,0,0:0:0:0:
180,329,171710,2,0,P|209:320|255:322,1,57.5000010967255
306,371,171866,5,8,0:1:0:0:
421,299,172022,1,0,0:0:0:0:
324,167,172178,1,8,0:0:0:0:
251,234,172335,5,0,0:0:0:0:
221,236,172413,1,0,0:0:0:0:
190,216,172491,2,0,P|160:205|121:196,1,57.5000010967255,8|8,0:1|0:1,0:0:0:0:
306,293,172647,1,8,0:0:0:0:
320,282,172725,1,0,0:0:0:0:
339,245,172803,1,0,0:0:0:0:
381,225,172881,1,0,0:0:0:0:
439,229,172960,6,0,P|441:257|451:302,1,57.5000010967255,2|0,0:0|0:0,0:0:0:0:
304,171,173116,2,0,P|302:142|296:114,1,57.5000010967255,8|0,0:1|0:0,0:0:0:0:
320,29,173272,1,10,0:0:0:0:
351,12,173350,1,2,0:0:0:0:
396,18,173428,1,10,0:1:0:0:
430,60,173506,1,2,0:0:0:0:
419,123,173585,6,0,B|424:217|365:204|387:323,1,187.5,12|0,0:1|0:0,0:0:0:0:
388,324,173897,1,8,0:0:0:0:
222,280,174053,1,0,0:0:0:0:
240,244,174131,1,0,0:0:0:0:
229,204,174210,2,0,P|228:173|224:139,1,57.5000010967255
361,80,174366,1,8,0:1:0:0:
115,3,174522,5,10,0:0:0:0:
104,20,174600,1,0,0:0:0:0:
112,56,174678,1,0,0:0:0:0:
92,100,174756,1,0,0:0:0:0:
108,159,174835,2,0,P|104:190|100:236,1,57.5000010967255,2|0,0:3|0:0,0:0:0:0:
11,268,174991,2,0,P|19:298|29:343,1,57.5000010967255,8|0,0:1|0:0,0:0:0:0:
119,372,175147,1,8,0:0:0:0:
252,289,175303,5,0,0:0:0:0:
267,251,175381,1,0,0:0:0:0:
243,215,175460,2,0,P|205:210|158:196,1,57.5000010967255,2|0,0:0|0:0,0:0:0:0:
323,181,175616,2,0,P|361:176|408:162,1,57.5000010967255
171,291,175772,5,10,0:0:0:0:
128,270,175850,1,2,0:0:0:0:
104,223,175928,1,2,0:0:0:0:
108,159,176006,1,2,0:0:0:0:
149,100,176085,6,0,B|233:102|213:37|380:51,1,187.5,8|0,0:1|0:0,0:0:0:0:
346,58,176397,1,8,0:0:0:0:
499,20,176553,1,0,0:0:0:0:
481,58,176631,1,0,0:0:0:0:
500,99,176710,6,0,P|498:129|495:160,1,57.5000010967255,0|8,0:0|0:1,0:0:0:0:
475,247,176866,1,8,0:1:0:0:
399,143,177022,1,0,0:0:0:0:
194,195,177178,1,8,0:0:0:0:
67,131,177335,1,2,0:0:0:0:
138,25,177491,5,8,0:1:0:0:
172,8,177569,1,0,0:0:0:0:
211,20,177647,2,0,P|218:55|237:103,1,57.5000010967255,8|0,0:0|0:0,0:0:0:0:
164,123,177803,2,0,P|150:118|137:112,2,29.9999990844727
366,104,177960,6,0,P|347:132|327:179,1,59.9999981689454,8|0,0:0|0:0,0:0:0:0:
164,258,178116,1,8,0:1:0:0:
173,238,178194,2,0,P|204:230|250:222,1,59.9999981689454,8|0,0:0|0:0,0:0:0:0:
406,334,178350,1,8,0:1:0:0:
385,339,178428,2,0,P|362:316|330:281,1,59.9999981689454,8|0,0:0|0:0,0:0:0:0:
308,229,178585,5,12,0:1:0:0:
308,227,180147,5,8,0:3:0:0:
259,353,188585,6,0,P|257:308|249:261,1,69.9999978637696,8|0,0:1|0:0,0:0:0:0:
205,220,188897,1,8,0:0:0:0:
308,127,189053,2,0,P|301:145|297:163,3,34.9999989318848,2|2|2|2,0:0|0:0|0:0|0:0,0:0:0:0:
302,177,189366,1,8,0:1:0:0:
198,92,189522,1,8,0:0:0:0:
258,29,189678,6,0,P|275:35|301:41,1,37.5000014305115,2|2,0:0|0:0,0:0:0:0:
185,105,189835,2,0,P|147:112|110:124,1,69.9999978637696,2|8,0:0|0:1,0:0:0:0:
379,162,190147,1,8,0:3:0:0:
232,232,190303,2,0,P|227:216|219:196,3,34.9999989318848,2|2|2|2,0:0|0:0|0:0|0:0,0:0:0:0:
205,184,190616,1,8,0:1:0:0:
406,85,190772,5,8,0:0:0:0:
437,94,190850,1,0,0:0:0:0:
447,121,190928,1,2,0:0:0:0:
465,143,191006,1,2,0:0:0:0:
462,170,191085,2,0,P|456:199|457:241,1,69.9999978637696,8|0,0:1|0:0,0:0:0:0:
512,80,191397,1,8,0:0:0:0:
374,189,191553,2,0,P|377:171|380:154,3,34.9999989318848,2|2|2|2,0:0|0:0|0:0|0:0,0:0:0:0:
325,77,191866,6,0,P|264:80|209:100,1,120,8|0,0:1|0:0,0:0:0:0:
193,115,192178,2,0,P|197:136|204:156,1,40,8|0,0:0|0:0,0:0:0:0:
301,247,192335,1,2,0:0:0:0:
207,367,192491,5,10,0:1:0:0:
179,358,192569,1,2,0:0:0:0:
147,355,192647,1,10,0:0:0:0:
119,345,192725,1,2,0:0:0:0:
89,345,192803,1,2,0:0:0:0:
60,333,192881,1,2,0:0:0:0:
25,323,192960,5,2,0:0:0:0:
54,307,193038,1,2,0:0:0:0:
92,312,193116,1,10,0:1:0:0:
124,292,193194,1,2,0:0:0:0:
161,294,193272,1,10,0:0:0:0:
192,273,193350,1,2,0:0:0:0:
231,275,193428,1,10,0:1:0:0:
265,254,193506,1,2,0:0:0:0:
301,260,193585,5,10,0:1:0:0:
432,327,193741,2,0,P|442:309|454:293,2,40,0|2|8,0:0|0:0|0:0,0:0:0:0:
397,139,194053,2,0,P|392:161|390:182,3,40,2|2|2|2,0:0|0:0|0:0|0:0,0:0:0:0:
394,199,194366,1,8,0:1:0:0:
297,115,194522,6,0,P|293:77|283:32,1,80,8|0,0:0|0:0,0:0:0:0:
269,18,194756,1,2,0:0:0:0:
262,34,194835,1,2,0:0:0:0:
373,58,194991,1,8,0:1:0:0:
206,108,195147,1,8,0:0:0:0:
310,199,195303,2,0,P|295:211|283:227,3,40,0|0|0|2,0:0|0:0|0:0|0:0,0:0:0:0:
281,246,195616,1,8,0:1:0:0:
229,30,195772,5,8,0:0:0:0:
197,26,195850,1,2,0:0:0:0:
167,38,195928,1,2,0:0:0:0:
140,54,196006,1,2,0:0:0:0:
127,80,196085,2,0,P|124:123|150:174,1,85.0000016212464,8|0,0:1|0:0,0:0:0:0:
326,287,196397,1,8,0:0:0:0:
243,326,196553,2,0,B|229:234|271:251|249:157,1,170.000003242493,2|8,0:0|0:1,0:0:0:0:
249,158,197178,5,8,0:0:0:0:
133,85,197335,2,0,P|147:126|156:178,1,85.0000016212464,6|8,0:0|0:1,0:0:0:0:
147,259,197647,1,0,0:0:0:0:
346,106,197803,2,0,P|336:132|331:160,1,42.5000008106232
366,221,197960,5,0,0:0:0:0:
364,253,198038,1,8,0:0:0:0:
345,273,198116,1,8,0:1:0:0:
316,276,198194,1,8,0:0:0:0:
282,257,198272,5,8,0:0:0:0:
239,241,198350,1,8,0:0:0:0:
186,238,198428,1,8,0:0:0:0:
133,261,198506,1,8,0:0:0:0:
100,317,198585,1,4,0:1:0:0:
194,135,198897,5,0,0:0:0:0:
26,260,199210,2,0,P|34:219|42:135,1,110.000003356934,2|0,0:0|0:0,0:0:0:0:
307,347,199835,2,0,P|297:292|291:238,1,110.000003356934
178,148,200460,1,2,0:0:0:0:
376,223,200772,2,0,P|378:195|385:169,1,55.0000016784668,8|8,0:1|0:1,0:0:0:0:
450,129,201085,2,0,B|358:130|394:85|291:84,1,165.000005035401
503,260,201710,2,0,B|411:259|447:304|344:305,1,165.000005035401,2|0,0:0|0:0,0:0:0:0:
274,278,202335,5,0,0:0:0:0:
261,300,202491,1,0,0:0:0:0:
276,340,202647,1,0,0:0:0:0:
347,304,202803,1,0,0:0:0:0:
182,315,202960,6,0,P|135:310|56:298,1,112.500004291535,2|0,0:0|0:0,0:0:0:0:
49,309,203272,2,0,P|45:281|22:227,1,50,4|0,0:3|0:0,0:0:0:0:
102,213,203428,2,0,P|106:185|129:131,1,50,4|0,0:3|0:0,0:0:0:0:
36,93,203585,1,4,0:3:0:0:
42,110,203897,5,0,0:0:0:0:
153,22,204210,2,0,P|203:17|256:23,1,89.9999972534181,2|0,0:0|0:0,0:0:0:0:
260,28,204522,1,0,0:0:0:0:
89,162,204835,2,0,P|136:180|185:235,1,119.999996337891
215,316,205303,1,0,0:0:0:0:
444,209,205460,2,0,P|414:227|384:241,1,59.9999981689454,2|0,0:0|0:0,0:0:0:0:
364,314,205772,2,0,P|329:310|297:302,1,59.9999981689454,8|0,0:1|0:0,0:0:0:0:
251,243,206085,1,2,0:0:0:0:
251,243,206397,5,0,0:0:0:0:
236,206,206553,1,0,0:0:0:0:
268,171,206710,1,2,0:0:0:0:
220,106,206866,1,0,0:0:0:0:
282,21,207022,1,0,0:0:0:0:
282,21,207647,5,8,0:1:0:0:
229,361,207960,1,2,0:0:0:0:
229,361,208272,2,0,P|237:328|242:291,1,50,4|0,0:3|0:0,0:0:0:0:
303,262,208428,2,0,P|298:229|288:193,1,50,4|0,0:3|0:0,0:0:0:0:
218,73,208585,1,4,0:3:0:0:
206,88,208897,5,8,0:1:0:0:
336,118,209210,2,0,P|346:56|305:8,1,129.999994049073,2|8,0:0|0:1,0:0:0:0:
49,248,209835,2,0,P|76:200|169:204,1,129.999994049073
292,270,210460,1,2,0:0:0:0:
242,15,210772,2,0,P|238:50|231:80,1,64.9999970245363,8|8,0:1|0:1,0:0:0:0:
170,126,211085,6,0,B|297:99|278:230|373:254|471:228,1,330.000010070801,2|0,0:0|0:0,0:0:0:0:
462,230,212335,2,0,P|383:192|327:290,1,220.000006713867,0|2,0:0|0:0,0:0:0:0:
339,302,213272,6,0,P|309:307|286:318,1,50,4|0,0:3|0:0,0:0:0:0:
247,243,213428,2,0,P|222:239|198:232,1,50,4|0,0:3|0:0,0:0:0:0:
146,363,213585,1,4,0:3:0:0:
155,374,213897,6,0,P|208:368|243:359,1,69.9999978637696
318,204,214210,2,0,P|284:169|216:170,1,104.999996795654,2|0,0:0|0:0,0:0:0:0:
172,217,214522,1,8,0:1:0:0:
90,58,214835,1,0,0:0:0:0:
101,48,215147,2,0,P|80:117|46:189,2,139.999995727539,0|2|4,0:0|0:0|0:3,0:0:0:0:
101,48,216085,6,0,B|181:66|192:153|185:291|26:164|62:291|51:330|144:397|246:352|256:220|137:157|72:286|156:277,1,494.999984893799,2|0,0:0|0:0,0:0:0:0:
139,277,217960,2,0,B|209:279|198:243|268:245,1,134.999995880127,2|0,0:0|0:0,0:0:0:0:
251,366,218585,6,0,B|261:330|243:297|272:165|48:292|92:184|70:66|144:27|248:36|301:8|249:-50|306:0|294:14|201:55|241:117|379:37|506:-2|387:359|240:232|243:297|259:330,1,816.000004980469,4|0,0:1|0:0,0:0:0:0:
253,167,224210,6,0,P|256:196|261:226,2,50,0|2|4,0:0|0:0|0:3,0:0:0:0:
136,132,225772,2,0,P|147:92|149:76,1,50,0|2,0:0|0:0,0:0:0:0:
379,127,226710,2,0,P|386:178|406:233,1,100,0|2,0:0|0:0,0:0:0:0:
312,340,227803,2,0,P|316:321|322:290,1,44.999998626709,2|0,0:0|0:0,0:0:0:0:
263,207,228585,5,2,0:0:0:0:
253,220,228741,1,0,0:0:0:0:
267,243,228897,1,0,0:0:0:0:
293,224,229053,1,0,0:0:0:0:
245,168,229210,5,2,0:0:0:0:
190,213,229366,1,0,0:0:0:0:
242,285,229522,1,0,0:0:0:0:
313,213,229678,1,0,0:0:0:0:
230,127,229835,6,0,B|122:124|181:76|54:75,1,179.999994506836,2|0,0:0|0:0,0:0:0:0:
424,93,231085,2,0,P|369:108|311:133,2,119.999996337891,2|2|2,0:0|0:0|0:0,0:0:0:0:
246,203,232647,2,0,P|243:226|237:249,1,44.999998626709
196,312,232960,1,2,0:0:0:0:
263,364,233116,1,0,0:0:0:0:
328,284,233272,2,0,P|370:264|413:254,1,89.9999972534181,2|2,0:0|0:0,0:0:0:0:
423,258,234210,6,0,P|421:295|415:322,2,59.9999981689454,2|0|2,0:0|0:0|0:0,0:0:0:0:
246,371,235772,2,0,P|242:337|235:300,1,59.9999981689454,0|2,0:0|0:0,0:0:0:0:
345,62,236710,2,0,P|330:120|323:179,1,119.999996337891,0|2,0:0|0:0,0:0:0:0:
212,11,237803,2,0,P|218:36|220:64,1,50,2|0,0:0|0:0,0:0:0:0:
188,142,238585,5,2,0:0:0:0:
173,135,238741,1,0,0:0:0:0:
138,155,238897,1,2,0:0:0:0:
70,127,239053,1,0,0:0:0:0:
22,212,239210,6,0,P|33:265|36:319,1,100,2|0,0:0|0:0,0:0:0:0:
5,200,239678,1,0,0:0:0:0:
135,174,239835,2,0,P|131:198|129:223,1,50,2|0,0:0|0:0,0:0:0:0:
147,160,240147,1,0,0:0:0:0:
260,212,240303,1,0,0:0:0:0:
260,212,240616,5,0,0:0:0:0:
292,195,240772,1,0,0:0:0:0:
365,213,240928,1,0,0:0:0:0:
481,179,241085,1,2,0:0:0:0:
481,179,241397,2,0,P|463:134|452:83,2,100,0|2|0,0:0|0:0|0:0,0:0:0:0:
370,19,242335,2,0,B|373:162|273:121|299:287,1,280,2|0,0:0|0:0,0:0:0:0:
218,184,243585,2,0,P|171:177|111:161,1,100,2|0,0:0|0:0,0:0:0:0:
98,160,244053,5,2,0:0:0:0:
87,144,244131,1,2,0:0:0:0:
52,139,244210,1,2,0:0:0:0:
29,167,244288,1,2,0:0:0:0:
11,178,244366,1,2,0:0:0:0:
0,215,244444,1,2,0:0:0:0:
6,264,244522,1,2,0:0:0:0:
63,300,244600,1,2,0:0:0:0:
124,273,244678,1,2,0:0:0:0:
134,247,244756,1,2,0:0:0:0:
124,238,244835,6,0,B|210:234|166:175|314:170,1,200,4|0,0:3|0:0,0:0:0:0:
369,123,245616,1,2,0:0:0:0:
360,105,245772,1,0,0:0:0:0:
402,37,245928,1,2,0:2:0:0:
486,99,246085,6,0,P|465:164|456:215,1,100,4|0,0:3|0:0,0:0:0:0:
480,279,246553,1,2,0:2:0:0:
306,170,246710,2,0,P|323:227|329:260,1,80
313,321,247178,1,0,0:0:0:0:
219,266,247335,2,0,B|130:267|152:207|57:210,1,174.999994659424,4|0,0:3|0:0,0:0:0:0:
6,265,248272,1,0,0:0:0:0:
6,265,248585,6,0,P|9:282|11:305,3,25,2|0|0|2,0:0|0:0|0:0|0:3,0:0:0:0:
75,227,248897,2,0,P|76:215|79:201,3,25,2|0|0|0,0:1|0:0|0:0|0:0,0:0:0:0:
140,269,249210,1,2,0:3:0:0:
159,272,249288,1,0,0:0:0:0:
178,262,249366,1,2,0:3:0:0:
208,253,249444,1,0,0:0:0:0:
229,266,249522,5,2,0:0:0:0:
247,250,249600,1,0,0:1:0:0:
247,220,249678,1,2,0:0:0:0:
274,193,249756,1,0,0:1:0:0:
265,181,249835,6,0,P|260:125|246:39,1,134.999995880127,4|0,0:3|0:0,0:0:0:0:
344,226,250460,2,0,P|365:187|387:123,1,100,0|0,0:1|0:0,0:0:0:0:
389,53,250928,1,2,0:2:0:0:
167,15,251085,2,0,P|175:42|182:93,1,80,4|0,0:3|0:0,0:0:0:0:
158,163,251553,1,2,0:2:0:0:
254,239,251710,2,0,P|242:272|235:311,1,69.9999978637696,0|0,0:1|0:0,0:0:0:0:
253,378,252178,1,0,0:0:0:0:
369,267,252335,6,0,P|382:185|311:142,1,174.999994659424,4|0,0:3|0:0,0:0:0:0:
134,216,253272,6,0,P|140:241|143:266,1,50,2|4,0:0|0:3,0:0:0:0:
137,286,254210,6,0,P|133:320|131:356,1,59.9999981689454,2|0,0:3|0:0,0:0:0:0:
372,243,254522,2,0,P|367:213|364:183,1,59.9999981689454
151,123,254835,5,8,0:1:0:0:
164,113,255147,2,0,P|169:89|171:63,1,40,8|0,0:1|0:0,0:0:0:0:
230,215,255460,2,0,P|271:202|322:196,1,80,8|8,0:1|0:1,0:0:0:0:
436,182,256085,5,8,0:1:0:0:
427,166,256397,2,0,P|427:146|430:126,1,40
496,86,256710,2,0,P|506:68|516:52,1,40,8|0,0:1|0:0,0:0:0:0:
353,140,257022,2,0,P|323:129|305:119,1,40,8|0,0:1|0:0,0:0:0:0:
236,65,257335,5,8,0:1:0:0:
246,53,257647,2,0,P|246:37|235:9,3,27.5000008392334,8|0|0|0,0:2|0:0|0:0|0:0,0:0:0:0:
212,144,257960,2,0,P|200:139|186:135,3,27.5000008392334,8|0|0|0,0:1|0:0|0:0|0:0,0:0:0:0:
270,195,258272,2,0,P|272:227|279:256,1,55.0000016784668,8|0,0:0|0:0,0:0:0:0:
220,367,258585,5,8,0:1:0:0:
223,351,258741,1,0,0:0:0:0:
157,297,258897,1,8,0:2:0:0:
354,248,259053,1,0,0:0:0:0:
270,195,259210,6,0,B|263:130|291:143|284:77,1,119.999996337891,8|8,0:1|0:2,0:0:0:0:
239,6,259678,1,0,0:0:0:0:
382,83,259835,5,10,0:1:0:0:
373,104,259991,1,8,0:1:0:0:
392,144,260147,1,8,0:2:0:0:
357,90,260303,1,8,0:1:0:0:
433,36,260460,5,8,0:1:0:0:
486,79,260616,1,8,0:1:0:0:
497,165,260772,1,8,0:2:0:0:
437,233,260928,1,8,0:1:0:0:
313,157,261085,5,8,0:1:0:0:
427,127,261241,1,8,0:1:0:0:
338,245,261397,1,8,0:2:0:0:
256,59,261553,1,8,0:1:0:0:
383,184,261710,5,8,0:1:0:0:
140,149,261866,1,8,0:1:0:0:
357,61,262022,1,8,0:2:0:0:
209,277,262178,1,8,0:1:0:0:
82,93,262335,5,8,0:1:0:0:
96,83,262413,1,8,0:1:0:0:
123,74,262491,1,8,0:1:0:0:
160,76,262569,1,8,0:1:0:0:
198,93,262647,5,8,0:2:0:0:
234,132,262725,1,8,0:1:0:0:
279,176,262803,1,8,0:1:0:0:
346,192,262881,1,8,0:1:0:0:
418,176,262960,5,8,0:1:0:0:
422,160,263038,1,8,0:1:0:0:
406,137,263116,1,8,0:1:0:0:
370,118,263194,1,8,0:1:0:0:
319,121,263272,5,8,0:2:0:0:
277,154,263350,5,8,0:1:0:0:
235,201,263428,5,8,0:1:0:0:
170,223,263506,5,8,0:1:0:0:
97,213,263585,6,0,P|135:201|190:346,1,239.999992675781,6|0,2:3|0:0,0:0:0:0:
191,348,264366,5,2,0:0:0:0:
18,216,264522,6,0,P|19:202|22:187,6,29.9999990844727,8|0|0|0|0|0|0,0:0|0:0|0:0|0:0|0:0|0:0|0:0,0:0:0:0:
80,133,264835,6,0,P|81:83|44:37,1,97.4999955368044,8|0,0:1|0:0,0:0:0:0:
0,108,265148,6,0,B|83:107|60:62|200:69,1,172.500003290176,12|0,0:1|0:0,0:0:0:0:
180,77,265460,2,0,P|183:112|188:151,1,57.5000010967255,2|0,0:0|0:0,0:0:0:0:
132,216,265616,1,8,0:1:0:0:
392,128,265772,2,0,P|390:47|311:27,1,172.500003290176,10|0,0:0|0:0,0:0:0:0:
293,37,266085,2,0,P|287:73|283:114,1,57.5000010967255,2|0,0:3|0:0,0:0:0:0:
310,247,266241,1,8,0:1:0:0:
180,77,266397,2,0,B|82:83|112:33|16:36,1,172.500003290176,8|0,0:0|0:0,0:0:0:0:
6,54,266710,6,0,P|4:86|-1:116,1,57.5000010967255,2|0,0:0|0:0,0:0:0:0:
158,221,266866,2,0,P|156:193|152:164,1,57.5000010967255
56,200,267022,1,8,0:0:0:0:
42,220,267100,1,0,0:0:0:0:
41,253,267178,1,0,0:0:0:0:
15,285,267256,1,0,0:0:0:0:
44,329,267335,6,0,P|114:307|194:340,1,142.49999619484,8|0,0:1|0:0,0:0:0:0:
189,340,267647,1,8,0:0:0:0:
297,258,267803,1,2,0:0:0:0:
319,280,267881,1,0,0:0:0:0:
315,294,267960,2,0,P|312:267|305:231,1,57.5000010967255,2|0,0:0|0:0,0:0:0:0:
391,363,268116,2,0,P|393:336|401:300,1,57.5000010967255,8|0,0:1|0:0,0:0:0:0:
511,220,268272,1,0,0:0:0:0:
188,146,268428,1,8,0:0:0:0:
256,33,268585,5,0,0:0:0:0:
271,20,268663,1,0,0:0:0:0:
310,15,268741,1,8,0:1:0:0:
347,36,268819,1,0,0:0:0:0:
357,78,268897,1,8,0:0:0:0:
339,120,268975,5,0,0:0:0:0:
303,159,269053,1,0,0:0:0:0:
279,218,269131,1,0,0:0:0:0:
282,289,269210,2,0,P|287:317|297:348,1,57.5000010967255,2|0,0:0|0:0,0:0:0:0:
383,238,269366,2,0,P|411:239|439:245,1,57.5000010967255
229,160,269522,5,10,0:0:0:0:
196,180,269600,1,2,0:0:0:0:
144,187,269678,1,2,0:0:0:0:
85,174,269756,1,2,0:0:0:0:
38,129,269835,6,0,P|23:56|147:34,1,187.5,12|0,0:1|0:0,0:0:0:0:
173,48,270147,1,8,0:0:0:0:
17,223,270303,1,0,0:0:0:0:
3,247,270381,1,0,0:0:0:0:
0,280,270460,1,0,0:0:0:0:
15,313,270538,1,0,0:0:0:0:
51,340,270616,6,0,P|81:331|116:328,1,57.5000010967255,8|0,0:1|0:0,0:0:0:0:
193,262,270772,2,0,B|282:248|267:305|376:297,1,179.999994506836,10|0,0:0|0:0,0:0:0:0:
376,309,271085,2,0,P|370:349|371:374,1,57.5000010967255,2|0,0:3|0:0,0:0:0:0:
176,252,271241,2,0,P|174:211|170:192,1,57.5000010967255,8|0,0:1|0:0,0:0:0:0:
215,369,271397,5,8,0:0:0:0:
290,269,271553,1,0,0:0:0:0:
285,241,271631,1,0,0:0:0:0:
312,200,271710,2,0,P|315:165|320:135,1,57.5000010967255,2|0,0:0|0:0,0:0:0:0:
210,60,271866,1,2,0:0:0:0:
465,15,272022,5,8,0:0:0:0:
455,33,272100,1,0,0:0:0:0:
471,43,272178,1,0,0:0:0:0:
479,29,272256,1,2,0:0:0:0:
469,28,272335,6,0,B|443:103|516:102|483:214,1,179.999994506836,8|0,0:1|0:0,0:0:0:0:
443,266,272647,1,8,0:0:0:0:
290,87,272803,1,2,0:0:0:0:
305,68,272881,1,0,0:0:0:0:
301,58,272960,2,0,P|266:55|220:48,1,59.9999981689454
402,162,273116,6,0,B|332:161|345:190|278:188,1,127.50000243187
205,173,273428,1,8,0:0:0:0:
438,281,273585,5,2,0:0:0:0:
458,308,273663,1,0,0:0:0:0:
448,324,273741,2,0,P|414:317|353:313,1,57.5000010967255,8|0,0:1|0:0,0:0:0:0:
296,352,273897,1,8,0:0:0:0:
365,103,274053,1,0,0:0:0:0:
129,156,274210,5,2,0:3:0:0:
139,133,274288,1,0,0:0:0:0:
132,104,274366,1,8,0:1:0:0:
149,70,274444,1,0,0:0:0:0:
135,22,274522,5,10,0:0:0:0:
86,1,274600,1,2,0:0:0:0:
28,15,274678,1,2,0:0:0:0:
6,80,274756,1,2,0:0:0:0:
47,140,274835,6,0,B|128:145|108:86|274:105,1,187.5,12|0,0:1|0:0,0:0:0:0:
244,87,275147,2,0,P|244:57|239:29,1,57.5000010967255,8|0,0:0|0:0,0:0:0:0:
318,140,275303,1,0,0:0:0:0:
343,128,275381,1,0,0:0:0:0:
380,135,275460,1,0,0:0:0:0:
422,123,275538,1,0,0:0:0:0:
468,152,275616,2,0,P|464:183|464:217,1,57.5000010967255,8|0,0:1|0:0,0:0:0:0:
378,41,275772,5,10,0:0:0:0:
245,167,275928,1,0,0:0:0:0:
211,159,276006,1,0,0:0:0:0:
169,183,276085,2,0,P|141:178|95:174,1,57.5000010967255,2|0,0:3|0:0,0:0:0:0:
50,111,276241,1,8,0:1:0:0:
225,252,276397,1,8,0:0:0:0:
39,288,276553,5,0,0:0:0:0:
52,289,276631,1,0,0:0:0:0:
39,288,276710,1,2,0:0:0:0:
161,369,276866,1,8,0:1:0:0:
293,194,277022,5,8,0:0:0:0:
316,189,277100,1,0,0:0:0:0:
360,190,277178,1,0,0:0:0:0:
419,179,277256,1,0,0:0:0:0:
489,181,277335,6,0,P|520:242|442:328,1,179.999994506836,8|0,0:1|0:0,0:0:0:0:
447,328,277647,1,8,0:0:0:0:
272,275,277803,1,2,0:0:0:0:
248,265,277881,1,0,0:0:0:0:
236,271,277960,2,0,P|227:306|227:336,1,57.5000010967255,2|0,0:0|0:0,0:0:0:0:
147,382,278116,2,0,P|142:346|132:318,1,57.5000010967255,8|0,0:1|0:0,0:0:0:0:
10,268,278272,1,0,0:0:0:0:
328,161,278428,1,8,0:0:0:0:
197,121,278585,5,2,0:0:0:0:
179,118,278663,1,0,0:0:0:0:
145,135,278741,1,8,0:1:0:0:
106,143,278819,1,0,0:0:0:0:
71,142,278897,1,8,0:0:0:0:
41,137,278975,1,0,0:0:0:0:
19,143,279053,1,0,0:0:0:0:
7,163,279131,1,0,0:0:0:0:
18,195,279210,5,2,0:3:0:0:
55,210,279288,1,0,0:0:0:0:
97,191,279366,1,8,0:1:0:0:
115,146,279444,1,0,0:0:0:0:
97,93,279522,5,10,0:0:0:0:
113,31,279600,5,2,0:0:0:0:
175,2,279678,5,2,0:0:0:0:
238,41,279756,5,2,0:0:0:0:
189,105,279835,6,0,B|292:93|254:35|367:32,1,194.999991073609,12|0,0:1|0:0,0:0:0:0:
439,11,280147,1,8,0:0:0:0:
419,197,280303,1,2,0:0:0:0:
390,206,280381,1,0,0:0:0:0:
347,192,280460,2,0,P|314:184|277:184,1,57.5000010967255
120,272,280616,1,8,0:1:0:0:
216,377,280772,5,10,0:0:0:0:
234,352,280850,1,0,0:0:0:0:
283,333,280928,1,0,0:0:0:0:
284,277,281006,1,0,0:0:0:0:
265,206,281085,6,0,P|270:179|272:137,1,62.5,2|0,0:3|0:0,0:0:0:0:
365,114,281241,2,0,P|350:86|339:57,1,62.5,8|0,0:1|0:0,0:0:0:0:
210,0,281397,1,8,0:0:0:0:
10,59,281553,5,0,0:0:0:0:
1,96,281631,1,0,0:0:0:0:
29,131,281710,2,0,P|66:121|146:106,1,62.5,2|0,0:0|0:0,0:0:0:0:
180,213,281866,2,0,P|142:205|60:194,1,62.5
24,236,282022,5,10,0:0:0:0:
3,279,282100,1,2,0:0:0:0:
18,336,282178,1,2,0:0:0:0:
85,360,282256,1,2,0:0:0:0:
155,328,282335,6,0,B|245:317|236:267|337:267,1,187.5,8|0,0:1|0:0,0:0:0:0:
345,256,282647,1,8,0:0:0:0:
488,329,282803,1,0,0:0:0:0:
512,293,282881,1,0,0:0:0:0:
494,243,282960,6,0,P|480:207|472:167,1,62.5,2|0,0:0|0:0,0:0:0:0:
261,329,283116,1,8,0:1:0:0:
350,102,283272,1,0,0:0:0:0:
14,218,283428,1,8,0:0:0:0:
126,357,283585,1,0,0:0:0:0:
315,272,283741,5,8,0:1:0:0:
304,222,283819,1,0,0:0:0:0:
329,164,283897,2,0,P|333:136|332:93,1,62.5,8|0,0:0|0:0,0:0:0:0:
266,25,284053,6,0,P|263:41|257:57,2,31.25,2|0|2,0:0|0:0|0:0,0:0:0:0:
417,73,284210,2,0,P|449:59|502:50,1,62.5,10|0,0:0|0:0,0:0:0:0:
237,157,284366,1,8,0:1:0:0:
224,139,284444,2,0,P|192:125|139:116,1,62.5,10|0,0:0|0:0,0:0:0:0:
429,245,284600,1,2,0:0:0:0:
443,226,284678,2,0,P|477:216|531:214,1,62.5,10|2,0:0|0:0,0:0:0:0:
280,295,284835,6,0,B|181:288|199:353|109:353,1,179.999994506836,4|0,0:3|0:0,0:0:0:0:
84,380,285147,2,0,P|73:309|34:243,1,119.999996337891,8|0,0:0|0:0,0:0:0:0:
211,257,285460,1,2,0:0:0:0:
240,225,285538,1,0,0:0:0:0:
227,181,285616,2,0,P|231:157|236:109,1,59.9999981689454
143,3,285772,2,0,P|96:-1|81:94,1,135.000000514984,8|0,0:0|0:0,0:0:0:0:
240,29,286085,5,2,0:0:0:0:
8,129,286241,2,0,P|17:157|17:214,1,59.9999981689454
133,263,286397,2,0,P|133:215|180:113,1,119.999996337891,8|0,0:0|0:0,0:0:0:0:
185,120,286631,1,0,0:0:0:0:
185,120,286710,1,2,0:0:0:0:
369,331,286866,6,0,P|361:302|357:272,1,59.9999981689454
412,196,287022,1,8,0:0:0:0:
377,176,287100,1,0,0:0:0:0:
340,174,287178,1,0,0:0:0:0:
296,193,287256,1,0,0:0:0:0:
266,242,287335,6,0,B|187:239|198:172|56:177,1,194.999991073609,8|0,0:1|0:0,0:0:0:0:
47,187,287647,1,8,0:0:0:0:
237,136,287803,1,0,0:0:0:0:
243,94,287881,1,0,0:0:0:0:
217,58,287960,2,0,P|210:28|198:0,1,59.9999981689454
327,384,288116,6,0,P|331:320|345:258,1,127.50000243187,8|0,0:1|0:0,0:0:0:0:
277,212,288428,2,0,P|252:220|213:225,1,50,8|0,0:0|0:0,0:0:0:0:
414,306,288585,5,2,0:0:0:0:
435,281,288663,1,2,0:0:0:0:
439,258,288741,2,0,P|468:263|498:277,1,59.9999981689454,8|0,0:1|0:0,0:0:0:0:
418,183,288897,5,10,0:0:0:0:
374,160,288975,1,2,0:0:0:0:
318,158,289053,1,2,0:0:0:0:
252,179,289131,1,2,0:0:0:0:
187,211,289210,5,2,0:0:0:0:
112,223,289288,1,2,0:0:0:0:
42,201,289366,1,8,0:1:0:0:
5,145,289444,1,2,0:0:0:0:
12,90,289522,1,10,0:0:0:0:
50,53,289600,1,2,0:0:0:0:
92,47,289678,1,2,0:0:0:0:
129,62,289756,1,2,0:0:0:0:
137,77,289835,6,0,P|222:57|339:50,1,165.000005035401,12|0,0:1|0:0,0:0:0:0:
337,58,290147,1,8,0:0:0:0:
82,132,290303,2,0,P|66:110|57:69,1,59.9999981689454
216,22,290460,1,2,0:0:0:0:
236,63,290538,1,0,0:0:0:0:
227,115,290616,2,0,P|229:151|238:181,1,59.9999981689454,8|0,0:1|0:0,0:0:0:0:
147,200,290772,5,8,0:0:0:0:
157,233,290850,1,0,0:0:0:0:
126,266,290928,1,0,0:0:0:0:
103,311,291006,1,0,0:0:0:0:
132,358,291085,6,0,P|163:352|217:348,1,59.9999981689454,2|0,0:0|0:0,0:0:0:0:
342,377,291241,1,0,0:0:0:0:
233,209,291397,2,0,P|297:190|377:142,1,119.999996337891,8|0,0:0|0:0,0:0:0:0:
366,135,291631,1,0,0:0:0:0:
366,135,291710,1,2,0:0:0:0:
489,368,291866,2,0,P|481:334|477:286,1,59.9999981689454,8|0,0:1|0:0,0:0:0:0:
422,241,292022,5,8,0:0:0:0:
410,208,292100,1,0,0:0:0:0:
439,174,292178,1,0,0:0:0:0:
467,121,292256,1,0,0:0:0:0:
442,58,292335,6,0,P|359:53|221:33,1,187.5,8|0,0:1|0:0,0:0:0:0:
218,16,292647,1,8,0:0:0:0:
376,135,292803,1,2,0:0:0:0:
343,158,292881,1,2,0:0:0:0:
297,147,292960,2,0,P|260:139|194:140,1,59.9999981689454,2|0,0:0|0:0,0:0:0:0:
168,86,293116,2,0,P|131:90|68:112,1,59.9999981689454,8|0,0:1|0:0,0:0:0:0:
35,137,293272,5,0,0:0:0:0:
2,202,293350,1,0,0:0:0:0:
8,264,293428,1,8,0:0:0:0:
42,304,293506,1,0,0:0:0:0:
90,313,293585,5,2,0:0:0:0:
132,304,293663,1,2,0:0:0:0:
163,282,293741,1,8,0:1:0:0:
189,261,293819,1,2,0:0:0:0:
222,246,293897,1,8,0:0:0:0:
251,242,293975,1,0,0:0:0:0:
275,248,294053,1,0,0:0:0:0:
294,263,294131,1,0,0:0:0:0:
300,283,294210,5,0,0:0:0:0:
294,308,294288,1,0,0:0:0:0:
268,326,294366,1,8,0:1:0:0:
227,325,294444,1,0,0:0:0:0:
192,296,294522,5,10,0:0:0:0:
182,242,294600,5,2,0:0:0:0:
139,193,294678,5,2,0:0:0:0:
71,171,294756,5,2,0:0:0:0:
0,205,294835,6,0,P|96:198|58:76,1,202.500000772476,4|0,0:3|0:0,0:0:0:0:
67,86,295147,2,0,P|86:61|96:27,1,59.9999981689454,8|0,0:0|0:0,0:0:0:0:
223,165,295303,1,2,0:0:0:0:
253,137,295381,1,2,0:0:0:0:
292,146,295460,2,0,P|288:114|279:73,1,59.9999981689454,2|2,0:0|0:0,0:0:0:0:
137,150,295616,2,0,P|130:179|126:209,1,59.9999981689454,8|0,0:1|0:0,0:0:0:0:
374,40,295772,2,0,P|380:108|400:165,1,119.999996337891,8|0,0:0|0:0,0:0:0:0:
288,259,296085,5,2,0:0:0:0:
194,86,296241,2,0,P|203:60|209:18,1,59.9999981689454,8|0,0:1|0:0,0:0:0:0:
408,150,296397,2,0,P|369:198|387:262,1,119.999996337891,8|0,0:0|0:0,0:0:0:0:
362,292,296631,1,0,0:0:0:0:
362,292,296710,1,2,0:0:0:0:
480,104,296866,6,0,P|463:75|456:50,1,59.9999981689454,8|0,0:1|0:0,0:0:0:0:
483,186,297022,1,8,0:0:0:0:
466,210,297100,1,0,0:0:0:0:
422,226,297178,1,0,0:0:0:0:
368,218,297256,1,0,0:0:0:0:
329,173,297335,6,0,B|231:175|259:111|152:119,1,187.5,8|0,0:1|0:0,0:0:0:0:
118,134,297647,1,8,0:0:0:0:
294,250,297803,1,0,0:0:0:0:
264,276,297881,1,0,0:0:0:0:
272,316,297960,2,0,P|270:348|266:379,1,59.9999981689454,2|8,0:0|0:1,0:0:0:0:
367,21,298116,6,0,P|384:82|407:141,1,127.50000243187,8|0,0:1|0:0,0:0:0:0:
403,244,298428,2,0,P|383:226|364:211,1,50,8|0,0:0|0:0,0:0:0:0:
235,180,298585,5,2,0:0:0:0:
204,181,298663,1,2,0:0:0:0:
176,192,298741,1,8,0:1:0:0:
156,212,298819,1,0,0:0:0:0:
123,237,298897,5,10,0:0:0:0:
81,247,298975,1,2,0:0:0:0:
36,236,299053,1,2,0:0:0:0:
8,195,299131,1,2,0:0:0:0:
12,137,299210,1,2,0:0:0:0:
59,93,299288,1,2,0:0:0:0:
125,100,299366,1,2,0:0:0:0:
182,67,299444,1,2,0:0:0:0:
237,76,299522,5,10,0:0:0:0:
277,64,299600,1,0,0:0:0:0:
307,65,299678,1,0,0:0:0:0:
323,50,299756,1,0,0:0:0:0:
370,27,299835,6,0,P|380:79|409:179,1,125,12|0,0:1|0:0,0:0:0:0:
304,289,300069,1,0,0:0:0:0:
303,290,300147,2,0,P|309:259|320:230,1,62.5,8|0,0:0|0:0,0:0:0:0:
198,161,300303,1,0,0:0:0:0:
153,157,300381,1,0,0:0:0:0:
119,121,300460,6,0,P|87:116|52:105,1,59.9999981689454,2|0,0:0|0:0,0:0:0:0:
23,238,300616,2,0,P|51:226|77:211,1,59.9999981689454,8|0,0:1|0:0,0:0:0:0:
306,23,300772,2,0,P|255:52|197:70,1,119.999996337891,8|0,0:0|0:0,0:0:0:0:
387,115,301006,1,2,0:0:0:0:
387,115,301085,2,0,P|387:146|395:191,1,59.9999981689454,2|0,0:0|0:0,0:0:0:0:
252,224,301241,1,0,0:0:0:0:
471,142,301397,5,8,0:0:0:0:
475,181,301475,1,0,0:0:0:0:
478,218,301553,1,0,0:0:0:0:
482,259,301631,1,0,0:0:0:0:
484,307,301710,5,2,0:0:0:0:
450,351,301788,1,2,0:0:0:0:
385,365,301866,1,2,0:0:0:0:
320,351,301944,1,2,0:0:0:0:
269,316,302022,1,10,0:0:0:0:
225,301,302100,1,2,0:0:0:0:
183,302,302178,1,2,0:0:0:0:
153,316,302256,1,0,0:0:0:0:
141,337,302335,6,0,P|139:305|135:273,1,59.9999981689454,8|0,0:1|0:0,0:0:0:0:
268,149,302491,1,0,0:0:0:0:
56,367,302647,5,8,0:0:0:0:
51,326,302725,1,0,0:0:0:0:
48,285,302803,1,0,0:0:0:0:
45,246,302881,1,0,0:0:0:0:
42,200,302960,5,2,0:0:0:0:
61,143,303038,1,2,0:0:0:0:
123,120,303116,1,2,0:0:0:0:
189,130,303194,1,2,0:0:0:0:
247,171,303272,1,2,0:0:0:0:
308,208,303350,1,2,0:0:0:0:
377,212,303428,1,10,0:0:0:0:
436,191,303506,1,0,0:0:0:0:
465,151,303585,6,0,P|469:113|459:64,1,69.9999978637696
120,200,303741,1,8,0:1:0:0:
130,251,303819,1,8,0:1:0:0:
115,303,303897,2,0,P|100:340|96:369,1,69.9999978637696,8|0,0:0|0:0,0:0:0:0:
189,130,304053,2,0,P|194:150|201:168,2,37.5000014305115
273,312,304210,6,0,P|304:291|340:281,1,75.0000028610231,8|0,0:0|0:0,0:0:0:0:
27,286,304366,1,8,0:1:0:0:
38,244,304444,2,0,P|30:204|-22:136,1,75.0000028610231,8|0,0:0|0:0,0:0:0:0:
377,212,304600,1,8,0:1:0:0:
350,139,304678,2,0,P|358:99|415:32,1,75.0000028610231,8|0,0:0|0:0,0:0:0:0:
192,368,304835,5,4,0:3:0:0:
256,192,304991,12,0,309835,0:0:0:0:
316,208,310460,6,0,P|373:205|404:244,1,104.999996795654,2|0,0:0|0:0,0:0:0:0:
246,152,311085,2,0,P|247:101|312:55,1,134.999995880127,2|0,0:0|0:0,0:0:0:0:
189,222,311710,2,0,P|138:196|130:174,1,75,2|0,0:0|0:0,0:0:0:0:
260,278,312335,6,0,P|245:341|198:369,1,120,2|0,0:0|0:0,0:0:0:0:
232,208,313428,5,2,0:0:0:0:
232,208,313506,1,2,0:0:0:0:
232,208,313585,2,0,P|232:160|240:114,1,89.9999972534181,2|0,0:0|0:0,0:0:0:0:
264,45,314210,1,2,0:0:0:0:
256,36,314522,5,2,0:0:0:0:
251,58,314600,1,2,0:0:0:0:
227,81,314678,1,2,0:0:0:0:
217,116,314756,1,2,0:0:0:0:
220,159,314835,6,0,B|242:277|317:181|367:266|371:327,1,244.999992523194,4|0,0:3|0:0,0:0:0:0:
400,202,316085,2,0,P|454:177|447:85,1,160,2|2,0:0|0:0,0:0:0:0:
343,264,317178,5,2,0:0:0:0:
343,264,317256,1,2,0:0:0:0:
343,264,317335,2,0,B|220:260|273:199|150:195,1,209.999993591309,2|0,0:0|0:0,0:0:0:0:
86,292,318585,2,0,P|78:231|55:152,1,140,2|0,0:0|0:0,0:0:0:0:
6,97,319835,1,0,0:0:0:0:
6,97,320460,6,0,P|40:93|74:78,1,69.9999978637696,2|0,0:0|0:0,0:0:0:0:
133,32,320928,1,0,0:0:0:0:
95,161,321085,2,0,P|129:165|181:194,1,89.9999972534181,2|0,0:0|0:0,0:0:0:0:
218,255,321553,1,0,0:0:0:0:
203,107,321710,2,0,P|237:111|312:83,1,110.000003356934,2|0,0:0|0:0,0:0:0:0:
362,32,322178,1,0,0:0:0:0:
508,136,322335,6,0,P|425:145|410:227,1,175,2|0,0:0|0:0,0:0:0:0:
305,170,323585,6,0,P|219:158|86:127,1,209.999993591309,2|2,0:0|0:0,0:0:0:0:
35,84,324131,5,0,0:0:0:0:
25,101,324210,1,2,0:0:0:0:
22,136,324288,1,0,0:0:0:0:
31,174,324366,1,2,0:0:0:0:
49,216,324444,1,0,0:0:0:0:
52,264,324522,2,0,P|47:292|35:328,1,50,2|0,0:0|0:0,0:0:0:0:
0,377,324678,1,0,0:0:0:0:
153,312,324835,5,2,2:0:0:0:
