osu file format v14

[General]
AudioFilename: audio.mp3
AudioLeadIn: 0
PreviewTime: 81226
Countdown: 0
SampleSet: Normal
StackLeniency: 0.2
Mode: 1
LetterboxInBreaks: 0
WidescreenStoryboard: 0

[Editor]
DistanceSpacing: 0.3
BeatDivisor: 4
GridSize: 32
TimelineZoom: 2.799999

[Metadata]
Title:PAPAYAPA BASS
TitleUnicode:PAPAYAPA BASS
Artist:Camellia feat. Nanahira
ArtistUnicode:かめりあ feat. ななひら
Creator:Nwolf
Version:KATKATDONKAT
Source:beatmania IIDX 24 SINOBUZ
Tags:( •̀ ω•́ ) Deif dergo ntiger owo rawr juan loves nanahira weeb cocktail beach papaya
BeatmapID:1237040
BeatmapSetID:584714

[Difficulty]
HPDrainRate:6
CircleSize:4
OverallDifficulty:6.4
ApproachRate:9
SliderMultiplier:1.4
SliderTickRate:1

[Events]
//Background and Video events
0,0,"cocktails.jpg",0,0
//Break Periods
//Storyboard Layer 0 (Background)
//Storyboard Layer 1 (Fail)
//Storyboard Layer 2 (Pass)
//Storyboard Layer 3 (Foreground)
//Storyboard Layer 4 (Overlay)
//Storyboard Sound Samples

[TimingPoints]
207,408.163265306122,4,1,0,70,1,8
207,-200,4,1,0,70,0,8
1839,408.163265306122,4,1,0,70,1,0
1839,-33.3333333333333,4,1,0,70,0,0
2043,-200,4,1,0,70,0,0
5053,-66.6666666666667,4,1,0,70,0,0
5155,-200,4,1,0,70,0,0
8369,-33.3333333333333,4,1,0,70,0,0
8471,-166.666666666667,4,1,0,70,0,0
8981,-153.846153846154,4,1,0,70,0,0
9492,-142.857142857143,4,1,0,70,0,0
9594,-133.333333333333,4,1,0,70,0,0
9798,-125,4,1,0,70,0,0
10002,-117.647058823529,4,1,0,70,0,0
10410,-111.111111111111,4,1,0,70,0,0
10818,-105.263157894737,4,1,0,70,0,0
11124,-100,4,1,0,70,0,0
11226,-95.2380952380954,4,1,0,70,0,0
11430,-90.9090909090909,4,1,0,70,0,0
11634,-86.9565217391304,4,1,0,85,0,0
14185,-66.6666666666667,4,1,0,70,0,0
14390,-44.4444444444445,4,1,0,70,0,0
14594,-33.3333333333333,4,1,0,70,0,0
14798,-25,4,1,0,70,0,0
14900,-25,4,1,0,90,0,1
15002,-66.6666666666667,4,1,0,90,0,1
17553,-50,4,1,0,90,0,1
17757,-36.3636363636364,4,1,0,90,0,1
17961,-28.5714285714286,4,1,0,90,0,1
18165,-25,4,1,0,90,0,1
18267,-66.6666666666667,4,1,0,90,0,1
21022,-40,4,1,0,90,0,1
21226,-30.7692307692308,4,1,0,90,0,1
21430,-25,4,1,0,90,0,1
21532,-66.6666666666667,4,1,0,90,0,1
24696,-74.0740740740741,4,1,0,90,0,0
26328,-50,4,1,0,90,0,1
27553,-66.6666666666667,4,1,0,90,0,1
27961,-100,4,1,0,90,0,0
37961,-98.0392156862745,4,1,0,90,0,0
38063,-96.1538461538461,4,1,0,90,0,0
38165,-94.3396226415094,4,1,0,90,0,0
38267,-92.5925925925926,4,1,0,90,0,0
38369,-90.9090909090909,4,1,0,90,0,0
38471,-89.0471950133571,4,1,0,90,0,0
38573,-87.719298245614,4,1,0,90,0,0
38675,-86.2068965517241,4,1,0,90,0,0
38777,-84.7457627118644,4,1,0,90,0,0
38879,-83.3333333333333,4,1,0,90,0,0
38981,-81.9672131147541,4,1,0,90,0,0
39185,-96.1538461538461,4,1,0,90,0,0
39253,-90.9090909090909,4,1,0,90,0,0
39321,-86.2068965517241,4,1,0,90,0,0
39390,-81.9672131147541,4,1,0,90,0,0
39594,-80.6451612903226,4,1,0,90,0,0
39696,-79.3650793650794,4,1,0,90,0,0
39798,-78.125,4,1,0,90,0,0
39900,-76.9230769230769,4,1,0,90,0,0
40002,-75.7575757575758,4,1,0,90,0,0
40104,-74.6268656716418,4,1,0,90,0,0
40206,-73.5294117647059,4,1,0,90,0,0
40274,-72.992700729927,4,1,0,90,0,0
40342,-72.463768115942,4,1,0,90,0,0
40410,-71.9424460431655,4,1,0,90,0,0
40512,-71.4285714285714,4,1,0,90,0,0
40614,-50,4,1,0,90,0,0
40716,-33.3333333333333,4,1,0,90,0,0
40920,-25,4,1,0,90,0,0
41124,-80,4,1,0,90,0,0
43879,-50,4,1,0,90,0,0
44083,-33.3333333333333,4,1,0,90,0,0
44287,-25,4,1,0,90,0,0
44390,-76.9230769230769,4,1,0,90,0,0
46838,-50,4,1,0,90,0,0
47043,-36.3636363636364,4,1,0,90,0,0
47247,-28.5714285714286,4,1,0,90,0,0
47451,-25,4,1,0,90,0,0
47655,-74.0740740740741,4,1,0,90,0,0
50716,-71.4285714285714,4,1,0,90,0,0
51022,-70.9219858156028,4,1,0,90,0,0
51124,-70.4225352112676,4,1,0,90,0,0
51226,-69.9300699300699,4,1,0,90,0,0
51328,-69.4444444444444,4,1,0,90,0,0
51430,-68.9655172413793,4,1,0,90,0,0
51532,-68.4931506849315,4,1,0,90,0,0
51634,-68.0272108843537,4,1,0,90,0,0
51736,-67.5675675675676,4,1,0,90,0,0
51838,-67.1140939597315,4,1,0,90,0,0
51941,-66.6666666666667,4,1,0,90,0,0
52043,-66.2251655629139,4,1,0,90,0,0
52145,-65.7894736842105,4,1,0,90,0,0
52247,-65.359477124183,4,1,0,90,0,0
52349,-64.9350649350649,4,1,0,90,0,0
52451,-64.3086816720257,4,1,0,90,0,0
52553,-63.6942675159236,4,1,0,90,0,0
52655,-63.0914826498423,4,1,0,90,0,0
52723,-62.6959247648903,4,1,0,90,0,0
52791,-62.3052959501558,4,1,0,90,0,0
52859,-61.9195046439628,4,1,0,90,0,0
52961,-60.9756097560976,4,1,0,90,0,0
53063,-60.4229607250755,4,1,0,90,0,0
53165,-59.8802395209581,4,1,0,90,0,0
53267,-59.3471810089021,4,1,0,90,0,0
53335,-58.8235294117647,4,1,0,90,0,0
53403,-58.4795321637427,4,1,0,90,0,0
53471,-58.1395348837209,4,1,0,90,0,0
53573,-57.8034682080925,4,1,0,90,0,0
53675,-57.1428571428571,4,1,0,90,0,0
53743,-56.8181818181818,4,1,0,90,0,0
53811,-56.4971751412429,4,1,0,90,0,0
53879,-56.1797752808989,4,1,0,90,0,0
53981,-55.7103064066852,4,1,0,90,0,0
54083,-55.2486187845304,4,1,0,90,0,0
54185,-133.333333333333,4,1,0,70,0,0
60308,-129.87012987013,4,1,0,70,0,0
60512,-121.951219512195,4,1,0,70,0,0
63573,-113.636363636364,4,1,0,70,0,0
63777,-111.111111111111,4,1,0,70,0,0
63981,-109.89010989011,4,1,0,70,0,0
64185,-108.695652173913,4,1,0,70,0,0
64390,-106.382978723404,4,1,0,70,0,0
64594,-104.166666666667,4,1,0,70,0,0
64798,-102.040816326531,4,1,0,70,0,0
64900,-100,4,1,0,70,0,0
65002,-98.0392156862745,4,1,0,70,0,0
65104,-96.1538461538461,4,1,0,70,0,0
65206,-94.3396226415094,4,1,0,70,0,0
65308,-92.5925925925926,4,1,0,70,0,0
65410,-90.9090909090909,4,1,0,70,0,0
65512,-89.2857142857143,4,1,0,70,0,0
65614,-111.111111111111,4,1,0,70,0,0
66634,-50,4,1,0,70,0,0
67247,-100,4,1,0,85,0,0
73675,-95.2380952380952,4,1,0,85,0,0
77043,-100,4,1,0,70,0,0
77247,-105.263157894737,4,1,0,70,0,0
77451,-111.111111111111,4,1,0,70,0,0
77655,-117.647058823529,4,1,0,70,0,0
77859,-125,4,1,0,70,0,0
78063,-133.333333333333,4,1,0,70,0,0
78267,-142.857142857143,4,1,0,70,0,0
78471,-133.333333333333,4,1,0,70,0,0
78675,-129.87012987013,4,1,0,70,0,0
78777,-126.582278481013,4,1,0,70,0,0
78879,-123.456790123457,4,1,0,70,0,0
78981,-120.481927710843,4,1,0,70,0,0
79083,-117.647058823529,4,1,0,70,0,0
79185,-114.942528735632,4,1,0,70,0,0
79287,-112.359550561798,4,1,0,70,0,0
79390,-109.89010989011,4,1,0,70,0,0
79492,-107.52688172043,4,1,0,70,0,0
79594,-105.263157894737,4,1,0,70,0,0
79696,-101.010101010101,4,1,0,70,0,0
79798,-99.1080277502478,4,1,0,70,0,0
79900,-97.0873786407767,4,1,0,70,0,0
80002,-95.2380952380952,4,1,0,70,0,0
80104,-93.4579439252336,4,1,0,70,0,0
80206,-91.743119266055,4,1,0,70,0,0
81124,-200,4,1,0,70,0,0
81838,-25,4,1,0,90,0,1
81941,-66.6666666666667,4,1,0,90,0,1
84492,-50,4,1,0,90,0,1
84696,-36.3636363636364,4,1,0,90,0,1
84900,-28.5714285714286,4,1,0,90,0,1
85104,-25,4,1,0,90,0,1
85206,-66.6666666666667,4,1,0,90,0,1
87961,-50,4,1,0,90,0,1
88165,-33.3333333333333,4,1,0,90,0,1
88369,-25,4,1,0,90,0,1
88471,-66.6666666666667,4,1,0,90,0,1
94083,-80,4,1,0,90,0,0
94287,-50,4,1,0,90,0,0
94492,-36.3636363636364,4,1,0,90,0,0
94696,-28.5714285714286,4,1,0,90,0,0
94900,-25,4,1,0,90,0,1
95002,-66.6666666666667,4,1,0,90,0,1
97553,-50,4,1,0,90,0,1
97757,-36.3636363636364,4,1,0,90,0,1
97961,-28.5714285714286,4,1,0,90,0,1
98165,-25,4,1,0,90,0,1
98267,-66.6666666666667,4,1,0,90,0,1
101022,-50,4,1,0,90,0,1
101226,-33.3333333333333,4,1,0,90,0,1
101430,-25,4,1,0,90,0,1
101532,-66.6666666666667,4,1,0,90,0,1
104696,-74.0740740740741,4,1,0,90,0,0
106328,-50,4,1,0,90,0,1
107553,-80,4,1,0,90,0,1
107961,-66.6666666666667,4,1,0,90,0,0
119492,-64.5161290322581,4,1,0,90,0,0
119594,-61.7283950617284,4,1,0,90,0,0
119798,-58.8235294117647,4,1,0,90,0,0
120002,-40,4,1,0,90,0,0

[HitObjects]
288,224,1227,5,12,0:0:0:0:
288,224,1431,1,12,0:0:0:0:
224,224,1635,1,4,0:0:0:0:
288,224,1839,1,12,0:0:0:0:
224,160,2145,1,0,0:0:0:0:
224,160,2247,1,0,0:0:0:0:
288,160,2349,1,8,0:0:0:0:
288,160,2553,1,8,0:0:0:0:
224,160,2859,1,0,0:0:0:0:
288,160,3063,1,8,0:0:0:0:
224,160,3267,1,0,0:0:0:0:
224,160,3471,1,0,0:0:0:0:
288,160,3777,1,8,0:0:0:0:
224,160,4083,1,0,0:0:0:0:
288,224,4492,1,12,0:0:0:0:
288,224,4696,1,12,0:0:0:0:
224,224,4900,1,4,0:0:0:0:
288,224,5104,1,12,0:0:0:0:
224,160,5410,1,0,0:0:0:0:
224,160,5512,1,0,0:0:0:0:
288,160,5614,1,8,0:0:0:0:
288,160,5818,1,8,0:0:0:0:
224,160,6124,1,0,0:0:0:0:
288,160,6328,1,8,0:0:0:0:
224,160,6532,1,0,0:0:0:0:
224,160,6736,1,0,0:0:0:0:
288,160,7043,1,8,0:0:0:0:
288,160,7349,1,8,0:0:0:0:
288,224,7757,1,12,0:0:0:0:
288,224,7961,1,12,0:0:0:0:
224,224,8165,1,4,0:0:0:0:
288,224,8369,1,12,0:0:0:0:
288,224,8777,1,12,0:0:0:0:
224,160,8879,1,0,0:0:0:0:
224,160,9083,1,0,0:0:0:0:
288,224,9185,1,12,0:0:0:0:
288,224,9492,1,12,0:0:0:0:
288,224,9594,1,12,0:0:0:0:
288,224,9798,1,12,0:0:0:0:
288,224,10002,1,12,0:0:0:0:
224,160,10308,1,0,0:0:0:0:
288,224,10410,1,12,0:0:0:0:
224,160,10614,1,0,0:0:0:0:
288,224,10818,1,12,0:0:0:0:
288,224,11124,1,12,0:0:0:0:
288,224,11226,1,12,0:0:0:0:
288,224,11430,1,12,0:0:0:0:
224,160,11634,1,0,0:0:0:0:
224,160,11736,1,0,0:0:0:0:
224,160,11838,1,0,0:0:0:0:
224,160,11941,1,0,0:0:0:0:
224,160,12043,1,0,0:0:0:0:
224,160,12145,1,0,0:0:0:0:
288,160,12247,1,8,0:0:0:0:
224,160,12349,1,0,0:0:0:0:
288,160,12451,1,8,0:0:0:0:
224,160,12553,1,0,0:0:0:0:
288,160,12655,1,8,0:0:0:0:
288,160,12757,1,8,0:0:0:0:
224,160,12859,1,0,0:0:0:0:
224,160,12961,1,0,0:0:0:0:
288,160,13063,1,8,0:0:0:0:
288,160,13165,1,8,0:0:0:0:
224,160,13267,1,0,0:0:0:0:
224,160,13335,1,0,0:0:0:0:
224,160,13403,1,0,0:0:0:0:
224,160,13471,1,0,0:0:0:0:
224,160,13573,1,0,0:0:0:0:
288,160,13675,1,8,0:0:0:0:
288,160,13743,1,8,0:0:0:0:
288,160,13811,1,8,0:0:0:0:
288,160,13879,1,8,0:0:0:0:
288,160,13981,1,8,0:0:0:0:
224,160,14083,1,0,0:0:0:0:
288,224,14287,1,12,0:0:0:0:
288,224,14492,1,12,0:0:0:0:
224,224,14696,1,4,0:0:0:0:
288,224,14900,5,12,0:0:0:0:
224,160,15104,1,0,0:0:0:0:
288,160,15206,1,8,0:0:0:0:
224,160,15308,1,0,0:0:0:0:
224,160,15410,1,0,0:0:0:0:
288,160,15614,1,8,0:0:0:0:
224,160,15818,1,0,0:0:0:0:
288,160,15920,1,8,0:0:0:0:
224,160,16022,1,0,0:0:0:0:
288,160,16124,1,8,0:0:0:0:
288,160,16226,1,8,0:0:0:0:
224,160,16328,1,0,0:0:0:0:
224,160,16430,1,0,0:0:0:0:
288,160,16532,1,8,0:0:0:0:
224,160,16736,1,0,0:0:0:0:
288,160,16838,1,8,0:0:0:0:
288,160,17043,1,8,0:0:0:0:
224,160,17145,1,0,0:0:0:0:
224,160,17196,1,0,0:0:0:0:
288,160,17247,1,8,0:0:0:0:
224,160,17349,1,0,0:0:0:0:
288,224,17553,1,12,0:0:0:0:
288,224,17757,1,12,0:0:0:0:
224,224,17961,1,4,0:0:0:0:
288,224,18165,1,12,0:0:0:0:
224,160,18369,1,0,0:0:0:0:
288,160,18471,1,8,0:0:0:0:
224,160,18573,1,0,0:0:0:0:
224,160,18675,1,0,0:0:0:0:
288,160,18879,1,8,0:0:0:0:
224,160,19083,1,0,0:0:0:0:
288,160,19185,1,8,0:0:0:0:
224,160,19287,1,0,0:0:0:0:
288,160,19390,1,8,0:0:0:0:
288,160,19492,1,8,0:0:0:0:
224,160,19594,1,0,0:0:0:0:
288,160,19798,1,8,0:0:0:0:
224,160,19900,1,0,0:0:0:0:
288,160,20002,1,8,0:0:0:0:
288,160,20104,1,8,0:0:0:0:
224,160,20206,1,0,0:0:0:0:
224,160,20308,1,0,0:0:0:0:
288,160,20410,1,8,0:0:0:0:
288,160,20461,1,8,0:0:0:0:
224,160,20512,1,0,0:0:0:0:
288,160,20716,1,8,0:0:0:0:
288,160,20767,1,8,0:0:0:0:
224,160,20818,1,0,0:0:0:0:
224,160,20920,1,0,0:0:0:0:
288,224,21022,1,12,0:0:0:0:
224,224,21226,1,4,0:0:0:0:
288,224,21430,1,12,0:0:0:0:
224,160,21634,1,0,0:0:0:0:
288,160,21736,1,8,0:0:0:0:
224,160,21838,1,0,0:0:0:0:
224,160,21941,1,0,0:0:0:0:
288,160,22145,1,8,0:0:0:0:
224,160,22247,1,0,0:0:0:0:
288,160,22349,1,8,0:0:0:0:
288,160,22451,1,8,0:0:0:0:
224,160,22553,1,0,0:0:0:0:
288,160,22655,1,8,0:0:0:0:
288,160,22757,1,8,0:0:0:0:
224,160,22859,1,0,0:0:0:0:
288,160,22961,1,8,0:0:0:0:
224,160,23063,1,0,0:0:0:0:
288,160,23267,1,8,0:0:0:0:
224,160,23369,1,0,0:0:0:0:
288,160,23573,1,8,0:0:0:0:
224,160,23675,1,0,0:0:0:0:
224,160,23726,1,0,0:0:0:0:
288,160,23777,1,8,0:0:0:0:
224,160,23981,1,0,0:0:0:0:
288,160,24083,1,8,0:0:0:0:
224,160,24185,1,0,0:0:0:0:
288,160,24287,1,8,0:0:0:0:
288,160,24492,1,8,0:0:0:0:
224,224,24696,1,4,0:0:0:0:
288,160,24798,1,8,0:0:0:0:
288,160,25002,1,8,0:0:0:0:
288,160,25308,1,8,0:0:0:0:
288,160,25410,1,8,0:0:0:0:
224,160,25512,1,0,0:0:0:0:
288,160,25614,1,8,0:0:0:0:
224,160,25716,1,0,0:0:0:0:
288,160,25818,1,8,0:0:0:0:
224,160,25920,1,0,0:0:0:0:
224,160,26022,1,0,0:0:0:0:
288,160,26124,1,8,0:0:0:0:
288,160,26226,1,8,0:0:0:0:
224,224,26328,1,4,0:0:0:0:
288,224,26430,1,12,0:0:0:0:
288,224,26736,1,12,0:0:0:0:
256,192,26838,12,0,27451,0:0:0:0:
288,224,27553,5,12,0:0:0:0:
224,224,27961,5,4,0:0:0:0:
288,160,28114,1,8,0:0:0:0:
288,160,28165,1,8,0:0:0:0:
288,160,28216,1,8,0:0:0:0:
288,160,28267,1,8,0:0:0:0:
224,160,28369,1,0,0:0:0:0:
224,160,28505,1,0,0:0:0:0:
288,160,28573,1,8,0:0:0:0:
224,160,28777,1,0,0:0:0:0:
288,160,28913,1,8,0:0:0:0:
288,160,29117,1,8,0:0:0:0:
224,160,29185,1,0,0:0:0:0:
288,160,29390,1,8,0:0:0:0:
288,160,29458,1,8,0:0:0:0:
288,160,29526,1,8,0:0:0:0:
224,160,29594,1,0,0:0:0:0:
224,160,29730,1,0,0:0:0:0:
288,160,29798,1,8,0:0:0:0:
288,160,29866,1,8,0:0:0:0:
288,160,29934,1,8,0:0:0:0:
224,160,30002,1,0,0:0:0:0:
288,160,30104,1,8,0:0:0:0:
288,160,30308,1,8,0:0:0:0:
224,160,30410,1,0,0:0:0:0:
288,160,30512,1,8,0:0:0:0:
288,160,30614,1,8,0:0:0:0:
224,160,30716,1,0,0:0:0:0:
288,160,30818,1,8,0:0:0:0:
288,160,30920,1,8,0:0:0:0:
224,160,31022,1,0,0:0:0:0:
224,160,31124,1,0,0:0:0:0:
224,160,31226,1,0,0:0:0:0:
288,160,31379,1,8,0:0:0:0:
288,160,31430,1,8,0:0:0:0:
288,160,31481,1,8,0:0:0:0:
288,160,31532,1,8,0:0:0:0:
224,160,31634,1,0,0:0:0:0:
224,160,31770,1,0,0:0:0:0:
288,160,31838,1,8,0:0:0:0:
224,160,32043,1,0,0:0:0:0:
288,160,32179,1,8,0:0:0:0:
288,160,32349,1,8,0:0:0:0:
224,160,32451,1,0,0:0:0:0:
224,160,32655,1,0,0:0:0:0:
224,160,32723,1,0,0:0:0:0:
224,160,32791,1,0,0:0:0:0:
288,160,32859,1,8,0:0:0:0:
224,160,32961,1,0,0:0:0:0:
224,160,33012,1,0,0:0:0:0:
288,160,33063,1,8,0:0:0:0:
224,160,33165,1,0,0:0:0:0:
288,160,33267,1,8,0:0:0:0:
224,160,33369,1,0,0:0:0:0:
288,160,33471,1,8,0:0:0:0:
288,160,33573,1,8,0:0:0:0:
224,160,33675,1,0,0:0:0:0:
288,160,33981,1,8,0:0:0:0:
288,160,34032,1,8,0:0:0:0:
224,160,34083,1,0,0:0:0:0:
288,160,34287,1,8,0:0:0:0:
288,160,34390,1,8,0:0:0:0:
224,224,34492,1,4,0:0:0:0:
288,160,34645,1,8,0:0:0:0:
288,160,34696,1,8,0:0:0:0:
224,160,34747,1,0,0:0:0:0:
224,160,34798,1,0,0:0:0:0:
288,160,34900,1,8,0:0:0:0:
224,160,35036,1,0,0:0:0:0:
288,160,35104,1,8,0:0:0:0:
224,160,35308,1,0,0:0:0:0:
288,160,35444,1,8,0:0:0:0:
288,160,35648,1,8,0:0:0:0:
224,160,35716,1,0,0:0:0:0:
288,160,35920,1,8,0:0:0:0:
288,160,35988,1,8,0:0:0:0:
288,160,36056,1,8,0:0:0:0:
224,160,36124,1,0,0:0:0:0:
224,160,36260,1,0,0:0:0:0:
288,160,36328,1,8,0:0:0:0:
288,160,36396,1,8,0:0:0:0:
288,160,36464,1,8,0:0:0:0:
224,160,36532,1,0,0:0:0:0:
288,160,36634,1,8,0:0:0:0:
288,160,36838,1,8,0:0:0:0:
224,160,36941,1,0,0:0:0:0:
224,160,37043,1,0,0:0:0:0:
288,160,37145,1,8,0:0:0:0:
288,160,37247,1,8,0:0:0:0:
224,160,37451,1,0,0:0:0:0:
288,160,37553,1,8,0:0:0:0:
288,160,37604,1,8,0:0:0:0:
288,160,37655,1,8,0:0:0:0:
224,224,37757,1,4,0:0:0:0:
288,160,37961,1,8,0:0:0:0:
288,160,38063,1,8,0:0:0:0:
288,160,38165,1,8,0:0:0:0:
224,160,38267,1,0,0:0:0:0:
224,160,38369,1,0,0:0:0:0:
224,160,38471,1,0,0:0:0:0:
288,160,38573,1,8,0:0:0:0:
288,160,38675,1,8,0:0:0:0:
224,160,38777,1,0,0:0:0:0:
224,160,38879,1,0,0:0:0:0:
288,160,38981,1,8,0:0:0:0:
288,160,39185,1,8,0:0:0:0:
288,160,39253,1,8,0:0:0:0:
224,160,39321,1,0,0:0:0:0:
288,160,39390,1,8,0:0:0:0:
288,160,39594,1,8,0:0:0:0:
288,160,39696,1,8,0:0:0:0:
288,160,39798,1,8,0:0:0:0:
224,160,39900,1,0,0:0:0:0:
224,160,40002,1,0,0:0:0:0:
224,160,40104,1,0,0:0:0:0:
288,160,40206,1,8,0:0:0:0:
288,160,40274,1,8,0:0:0:0:
288,160,40342,1,8,0:0:0:0:
224,160,40410,1,0,0:0:0:0:
224,160,40512,1,0,0:0:0:0:
288,224,40614,1,12,0:0:0:0:
224,224,40818,1,4,0:0:0:0:
288,224,41022,5,12,0:0:0:0:
288,160,41175,1,8,0:0:0:0:
288,160,41226,1,8,0:0:0:0:
224,160,41277,1,0,0:0:0:0:
224,160,41328,1,0,0:0:0:0:
288,160,41430,1,8,0:0:0:0:
224,160,41566,1,0,0:0:0:0:
288,160,41634,1,8,0:0:0:0:
224,160,41838,1,0,0:0:0:0:
288,160,41966,1,8,0:0:0:0:
224,160,42017,1,0,0:0:0:0:
224,160,42068,1,0,0:0:0:0:
288,160,42145,1,8,0:0:0:0:
224,160,42247,1,0,0:0:0:0:
288,160,42451,1,8,0:0:0:0:
288,160,42519,1,8,0:0:0:0:
288,160,42587,1,8,0:0:0:0:
224,160,42655,1,0,0:0:0:0:
224,160,42791,1,0,0:0:0:0:
288,160,42859,1,8,0:0:0:0:
288,160,42927,1,8,0:0:0:0:
288,160,42995,1,8,0:0:0:0:
224,160,43063,1,0,0:0:0:0:
288,160,43165,1,8,0:0:0:0:
288,160,43369,1,8,0:0:0:0:
224,160,43471,1,0,0:0:0:0:
288,160,43573,1,8,0:0:0:0:
288,160,43675,1,8,0:0:0:0:
224,160,43777,1,0,0:0:0:0:
288,224,43879,1,12,0:0:0:0:
224,224,44083,1,4,0:0:0:0:
288,224,44287,1,12,0:0:0:0:
288,160,44441,1,8,0:0:0:0:
288,160,44492,1,8,0:0:0:0:
224,160,44543,1,0,0:0:0:0:
224,160,44594,1,0,0:0:0:0:
288,160,44696,1,8,0:0:0:0:
224,160,44832,1,0,0:0:0:0:
288,160,44900,1,8,0:0:0:0:
224,160,45104,1,0,0:0:0:0:
288,160,45231,1,8,0:0:0:0:
224,160,45282,1,0,0:0:0:0:
224,160,45333,1,0,0:0:0:0:
288,160,45410,1,8,0:0:0:0:
224,160,45512,1,0,0:0:0:0:
224,160,45716,1,0,0:0:0:0:
224,160,45784,1,0,0:0:0:0:
224,160,45852,1,0,0:0:0:0:
288,160,45920,1,8,0:0:0:0:
224,160,46022,1,0,0:0:0:0:
224,160,46073,1,0,0:0:0:0:
288,160,46124,1,8,0:0:0:0:
224,160,46226,1,0,0:0:0:0:
288,160,46328,1,8,0:0:0:0:
224,160,46430,1,0,0:0:0:0:
288,160,46532,1,8,0:0:0:0:
288,160,46634,1,8,0:0:0:0:
224,160,46736,1,0,0:0:0:0:
288,224,46941,1,12,0:0:0:0:
288,224,47145,1,12,0:0:0:0:
224,224,47349,1,4,0:0:0:0:
288,224,47553,1,12,0:0:0:0:
288,160,47706,1,8,0:0:0:0:
288,160,47757,1,8,0:0:0:0:
288,160,47808,1,8,0:0:0:0:
288,160,47859,1,8,0:0:0:0:
224,160,47961,1,0,0:0:0:0:
224,160,48097,1,0,0:0:0:0:
288,160,48165,1,8,0:0:0:0:
224,160,48369,1,0,0:0:0:0:
288,160,48497,1,8,0:0:0:0:
288,160,48548,1,8,0:0:0:0:
288,160,48599,1,8,0:0:0:0:
224,160,48675,1,0,0:0:0:0:
224,160,48981,1,0,0:0:0:0:
288,160,49117,1,8,0:0:0:0:
224,160,49185,1,0,0:0:0:0:
224,160,49321,1,0,0:0:0:0:
288,160,49390,1,8,0:0:0:0:
288,160,49458,1,8,0:0:0:0:
288,160,49526,1,8,0:0:0:0:
224,160,49594,1,0,0:0:0:0:
288,160,49696,1,8,0:0:0:0:
288,160,49900,1,8,0:0:0:0:
224,160,50002,1,0,0:0:0:0:
288,160,50129,1,8,0:0:0:0:
288,160,50180,1,8,0:0:0:0:
288,160,50231,1,8,0:0:0:0:
288,160,50308,1,8,0:0:0:0:
224,160,50410,1,0,0:0:0:0:
224,160,50461,1,0,0:0:0:0:
288,160,50512,1,8,0:0:0:0:
288,160,50563,1,8,0:0:0:0:
224,160,50614,1,0,0:0:0:0:
288,224,50818,1,12,0:0:0:0:
288,160,51022,1,8,0:0:0:0:
224,160,51124,1,0,0:0:0:0:
288,160,51226,1,8,0:0:0:0:
224,160,51328,1,0,0:0:0:0:
224,160,51430,1,0,0:0:0:0:
224,160,51532,1,0,0:0:0:0:
288,160,51634,1,8,0:0:0:0:
288,160,51736,1,8,0:0:0:0:
224,160,51838,1,0,0:0:0:0:
224,160,51941,1,0,0:0:0:0:
288,160,52043,1,8,0:0:0:0:
224,160,52145,1,0,0:0:0:0:
288,160,52247,1,8,0:0:0:0:
224,160,52349,1,0,0:0:0:0:
288,160,52451,1,8,0:0:0:0:
288,160,52553,1,8,0:0:0:0:
224,160,52655,1,0,0:0:0:0:
224,160,52723,1,0,0:0:0:0:
224,160,52791,1,0,0:0:0:0:
288,160,52859,1,8,0:0:0:0:
224,160,52961,1,0,0:0:0:0:
288,160,53063,1,8,0:0:0:0:
288,160,53165,1,8,0:0:0:0:
224,160,53267,1,0,0:0:0:0:
288,160,53335,1,8,0:0:0:0:
288,160,53403,1,8,0:0:0:0:
224,160,53471,1,0,0:0:0:0:
224,160,53573,1,0,0:0:0:0:
288,160,53675,1,8,0:0:0:0:
288,160,53743,1,8,0:0:0:0:
288,160,53811,1,8,0:0:0:0:
288,160,53879,1,8,0:0:0:0:
288,160,53981,1,8,0:0:0:0:
224,224,54083,1,4,0:0:0:0:
288,160,54696,5,8,0:0:0:0:
288,160,54900,1,8,0:0:0:0:
288,160,55512,1,8,0:0:0:0:
224,160,55716,1,0,0:0:0:0:
288,160,56328,1,8,0:0:0:0:
224,160,56532,1,0,0:0:0:0:
224,160,56634,1,0,0:0:0:0:
224,160,56838,1,0,0:0:0:0:
288,160,57145,1,8,0:0:0:0:
288,160,57349,1,8,0:0:0:0:
288,160,57961,1,8,0:0:0:0:
224,160,58165,1,0,0:0:0:0:
224,160,58777,1,0,0:0:0:0:
288,160,58981,1,8,0:0:0:0:
288,160,59594,1,8,0:0:0:0:
224,160,59798,1,0,0:0:0:0:
288,160,59900,1,8,0:0:0:0:
224,160,60104,1,0,0:0:0:0:
288,160,60410,1,8,0:0:0:0:
288,160,60614,1,8,0:0:0:0:
288,160,60920,1,8,0:0:0:0:
224,160,61226,1,0,0:0:0:0:
288,160,61430,1,8,0:0:0:0:
288,160,61736,1,8,0:0:0:0:
224,160,62043,1,0,0:0:0:0:
288,160,62247,1,8,0:0:0:0:
224,160,62553,1,0,0:0:0:0:
288,160,62859,1,8,0:0:0:0:
288,160,63063,1,8,0:0:0:0:
224,160,63165,1,0,0:0:0:0:
288,160,63369,1,8,0:0:0:0:
224,160,63471,1,0,0:0:0:0:
288,160,63675,1,8,0:0:0:0:
288,160,63879,1,8,0:0:0:0:
224,160,64083,1,0,0:0:0:0:
224,160,64287,1,0,0:0:0:0:
224,160,64492,1,0,0:0:0:0:
288,160,64696,1,8,0:0:0:0:
224,160,64798,1,0,0:0:0:0:
224,160,64900,1,0,0:0:0:0:
224,160,65002,1,0,0:0:0:0:
224,160,65104,1,0,0:0:0:0:
224,160,65206,1,0,0:0:0:0:
224,160,65308,1,0,0:0:0:0:
224,160,65410,1,0,0:0:0:0:
288,160,65512,1,8,0:0:0:0:
224,160,65716,1,0,0:0:0:0:
288,160,65818,1,8,0:0:0:0:
224,160,65920,1,0,0:0:0:0:
288,160,66124,1,8,0:0:0:0:
224,160,66328,1,0,0:0:0:0:
288,160,66430,1,8,0:0:0:0:
224,160,66532,1,0,0:0:0:0:
288,224,66736,1,12,0:0:0:0:
224,224,67145,5,4,0:0:0:0:
224,160,67553,1,0,0:0:0:0:
288,160,67757,1,8,0:0:0:0:
288,160,67859,1,8,0:0:0:0:
224,160,67961,1,0,0:0:0:0:
288,160,68165,1,8,0:0:0:0:
224,160,68369,1,0,0:0:0:0:
288,160,68505,1,8,0:0:0:0:
288,160,68573,1,8,0:0:0:0:
288,160,68709,1,8,0:0:0:0:
224,160,68777,1,0,0:0:0:0:
224,160,69185,1,0,0:0:0:0:
288,160,69390,1,8,0:0:0:0:
288,160,69526,1,8,0:0:0:0:
224,160,69594,1,0,0:0:0:0:
288,160,69730,1,8,0:0:0:0:
288,160,69798,1,8,0:0:0:0:
224,160,69934,1,0,0:0:0:0:
224,160,70002,1,0,0:0:0:0:
288,160,70138,1,8,0:0:0:0:
288,160,70206,1,8,0:0:0:0:
224,160,70410,1,0,0:0:0:0:
224,160,70818,1,0,0:0:0:0:
288,160,71022,1,8,0:0:0:0:
224,160,71226,1,0,0:0:0:0:
288,160,71362,1,8,0:0:0:0:
224,160,71430,1,0,0:0:0:0:
224,160,71566,1,0,0:0:0:0:
288,160,71634,1,8,0:0:0:0:
288,160,71770,1,8,0:0:0:0:
288,160,71838,1,8,0:0:0:0:
288,160,71975,1,8,0:0:0:0:
224,160,72043,1,0,0:0:0:0:
224,160,72451,1,0,0:0:0:0:
288,160,72655,1,8,0:0:0:0:
288,160,72791,1,8,0:0:0:0:
224,160,72859,1,0,0:0:0:0:
224,160,72995,1,0,0:0:0:0:
288,160,73063,1,8,0:0:0:0:
224,160,73267,1,0,0:0:0:0:
224,160,73403,1,0,0:0:0:0:
288,160,73471,1,8,0:0:0:0:
224,160,73675,1,0,0:0:0:0:
288,160,73879,1,8,0:0:0:0:
224,160,74083,1,0,0:0:0:0:
288,160,74287,1,8,0:0:0:0:
288,160,74424,1,8,0:0:0:0:
224,160,74492,1,0,0:0:0:0:
224,160,74628,1,0,0:0:0:0:
288,160,74696,1,8,0:0:0:0:
224,160,74900,1,0,0:0:0:0:
288,160,75036,1,8,0:0:0:0:
288,160,75104,1,8,0:0:0:0:
224,160,75308,1,0,0:0:0:0:
224,160,75444,1,0,0:0:0:0:
288,160,75512,1,8,0:0:0:0:
224,160,75648,1,0,0:0:0:0:
224,160,75716,1,0,0:0:0:0:
288,160,75920,1,8,0:0:0:0:
288,160,76056,1,8,0:0:0:0:
224,160,76124,1,0,0:0:0:0:
224,160,76260,1,0,0:0:0:0:
288,160,76328,1,8,0:0:0:0:
224,160,76430,1,0,0:0:0:0:
288,160,76736,1,8,0:0:0:0:
224,160,76838,1,0,0:0:0:0:
288,224,76941,1,12,0:0:0:0:
288,160,77145,1,8,0:0:0:0:
288,160,77349,1,8,0:0:0:0:
288,160,77553,1,8,0:0:0:0:
288,160,77757,1,8,0:0:0:0:
288,160,77961,1,8,0:0:0:0:
288,160,78165,1,8,0:0:0:0:
288,160,78369,1,8,0:0:0:0:
288,160,78573,1,8,0:0:0:0:
288,160,78675,1,8,0:0:0:0:
288,160,78777,1,8,0:0:0:0:
288,160,78879,1,8,0:0:0:0:
288,160,78981,1,8,0:0:0:0:
288,160,79083,1,8,0:0:0:0:
288,160,79185,1,8,0:0:0:0:
288,160,79287,1,8,0:0:0:0:
288,160,79390,1,8,0:0:0:0:
288,160,79492,1,8,0:0:0:0:
288,160,79594,1,8,0:0:0:0:
288,160,79696,1,8,0:0:0:0:
288,160,79798,1,8,0:0:0:0:
288,160,79900,1,8,0:0:0:0:
288,160,80002,1,8,0:0:0:0:
288,160,80104,1,8,0:0:0:0:
224,160,80206,1,0,0:0:0:0:
288,224,81226,5,12,0:0:0:0:
288,224,81430,1,12,0:0:0:0:
224,224,81634,1,4,0:0:0:0:
288,224,81838,1,12,0:0:0:0:
224,160,82043,1,0,0:0:0:0:
288,160,82145,1,8,0:0:0:0:
224,160,82247,1,0,0:0:0:0:
224,160,82349,1,0,0:0:0:0:
288,160,82553,1,8,0:0:0:0:
224,160,82757,1,0,0:0:0:0:
288,160,82859,1,8,0:0:0:0:
224,160,82961,1,0,0:0:0:0:
288,160,83063,1,8,0:0:0:0:
288,160,83165,1,8,0:0:0:0:
224,160,83267,1,0,0:0:0:0:
224,160,83369,1,0,0:0:0:0:
288,160,83471,1,8,0:0:0:0:
224,160,83675,1,0,0:0:0:0:
288,160,83777,1,8,0:0:0:0:
288,160,83981,1,8,0:0:0:0:
224,160,84083,1,0,0:0:0:0:
288,160,84134,1,8,0:0:0:0:
288,160,84185,1,8,0:0:0:0:
224,160,84287,1,0,0:0:0:0:
288,224,84492,1,12,0:0:0:0:
288,224,84696,1,12,0:0:0:0:
224,224,84900,1,4,0:0:0:0:
288,224,85104,1,12,0:0:0:0:
224,160,85308,1,0,0:0:0:0:
288,160,85410,1,8,0:0:0:0:
224,160,85512,1,0,0:0:0:0:
224,160,85614,1,0,0:0:0:0:
288,160,85818,1,8,0:0:0:0:
224,160,86022,1,0,0:0:0:0:
288,160,86124,1,8,0:0:0:0:
224,160,86226,1,0,0:0:0:0:
288,160,86328,1,8,0:0:0:0:
288,160,86430,1,8,0:0:0:0:
224,160,86532,1,0,0:0:0:0:
224,160,86634,1,0,0:0:0:0:
288,160,86736,1,8,0:0:0:0:
224,160,86838,1,0,0:0:0:0:
224,160,86941,1,0,0:0:0:0:
288,160,87043,1,8,0:0:0:0:
224,160,87247,1,0,0:0:0:0:
288,160,87349,1,8,0:0:0:0:
288,160,87400,1,8,0:0:0:0:
224,160,87451,1,0,0:0:0:0:
288,160,87655,1,8,0:0:0:0:
288,160,87706,1,8,0:0:0:0:
224,160,87757,1,0,0:0:0:0:
224,160,87859,1,0,0:0:0:0:
288,224,87961,1,12,0:0:0:0:
224,224,88165,1,4,0:0:0:0:
288,224,88369,1,12,0:0:0:0:
224,160,88573,1,0,0:0:0:0:
288,160,88675,1,8,0:0:0:0:
224,160,88777,1,0,0:0:0:0:
224,160,88879,1,0,0:0:0:0:
288,160,89083,1,8,0:0:0:0:
224,160,89287,1,0,0:0:0:0:
288,160,89390,1,8,0:0:0:0:
224,160,89492,1,0,0:0:0:0:
288,160,89594,1,8,0:0:0:0:
288,160,89696,1,8,0:0:0:0:
224,160,89798,1,0,0:0:0:0:
224,160,89900,1,0,0:0:0:0:
288,160,90002,1,8,0:0:0:0:
224,160,90206,1,0,0:0:0:0:
288,160,90308,1,8,0:0:0:0:
288,160,90512,1,8,0:0:0:0:
224,160,90614,1,0,0:0:0:0:
288,160,90665,1,8,0:0:0:0:
288,160,90716,1,8,0:0:0:0:
224,160,90818,1,0,0:0:0:0:
224,160,91022,1,0,0:0:0:0:
288,160,91090,1,8,0:0:0:0:
288,160,91158,1,8,0:0:0:0:
224,160,91226,1,0,0:0:0:0:
224,160,91328,1,0,0:0:0:0:
288,160,91430,1,8,0:0:0:0:
224,160,91532,1,0,0:0:0:0:
288,160,91634,1,8,0:0:0:0:
224,160,91838,1,0,0:0:0:0:
288,160,91941,1,8,0:0:0:0:
224,160,92145,1,0,0:0:0:0:
288,160,92247,1,8,0:0:0:0:
224,160,92349,1,0,0:0:0:0:
288,160,92451,1,8,0:0:0:0:
288,160,92655,1,8,0:0:0:0:
224,160,92757,1,0,0:0:0:0:
288,160,92961,1,8,0:0:0:0:
224,160,93063,1,0,0:0:0:0:
288,160,93165,1,8,0:0:0:0:
224,160,93267,1,0,0:0:0:0:
288,160,93471,1,8,0:0:0:0:
224,160,93573,1,0,0:0:0:0:
288,160,93675,1,8,0:0:0:0:
224,160,93879,1,0,0:0:0:0:
224,160,94083,1,0,0:0:0:0:
288,224,94287,1,12,0:0:0:0:
288,224,94492,1,12,0:0:0:0:
224,224,94696,1,4,0:0:0:0:
288,224,94900,1,12,0:0:0:0:
224,160,95104,1,0,0:0:0:0:
288,160,95206,1,8,0:0:0:0:
224,160,95308,1,0,0:0:0:0:
224,160,95410,1,0,0:0:0:0:
288,160,95614,1,8,0:0:0:0:
224,160,95818,1,0,0:0:0:0:
288,160,95920,1,8,0:0:0:0:
288,160,96022,1,8,0:0:0:0:
224,160,96124,1,0,0:0:0:0:
224,160,96226,1,0,0:0:0:0:
288,160,96328,1,8,0:0:0:0:
224,160,96430,1,0,0:0:0:0:
288,160,96532,1,8,0:0:0:0:
224,160,96736,1,0,0:0:0:0:
288,160,96838,1,8,0:0:0:0:
288,160,97043,1,8,0:0:0:0:
224,160,97145,1,0,0:0:0:0:
288,160,97196,1,8,0:0:0:0:
288,160,97247,1,8,0:0:0:0:
224,160,97349,1,0,0:0:0:0:
288,224,97553,1,12,0:0:0:0:
288,224,97757,1,12,0:0:0:0:
224,224,97961,1,4,0:0:0:0:
288,224,98165,1,12,0:0:0:0:
224,160,98369,1,0,0:0:0:0:
288,160,98471,1,8,0:0:0:0:
224,160,98573,1,0,0:0:0:0:
224,160,98675,1,0,0:0:0:0:
288,160,98879,1,8,0:0:0:0:
224,160,98981,1,0,0:0:0:0:
224,160,99083,1,0,0:0:0:0:
288,160,99185,1,8,0:0:0:0:
224,160,99287,1,0,0:0:0:0:
288,160,99390,1,8,0:0:0:0:
288,160,99492,1,8,0:0:0:0:
224,160,99594,1,0,0:0:0:0:
224,160,99696,1,0,0:0:0:0:
288,160,99798,1,8,0:0:0:0:
224,160,100002,1,0,0:0:0:0:
288,160,100104,1,8,0:0:0:0:
224,160,100206,1,0,0:0:0:0:
224,160,100308,1,0,0:0:0:0:
288,160,100410,1,8,0:0:0:0:
288,160,100461,1,8,0:0:0:0:
288,160,100512,1,0,0:0:0:0:
288,160,100716,1,8,0:0:0:0:
288,160,100767,1,8,0:0:0:0:
224,160,100818,1,0,0:0:0:0:
224,160,100920,1,0,0:0:0:0:
288,224,101022,1,12,0:0:0:0:
224,224,101226,1,4,0:0:0:0:
288,224,101430,1,12,0:0:0:0:
288,160,101736,1,8,0:0:0:0:
224,160,101838,1,0,0:0:0:0:
224,160,101941,1,0,0:0:0:0:
288,160,102145,1,8,0:0:0:0:
224,160,102451,1,0,0:0:0:0:
288,160,102655,1,8,0:0:0:0:
224,160,102723,1,0,0:0:0:0:
288,160,102791,1,8,0:0:0:0:
288,160,102859,1,8,0:0:0:0:
224,224,103063,1,4,0:0:0:0:
288,160,103369,1,8,0:0:0:0:
224,160,103675,1,0,0:0:0:0:
288,160,104083,1,8,0:0:0:0:
224,160,104185,1,0,0:0:0:0:
288,160,104287,1,8,0:0:0:0:
224,160,104390,1,0,0:0:0:0:
288,160,104492,1,8,0:0:0:0:
224,224,104696,1,4,0:0:0:0:
288,160,104798,1,8,0:0:0:0:
288,160,105002,1,8,0:0:0:0:
288,160,105308,1,8,0:0:0:0:
224,160,105512,1,0,0:0:0:0:
224,160,105716,1,0,0:0:0:0:
288,160,105920,1,8,0:0:0:0:
224,160,106022,1,0,0:0:0:0:
288,160,106124,1,8,0:0:0:0:
288,160,106226,1,8,0:0:0:0:
224,224,106328,1,4,0:0:0:0:
288,224,106430,1,12,0:0:0:0:
288,224,106736,1,12,0:0:0:0:
256,192,106838,12,0,107451,0:0:0:0:
224,160,107553,5,0,0:0:0:0:
224,160,107757,1,0,0:0:0:0:
288,224,107961,1,12,0:0:0:0:
224,160,108114,1,0,0:0:0:0:
224,160,108165,1,0,0:0:0:0:
224,160,108216,1,0,0:0:0:0:
224,160,108267,1,0,0:0:0:0:
288,160,108369,1,8,0:0:0:0:
224,160,108505,1,0,0:0:0:0:
288,160,108573,1,8,0:0:0:0:
224,160,108777,1,0,0:0:0:0:
288,160,108913,1,8,0:0:0:0:
288,160,109117,1,8,0:0:0:0:
224,160,109185,1,0,0:0:0:0:
224,160,109390,1,0,0:0:0:0:
224,160,109458,1,0,0:0:0:0:
224,160,109526,1,0,0:0:0:0:
288,160,109594,1,8,0:0:0:0:
288,160,109730,1,8,0:0:0:0:
224,160,109798,1,0,0:0:0:0:
224,160,109866,1,0,0:0:0:0:
224,160,109934,1,0,0:0:0:0:
288,160,110002,1,8,0:0:0:0:
288,160,110104,1,8,0:0:0:0:
288,160,110308,1,8,0:0:0:0:
224,160,110410,1,0,0:0:0:0:
288,160,110512,1,8,0:0:0:0:
288,160,110614,1,8,0:0:0:0:
224,160,110716,1,0,0:0:0:0:
288,160,110818,1,8,0:0:0:0:
224,160,110920,1,0,0:0:0:0:
288,160,111022,1,8,0:0:0:0:
224,224,111226,1,4,0:0:0:0:
224,160,111379,1,0,0:0:0:0:
224,160,111430,1,0,0:0:0:0:
224,160,111481,1,0,0:0:0:0:
224,160,111532,1,0,0:0:0:0:
288,160,111634,1,8,0:0:0:0:
224,160,111770,1,0,0:0:0:0:
288,160,111838,1,8,0:0:0:0:
224,160,112043,1,0,0:0:0:0:
288,160,112179,1,8,0:0:0:0:
288,160,112383,1,8,0:0:0:0:
224,160,112451,1,0,0:0:0:0:
288,160,112655,1,8,0:0:0:0:
288,160,112723,1,8,0:0:0:0:
288,160,112791,1,8,0:0:0:0:
224,160,112859,1,0,0:0:0:0:
288,160,112961,1,8,0:0:0:0:
288,160,113012,1,8,0:0:0:0:
224,160,113063,1,0,0:0:0:0:
288,160,113165,1,8,0:0:0:0:
224,160,113267,1,0,0:0:0:0:
224,160,113369,1,0,0:0:0:0:
288,160,113471,1,8,0:0:0:0:
288,160,113573,1,8,0:0:0:0:
224,160,113675,1,0,0:0:0:0:
288,160,113879,1,8,0:0:0:0:
224,160,113981,1,0,0:0:0:0:
288,160,114083,1,8,0:0:0:0:
288,160,114287,1,8,0:0:0:0:
288,160,114390,1,8,0:0:0:0:
224,160,114492,1,0,0:0:0:0:
224,160,114560,1,0,0:0:0:0:
224,160,114628,1,0,0:0:0:0:
224,160,114696,1,0,0:0:0:0:
224,160,114764,1,0,0:0:0:0:
224,160,114832,1,0,0:0:0:0:
288,224,114900,1,12,0:0:0:0:
288,160,115053,1,8,0:0:0:0:
288,160,115104,1,8,0:0:0:0:
224,160,115155,1,0,0:0:0:0:
224,160,115206,1,0,0:0:0:0:
288,160,115308,1,8,0:0:0:0:
224,160,115410,1,0,0:0:0:0:
224,160,115614,1,0,0:0:0:0:
224,160,115920,1,0,0:0:0:0:
224,160,116124,1,0,0:0:0:0:
288,160,116328,1,8,0:0:0:0:
288,160,116396,1,8,0:0:0:0:
288,160,116464,1,8,0:0:0:0:
224,160,116532,1,0,0:0:0:0:
288,160,116634,1,8,0:0:0:0:
288,160,116838,1,8,0:0:0:0:
224,160,117043,1,0,0:0:0:0:
288,160,117145,1,8,0:0:0:0:
224,160,117247,1,0,0:0:0:0:
288,160,117349,1,8,0:0:0:0:
288,160,117417,1,8,0:0:0:0:
288,160,117485,1,8,0:0:0:0:
224,160,117553,1,0,0:0:0:0:
224,160,117621,1,0,0:0:0:0:
224,160,117689,1,0,0:0:0:0:
288,160,117757,1,8,0:0:0:0:
288,160,117961,1,8,0:0:0:0:
288,160,118063,1,8,0:0:0:0:
288,160,118165,1,8,0:0:0:0:
224,160,118267,1,0,0:0:0:0:
224,160,118369,1,0,0:0:0:0:
224,160,118471,1,0,0:0:0:0:
288,160,118573,1,8,0:0:0:0:
288,160,118675,1,8,0:0:0:0:
224,160,118777,1,0,0:0:0:0:
224,160,118879,1,0,0:0:0:0:
288,160,118981,1,8,0:0:0:0:
224,160,119083,1,0,0:0:0:0:
288,160,119185,1,8,0:0:0:0:
224,160,119287,1,0,0:0:0:0:
288,160,119390,1,8,0:0:0:0:
288,160,119492,1,8,0:0:0:0:
288,160,119696,1,8,0:0:0:0:
288,160,119900,1,8,0:0:0:0:
224,224,120206,1,4,0:0:0:0:
288,224,120512,1,12,0:0:0:0:
