osu file format v14

[General]
AudioFilename: audio.mp3
AudioLeadIn: 0
PreviewTime: 81226
Countdown: 0
SampleSet: Normal
StackLeniency: 0.2
Mode: 3
LetterboxInBreaks: 0
SpecialStyle: 0
WidescreenStoryboard: 1

[Editor]
Bookmarks: 14900,27961,67145,81838,94083,94900,107961
DistanceSpacing: 0.3
BeatDivisor: 4
GridSize: 32
TimelineZoom: 1.999999

[Metadata]
Title:PAPAYAPA BASS
TitleUnicode:PAPAYAPA BASS
Artist:Camellia feat. Nanahira
ArtistUnicode:かめりあ feat. ななひら
Creator:Nwolf
Version:Drago's Payapa
Source:beatmania IIDX 24 SINOBUZ
Tags:( •̀ ω•́ ) Deif dergo ntiger owo rawr juan loves nanahira weeb cocktail beach papaya
BeatmapID:2189515
BeatmapSetID:584714

[Difficulty]
HPDrainRate:8
CircleSize:4
OverallDifficulty:7.7
ApproachRate:9
SliderMultiplier:1.4
SliderTickRate:1

[Events]
//Background and Video events
0,0,"cocktails.jpg",0,0
//Break Periods
//Storyboard Layer 0 (Background)
//Storyboard Layer 1 (Fail)
//Storyboard Layer 2 (Pass)
//Storyboard Layer 3 (Foreground)
//Storyboard Layer 4 (Overlay)
//Storyboard Sound Samples

[TimingPoints]
207,408.163265306122,4,1,0,70,1,8
1839,408.163265306122,4,1,0,70,1,0
14900,-100,4,1,0,70,0,1
27961,-100,4,1,0,70,0,0
81838,-100,4,1,0,70,0,1
94083,-100,4,1,0,70,0,0
94900,-100,4,1,0,70,0,1
107961,-100,4,1,0,70,0,0

[HitObjects]
64,192,1227,128,0,1380:0:0:0:0:
192,192,1252,128,0,1380:0:0:0:0:
320,192,1278,128,0,1380:0:0:0:0:
448,192,1431,128,0,1584:0:0:0:0:
320,192,1456,128,0,1584:0:0:0:0:
192,192,1482,128,0,1584:0:0:0:0:
64,192,1635,128,0,1788:0:0:0:0:
192,192,1661,128,0,1788:0:0:0:0:
448,192,1686,128,0,1788:0:0:0:0:
64,192,1839,1,0,0:0:0:0:
192,192,1839,1,0,0:0:0:0:
320,192,1839,1,0,0:0:0:0:
448,192,1839,1,0,0:0:0:0:
192,192,2145,1,0,0:0:0:0:
64,192,2145,1,0,0:0:0:0:
192,192,2247,1,0,0:0:0:0:
448,192,2247,1,0,0:0:0:0:
448,192,2349,1,0,0:0:0:0:
320,192,2553,1,0,0:0:0:0:
192,192,2578,128,0,3369:0:0:0:0:
64,192,2859,128,0,3981:0:0:0:0:
320,192,3063,128,0,3675:0:0:0:0:
448,192,3267,128,0,3981:0:0:0:0:
192,192,3471,128,0,4083:0:0:0:0:
320,192,3777,128,0,4083:0:0:0:0:
64,192,4083,128,0,4287:0:0:0:0:
448,192,4083,128,0,4287:0:0:0:0:
64,192,4492,128,0,4645:0:0:0:0:
192,192,4517,128,0,4645:0:0:0:0:
320,192,4543,128,0,4645:0:0:0:0:
448,192,4696,128,0,4849:0:0:0:0:
320,192,4721,128,0,4849:0:0:0:0:
192,192,4747,128,0,4849:0:0:0:0:
64,192,4900,128,0,5053:0:0:0:0:
192,192,4925,128,0,5053:0:0:0:0:
448,192,4951,128,0,5053:0:0:0:0:
320,192,5104,1,0,0:0:0:0:
448,192,5104,1,0,0:0:0:0:
64,192,5104,1,0,0:0:0:0:
192,192,5410,1,0,0:0:0:0:
64,192,5410,1,0,0:0:0:0:
448,192,5512,1,0,0:0:0:0:
192,192,5512,1,0,0:0:0:0:
448,192,5614,1,0,0:0:0:0:
320,192,5818,1,0,0:0:0:0:
192,192,5844,128,0,6634:0:0:0:0:
64,192,6124,128,0,7451:0:0:0:0:
320,192,6328,128,0,6941:0:0:0:0:
448,192,6532,128,0,7247:0:0:0:0:
192,192,6736,128,0,7349:0:0:0:0:
320,192,7043,128,0,7247:0:0:0:0:
448,192,7349,128,0,7757:0:0:0:0:
320,192,7349,128,0,7553:0:0:0:0:
192,192,7451,1,0,0:0:0:0:
64,192,7553,1,0,0:0:0:0:
320,192,7655,1,0,0:0:0:0:
64,192,7757,128,0,7910:0:0:0:0:
192,192,7782,128,0,7910:0:0:0:0:
320,192,7808,128,0,7910:0:0:0:0:
448,192,7859,1,0,0:0:0:0:
448,192,7961,128,0,8114:0:0:0:0:
320,192,7986,128,0,8114:0:0:0:0:
192,192,8012,128,0,8114:0:0:0:0:
64,192,8063,1,0,0:0:0:0:
64,192,8165,128,0,8318:0:0:0:0:
192,192,8191,128,0,8318:0:0:0:0:
448,192,8216,128,0,8318:0:0:0:0:
320,192,8267,1,0,0:0:0:0:
192,192,8369,1,0,0:0:0:0:
448,192,8369,1,0,0:0:0:0:
320,192,8369,1,0,0:0:0:0:
64,192,8369,1,0,0:0:0:0:
192,192,8675,1,0,0:0:0:0:
64,192,8675,1,0,0:0:0:0:
192,192,8777,1,0,0:0:0:0:
448,192,8777,1,0,0:0:0:0:
320,192,8777,1,0,0:0:0:0:
448,192,8879,1,0,0:0:0:0:
320,192,9083,1,0,0:0:0:0:
192,192,9109,128,0,9696:0:0:0:0:
64,192,9185,1,0,0:0:0:0:
320,192,9185,1,0,0:0:0:0:
448,192,9185,1,0,0:0:0:0:
64,192,9390,128,0,9492:0:0:0:0:
320,192,9492,1,0,0:0:0:0:
448,192,9492,1,0,0:0:0:0:
320,192,9594,128,0,10206:0:0:0:0:
64,192,9594,128,0,9900:0:0:0:0:
448,192,9798,128,0,10308:0:0:0:0:
192,192,9798,128,0,9900:0:0:0:0:
192,192,10002,128,0,10614:0:0:0:0:
64,192,10002,128,0,10308:0:0:0:0:
320,192,10308,128,0,10614:0:0:0:0:
64,192,10410,128,0,10512:0:0:0:0:
448,192,10410,128,0,10512:0:0:0:0:
64,192,10614,128,0,10716:0:0:0:0:
448,192,10614,128,0,10716:0:0:0:0:
192,192,10818,1,0,0:0:0:0:
320,192,10818,1,0,0:0:0:0:
448,192,10818,1,0,0:0:0:0:
192,192,10920,1,0,0:0:0:0:
64,192,10920,1,0,0:0:0:0:
320,192,11124,1,0,0:0:0:0:
64,192,11124,1,0,0:0:0:0:
192,192,11124,1,0,0:0:0:0:
448,192,11226,128,0,11634:0:0:0:0:
320,192,11226,1,0,0:0:0:0:
320,192,11430,1,0,0:0:0:0:
192,192,11430,1,0,0:0:0:0:
64,192,11430,1,0,0:0:0:0:
192,192,11634,1,0,0:0:0:0:
64,192,11634,1,0,0:0:0:0:
192,192,11736,1,0,0:0:0:0:
448,192,11736,1,0,0:0:0:0:
320,192,11838,1,0,0:0:0:0:
64,192,11838,1,0,0:0:0:0:
320,192,11941,1,0,0:0:0:0:
448,192,11941,1,0,0:0:0:0:
192,192,12043,1,0,0:0:0:0:
64,192,12043,1,0,0:0:0:0:
64,192,12145,1,0,0:0:0:0:
320,192,12145,1,0,0:0:0:0:
192,192,12247,1,0,0:0:0:0:
448,192,12247,1,0,0:0:0:0:
448,192,12349,1,0,0:0:0:0:
320,192,12349,1,0,0:0:0:0:
192,192,12451,1,0,0:0:0:0:
64,192,12451,1,0,0:0:0:0:
192,192,12553,1,0,0:0:0:0:
448,192,12553,1,0,0:0:0:0:
320,192,12655,1,0,0:0:0:0:
64,192,12655,1,0,0:0:0:0:
320,192,12757,1,0,0:0:0:0:
64,192,12757,1,0,0:0:0:0:
192,192,12859,1,0,0:0:0:0:
448,192,12859,1,0,0:0:0:0:
320,192,12961,1,0,0:0:0:0:
448,192,12961,1,0,0:0:0:0:
192,192,13063,1,0,0:0:0:0:
64,192,13063,1,0,0:0:0:0:
448,192,13165,1,0,0:0:0:0:
320,192,13165,1,0,0:0:0:0:
192,192,13267,1,0,0:0:0:0:
64,192,13267,1,0,0:0:0:0:
448,192,13318,1,0,0:0:0:0:
320,192,13369,1,0,0:0:0:0:
64,192,13420,1,0,0:0:0:0:
192,192,13471,1,0,0:0:0:0:
448,192,13471,1,0,0:0:0:0:
320,192,13522,1,0,0:0:0:0:
192,192,13573,1,0,0:0:0:0:
320,192,13624,1,0,0:0:0:0:
448,192,13675,1,0,0:0:0:0:
64,192,13675,1,0,0:0:0:0:
192,192,13726,1,0,0:0:0:0:
320,192,13777,1,0,0:0:0:0:
448,192,13828,1,0,0:0:0:0:
64,192,13879,1,0,0:0:0:0:
192,192,13879,1,0,0:0:0:0:
320,192,13930,1,0,0:0:0:0:
64,192,13981,1,0,0:0:0:0:
448,192,14032,1,0,0:0:0:0:
192,192,14083,1,0,0:0:0:0:
320,192,14083,1,0,0:0:0:0:
64,192,14287,128,0,14441:0:0:0:0:
192,192,14313,128,0,14441:0:0:0:0:
320,192,14338,128,0,14441:0:0:0:0:
448,192,14492,128,0,14645:0:0:0:0:
320,192,14517,128,0,14645:0:0:0:0:
192,192,14543,128,0,14645:0:0:0:0:
64,192,14696,128,0,14849:0:0:0:0:
192,192,14721,128,0,14849:0:0:0:0:
448,192,14747,128,0,14849:0:0:0:0:
192,192,14900,1,0,0:0:0:0:
448,192,14900,1,0,0:0:0:0:
320,192,14900,1,0,0:0:0:0:
64,192,14900,1,0,0:0:0:0:
448,192,15104,1,0,0:0:0:0:
448,192,15206,1,0,0:0:0:0:
320,192,15206,1,0,0:0:0:0:
320,192,15308,1,0,0:0:0:0:
64,192,15308,1,0,0:0:0:0:
64,192,15410,1,0,0:0:0:0:
192,192,15512,1,0,0:0:0:0:
448,192,15512,1,0,0:0:0:0:
64,192,15614,128,0,16022:0:0:0:0:
192,192,15716,1,0,0:0:0:0:
320,192,15716,1,0,0:0:0:0:
448,192,15716,1,0,0:0:0:0:
448,192,15920,128,0,16226:0:0:0:0:
192,192,16022,1,0,0:0:0:0:
192,192,16124,128,0,16430:0:0:0:0:
64,192,16124,1,0,0:0:0:0:
320,192,16124,1,0,0:0:0:0:
320,192,16328,128,0,16634:0:0:0:0:
448,192,16328,1,0,0:0:0:0:
64,192,16532,128,0,16838:0:0:0:0:
192,192,16532,1,0,0:0:0:0:
448,192,16532,1,0,0:0:0:0:
320,192,16736,1,0,0:0:0:0:
448,192,16838,128,0,17043:0:0:0:0:
320,192,16941,1,0,0:0:0:0:
192,192,16941,1,0,0:0:0:0:
64,192,16941,1,0,0:0:0:0:
192,192,17145,1,0,0:0:0:0:
320,192,17170,1,0,0:0:0:0:
64,192,17196,1,0,0:0:0:0:
448,192,17221,1,0,0:0:0:0:
192,192,17349,1,0,0:0:0:0:
448,192,17349,1,0,0:0:0:0:
320,192,17349,1,0,0:0:0:0:
64,192,17553,128,0,17706:0:0:0:0:
192,192,17578,128,0,17706:0:0:0:0:
320,192,17604,128,0,17706:0:0:0:0:
448,192,17757,128,0,17910:0:0:0:0:
320,192,17782,128,0,17910:0:0:0:0:
192,192,17808,128,0,17910:0:0:0:0:
64,192,17961,128,0,18114:0:0:0:0:
192,192,17986,128,0,18114:0:0:0:0:
448,192,18012,128,0,18114:0:0:0:0:
320,192,18165,1,0,0:0:0:0:
64,192,18165,1,0,0:0:0:0:
192,192,18165,1,0,0:0:0:0:
448,192,18165,1,0,0:0:0:0:
64,192,18369,1,0,0:0:0:0:
448,192,18471,1,0,0:0:0:0:
320,192,18471,1,0,0:0:0:0:
320,192,18573,1,0,0:0:0:0:
192,192,18573,1,0,0:0:0:0:
64,192,18573,1,0,0:0:0:0:
64,192,18675,1,0,0:0:0:0:
320,192,18777,1,0,0:0:0:0:
448,192,18879,128,0,19287:0:0:0:0:
320,192,18981,1,0,0:0:0:0:
64,192,18981,1,0,0:0:0:0:
192,192,18981,1,0,0:0:0:0:
192,192,19185,128,0,19492:0:0:0:0:
64,192,19185,1,0,0:0:0:0:
320,192,19287,1,0,0:0:0:0:
64,192,19390,128,0,19696:0:0:0:0:
320,192,19390,1,0,0:0:0:0:
448,192,19390,1,0,0:0:0:0:
320,192,19594,128,0,19900:0:0:0:0:
448,192,19594,1,0,0:0:0:0:
448,192,19798,128,0,20002:0:0:0:0:
192,192,19798,1,0,0:0:0:0:
64,192,19798,1,0,0:0:0:0:
320,192,20002,1,0,0:0:0:0:
64,192,20002,1,0,0:0:0:0:
448,192,20104,128,0,20308:0:0:0:0:
320,192,20206,1,0,0:0:0:0:
192,192,20206,1,0,0:0:0:0:
64,192,20206,1,0,0:0:0:0:
448,192,20410,128,0,20971:0:0:0:0:
320,192,20410,1,0,0:0:0:0:
64,192,20410,128,0,20614:0:0:0:0:
192,192,20614,1,0,0:0:0:0:
320,192,20614,1,0,0:0:0:0:
64,192,20716,1,0,0:0:0:0:
64,192,20818,128,0,20971:0:0:0:0:
192,192,20844,128,0,20971:0:0:0:0:
320,192,20869,128,0,20971:0:0:0:0:
448,192,21022,128,0,21175:0:0:0:0:
64,192,21022,1,0,0:0:0:0:
320,192,21048,128,0,21175:0:0:0:0:
192,192,21073,128,0,21175:0:0:0:0:
64,192,21226,128,0,21379:0:0:0:0:
192,192,21252,128,0,21379:0:0:0:0:
448,192,21277,128,0,21379:0:0:0:0:
192,192,21430,1,0,0:0:0:0:
448,192,21430,1,0,0:0:0:0:
320,192,21430,1,0,0:0:0:0:
64,192,21430,1,0,0:0:0:0:
64,192,21634,1,0,0:0:0:0:
320,192,21736,1,0,0:0:0:0:
64,192,21838,1,0,0:0:0:0:
192,192,21838,1,0,0:0:0:0:
320,192,21838,1,0,0:0:0:0:
448,192,21838,1,0,0:0:0:0:
64,192,21941,1,0,0:0:0:0:
192,192,21941,1,0,0:0:0:0:
448,192,22043,1,0,0:0:0:0:
64,192,22145,1,0,0:0:0:0:
64,192,22247,1,0,0:0:0:0:
192,192,22247,1,0,0:0:0:0:
320,192,22247,1,0,0:0:0:0:
448,192,22247,1,0,0:0:0:0:
192,192,22349,1,0,0:0:0:0:
448,192,22451,1,0,0:0:0:0:
448,192,22553,1,0,0:0:0:0:
320,192,22553,1,0,0:0:0:0:
192,192,22553,1,0,0:0:0:0:
64,192,22553,1,0,0:0:0:0:
192,192,22655,1,0,0:0:0:0:
320,192,22757,1,0,0:0:0:0:
64,192,22859,1,0,0:0:0:0:
192,192,22859,1,0,0:0:0:0:
320,192,22859,1,0,0:0:0:0:
448,192,22859,1,0,0:0:0:0:
448,192,23063,1,0,0:0:0:0:
320,192,23063,1,0,0:0:0:0:
192,192,23063,1,0,0:0:0:0:
64,192,23063,1,0,0:0:0:0:
64,192,23165,1,0,0:0:0:0:
64,192,23267,1,0,0:0:0:0:
448,192,23267,1,0,0:0:0:0:
448,192,23369,1,0,0:0:0:0:
448,192,23471,1,0,0:0:0:0:
320,192,23471,1,0,0:0:0:0:
64,192,23471,1,0,0:0:0:0:
192,192,23471,1,0,0:0:0:0:
192,192,23675,1,0,0:0:0:0:
320,192,23701,1,0,0:0:0:0:
64,192,23726,1,0,0:0:0:0:
448,192,23752,1,0,0:0:0:0:
448,192,23879,1,0,0:0:0:0:
320,192,23879,1,0,0:0:0:0:
192,192,23879,1,0,0:0:0:0:
64,192,23879,1,0,0:0:0:0:
192,192,24083,1,0,0:0:0:0:
448,192,24083,1,0,0:0:0:0:
448,192,24185,1,0,0:0:0:0:
64,192,24185,1,0,0:0:0:0:
192,192,24185,1,0,0:0:0:0:
320,192,24185,1,0,0:0:0:0:
448,192,24287,1,0,0:0:0:0:
192,192,24287,1,0,0:0:0:0:
448,192,24492,1,0,0:0:0:0:
320,192,24492,1,0,0:0:0:0:
192,192,24492,1,0,0:0:0:0:
64,192,24492,1,0,0:0:0:0:
320,192,24696,1,0,0:0:0:0:
192,192,24696,1,0,0:0:0:0:
64,192,24696,1,0,0:0:0:0:
448,192,24696,1,0,0:0:0:0:
320,192,24798,1,0,0:0:0:0:
192,192,24798,128,0,24900:0:0:0:0:
448,192,24900,1,0,0:0:0:0:
320,192,25002,128,0,25104:0:0:0:0:
192,192,25002,128,0,25206:0:0:0:0:
320,192,25206,1,0,0:0:0:0:
448,192,25308,1,0,0:0:0:0:
192,192,25308,128,0,25410:0:0:0:0:
320,192,25410,1,0,0:0:0:0:
64,192,25512,1,0,0:0:0:0:
320,192,25512,128,0,25614:0:0:0:0:
192,192,25614,1,0,0:0:0:0:
64,192,25716,1,0,0:0:0:0:
320,192,25716,128,0,25818:0:0:0:0:
192,192,25818,1,0,0:0:0:0:
448,192,25920,1,0,0:0:0:0:
192,192,25920,128,0,26022:0:0:0:0:
320,192,26022,1,0,0:0:0:0:
64,192,26124,1,0,0:0:0:0:
320,192,26124,128,0,26226:0:0:0:0:
192,192,26226,1,0,0:0:0:0:
448,192,26328,128,0,26532:0:0:0:0:
320,192,26328,128,0,26507:0:0:0:0:
192,192,26328,128,0,26481:0:0:0:0:
64,192,26328,128,0,26456:0:0:0:0:
64,192,26736,128,0,27553:0:0:0:0:
192,192,26736,128,0,27145:0:0:0:0:
320,192,26736,128,0,27349:0:0:0:0:
448,192,26736,128,0,27043:0:0:0:0:
448,192,27145,1,0,0:0:0:0:
192,192,27247,1,0,0:0:0:0:
448,192,27349,1,0,0:0:0:0:
320,192,27451,1,0,0:0:0:0:
448,192,27553,128,0,27961:0:0:0:0:
192,192,27553,1,0,0:0:0:0:
320,192,27655,128,0,27859:0:0:0:0:
320,192,27961,128,0,28063:0:0:0:0:
192,192,27961,128,0,28267:0:0:0:0:
64,192,27961,128,0,28165:0:0:0:0:
448,192,28063,128,0,28267:0:0:0:0:
64,192,28369,1,0,0:0:0:0:
192,192,28369,1,0,0:0:0:0:
320,192,28369,1,0,0:0:0:0:
320,192,28471,1,0,0:0:0:0:
64,192,28573,128,0,28675:0:0:0:0:
320,192,28777,1,0,0:0:0:0:
192,192,28777,1,0,0:0:0:0:
64,192,28777,1,0,0:0:0:0:
64,192,28879,128,0,28981:0:0:0:0:
64,192,29083,128,0,29185:0:0:0:0:
192,192,29185,1,0,0:0:0:0:
320,192,29185,1,0,0:0:0:0:
448,192,29185,1,0,0:0:0:0:
64,192,29390,1,0,0:0:0:0:
64,192,29492,1,0,0:0:0:0:
448,192,29543,1,0,0:0:0:0:
320,192,29594,1,0,0:0:0:0:
192,192,29594,128,0,29951:0:0:0:0:
64,192,29594,128,0,29849:0:0:0:0:
320,192,29798,1,0,0:0:0:0:
320,192,29900,1,0,0:0:0:0:
320,192,30002,1,0,0:0:0:0:
64,192,30002,1,0,0:0:0:0:
448,192,30002,1,0,0:0:0:0:
320,192,30104,128,0,30206:0:0:0:0:
64,192,30206,128,0,30308:0:0:0:0:
448,192,30308,128,0,30512:0:0:0:0:
320,192,30410,1,0,0:0:0:0:
192,192,30410,1,0,0:0:0:0:
64,192,30410,1,0,0:0:0:0:
320,192,30512,1,0,0:0:0:0:
64,192,30512,128,0,30614:0:0:0:0:
320,192,30614,128,0,30716:0:0:0:0:
192,192,30716,128,0,30767:0:0:0:0:
448,192,30818,128,0,30920:0:0:0:0:
192,192,30920,128,0,30971:0:0:0:0:
64,192,30920,128,0,31022:0:0:0:0:
192,192,31022,128,0,31073:0:0:0:0:
448,192,31022,128,0,31226:0:0:0:0:
192,192,31124,128,0,31175:0:0:0:0:
320,192,31226,128,0,31430:0:0:0:0:
192,192,31226,128,0,31481:0:0:0:0:
64,192,31226,128,0,31532:0:0:0:0:
192,192,31634,1,0,0:0:0:0:
320,192,31634,1,0,0:0:0:0:
448,192,31634,1,0,0:0:0:0:
64,192,31838,128,0,31941:0:0:0:0:
192,192,32043,1,0,0:0:0:0:
448,192,32043,1,0,0:0:0:0:
320,192,32043,1,0,0:0:0:0:
64,192,32145,128,0,32247:0:0:0:0:
64,192,32349,128,0,32451:0:0:0:0:
192,192,32451,1,0,0:0:0:0:
320,192,32451,1,0,0:0:0:0:
448,192,32451,1,0,0:0:0:0:
448,192,32655,1,0,0:0:0:0:
320,192,32723,1,0,0:0:0:0:
448,192,32791,1,0,0:0:0:0:
64,192,32859,1,0,0:0:0:0:
192,192,32859,1,0,0:0:0:0:
320,192,32859,128,0,33165:0:0:0:0:
64,192,32961,128,0,33063:0:0:0:0:
64,192,33165,1,0,0:0:0:0:
64,192,33267,1,0,0:0:0:0:
192,192,33267,1,0,0:0:0:0:
320,192,33267,128,0,33573:0:0:0:0:
192,192,33369,128,0,33471:0:0:0:0:
448,192,33471,128,0,33573:0:0:0:0:
320,192,33675,128,0,33981:0:0:0:0:
192,192,33675,1,0,0:0:0:0:
64,192,33675,1,0,0:0:0:0:
64,192,33879,1,0,0:0:0:0:
64,192,33981,128,0,34083:0:0:0:0:
448,192,33981,1,0,0:0:0:0:
192,192,34083,1,0,0:0:0:0:
448,192,34083,128,0,34390:0:0:0:0:
192,192,34287,128,0,34390:0:0:0:0:
64,192,34287,128,0,34492:0:0:0:0:
192,192,34492,128,0,34594:0:0:0:0:
320,192,34492,128,0,34798:0:0:0:0:
448,192,34492,128,0,34696:0:0:0:0:
64,192,34594,128,0,34798:0:0:0:0:
448,192,34900,1,0,0:0:0:0:
320,192,34900,1,0,0:0:0:0:
192,192,34900,1,0,0:0:0:0:
192,192,35002,1,0,0:0:0:0:
448,192,35104,128,0,35206:0:0:0:0:
192,192,35308,1,0,0:0:0:0:
320,192,35308,1,0,0:0:0:0:
448,192,35308,1,0,0:0:0:0:
448,192,35410,128,0,35512:0:0:0:0:
448,192,35614,128,0,35716:0:0:0:0:
320,192,35716,1,0,0:0:0:0:
192,192,35716,1,0,0:0:0:0:
64,192,35716,1,0,0:0:0:0:
448,192,35920,1,0,0:0:0:0:
448,192,36022,1,0,0:0:0:0:
64,192,36073,1,0,0:0:0:0:
192,192,36124,1,0,0:0:0:0:
320,192,36124,128,0,36481:0:0:0:0:
448,192,36124,128,0,36379:0:0:0:0:
192,192,36328,1,0,0:0:0:0:
192,192,36430,1,0,0:0:0:0:
192,192,36532,1,0,0:0:0:0:
448,192,36532,1,0,0:0:0:0:
64,192,36532,1,0,0:0:0:0:
192,192,36634,128,0,36736:0:0:0:0:
448,192,36736,128,0,36838:0:0:0:0:
64,192,36838,128,0,37043:0:0:0:0:
192,192,36941,1,0,0:0:0:0:
320,192,36941,1,0,0:0:0:0:
448,192,36941,1,0,0:0:0:0:
192,192,37043,1,0,0:0:0:0:
448,192,37043,128,0,37145:0:0:0:0:
320,192,37145,128,0,37196:0:0:0:0:
320,192,37247,128,0,37349:0:0:0:0:
64,192,37349,128,0,37451:0:0:0:0:
192,192,37349,1,0,0:0:0:0:
448,192,37349,1,0,0:0:0:0:
320,192,37451,128,0,37502:0:0:0:0:
448,192,37451,128,0,37553:0:0:0:0:
320,192,37553,128,0,37706:0:0:0:0:
64,192,37553,128,0,37757:0:0:0:0:
192,192,37757,1,0,0:0:0:0:
320,192,37757,1,0,0:0:0:0:
448,192,37757,128,0,38063:0:0:0:0:
192,192,37961,1,0,0:0:0:0:
320,192,37961,128,0,38063:0:0:0:0:
192,192,38063,1,0,0:0:0:0:
64,192,38165,1,0,0:0:0:0:
448,192,38165,1,0,0:0:0:0:
320,192,38165,128,0,38471:0:0:0:0:
192,192,38267,1,0,0:0:0:0:
64,192,38369,1,0,0:0:0:0:
448,192,38369,128,0,38471:0:0:0:0:
192,192,38471,1,0,0:0:0:0:
64,192,38573,1,0,0:0:0:0:
448,192,38573,1,0,0:0:0:0:
320,192,38573,128,0,38777:0:0:0:0:
192,192,38675,1,0,0:0:0:0:
64,192,38777,1,0,0:0:0:0:
448,192,38777,128,0,38879:0:0:0:0:
192,192,38879,1,0,0:0:0:0:
320,192,38879,1,0,0:0:0:0:
64,192,38981,1,0,0:0:0:0:
320,192,38981,1,0,0:0:0:0:
448,192,38981,1,0,0:0:0:0:
64,192,39185,1,0,0:0:0:0:
320,192,39185,128,0,39287:0:0:0:0:
64,192,39287,128,0,39390:0:0:0:0:
192,192,39390,1,0,0:0:0:0:
320,192,39390,1,0,0:0:0:0:
448,192,39390,128,0,39696:0:0:0:0:
192,192,39594,1,0,0:0:0:0:
320,192,39594,128,0,39696:0:0:0:0:
192,192,39696,1,0,0:0:0:0:
64,192,39798,1,0,0:0:0:0:
448,192,39798,1,0,0:0:0:0:
320,192,39798,128,0,40104:0:0:0:0:
192,192,39900,1,0,0:0:0:0:
64,192,40002,1,0,0:0:0:0:
448,192,40002,128,0,40104:0:0:0:0:
192,192,40104,1,0,0:0:0:0:
64,192,40206,1,0,0:0:0:0:
320,192,40206,1,0,0:0:0:0:
448,192,40206,1,0,0:0:0:0:
192,192,40308,1,0,0:0:0:0:
64,192,40410,128,0,40563:0:0:0:0:
192,192,40435,128,0,40563:0:0:0:0:
320,192,40461,128,0,40563:0:0:0:0:
448,192,40512,1,0,0:0:0:0:
448,192,40614,128,0,40767:0:0:0:0:
320,192,40640,128,0,40767:0:0:0:0:
192,192,40665,128,0,40767:0:0:0:0:
64,192,40818,128,0,40971:0:0:0:0:
192,192,40844,128,0,40971:0:0:0:0:
448,192,40869,128,0,40971:0:0:0:0:
448,192,41022,1,0,0:0:0:0:
64,192,41022,128,0,41328:0:0:0:0:
192,192,41022,128,0,41277:0:0:0:0:
320,192,41022,128,0,41226:0:0:0:0:
192,192,41430,1,0,0:0:0:0:
320,192,41430,1,0,0:0:0:0:
448,192,41430,1,0,0:0:0:0:
448,192,41634,128,0,41736:0:0:0:0:
320,192,41838,1,0,0:0:0:0:
192,192,41838,1,0,0:0:0:0:
64,192,41838,1,0,0:0:0:0:
448,192,41941,128,0,41992:0:0:0:0:
320,192,41992,128,0,42043:0:0:0:0:
448,192,42043,128,0,42094:0:0:0:0:
448,192,42145,128,0,42196:0:0:0:0:
320,192,42247,1,0,0:0:0:0:
192,192,42247,1,0,0:0:0:0:
64,192,42247,1,0,0:0:0:0:
64,192,42451,128,0,42519:0:0:0:0:
448,192,42519,128,0,42587:0:0:0:0:
64,192,42587,128,0,42655:0:0:0:0:
320,192,42655,128,0,42961:0:0:0:0:
192,192,42655,128,0,42757:0:0:0:0:
448,192,42655,128,0,42859:0:0:0:0:
192,192,42859,1,0,0:0:0:0:
192,192,42961,1,0,0:0:0:0:
320,192,43063,1,0,0:0:0:0:
448,192,43063,1,0,0:0:0:0:
64,192,43063,1,0,0:0:0:0:
192,192,43165,1,0,0:0:0:0:
448,192,43165,1,0,0:0:0:0:
448,192,43267,128,0,43369:0:0:0:0:
64,192,43369,128,0,43471:0:0:0:0:
192,192,43471,1,0,0:0:0:0:
320,192,43471,1,0,0:0:0:0:
448,192,43471,1,0,0:0:0:0:
320,192,43573,128,0,43624:0:0:0:0:
448,192,43641,1,0,0:0:0:0:
64,192,43675,128,0,43828:0:0:0:0:
192,192,43701,128,0,43828:0:0:0:0:
320,192,43726,128,0,43828:0:0:0:0:
448,192,43777,128,0,43828:0:0:0:0:
448,192,43879,128,0,44032:0:0:0:0:
320,192,43905,128,0,44032:0:0:0:0:
192,192,43930,128,0,44032:0:0:0:0:
64,192,43981,1,0,0:0:0:0:
64,192,44083,128,0,44236:0:0:0:0:
192,192,44109,128,0,44236:0:0:0:0:
448,192,44134,128,0,44236:0:0:0:0:
320,192,44185,1,0,0:0:0:0:
64,192,44287,1,0,0:0:0:0:
448,192,44287,128,0,44594:0:0:0:0:
320,192,44287,128,0,44543:0:0:0:0:
192,192,44287,128,0,44492:0:0:0:0:
320,192,44696,1,0,0:0:0:0:
192,192,44696,1,0,0:0:0:0:
64,192,44696,1,0,0:0:0:0:
320,192,44798,1,0,0:0:0:0:
64,192,44900,128,0,45002:0:0:0:0:
192,192,45104,1,0,0:0:0:0:
320,192,45104,1,0,0:0:0:0:
448,192,45104,1,0,0:0:0:0:
64,192,45206,128,0,45257:0:0:0:0:
192,192,45257,128,0,45308:0:0:0:0:
64,192,45308,128,0,45359:0:0:0:0:
64,192,45410,128,0,45461:0:0:0:0:
192,192,45512,1,0,0:0:0:0:
320,192,45512,1,0,0:0:0:0:
448,192,45512,1,0,0:0:0:0:
448,192,45716,128,0,45784:0:0:0:0:
64,192,45784,128,0,45852:0:0:0:0:
448,192,45852,128,0,45920:0:0:0:0:
320,192,45920,1,0,0:0:0:0:
64,192,45920,1,0,0:0:0:0:
192,192,45920,128,0,46124:0:0:0:0:
448,192,46226,1,0,0:0:0:0:
320,192,46226,1,0,0:0:0:0:
320,192,46328,128,0,46532:0:0:0:0:
192,192,46328,1,0,0:0:0:0:
64,192,46328,1,0,0:0:0:0:
192,192,46532,1,0,0:0:0:0:
64,192,46532,1,0,0:0:0:0:
448,192,46736,128,0,46941:0:0:0:0:
320,192,46736,128,0,46890:0:0:0:0:
192,192,46736,128,0,46838:0:0:0:0:
64,192,46941,128,0,47094:0:0:0:0:
192,192,46966,128,0,47094:0:0:0:0:
320,192,46992,128,0,47094:0:0:0:0:
448,192,47145,128,0,47298:0:0:0:0:
64,192,47145,128,0,47298:0:0:0:0:
320,192,47170,128,0,47298:0:0:0:0:
192,192,47196,128,0,47298:0:0:0:0:
64,192,47349,128,0,47502:0:0:0:0:
192,192,47374,128,0,47502:0:0:0:0:
448,192,47400,128,0,47502:0:0:0:0:
448,192,47553,1,0,0:0:0:0:
64,192,47553,128,0,47859:0:0:0:0:
320,192,47553,128,0,47757:0:0:0:0:
192,192,47553,128,0,47808:0:0:0:0:
64,192,47961,1,0,0:0:0:0:
192,192,47961,1,0,0:0:0:0:
448,192,47961,1,0,0:0:0:0:
320,192,47961,1,0,0:0:0:0:
64,192,48165,128,0,48267:0:0:0:0:
448,192,48369,1,0,0:0:0:0:
320,192,48369,1,0,0:0:0:0:
192,192,48369,1,0,0:0:0:0:
64,192,48369,1,0,0:0:0:0:
320,192,48505,1,0,0:0:0:0:
192,192,48539,1,0,0:0:0:0:
320,192,48607,1,0,0:0:0:0:
192,192,48675,1,0,0:0:0:0:
64,192,48675,1,0,0:0:0:0:
448,192,48675,1,0,0:0:0:0:
448,192,48879,1,0,0:0:0:0:
448,192,48981,1,0,0:0:0:0:
320,192,48981,1,0,0:0:0:0:
192,192,48981,1,0,0:0:0:0:
64,192,48981,1,0,0:0:0:0:
64,192,49185,1,0,0:0:0:0:
192,192,49185,1,0,0:0:0:0:
320,192,49185,1,0,0:0:0:0:
448,192,49185,1,0,0:0:0:0:
192,192,49390,1,0,0:0:0:0:
320,192,49492,1,0,0:0:0:0:
64,192,49594,1,0,0:0:0:0:
192,192,49594,1,0,0:0:0:0:
320,192,49594,1,0,0:0:0:0:
448,192,49594,1,0,0:0:0:0:
192,192,49696,1,0,0:0:0:0:
64,192,49798,128,0,49900:0:0:0:0:
448,192,49900,1,0,0:0:0:0:
448,192,50002,1,0,0:0:0:0:
320,192,50002,1,0,0:0:0:0:
192,192,50002,1,0,0:0:0:0:
64,192,50002,1,0,0:0:0:0:
64,192,50206,128,0,50257:0:0:0:0:
320,192,50206,128,0,50257:0:0:0:0:
64,192,50308,128,0,50359:0:0:0:0:
320,192,50308,128,0,50359:0:0:0:0:
64,192,50410,128,0,50512:0:0:0:0:
192,192,50444,128,0,50546:0:0:0:0:
320,192,50478,128,0,50580:0:0:0:0:
448,192,50512,128,0,50716:0:0:0:0:
320,192,50648,128,0,50750:0:0:0:0:
192,192,50682,128,0,50784:0:0:0:0:
64,192,50716,128,0,50818:0:0:0:0:
320,192,50818,1,0,0:0:0:0:
448,192,50818,1,0,0:0:0:0:
192,192,51022,1,0,0:0:0:0:
64,192,51124,1,0,0:0:0:0:
448,192,51124,1,0,0:0:0:0:
320,192,51124,128,0,51532:0:0:0:0:
192,192,51226,1,0,0:0:0:0:
192,192,51328,1,0,0:0:0:0:
64,192,51430,1,0,0:0:0:0:
448,192,51430,128,0,51532:0:0:0:0:
192,192,51532,1,0,0:0:0:0:
64,192,51634,1,0,0:0:0:0:
448,192,51634,1,0,0:0:0:0:
320,192,51634,128,0,51838:0:0:0:0:
192,192,51736,1,0,0:0:0:0:
192,192,51838,1,0,0:0:0:0:
64,192,51941,1,0,0:0:0:0:
320,192,51941,1,0,0:0:0:0:
448,192,51941,128,0,52349:0:0:0:0:
192,192,52043,1,0,0:0:0:0:
192,192,52247,1,0,0:0:0:0:
320,192,52247,128,0,52349:0:0:0:0:
320,192,52451,1,0,0:0:0:0:
64,192,52451,1,0,0:0:0:0:
192,192,52451,128,0,52655:0:0:0:0:
320,192,52655,1,0,0:0:0:0:
448,192,52723,1,0,0:0:0:0:
64,192,52757,1,0,0:0:0:0:
192,192,52757,128,0,53165:0:0:0:0:
320,192,52791,1,0,0:0:0:0:
448,192,52859,1,0,0:0:0:0:
320,192,52961,1,0,0:0:0:0:
448,192,53063,1,0,0:0:0:0:
64,192,53063,128,0,53165:0:0:0:0:
320,192,53165,1,0,0:0:0:0:
192,192,53267,1,0,0:0:0:0:
64,192,53267,1,0,0:0:0:0:
448,192,53267,1,0,0:0:0:0:
320,192,53335,1,0,0:0:0:0:
448,192,53403,1,0,0:0:0:0:
320,192,53471,1,0,0:0:0:0:
192,192,53471,1,0,0:0:0:0:
448,192,53539,1,0,0:0:0:0:
64,192,53573,1,0,0:0:0:0:
320,192,53607,1,0,0:0:0:0:
192,192,53675,1,0,0:0:0:0:
64,192,53675,1,0,0:0:0:0:
320,192,53777,1,0,0:0:0:0:
448,192,53777,1,0,0:0:0:0:
192,192,53879,1,0,0:0:0:0:
64,192,53879,1,0,0:0:0:0:
320,192,53947,1,0,0:0:0:0:
448,192,54015,1,0,0:0:0:0:
64,192,54083,1,0,0:0:0:0:
192,192,54083,1,0,0:0:0:0:
320,192,54083,1,0,0:0:0:0:
448,192,54492,128,0,54560:0:0:0:0:
320,192,54900,128,0,54968:0:0:0:0:
64,192,55104,128,0,55172:0:0:0:0:
192,192,55512,128,0,55580:0:0:0:0:
448,192,55920,128,0,55988:0:0:0:0:
64,192,56328,128,0,56396:0:0:0:0:
320,192,56532,128,0,56634:0:0:0:0:
192,192,56634,128,0,56736:0:0:0:0:
320,192,56838,128,0,57145:0:0:0:0:
448,192,57145,128,0,57247:0:0:0:0:
192,192,57349,128,0,57451:0:0:0:0:
448,192,57349,128,0,57553:0:0:0:0:
320,192,57757,128,0,57825:0:0:0:0:
320,192,58165,128,0,58233:0:0:0:0:
64,192,58369,128,0,58437:0:0:0:0:
192,192,58777,128,0,58845:0:0:0:0:
64,192,59185,128,0,59253:0:0:0:0:
448,192,59594,128,0,59798:0:0:0:0:
320,192,59798,128,0,59900:0:0:0:0:
192,192,59900,128,0,60002:0:0:0:0:
320,192,60104,128,0,60410:0:0:0:0:
448,192,60410,128,0,60512:0:0:0:0:
64,192,60614,128,0,60716:0:0:0:0:
448,192,60614,128,0,60818:0:0:0:0:
320,192,60818,1,0,0:0:0:0:
64,192,60920,1,0,0:0:0:0:
192,192,61022,128,0,61090:0:0:0:0:
320,192,61022,1,0,0:0:0:0:
448,192,61124,1,0,0:0:0:0:
64,192,61226,1,0,0:0:0:0:
192,192,61430,128,0,61498:0:0:0:0:
448,192,61532,1,0,0:0:0:0:
64,192,61634,128,0,61702:0:0:0:0:
320,192,61736,1,0,0:0:0:0:
64,192,61941,1,0,0:0:0:0:
320,192,62043,128,0,62111:0:0:0:0:
64,192,62247,1,0,0:0:0:0:
192,192,62247,1,0,0:0:0:0:
192,192,62451,128,0,62519:0:0:0:0:
448,192,62553,1,0,0:0:0:0:
192,192,62655,1,0,0:0:0:0:
320,192,62757,1,0,0:0:0:0:
64,192,62859,128,0,62927:0:0:0:0:
448,192,62961,1,0,0:0:0:0:
64,192,63063,1,0,0:0:0:0:
320,192,63063,128,0,63165:0:0:0:0:
192,192,63165,128,0,63267:0:0:0:0:
320,192,63369,128,0,63471:0:0:0:0:
64,192,63471,128,0,63675:0:0:0:0:
192,192,63675,128,0,63879:0:0:0:0:
320,192,63879,128,0,63981:0:0:0:0:
448,192,63879,128,0,64083:0:0:0:0:
192,192,64083,1,0,0:0:0:0:
64,192,64083,1,0,0:0:0:0:
192,192,64287,1,0,0:0:0:0:
64,192,64287,1,0,0:0:0:0:
192,192,64492,1,0,0:0:0:0:
64,192,64492,128,0,64696:0:0:0:0:
320,192,64696,1,0,0:0:0:0:
448,192,64696,1,0,0:0:0:0:
320,192,64798,1,0,0:0:0:0:
64,192,64798,1,0,0:0:0:0:
192,192,64900,1,0,0:0:0:0:
448,192,64900,1,0,0:0:0:0:
192,192,65002,1,0,0:0:0:0:
64,192,65002,1,0,0:0:0:0:
320,192,65104,1,0,0:0:0:0:
448,192,65104,1,0,0:0:0:0:
448,192,65206,1,0,0:0:0:0:
192,192,65206,1,0,0:0:0:0:
320,192,65308,1,0,0:0:0:0:
64,192,65308,1,0,0:0:0:0:
192,192,65410,1,0,0:0:0:0:
64,192,65410,1,0,0:0:0:0:
448,192,65512,128,0,65614:0:0:0:0:
320,192,65512,1,0,0:0:0:0:
64,192,65716,1,0,0:0:0:0:
448,192,65818,1,0,0:0:0:0:
192,192,65920,1,0,0:0:0:0:
320,192,66124,1,0,0:0:0:0:
192,192,66124,1,0,0:0:0:0:
64,192,66328,1,0,0:0:0:0:
448,192,66430,1,0,0:0:0:0:
192,192,66532,1,0,0:0:0:0:
320,192,66787,128,0,67043:0:0:0:0:
448,192,66915,128,0,67043:0:0:0:0:
448,192,67145,128,0,67757:0:0:0:0:
320,192,67145,128,0,67349:0:0:0:0:
192,192,67145,128,0,67349:0:0:0:0:
64,192,67145,128,0,67349:0:0:0:0:
192,192,67553,128,0,67757:0:0:0:0:
64,192,67553,128,0,67757:0:0:0:0:
320,192,67757,128,0,67961:0:0:0:0:
192,192,67961,128,0,68165:0:0:0:0:
64,192,67961,128,0,68165:0:0:0:0:
448,192,68165,128,0,68369:0:0:0:0:
320,192,68369,128,0,68573:0:0:0:0:
192,192,68369,128,0,68573:0:0:0:0:
64,192,68573,128,0,68777:0:0:0:0:
192,192,68777,128,0,69390:0:0:0:0:
320,192,68777,128,0,68981:0:0:0:0:
448,192,68777,128,0,68981:0:0:0:0:
448,192,69185,128,0,69390:0:0:0:0:
64,192,69185,128,0,69390:0:0:0:0:
320,192,69390,128,0,70206:0:0:0:0:
192,192,69594,128,0,69798:0:0:0:0:
64,192,69594,128,0,69798:0:0:0:0:
192,192,70002,128,0,70206:0:0:0:0:
64,192,70002,128,0,70206:0:0:0:0:
320,192,70410,128,0,70614:0:0:0:0:
448,192,70410,128,0,70614:0:0:0:0:
320,192,70818,128,0,71022:0:0:0:0:
448,192,70818,128,0,71022:0:0:0:0:
64,192,71022,128,0,71226:0:0:0:0:
192,192,71226,128,0,71430:0:0:0:0:
448,192,71226,128,0,71430:0:0:0:0:
320,192,71430,128,0,71634:0:0:0:0:
448,192,71634,128,0,71736:0:0:0:0:
192,192,71634,128,0,71838:0:0:0:0:
64,192,71634,128,0,71838:0:0:0:0:
448,192,71838,128,0,72043:0:0:0:0:
64,192,72043,128,0,72655:0:0:0:0:
320,192,72043,128,0,72247:0:0:0:0:
192,192,72043,128,0,72247:0:0:0:0:
192,192,72451,128,0,72655:0:0:0:0:
320,192,72451,128,0,72655:0:0:0:0:
448,192,72655,128,0,73063:0:0:0:0:
192,192,72859,128,0,73063:0:0:0:0:
64,192,72859,128,0,73063:0:0:0:0:
192,192,73267,128,0,73675:0:0:0:0:
320,192,73267,128,0,73471:0:0:0:0:
448,192,73267,128,0,73471:0:0:0:0:
448,192,73675,128,0,74185:0:0:0:0:
320,192,73675,128,0,73879:0:0:0:0:
64,192,73675,128,0,73879:0:0:0:0:
192,192,73879,1,0,0:0:0:0:
192,192,74083,128,0,74287:0:0:0:0:
64,192,74083,128,0,74287:0:0:0:0:
448,192,74287,128,0,74492:0:0:0:0:
320,192,74287,1,0,0:0:0:0:
192,192,74492,128,0,74696:0:0:0:0:
64,192,74492,128,0,74696:0:0:0:0:
320,192,74696,128,0,74900:0:0:0:0:
448,192,74696,1,0,0:0:0:0:
64,192,74900,128,0,75104:0:0:0:0:
448,192,74900,128,0,75104:0:0:0:0:
192,192,75104,128,0,75308:0:0:0:0:
320,192,75104,1,0,0:0:0:0:
320,192,75308,128,0,75920:0:0:0:0:
64,192,75308,128,0,75512:0:0:0:0:
448,192,75308,128,0,75512:0:0:0:0:
192,192,75512,1,0,0:0:0:0:
192,192,75716,128,0,75920:0:0:0:0:
448,192,75716,128,0,75920:0:0:0:0:
64,192,75920,128,0,76736:0:0:0:0:
320,192,76124,128,0,76328:0:0:0:0:
448,192,76124,128,0,76328:0:0:0:0:
192,192,76328,1,0,0:0:0:0:
320,192,76430,128,0,76634:0:0:0:0:
448,192,76430,128,0,76634:0:0:0:0:
192,192,76634,1,0,0:0:0:0:
320,192,76736,128,0,76838:0:0:0:0:
448,192,76736,128,0,76838:0:0:0:0:
64,192,76941,1,0,0:0:0:0:
320,192,76941,1,0,0:0:0:0:
448,192,76941,1,0,0:0:0:0:
64,192,77043,1,0,0:0:0:0:
448,192,77145,1,0,0:0:0:0:
448,192,77247,1,0,0:0:0:0:
192,192,77349,1,0,0:0:0:0:
192,192,77451,1,0,0:0:0:0:
448,192,77553,1,0,0:0:0:0:
320,192,77655,1,0,0:0:0:0:
64,192,77757,1,0,0:0:0:0:
320,192,77859,1,0,0:0:0:0:
192,192,77961,1,0,0:0:0:0:
320,192,78063,128,0,78267:0:0:0:0:
64,192,78165,1,0,0:0:0:0:
64,192,78267,1,0,0:0:0:0:
320,192,78369,1,0,0:0:0:0:
448,192,78471,1,0,0:0:0:0:
192,192,78573,1,0,0:0:0:0:
64,192,78573,1,0,0:0:0:0:
192,192,78675,1,0,0:0:0:0:
320,192,78777,1,0,0:0:0:0:
448,192,78777,1,0,0:0:0:0:
320,192,78879,1,0,0:0:0:0:
192,192,78981,1,0,0:0:0:0:
64,192,78981,1,0,0:0:0:0:
192,192,79083,1,0,0:0:0:0:
320,192,79185,1,0,0:0:0:0:
448,192,79185,1,0,0:0:0:0:
320,192,79287,1,0,0:0:0:0:
192,192,79390,1,0,0:0:0:0:
64,192,79390,1,0,0:0:0:0:
320,192,79492,1,0,0:0:0:0:
64,192,79492,1,0,0:0:0:0:
192,192,79594,1,0,0:0:0:0:
448,192,79594,1,0,0:0:0:0:
320,192,79696,1,0,0:0:0:0:
448,192,79696,1,0,0:0:0:0:
192,192,79798,1,0,0:0:0:0:
64,192,79798,1,0,0:0:0:0:
192,192,79900,1,0,0:0:0:0:
448,192,79900,1,0,0:0:0:0:
320,192,80002,1,0,0:0:0:0:
64,192,80002,1,0,0:0:0:0:
192,192,80104,1,0,0:0:0:0:
320,192,80104,1,0,0:0:0:0:
64,192,80206,128,0,80410:0:0:0:0:
448,192,80206,128,0,80410:0:0:0:0:
192,192,80512,128,0,80614:0:0:0:0:
448,192,80614,128,0,80818:0:0:0:0:
320,192,80716,128,0,80818:0:0:0:0:
64,192,80818,128,0,80920:0:0:0:0:
448,192,80920,128,0,81022:0:0:0:0:
192,192,81022,5,0,0:0:0:0:
64,192,81022,1,0,0:0:0:0:
320,192,81124,1,0,0:0:0:0:
448,192,81124,1,0,0:0:0:0:
64,192,81226,128,0,81379:0:0:0:0:
192,192,81252,128,0,81379:0:0:0:0:
320,192,81277,128,0,81379:0:0:0:0:
448,192,81430,128,0,81583:0:0:0:0:
320,192,81456,128,0,81583:0:0:0:0:
192,192,81481,128,0,81583:0:0:0:0:
64,192,81634,128,0,81787:0:0:0:0:
192,192,81660,128,0,81787:0:0:0:0:
448,192,81685,128,0,81787:0:0:0:0:
320,192,81838,1,0,0:0:0:0:
64,192,81838,1,0,0:0:0:0:
192,192,81838,1,0,0:0:0:0:
448,192,81838,1,0,0:0:0:0:
448,192,82043,1,0,0:0:0:0:
448,192,82145,1,0,0:0:0:0:
320,192,82145,1,0,0:0:0:0:
320,192,82247,1,0,0:0:0:0:
64,192,82247,1,0,0:0:0:0:
64,192,82349,1,0,0:0:0:0:
192,192,82451,1,0,0:0:0:0:
448,192,82451,1,0,0:0:0:0:
64,192,82553,128,0,82961:0:0:0:0:
192,192,82655,1,0,0:0:0:0:
320,192,82655,1,0,0:0:0:0:
448,192,82655,1,0,0:0:0:0:
448,192,82859,128,0,83165:0:0:0:0:
192,192,82961,1,0,0:0:0:0:
192,192,83063,128,0,83369:0:0:0:0:
64,192,83063,1,0,0:0:0:0:
320,192,83063,1,0,0:0:0:0:
320,192,83267,128,0,83573:0:0:0:0:
448,192,83267,1,0,0:0:0:0:
64,192,83471,128,0,83777:0:0:0:0:
192,192,83471,1,0,0:0:0:0:
448,192,83471,1,0,0:0:0:0:
320,192,83675,1,0,0:0:0:0:
448,192,83777,128,0,83981:0:0:0:0:
320,192,83879,1,0,0:0:0:0:
192,192,83879,1,0,0:0:0:0:
64,192,83879,1,0,0:0:0:0:
192,192,84083,1,0,0:0:0:0:
320,192,84109,1,0,0:0:0:0:
64,192,84134,1,0,0:0:0:0:
448,192,84160,1,0,0:0:0:0:
192,192,84287,1,0,0:0:0:0:
448,192,84287,1,0,0:0:0:0:
320,192,84287,1,0,0:0:0:0:
64,192,84492,128,0,84645:0:0:0:0:
192,192,84517,128,0,84645:0:0:0:0:
320,192,84543,128,0,84645:0:0:0:0:
448,192,84696,128,0,84849:0:0:0:0:
320,192,84721,128,0,84849:0:0:0:0:
192,192,84747,128,0,84849:0:0:0:0:
64,192,84900,128,0,85053:0:0:0:0:
192,192,84925,128,0,85053:0:0:0:0:
448,192,84951,128,0,85053:0:0:0:0:
320,192,85104,1,0,0:0:0:0:
64,192,85104,1,0,0:0:0:0:
192,192,85104,1,0,0:0:0:0:
448,192,85104,1,0,0:0:0:0:
64,192,85308,1,0,0:0:0:0:
448,192,85410,1,0,0:0:0:0:
320,192,85410,1,0,0:0:0:0:
320,192,85512,1,0,0:0:0:0:
192,192,85512,1,0,0:0:0:0:
64,192,85512,1,0,0:0:0:0:
64,192,85614,1,0,0:0:0:0:
320,192,85716,1,0,0:0:0:0:
448,192,85818,128,0,86226:0:0:0:0:
320,192,85920,1,0,0:0:0:0:
64,192,85920,1,0,0:0:0:0:
192,192,85920,1,0,0:0:0:0:
192,192,86124,128,0,86430:0:0:0:0:
64,192,86124,1,0,0:0:0:0:
320,192,86226,1,0,0:0:0:0:
64,192,86328,128,0,86634:0:0:0:0:
320,192,86328,1,0,0:0:0:0:
448,192,86328,1,0,0:0:0:0:
320,192,86532,128,0,86838:0:0:0:0:
448,192,86532,1,0,0:0:0:0:
448,192,86736,128,0,86941:0:0:0:0:
192,192,86736,1,0,0:0:0:0:
64,192,86736,1,0,0:0:0:0:
320,192,86941,1,0,0:0:0:0:
64,192,86941,1,0,0:0:0:0:
448,192,87043,128,0,87247:0:0:0:0:
320,192,87145,1,0,0:0:0:0:
192,192,87145,1,0,0:0:0:0:
64,192,87145,1,0,0:0:0:0:
448,192,87349,128,0,87910:0:0:0:0:
320,192,87349,1,0,0:0:0:0:
64,192,87349,128,0,87553:0:0:0:0:
192,192,87553,1,0,0:0:0:0:
320,192,87553,1,0,0:0:0:0:
64,192,87655,1,0,0:0:0:0:
64,192,87757,128,0,87910:0:0:0:0:
192,192,87782,128,0,87910:0:0:0:0:
320,192,87808,128,0,87910:0:0:0:0:
448,192,87961,128,0,88114:0:0:0:0:
64,192,87961,1,0,0:0:0:0:
320,192,87986,128,0,88114:0:0:0:0:
192,192,88012,128,0,88114:0:0:0:0:
64,192,88165,128,0,88318:0:0:0:0:
192,192,88191,128,0,88318:0:0:0:0:
448,192,88216,128,0,88318:0:0:0:0:
192,192,88369,1,0,0:0:0:0:
448,192,88369,1,0,0:0:0:0:
320,192,88369,1,0,0:0:0:0:
64,192,88369,1,0,0:0:0:0:
448,192,88573,1,0,0:0:0:0:
448,192,88675,1,0,0:0:0:0:
320,192,88675,1,0,0:0:0:0:
320,192,88777,1,0,0:0:0:0:
64,192,88777,1,0,0:0:0:0:
64,192,88879,1,0,0:0:0:0:
192,192,88981,1,0,0:0:0:0:
448,192,88981,1,0,0:0:0:0:
64,192,89083,128,0,89492:0:0:0:0:
192,192,89185,1,0,0:0:0:0:
320,192,89185,1,0,0:0:0:0:
448,192,89185,1,0,0:0:0:0:
448,192,89390,128,0,89696:0:0:0:0:
192,192,89492,1,0,0:0:0:0:
192,192,89594,128,0,89900:0:0:0:0:
64,192,89594,1,0,0:0:0:0:
320,192,89594,1,0,0:0:0:0:
320,192,89798,128,0,90104:0:0:0:0:
448,192,89798,1,0,0:0:0:0:
64,192,90002,128,0,90308:0:0:0:0:
192,192,90002,1,0,0:0:0:0:
448,192,90002,1,0,0:0:0:0:
320,192,90206,1,0,0:0:0:0:
448,192,90308,128,0,90512:0:0:0:0:
320,192,90410,1,0,0:0:0:0:
192,192,90410,1,0,0:0:0:0:
64,192,90410,1,0,0:0:0:0:
192,192,90614,1,0,0:0:0:0:
320,192,90640,1,0,0:0:0:0:
64,192,90665,1,0,0:0:0:0:
448,192,90691,1,0,0:0:0:0:
320,192,90818,1,0,0:0:0:0:
192,192,90818,1,0,0:0:0:0:
64,192,90818,1,0,0:0:0:0:
64,192,91022,128,0,91226:0:0:0:0:
192,192,91226,1,0,0:0:0:0:
448,192,91226,1,0,0:0:0:0:
320,192,91226,128,0,91634:0:0:0:0:
64,192,91430,1,0,0:0:0:0:
448,192,91634,128,0,92043:0:0:0:0:
192,192,91634,1,0,0:0:0:0:
64,192,91634,1,0,0:0:0:0:
64,192,91838,128,0,91941:0:0:0:0:
320,192,91941,128,0,92043:0:0:0:0:
192,192,92043,1,0,0:0:0:0:
64,192,92043,1,0,0:0:0:0:
320,192,92247,128,0,92451:0:0:0:0:
448,192,92247,128,0,92451:0:0:0:0:
192,192,92451,1,0,0:0:0:0:
64,192,92451,1,0,0:0:0:0:
192,192,92655,1,0,0:0:0:0:
192,192,92757,128,0,92859:0:0:0:0:
64,192,92859,1,0,0:0:0:0:
320,192,92859,1,0,0:0:0:0:
448,192,92859,1,0,0:0:0:0:
448,192,93063,128,0,94083:0:0:0:0:
320,192,93267,1,0,0:0:0:0:
192,192,93267,1,0,0:0:0:0:
64,192,93267,1,0,0:0:0:0:
192,192,93573,1,0,0:0:0:0:
64,192,93573,1,0,0:0:0:0:
320,192,93675,1,0,0:0:0:0:
64,192,93675,1,0,0:0:0:0:
192,192,93879,5,0,0:0:0:0:
192,192,94083,1,0,0:0:0:0:
64,192,94083,1,0,0:0:0:0:
64,192,94287,128,0,94441:0:0:0:0:
192,192,94313,128,0,94441:0:0:0:0:
320,192,94338,128,0,94441:0:0:0:0:
448,192,94390,1,0,0:0:0:0:
448,192,94492,128,0,94645:0:0:0:0:
320,192,94517,128,0,94645:0:0:0:0:
192,192,94543,128,0,94645:0:0:0:0:
64,192,94594,1,0,0:0:0:0:
64,192,94696,128,0,94849:0:0:0:0:
192,192,94721,128,0,94849:0:0:0:0:
448,192,94747,128,0,94849:0:0:0:0:
320,192,94798,1,0,0:0:0:0:
192,192,94900,1,0,0:0:0:0:
448,192,94900,1,0,0:0:0:0:
320,192,94900,1,0,0:0:0:0:
64,192,94900,1,0,0:0:0:0:
448,192,95104,1,0,0:0:0:0:
320,192,95206,1,0,0:0:0:0:
448,192,95206,1,0,0:0:0:0:
64,192,95308,1,0,0:0:0:0:
320,192,95308,1,0,0:0:0:0:
64,192,95410,1,0,0:0:0:0:
448,192,95512,1,0,0:0:0:0:
192,192,95512,1,0,0:0:0:0:
64,192,95614,128,0,96022:0:0:0:0:
448,192,95716,1,0,0:0:0:0:
320,192,95716,1,0,0:0:0:0:
192,192,95716,1,0,0:0:0:0:
448,192,95920,128,0,96226:0:0:0:0:
192,192,96022,1,0,0:0:0:0:
320,192,96124,1,0,0:0:0:0:
64,192,96124,1,0,0:0:0:0:
192,192,96124,128,0,96430:0:0:0:0:
448,192,96328,1,0,0:0:0:0:
320,192,96328,128,0,96634:0:0:0:0:
448,192,96532,1,0,0:0:0:0:
192,192,96532,1,0,0:0:0:0:
64,192,96532,128,0,96838:0:0:0:0:
320,192,96736,1,0,0:0:0:0:
448,192,96838,128,0,97043:0:0:0:0:
64,192,96941,1,0,0:0:0:0:
192,192,96941,1,0,0:0:0:0:
320,192,96941,1,0,0:0:0:0:
192,192,97145,1,0,0:0:0:0:
320,192,97170,1,0,0:0:0:0:
64,192,97196,1,0,0:0:0:0:
448,192,97221,1,0,0:0:0:0:
320,192,97349,1,0,0:0:0:0:
448,192,97349,1,0,0:0:0:0:
192,192,97349,1,0,0:0:0:0:
64,192,97553,128,0,97706:0:0:0:0:
192,192,97578,128,0,97706:0:0:0:0:
320,192,97604,128,0,97706:0:0:0:0:
448,192,97757,128,0,97910:0:0:0:0:
320,192,97782,128,0,97910:0:0:0:0:
192,192,97808,128,0,97910:0:0:0:0:
64,192,97961,128,0,98114:0:0:0:0:
192,192,97986,128,0,98114:0:0:0:0:
448,192,98012,128,0,98114:0:0:0:0:
192,192,98165,1,0,0:0:0:0:
448,192,98165,1,0,0:0:0:0:
320,192,98165,1,0,0:0:0:0:
64,192,98165,1,0,0:0:0:0:
64,192,98369,1,0,0:0:0:0:
320,192,98471,1,0,0:0:0:0:
448,192,98471,1,0,0:0:0:0:
64,192,98573,1,0,0:0:0:0:
192,192,98573,1,0,0:0:0:0:
320,192,98573,1,0,0:0:0:0:
64,192,98675,1,0,0:0:0:0:
320,192,98777,1,0,0:0:0:0:
448,192,98879,128,0,99287:0:0:0:0:
192,192,98981,1,0,0:0:0:0:
64,192,98981,1,0,0:0:0:0:
320,192,98981,1,0,0:0:0:0:
64,192,99185,1,0,0:0:0:0:
192,192,99185,128,0,99492:0:0:0:0:
320,192,99287,1,0,0:0:0:0:
448,192,99390,1,0,0:0:0:0:
320,192,99390,1,0,0:0:0:0:
64,192,99390,128,0,99696:0:0:0:0:
448,192,99594,1,0,0:0:0:0:
320,192,99594,128,0,99900:0:0:0:0:
64,192,99798,1,0,0:0:0:0:
192,192,99798,1,0,0:0:0:0:
448,192,99798,128,0,100002:0:0:0:0:
64,192,100002,1,0,0:0:0:0:
320,192,100002,1,0,0:0:0:0:
448,192,100104,128,0,100308:0:0:0:0:
64,192,100206,1,0,0:0:0:0:
192,192,100206,1,0,0:0:0:0:
320,192,100206,1,0,0:0:0:0:
64,192,100410,128,0,100614:0:0:0:0:
320,192,100410,1,0,0:0:0:0:
448,192,100410,128,0,100971:0:0:0:0:
320,192,100614,1,0,0:0:0:0:
192,192,100614,1,0,0:0:0:0:
64,192,100716,1,0,0:0:0:0:
64,192,100818,128,0,100971:0:0:0:0:
192,192,100844,128,0,100971:0:0:0:0:
320,192,100869,128,0,100971:0:0:0:0:
64,192,101022,1,0,0:0:0:0:
448,192,101022,128,0,101175:0:0:0:0:
320,192,101048,128,0,101175:0:0:0:0:
192,192,101073,128,0,101175:0:0:0:0:
64,192,101226,128,0,101379:0:0:0:0:
192,192,101252,128,0,101379:0:0:0:0:
448,192,101277,128,0,101379:0:0:0:0:
320,192,101430,1,0,0:0:0:0:
64,192,101430,1,0,0:0:0:0:
192,192,101430,1,0,0:0:0:0:
448,192,101430,1,0,0:0:0:0:
448,192,101634,1,0,0:0:0:0:
320,192,101736,1,0,0:0:0:0:
448,192,101736,1,0,0:0:0:0:
64,192,101838,1,0,0:0:0:0:
320,192,101838,1,0,0:0:0:0:
64,192,101941,1,0,0:0:0:0:
448,192,102043,1,0,0:0:0:0:
192,192,102145,1,0,0:0:0:0:
448,192,102145,1,0,0:0:0:0:
64,192,102247,1,0,0:0:0:0:
192,192,102349,1,0,0:0:0:0:
320,192,102451,1,0,0:0:0:0:
448,192,102451,1,0,0:0:0:0:
192,192,102655,128,0,102757:0:0:0:0:
64,192,102655,128,0,102859:0:0:0:0:
448,192,102859,128,0,103063:0:0:0:0:
320,192,102961,128,0,103063:0:0:0:0:
192,192,103063,1,0,0:0:0:0:
64,192,103063,1,0,0:0:0:0:
448,192,103267,1,0,0:0:0:0:
192,192,103369,1,0,0:0:0:0:
448,192,103369,1,0,0:0:0:0:
192,192,103471,128,0,103675:0:0:0:0:
64,192,103471,128,0,103573:0:0:0:0:
320,192,103675,128,0,103879:0:0:0:0:
448,192,103675,128,0,103777:0:0:0:0:
192,192,103879,1,0,0:0:0:0:
448,192,104083,128,0,104185:0:0:0:0:
64,192,104185,128,0,104287:0:0:0:0:
320,192,104287,128,0,104338:0:0:0:0:
192,192,104390,128,0,104441:0:0:0:0:
320,192,104492,128,0,104543:0:0:0:0:
192,192,104696,1,0,0:0:0:0:
64,192,104696,1,0,0:0:0:0:
448,192,104696,1,0,0:0:0:0:
320,192,104798,1,0,0:0:0:0:
192,192,104798,128,0,104900:0:0:0:0:
448,192,104900,1,0,0:0:0:0:
320,192,105002,128,0,105104:0:0:0:0:
192,192,105002,128,0,105206:0:0:0:0:
320,192,105206,1,0,0:0:0:0:
448,192,105308,1,0,0:0:0:0:
192,192,105308,128,0,105410:0:0:0:0:
320,192,105410,1,0,0:0:0:0:
64,192,105512,1,0,0:0:0:0:
320,192,105512,128,0,105614:0:0:0:0:
192,192,105614,1,0,0:0:0:0:
64,192,105716,1,0,0:0:0:0:
320,192,105716,128,0,105818:0:0:0:0:
192,192,105818,1,0,0:0:0:0:
448,192,105920,1,0,0:0:0:0:
192,192,105920,128,0,106022:0:0:0:0:
320,192,106022,1,0,0:0:0:0:
64,192,106124,1,0,0:0:0:0:
320,192,106124,128,0,106226:0:0:0:0:
192,192,106226,1,0,0:0:0:0:
448,192,106328,1,0,0:0:0:0:
320,192,106328,1,0,0:0:0:0:
192,192,106328,1,0,0:0:0:0:
64,192,106328,1,0,0:0:0:0:
448,192,106430,1,0,0:0:0:0:
320,192,106532,1,0,0:0:0:0:
320,192,106634,1,0,0:0:0:0:
192,192,106736,1,0,0:0:0:0:
64,192,106736,1,0,0:0:0:0:
448,192,106736,1,0,0:0:0:0:
192,192,106838,1,0,0:0:0:0:
64,192,106941,1,0,0:0:0:0:
64,192,107043,1,0,0:0:0:0:
64,192,107145,1,0,0:0:0:0:
64,192,107247,1,0,0:0:0:0:
192,192,107349,1,0,0:0:0:0:
448,192,107349,1,0,0:0:0:0:
192,192,107451,1,0,0:0:0:0:
320,192,107451,1,0,0:0:0:0:
192,192,107553,128,0,107655:0:0:0:0:
192,192,107757,128,0,107859:0:0:0:0:
320,192,107961,128,0,108063:0:0:0:0:
192,192,107961,128,0,108267:0:0:0:0:
64,192,107961,128,0,108165:0:0:0:0:
448,192,108063,128,0,108267:0:0:0:0:
64,192,108369,1,0,0:0:0:0:
192,192,108369,1,0,0:0:0:0:
320,192,108369,1,0,0:0:0:0:
320,192,108471,1,0,0:0:0:0:
64,192,108573,128,0,108675:0:0:0:0:
448,192,108573,1,0,0:0:0:0:
320,192,108777,1,0,0:0:0:0:
192,192,108777,1,0,0:0:0:0:
64,192,108777,1,0,0:0:0:0:
64,192,108879,128,0,108981:0:0:0:0:
448,192,108981,1,0,0:0:0:0:
64,192,109083,128,0,109185:0:0:0:0:
192,192,109185,1,0,0:0:0:0:
320,192,109185,1,0,0:0:0:0:
448,192,109185,1,0,0:0:0:0:
64,192,109390,1,0,0:0:0:0:
320,192,109390,1,0,0:0:0:0:
64,192,109492,1,0,0:0:0:0:
448,192,109543,1,0,0:0:0:0:
320,192,109594,1,0,0:0:0:0:
192,192,109594,128,0,109951:0:0:0:0:
64,192,109594,128,0,109849:0:0:0:0:
320,192,109798,1,0,0:0:0:0:
320,192,109900,1,0,0:0:0:0:
320,192,110002,1,0,0:0:0:0:
64,192,110002,1,0,0:0:0:0:
448,192,110002,1,0,0:0:0:0:
320,192,110104,128,0,110206:0:0:0:0:
64,192,110206,128,0,110308:0:0:0:0:
448,192,110308,128,0,110512:0:0:0:0:
320,192,110410,1,0,0:0:0:0:
192,192,110410,1,0,0:0:0:0:
64,192,110410,1,0,0:0:0:0:
320,192,110512,1,0,0:0:0:0:
64,192,110512,128,0,110614:0:0:0:0:
320,192,110614,128,0,110716:0:0:0:0:
192,192,110716,128,0,110767:0:0:0:0:
448,192,110818,128,0,110920:0:0:0:0:
192,192,110920,128,0,110971:0:0:0:0:
64,192,110920,128,0,111022:0:0:0:0:
192,192,111022,128,0,111073:0:0:0:0:
448,192,111022,128,0,111226:0:0:0:0:
192,192,111124,128,0,111175:0:0:0:0:
320,192,111226,128,0,111430:0:0:0:0:
192,192,111226,128,0,111481:0:0:0:0:
64,192,111226,128,0,111532:0:0:0:0:
192,192,111634,1,0,0:0:0:0:
320,192,111634,1,0,0:0:0:0:
448,192,111634,1,0,0:0:0:0:
64,192,111838,128,0,111941:0:0:0:0:
448,192,111838,1,0,0:0:0:0:
192,192,112043,1,0,0:0:0:0:
448,192,112043,1,0,0:0:0:0:
320,192,112043,1,0,0:0:0:0:
64,192,112145,128,0,112247:0:0:0:0:
320,192,112247,1,0,0:0:0:0:
64,192,112349,128,0,112451:0:0:0:0:
192,192,112451,1,0,0:0:0:0:
320,192,112451,1,0,0:0:0:0:
448,192,112451,1,0,0:0:0:0:
448,192,112655,1,0,0:0:0:0:
320,192,112723,1,0,0:0:0:0:
448,192,112791,1,0,0:0:0:0:
64,192,112859,1,0,0:0:0:0:
192,192,112859,1,0,0:0:0:0:
320,192,112859,128,0,113165:0:0:0:0:
64,192,112961,128,0,113063:0:0:0:0:
448,192,113063,1,0,0:0:0:0:
64,192,113165,1,0,0:0:0:0:
64,192,113267,1,0,0:0:0:0:
192,192,113267,1,0,0:0:0:0:
320,192,113267,128,0,113573:0:0:0:0:
192,192,113369,128,0,113471:0:0:0:0:
448,192,113471,128,0,113573:0:0:0:0:
320,192,113675,128,0,113981:0:0:0:0:
192,192,113675,1,0,0:0:0:0:
64,192,113675,1,0,0:0:0:0:
64,192,113879,1,0,0:0:0:0:
64,192,113981,128,0,114083:0:0:0:0:
448,192,113981,1,0,0:0:0:0:
192,192,114083,1,0,0:0:0:0:
448,192,114083,128,0,114390:0:0:0:0:
192,192,114287,128,0,114390:0:0:0:0:
64,192,114287,128,0,114492:0:0:0:0:
192,192,114492,128,0,114696:0:0:0:0:
320,192,114492,128,0,114747:0:0:0:0:
448,192,114492,128,0,114798:0:0:0:0:
448,192,114900,1,0,0:0:0:0:
320,192,114900,1,0,0:0:0:0:
192,192,114900,1,0,0:0:0:0:
192,192,115002,1,0,0:0:0:0:
448,192,115104,128,0,115206:0:0:0:0:
192,192,115308,1,0,0:0:0:0:
320,192,115308,1,0,0:0:0:0:
448,192,115308,1,0,0:0:0:0:
448,192,115410,128,0,115512:0:0:0:0:
448,192,115614,128,0,115716:0:0:0:0:
320,192,115716,1,0,0:0:0:0:
192,192,115716,1,0,0:0:0:0:
64,192,115716,1,0,0:0:0:0:
448,192,115920,1,0,0:0:0:0:
448,192,116022,1,0,0:0:0:0:
64,192,116073,1,0,0:0:0:0:
192,192,116124,1,0,0:0:0:0:
320,192,116124,128,0,116481:0:0:0:0:
448,192,116124,128,0,116379:0:0:0:0:
192,192,116328,1,0,0:0:0:0:
192,192,116430,1,0,0:0:0:0:
192,192,116532,1,0,0:0:0:0:
448,192,116532,1,0,0:0:0:0:
64,192,116532,1,0,0:0:0:0:
192,192,116634,128,0,116736:0:0:0:0:
448,192,116736,128,0,116838:0:0:0:0:
64,192,116838,128,0,117043:0:0:0:0:
192,192,116941,1,0,0:0:0:0:
320,192,116941,1,0,0:0:0:0:
448,192,116941,1,0,0:0:0:0:
192,192,117043,1,0,0:0:0:0:
448,192,117043,128,0,117145:0:0:0:0:
320,192,117145,128,0,117196:0:0:0:0:
320,192,117247,128,0,117349:0:0:0:0:
64,192,117349,128,0,117451:0:0:0:0:
192,192,117349,1,0,0:0:0:0:
448,192,117349,1,0,0:0:0:0:
320,192,117451,128,0,117502:0:0:0:0:
448,192,117451,128,0,117553:0:0:0:0:
320,192,117553,128,0,117706:0:0:0:0:
64,192,117553,128,0,117655:0:0:0:0:
192,192,117655,1,0,0:0:0:0:
64,192,117757,1,0,0:0:0:0:
320,192,117757,1,0,0:0:0:0:
448,192,117757,128,0,118063:0:0:0:0:
64,192,117859,1,0,0:0:0:0:
192,192,117961,1,0,0:0:0:0:
320,192,117961,128,0,118063:0:0:0:0:
192,192,118063,1,0,0:0:0:0:
64,192,118165,1,0,0:0:0:0:
448,192,118165,1,0,0:0:0:0:
320,192,118165,128,0,118471:0:0:0:0:
192,192,118267,1,0,0:0:0:0:
64,192,118369,1,0,0:0:0:0:
448,192,118369,128,0,118471:0:0:0:0:
192,192,118471,1,0,0:0:0:0:
64,192,118573,1,0,0:0:0:0:
448,192,118573,1,0,0:0:0:0:
320,192,118573,128,0,118777:0:0:0:0:
192,192,118675,1,0,0:0:0:0:
64,192,118777,1,0,0:0:0:0:
448,192,118777,128,0,118879:0:0:0:0:
192,192,118879,1,0,0:0:0:0:
320,192,118879,1,0,0:0:0:0:
64,192,118981,1,0,0:0:0:0:
320,192,118981,1,0,0:0:0:0:
448,192,118981,1,0,0:0:0:0:
192,192,119083,1,0,0:0:0:0:
64,192,119185,1,0,0:0:0:0:
320,192,119185,128,0,119287:0:0:0:0:
448,192,119287,1,0,0:0:0:0:
192,192,119287,1,0,0:0:0:0:
320,192,119390,1,0,0:0:0:0:
192,192,119390,1,0,0:0:0:0:
64,192,119390,1,0,0:0:0:0:
448,192,119390,1,0,0:0:0:0:
64,192,119492,1,0,0:0:0:0:
320,192,119492,1,0,0:0:0:0:
192,192,119594,1,0,0:0:0:0:
320,192,119696,1,0,0:0:0:0:
64,192,119696,1,0,0:0:0:0:
448,192,119798,1,0,0:0:0:0:
192,192,119900,1,0,0:0:0:0:
320,192,119900,1,0,0:0:0:0:
448,192,120002,1,0,0:0:0:0:
64,192,120104,1,0,0:0:0:0:
192,192,120206,1,0,0:0:0:0:
320,192,120206,1,0,0:0:0:0:
448,192,120206,1,0,0:0:0:0:
64,192,120512,128,0,121022:0:0:0:0:
192,192,120512,128,0,121022:0:0:0:0:
320,192,120512,128,0,121022:0:0:0:0:
448,192,120512,128,0,121022:0:0:0:0:
