osu file format v14

[General]
AudioFilename: audio.mp3
AudioLeadIn: 0
PreviewTime: 81226
Countdown: 0
SampleSet: Normal
StackLeniency: 0.8
Mode: 2
LetterboxInBreaks: 0
WidescreenStoryboard: 1

[Editor]
Bookmarks: 54083,67145,79696,88369
DistanceSpacing: 0.3
BeatDivisor: 4
GridSize: 16
TimelineZoom: 1.999999

[Metadata]
Title:PAPAYAPA BASS
TitleUnicode:PAPAYAPA BASS
Artist:Camellia feat. Nanahira
ArtistUnicode:かめりあ feat. ななひら
Creator:Nwolf
Version:Deif's Papaya
Source:beatmania IIDX 24 SINOBUZ
Tags:( •̀ ω•́ ) Deif dergo ntiger owo rawr juan loves nanahira weeb cocktail beach papaya
BeatmapID:1335618
BeatmapSetID:584714

[Difficulty]
HPDrainRate:6
CircleSize:4
OverallDifficulty:9.4
ApproachRate:9.4
SliderMultiplier:2.2
SliderTickRate:2

[Events]
//Background and Video events
0,0,"cocktails.jpg",0,0
//Break Periods
//Storyboard Layer 0 (Background)
//Storyboard Layer 1 (Fail)
//Storyboard Layer 2 (Pass)
//Storyboard Layer 3 (Foreground)
//Storyboard Layer 4 (Overlay)
//Storyboard Sound Samples

[TimingPoints]
207,408.163265306122,4,1,0,70,1,8
1839,408.163265306122,4,1,0,70,1,0
14900,-80,4,1,0,70,0,1
17145,-33.3333333333333,4,1,0,70,0,1
17349,-80,4,1,0,70,0,1
20410,-33.3333333333333,4,1,0,70,0,1
20818,-80,4,1,0,70,0,1
23675,-50,4,1,0,70,0,1
23879,-80,4,1,0,70,0,1
27553,-80,4,1,0,70,0,0
27961,-66.6666666666667,4,1,0,70,0,0
28267,-100,4,1,0,70,0,0
31226,-66.6666666666667,4,1,0,70,0,0
31634,-100,4,1,0,70,0,0
34492,-66.6666666666667,4,1,0,70,0,0
34798,-100,4,1,0,70,0,0
44287,-66.6666666666667,4,1,0,70,0,0
44594,-100,4,1,0,70,0,0
47553,-66.6666666666667,4,1,0,70,0,0
47859,-100,4,1,0,70,0,0
54083,-133.333333333333,4,1,0,70,0,0
67145,-100,4,1,0,70,0,0
81838,-80,4,1,0,70,0,1
84083,-33.3333333333333,4,1,0,70,0,1
84287,-80,4,1,0,70,0,1
90614,-33.3333333333333,4,1,0,70,0,1
90818,-80,4,1,0,70,0,1
94083,-100,4,1,0,70,0,0
94900,-80,4,1,0,70,0,1
97145,-33.3333333333333,4,1,0,70,0,1
97349,-80,4,1,0,70,0,1
107553,-80,4,1,0,70,0,0
107961,-66.6666666666667,4,1,0,70,0,0
108369,-100,4,1,0,70,0,0
111226,-66.6666666666667,4,1,0,70,0,0
111634,-100,4,1,0,70,0,0
114900,-66.6666666666667,4,1,0,70,0,0
115308,-100,4,1,0,70,0,0
120512,-33.3333333333333,4,1,0,70,0,0
121022,-100,4,1,0,35,0,0

[HitObjects]
128,192,1227,5,0,0:0:0:0:
176,192,1431,1,0,0:0:0:0:
80,192,1635,1,0,0:0:0:0:
432,192,1839,5,0,0:0:0:0:
288,192,2145,2,0,L|224:192,1,55
320,192,2349,2,0,L|432:192,1,110
144,192,2859,2,0,L|256:192,2,110
336,192,3471,5,0,0:0:0:0:
48,192,3777,1,0,0:0:0:0:
192,192,4083,1,0,0:0:0:0:
384,192,4492,1,0,0:0:0:0:
336,192,4696,1,0,0:0:0:0:
432,192,4900,1,0,0:0:0:0:
80,192,5104,5,0,0:0:0:0:
224,192,5410,2,0,L|288:192,1,55
192,192,5614,2,0,L|80:192,1,110
368,192,6124,2,0,L|256:192,2,110
176,192,6736,5,0,0:0:0:0:
464,192,7042,1,0,0:0:0:0:
80,128,7349,2,0,P|32:208|80:320,1,220
256,192,7961,1,0,0:0:0:0:
432,128,8165,1,0,0:0:0:0:
80,192,8369,6,0,P|48:80|64:32,1,165
128,32,8777,1,0,0:0:0:0:
192,48,8879,1,0,0:0:0:0:
384,32,9083,1,0,0:0:0:0:
320,48,9185,2,0,L|432:48,1,110
352,112,9492,1,0,0:0:0:0:
274,176,9594,2,0,L|384:176,1,110
80,192,10002,6,0,P|48:304|64:352,1,165
128,336,10410,2,0,L|16:336,1,110
304,288,10818,1,0,0:0:0:0:
208,288,10920,1,0,0:0:0:0:
336,192,11124,1,0,0:0:0:0:
176,192,11226,1,0,0:0:0:0:
336,192,11430,1,0,0:0:0:0:
64,192,11634,5,0,0:0:0:0:
42,254,11736,1,0,0:0:0:0:
66,315,11838,1,0,0:0:0:0:
124,347,11940,1,0,0:0:0:0:
336,224,12043,2,0,L|384:192,1,55
176,192,12247,2,0,L|221:161,1,55
448,192,12451,1,0,0:0:0:0:
470,254,12553,1,0,0:0:0:0:
446,315,12655,1,0,0:0:0:0:
240,192,12757,1,0,0:0:0:0:
218,130,12859,1,0,0:0:0:0:
242,69,12961,1,0,0:0:0:0:
448,192,13063,2,0,L|480:256,1,55
176,192,13267,5,0,0:0:0:0:
128,192,13318,1,0,0:0:0:0:
96,224,13369,1,0,0:0:0:0:
336,192,13471,1,0,0:0:0:0:
384,192,13522,1,0,0:0:0:0:
416,224,13573,1,0,0:0:0:0:
160,128,13675,1,0,0:0:0:0:
112,128,13726,1,0,0:0:0:0:
80,160,13777,1,0,0:0:0:0:
352,128,13879,1,0,0:0:0:0:
400,128,13930,1,0,0:0:0:0:
432,160,13981,1,0,0:0:0:0:
144,64,14083,6,0,P|80:64|48:96,1,110
256,192,14492,2,0,L|320:192,1,55
112,112,14696,2,0,L|176:112,1,55
416,112,14900,6,0,P|432:144|416:240,1,137.5
352,240,15206,1,0,0:0:0:0:
96,192,15308,1,0,0:0:0:0:
352,192,15410,2,0,L|432:192,1,68.75
160,64,15614,1,0,0:0:0:0:
224,64,15716,2,0,P|288:96|304:160,1,137.5
240,192,16022,1,0,0:0:0:0:
64,240,16124,2,0,P|77:320|125:336,1,137.5
448,192,16532,6,0,L|288:192,1,137.5
112,192,16838,2,0,L|32:192,1,68.75
448,192,17145,2,0,L|112:192,1,330.000012588501
448,192,17553,1,0,0:0:0:0:
240,192,17757,1,0,0:0:0:0:
448,192,17961,1,0,0:0:0:0:
96,272,18165,6,0,P|80:240|96:144,1,137.5
160,144,18471,1,0,0:0:0:0:
416,192,18573,1,0,0:0:0:0:
160,192,18675,2,0,L|80:192,1,68.75
352,320,18879,1,0,0:0:0:0:
288,320,18981,2,0,P|224:288|208:224,1,137.5
272,192,19287,1,0,0:0:0:0:
448,144,19390,2,0,P|435:64|387:48,1,137.5
64,192,19797,6,0,L|224:192,1,137.5
400,192,20103,2,0,L|480:192,1,68.75
64,192,20410,2,0,L|400:192,1,330.000012588501
448,192,20716,1,0,0:0:0:0:
132,192,20818,2,0,L|64:192,1,68.75
449,192,21022,2,0,L|464:112,1,68.75
256,192,21226,2,0,L|272:112,1,68.75
63,192,21430,6,0,P|79:112|127:80,1,137.5
192,80,21736,1,0,0:0:0:0:
448,192,21838,1,0,0:0:0:0:
192,192,21941,2,0,L|112:192,1,68.75
384,192,22145,1,0,0:0:0:0:
123,256,22247,2,0,P|64:224|64:160,1,137.5
256,96,22553,1,0,0:0:0:0:
448,160,22655,2,0,P|447:225|389:256,1,137.5
63,160,23063,6,0,P|64:225|123:256,1,137.5
384,192,23369,2,0,L|464:192,2,68.75
128,192,23675,2,0,B|224:144|224:144|128:80,1,220
320,112,24083,2,0,L|400:112,1,68.75
288,192,24287,2,0,L|432:192,1,137.5
64,192,24696,6,0,L|48:112,1,68.75
144,176,24900,2,0,L|128:96,1,68.75
224,160,25104,2,0,L|208:80,1,68.75
416,160,25308,2,0,L|432:80,1,68.75
224,256,25512,2,0,L|240:176,1,68.75
448,256,25716,2,0,L|464:176,1,68.75
256,64,25920,2,0,L|176:64,1,68.75
400,192,26124,2,0,L|320:192,1,68.75
64,192,26328,6,0,B|32:224|32:288|64:320|64:320|144:320,1,206.25
400,320,26736,2,0,L|448:320,1,34.375
292,192,26838,2,0,L|244:192,1,34.375
112,64,26941,2,0,L|64:64,1,34.375
220,192,27043,2,0,L|268:192,1,34.375
400,320,27145,2,0,L|448:320,1,34.375
292,192,27247,2,0,L|244:192,1,34.375
400,320,27350,2,0,L|448:320,1,34.375
292,192,27452,2,0,L|244:192,1,34.375
96,320,27553,2,0,P|48:256|48:192,1,137.5
448,96,27961,6,0,B|288:96|288:96|384:96,1,247.500009441376
192,192,28369,2,0,L|128:192,2,55
368,192,28777,1,0,0:0:0:0:
192,192,28879,2,0,P|176:256|192:304,1,110
368,304,29185,1,0,0:0:0:0:
80,304,29390,1,0,0:0:0:0:
48,240,29458,1,0,0:0:0:0:
80,176,29526,1,0,0:0:0:0:
256,176,29594,6,0,L|368:176,1,110
400,176,29849,1,0,0:0:0:0:
432,176,29900,1,0,0:0:0:0:
336,112,30002,1,0,0:0:0:0:
432,112,30104,2,0,L|432:176,1,55
256,112,30308,2,0,L|256:176,1,55
432,192,30512,1,0,0:0:0:0:
256,192,30614,2,0,L|256:256,1,55
80,192,30818,2,0,L|80:256,1,55
256,256,31022,1,0,0:0:0:0:
432,256,31124,1,0,0:0:0:0:
208,256,31226,6,0,B|48:256|48:256|48:160,1,247.500009441376
320,160,31634,1,0,0:0:0:0:
256,160,31736,1,0,0:0:0:0:
192,160,31838,2,0,L|304:160,1,110
112,192,32145,2,0,P|80:240|112:272,1,110
304,192,32451,2,0,P|336:240|304:272,1,110
256,272,32723,1,0,0:0:0:0:
208,272,32791,1,0,0:0:0:0:
416,272,32859,6,0,P|448:224|432:176,1,110
384,128,33165,1,0,0:0:0:0:
288,272,33267,2,0,P|320:224|304:176,1,110
256,128,33573,1,0,0:0:0:0:
160,272,33675,1,0,0:0:0:0:
89,259,33777,1,0,0:0:0:0:
40,208,33879,1,0,0:0:0:0:
30,137,33981,1,0,0:0:0:0:
336,192,34083,2,0,L|448:192,1,110
64,288,34492,6,0,B|224:288|224:288|128:288,1,247.500009441376
320,192,34900,2,0,L|384:192,2,55
144,192,35308,1,0,0:0:0:0:
320,192,35410,2,0,P|336:128|320:80,1,110
144,80,35716,1,0,0:0:0:0:
432,80,35920,1,0,0:0:0:0:
464,144,35988,1,0,0:0:0:0:
432,208,36056,1,0,0:0:0:0:
256,208,36124,6,0,L|144:208,1,110
112,208,36379,1,0,0:0:0:0:
80,208,36430,1,0,0:0:0:0:
176,272,36532,1,0,0:0:0:0:
80,272,36634,2,0,L|80:208,1,55
256,272,36838,2,0,L|256:208,1,55
80,192,37043,1,0,0:0:0:0:
256,192,37145,1,0,0:0:0:0:
80,192,37247,2,0,L|80:128,1,55
176,128,37451,1,0,0:0:0:0:
80,128,37553,1,0,0:0:0:0:
176,128,37655,1,0,0:0:0:0:
432,128,37757,6,0,P|464:160|464:224,1,110
256,192,38063,1,0,0:0:0:0:
47,221,38165,1,0,0:0:0:0:
96,272,38267,1,0,0:0:0:0:
432,224,38369,1,0,0:0:0:0:
383,274,38471,1,0,0:0:0:0:
80,224,38573,1,0,0:0:0:0:
129,274,38675,1,0,0:0:0:0:
304,224,38777,1,0,0:0:0:0:
128,224,38879,1,0,0:0:0:0:
384,224,38981,2,0,P|432:192|448:144,1,110
384,112,39287,1,0,0:0:0:0:
80,128,39390,6,0,P|48:160|48:224,1,110
240,192,39696,1,0,0:0:0:0:
352,192,39747,1,0,0:0:0:0:
465,221,39798,1,0,0:0:0:0:
416,272,39900,1,0,0:0:0:0:
80,224,40002,1,0,0:0:0:0:
129,274,40104,1,0,0:0:0:0:
432,224,40206,1,0,0:0:0:0:
416,248,40257,1,0,0:0:0:0:
383,274,40308,1,0,0:0:0:0:
256,272,40359,1,0,0:0:0:0:
128,224,40410,1,0,0:0:0:0:
304,224,40512,1,0,0:0:0:0:
128,224,40614,2,0,P|80:192|64:144,1,110
128,112,40920,1,0,0:0:0:0:
384,112,41022,6,0,P|432:128|464:240,1,165
288,192,41430,2,0,L|400:192,1,110
64,192,41838,2,0,L|64:256,1,55
128,192,41992,1,0,0:0:0:0:
192,192,42043,2,0,L|192:256,1,55
64,192,42247,1,0,0:0:0:0:
368,192,42451,1,0,0:0:0:0:
416,192,42519,1,0,0:0:0:0:
448,144,42587,1,0,0:0:0:0:
192,192,42655,6,0,P|160:240|192:272,1,110
240,272,42910,1,0,0:0:0:0:
288,272,42961,1,0,0:0:0:0:
190,271,43063,1,0,0:0:0:0:
288,272,43165,2,0,P|320:224|288:192,1,110
96,144,43471,2,0,L|48:176,1,55
256,144,43675,2,0,L|208:176,1,55
416,144,43879,2,0,L|464:176,1,55
256,144,44083,2,0,L|304:176,1,55
96,144,44287,6,0,B|48:176|48:256|96:288|96:288|192:288,1,247.500009441376
352,192,44696,2,0,L|288:192,2,55
160,192,45104,1,0,0:0:0:0:
256,80,45206,1,0,0:0:0:0:
192,80,45257,1,0,0:0:0:0:
128,80,45308,1,0,0:0:0:0:
224,192,45410,1,0,0:0:0:0:
128,304,45512,2,0,P|80:288|48:240,1,110
80,192,45784,1,0,0:0:0:0:
128,160,45852,1,0,0:0:0:0:
352,160,45920,6,0,L|464:160,1,110
416,192,46226,1,0,0:0:0:0:
208,192,46328,2,0,L|320:192,1,110
48,192,46736,2,0,P|32:144|48:80,1,110
464,192,47145,1,0,0:0:0:0:
475,216,47196,1,0,0:0:0:0:
480,243,47247,1,0,0:0:0:0:
476,271,47298,1,0,0:0:0:0:
465,296,47349,1,0,0:0:0:0:
447,317,47400,1,0,0:0:0:0:
425,332,47451,1,0,0:0:0:0:
64,192,47553,6,0,B|224:192|224:192|128:192,1,247.500009441376
336,192,47961,1,0,0:0:0:0:
176,192,48165,1,0,0:0:0:0:
464,192,48369,2,0,L|448:304,1,110
224,192,48675,2,0,L|336:192,1,110
112,192,48981,1,0,0:0:0:0:
464,192,49185,6,0,L|352:192,1,110
304,192,49441,1,0,0:0:0:0:
256,192,49492,1,0,0:0:0:0:
304,144,49594,1,0,0:0:0:0:
384,144,49696,2,0,L|320:144,1,55
160,192,49900,1,0,0:0:0:0:
328,143,50002,2,0,P|354:191|356:246,1,110
338,288,50257,1,0,0:0:0:0:
306,320,50308,1,0,0:0:0:0:
258,336,50359,1,0,0:0:0:0:
80,288,50410,6,0,L|64:256,7,27.5
304,192,50818,6,0,L|416:192,1,110
224,192,51124,1,0,0:0:0:0:
416,112,51226,2,0,L|480:112,1,55
272,64,51430,2,0,L|336:64,1,55
128,112,51634,2,0,L|192:112,1,55
384,192,51838,2,0,L|320:192,1,55
128,192,52043,2,0,L|16:192,1,110
304,192,52451,6,0,L|416:192,1,110
224,192,52757,1,0,0:0:0:0:
416,272,52859,1,0,0:0:0:0:
440,272,52910,1,0,0:0:0:0:
471,272,52961,1,0,0:0:0:0:
272,320,53063,1,0,0:0:0:0:
296,320,53114,1,0,0:0:0:0:
327,320,53165,1,0,0:0:0:0:
128,272,53267,5,0,0:0:0:0:
152,272,53318,1,0,0:0:0:0:
183,272,53369,1,0,0:0:0:0:
384,192,53471,1,0,0:0:0:0:
176,192,53573,1,0,0:0:0:0:
152,178,53624,1,0,0:0:0:0:
143,152,53675,1,0,0:0:0:0:
151,127,53726,1,0,0:0:0:0:
174,112,53777,1,0,0:0:0:0:
384,112,53879,1,0,0:0:0:0:
64,192,54083,5,0,0:0:0:0:
336,192,54492,2,0,L|352:112,1,82.5000031471254
176,192,54900,1,0,0:0:0:0:
336,192,55104,2,0,L|352:272,1,82.5000031471254
176,192,55512,1,0,0:0:0:0:
432,192,55920,5,0,0:0:0:0:
256,192,56328,1,0,0:0:0:0:
352,192,56532,1,0,0:0:0:0:
256,112,56634,1,0,0:0:0:0:
448,112,56838,1,0,0:0:0:0:
256,112,57043,1,0,0:0:0:0:
352,112,57145,1,0,0:0:0:0:
64,192,57349,5,0,0:0:0:0:
200,192,57553,1,0,0:0:0:0:
268,192,57655,1,0,0:0:0:0:
336,192,57757,2,0,L|352:112,1,82.5000031471254
176,192,58165,1,0,0:0:0:0:
336,192,58369,2,0,L|352:272,1,82.5000031471254
176,192,58777,1,0,0:0:0:0:
304,192,58981,5,0,0:0:0:0:
432,192,59185,1,0,0:0:0:0:
344,192,59390,1,0,0:0:0:0:
256,192,59594,1,0,0:0:0:0:
352,192,59798,1,0,0:0:0:0:
256,112,59900,1,0,0:0:0:0:
448,112,60104,1,0,0:0:0:0:
256,112,60308,1,0,0:0:0:0:
64,112,60410,1,0,0:0:0:0:
448,192,60613,5,0,0:0:0:0:
312,192,60818,1,0,0:0:0:0:
244,192,60920,1,0,0:0:0:0:
176,192,61022,2,0,L|160:272,1,82.5000031471254
336,192,61430,1,0,0:0:0:0:
176,192,61634,2,0,L|160:112,1,82.5000031471254
336,192,62043,1,0,0:0:0:0:
208,192,62247,5,0,0:0:0:0:
80,192,62451,1,0,0:0:0:0:
168,192,62656,1,0,0:0:0:0:
256,192,62860,1,0,0:0:0:0:
160,192,63063,1,0,0:0:0:0:
352,192,63165,1,0,0:0:0:0:
160,272,63369,1,0,0:0:0:0:
352,272,63471,1,0,0:0:0:0:
160,272,63675,1,0,0:0:0:0:
464,192,63879,6,0,L|480:96,1,82.5000031471254
368,192,64287,1,0,0:0:0:0:
160,192,64492,1,0,0:0:0:0:
400,192,64696,1,0,0:0:0:0:
112,192,64900,2,0,L|112:240,1,41.2500015735627
304,112,65104,2,0,L|336:80,1,41.2500015735627
112,112,65308,2,0,L|154:112,1,41.2500015735627
400,192,65512,5,0,0:0:0:0:
256,192,65716,12,0,66736,0:0:0:0:
48,192,67145,6,0,L|224:192,1,165
464,192,67553,2,0,L|288:192,1,165
48,192,67961,2,0,L|160:192,1,110
304,112,68369,2,0,L|192:112,1,110
464,192,68777,6,0,L|288:192,1,165
48,192,69185,1,0,0:0:0:0:
336,112,69390,1,0,0:0:0:0:
48,192,69594,2,0,L|224:192,1,165
464,192,70002,2,0,L|288:192,1,165
48,192,70410,6,0,P|32:128|64:32,1,165
304,32,70818,2,0,L|192:32,1,110
336,192,71226,1,0,0:0:0:0:
192,352,71430,1,0,0:0:0:0:
368,192,71634,1,0,0:0:0:0:
176,192,71838,1,0,0:0:0:0:
464,192,72043,6,0,P|480:256|448:352,1,165
208,352,72451,2,0,L|320:352,1,110
48,192,72859,2,0,P|32:144|48:80,1,110
208,32,73267,2,0,L|96:32,1,110
400,192,73675,6,0,L|480:112,1,110
304,112,74083,2,0,L|384:32,1,110
208,32,74492,1,0,0:0:0:0:
368,192,74696,1,0,0:0:0:0:
176,32,74900,1,0,0:0:0:0:
336,192,75104,1,0,0:0:0:0:
48,192,75308,6,0,P|32:128|64:32,1,165
304,32,75716,2,0,L|192:32,1,110
464,192,76124,2,0,P|480:240|464:304,1,110
384,288,76430,1,0,0:0:0:0:
194,352,76532,2,0,L|80:352,1,110
416,192,76941,6,0,L|432:128,1,55
352,144,77145,2,0,L|368:80,1,55
112,192,77349,2,0,L|176:192,1,55
416,192,77553,2,0,L|432:256,1,55
96,192,77757,2,0,L|80:256,1,55
160,240,77961,2,0,L|144:304,1,55
400,192,78165,2,0,L|336:192,1,55
82,245,78369,2,0,L|96:192,1,55
416,192,78573,6,0,L|432:160,3,27.5
384,160,78777,2,0,L|400:128,3,27.5
352,128,78981,2,0,L|320:128,1,27.5
272,80,79083,2,0,L|304:80,1,27.5
352,128,79185,2,0,L|320:128,1,27.5
272,128,79287,1,0,0:0:0:0:
230,127,79338,1,0,0:0:0:0:
190,135,79389,5,0,0:0:0:0:
152,151,79440,1,0,0:0:0:0:
192,160,79492,1,0,0:0:0:0:
234,159,79543,1,0,0:0:0:0:
274,167,79594,1,0,0:0:0:0:
312,183,79645,1,0,0:0:0:0:
272,192,79696,1,0,0:0:0:0:
230,191,79747,1,0,0:0:0:0:
190,199,79798,1,0,0:0:0:0:
152,215,79849,1,0,0:0:0:0:
190,199,79900,1,0,0:0:0:0:
230,191,79951,1,0,0:0:0:0:
272,192,80002,1,0,0:0:0:0:
304,240,80053,1,0,0:0:0:0:
272,288,80104,1,0,0:0:0:0:
224,288,80155,1,0,0:0:0:0:
48,192,80206,5,0,0:0:0:0:
256,192,80410,12,0,81634,0:0:0:0:
80,96,81838,6,0,P|64:128|80:224,1,137.5
144,224,82145,1,0,0:0:0:0:
304,224,82247,1,0,0:0:0:0:
464,224,82349,2,0,L|384:224,1,68.75
208,192,82553,1,0,0:0:0:0:
395,160,82655,2,0,P|464:144|480:80,1,137.5
128,192,83063,1,0,0:0:0:0:
320,192,83267,2,0,L|400:192,1,68.75
192,192,83471,6,0,L|48:192,1,137.5
256,128,83777,1,0,0:0:0:0:
457,192,83879,1,0,0:0:0:0:
64,192,84083,2,0,L|400:192,1,330.000012588501
224,192,84492,1,0,0:0:0:0:
448,192,84696,1,0,0:0:0:0:
64,192,84900,1,0,0:0:0:0:
448,192,85104,6,0,P|464:272|432:320,1,137.5
368,320,85410,1,0,0:0:0:0:
160,192,85512,1,0,0:0:0:0:
368,64,85614,2,0,L|448:64,1,68.75
256,192,85818,1,0,0:0:0:0:
64,192,85920,2,0,P|32:224|64:304,1,137.5
256,192,86328,2,0,L|112:192,1,137.5
448,192,86736,6,0,P|480:224|448:304,1,137.5
256,192,87043,1,0,0:0:0:0:
64,192,87145,1,0,0:0:0:0:
448,192,87349,2,0,L|304:192,1,137.5
256,192,87655,1,0,0:0:0:0:
448,96,87757,2,0,L|384:64,1,68.75
194,161,87961,2,0,L|256:192,1,68.75
64,64,88165,2,0,L|125:94,1,68.75
432,288,88369,6,0,P|448:256|432:160,1,137.5
368,160,88675,1,0,0:0:0:0:
208,160,88777,1,0,0:0:0:0:
48,160,88879,2,0,L|128:160,1,68.75
304,192,89083,1,0,0:0:0:0:
117,224,89185,2,0,P|48:240|32:304,1,137.5
384,192,89594,1,0,0:0:0:0:
192,192,89798,2,0,L|112:192,1,68.75
320,192,90002,6,0,L|464:192,1,137.5
256,256,90308,1,0,0:0:0:0:
55,192,90410,1,0,0:0:0:0:
448,192,90614,2,0,L|112:192,1,330.000012588501
288,192,91022,1,0,0:0:0:0:
64,192,91226,1,0,0:0:0:0:
448,192,91430,1,0,0:0:0:0:
64,192,91634,6,0,P|48:112|80:64,1,137.5
160,144,91941,1,0,0:0:0:0:
75,67,92043,1,0,0:0:0:0:
436,67,92247,1,0,0:0:0:0:
352,144,92349,1,0,0:0:0:0:
436,67,92452,2,0,P|466:127|448:192,1,137.5
256,192,92757,1,0,0:0:0:0:
64,192,92859,1,0,0:0:0:0:
436,317,93063,1,0,0:0:0:0:
352,240,93165,1,0,0:0:0:0:
436,317,93268,6,0,P|466:257|448:192,1,137.5
64,192,93675,1,0,0:0:0:0:
448,192,93879,2,0,L|368:192,1,68.75
128,192,94083,6,0,P|64:160|64:128,1,110
128,128,94390,1,0,0:0:0:0:
288,224,94492,2,0,L|224:224,1,55
400,128,94696,2,0,L|336:128,1,55
80,128,94900,6,0,P|80:208|112:256,1,137.5
176,256,95206,1,0,0:0:0:0:
432,192,95308,2,0,L|352:192,2,68.75
176,192,95614,1,0,0:0:0:0:
363,192,95716,2,0,B|432:192|432:192|352:192,1,137.5
304,192,96022,1,0,0:0:0:0:
48,192,96124,2,0,P|32:112|48:48,1,137.5
112,48,96430,1,0,0:0:0:0:
336,48,96532,6,0,L|480:48,1,137.5
212,48,96838,2,0,L|144:48,1,68.75
432,192,97145,2,0,L|96:192,1,330.000012588501
272,192,97553,1,0,0:0:0:0:
432,192,97757,1,0,0:0:0:0:
96,192,97961,1,0,0:0:0:0:
432,256,98165,6,0,P|432:176|400:128,1,137.5
336,128,98471,1,0,0:0:0:0:
80,192,98573,2,0,L|160:192,2,68.75
336,192,98879,1,0,0:0:0:0:
149,192,98981,2,0,B|80:192|80:192|160:192,1,137.5
208,192,99287,1,0,0:0:0:0:
464,192,99390,2,0,P|480:272|464:336,1,137.5
400,336,99696,1,0,0:0:0:0:
176,336,99798,6,0,L|32:336,1,137.5
300,336,100104,2,0,L|368:336,1,68.75
38,64,100410,2,0,L|176:64,1,137.5
240,64,100716,1,0,0:0:0:0:
432,192,100818,2,0,L|352:192,1,68.75
176,192,101022,2,0,L|256:192,1,68.75
59,192,101226,2,0,L|128:192,1,68.75
352,112,101430,6,0,P|368:192|368:256,1,137.5
304,256,101736,1,0,0:0:0:0:
240,192,101838,1,0,0:0:0:0:
304,112,101941,2,0,P|320:192|320:256,1,137.5
191,247,102247,2,0,P|193:179|208:112,1,137.5
480,96,102655,1,0,0:0:0:0:
416,128,102706,1,0,0:0:0:0:
384,192,102757,1,0,0:0:0:0:
416,256,102808,1,0,0:0:0:0:
480,288,102859,1,0,0:0:0:0:
144,112,103063,6,0,P|128:192|128:256,1,137.5
257,247,103369,2,0,P|255:179|240:112,1,137.5
96,64,103675,1,0,0:0:0:0:
87,97,103726,1,0,0:0:0:0:
81,131,103777,1,0,0:0:0:0:
78,165,103828,1,0,0:0:0:0:
79,199,103879,1,0,0:0:0:0:
416,192,104083,1,0,0:0:0:0:
208,192,104185,1,0,0:0:0:0:
416,192,104287,2,0,L|368:192,1,34.375
208,192,104390,2,0,L|160:192,1,34.375
416,192,104492,2,0,L|496:192,1,68.75
176,80,104696,5,0,0:0:0:0:
96,192,104798,1,0,0:0:0:0:
176,304,104900,1,0,0:0:0:0:
288,80,105002,1,0,0:0:0:0:
208,192,105104,1,0,0:0:0:0:
288,304,105206,1,0,0:0:0:0:
400,80,105308,1,0,0:0:0:0:
288,80,105410,1,0,0:0:0:0:
432,192,105512,1,0,0:0:0:0:
320,192,105614,1,0,0:0:0:0:
112,80,105716,1,0,0:0:0:0:
224,80,105818,1,0,0:0:0:0:
80,192,105920,1,0,0:0:0:0:
192,192,106022,1,0,0:0:0:0:
384,192,106124,1,0,0:0:0:0:
192,192,106226,1,0,0:0:0:0:
384,192,106328,6,0,L|464:192,3,68.75
224,192,106736,2,0,L|304:192,3,68.75
64,192,107145,2,0,L|144:192,1,68.75
363,192,107349,2,0,L|432:192,1,68.75
192,192,107553,2,0,P|160:128|160:64,1,137.5
448,288,107961,6,0,B|288:288|288:288|384:288,1,247.500009441376
192,192,108369,2,0,L|128:192,2,55
368,192,108777,1,0,0:0:0:0:
192,192,108879,2,0,P|176:128|192:80,1,110
368,80,109185,1,0,0:0:0:0:
80,80,109390,1,0,0:0:0:0:
48,144,109458,1,0,0:0:0:0:
80,208,109526,1,0,0:0:0:0:
256,192,109594,5,0,0:0:0:0:
291,172,109645,1,0,0:0:0:0:
318,140,109696,1,0,0:0:0:0:
332,102,109747,1,0,0:0:0:0:
336,64,109798,1,0,0:0:0:0:
176,64,109900,1,0,0:0:0:0:
336,64,110002,1,0,0:0:0:0:
176,64,110104,2,0,L|128:96,1,55
304,320,110308,2,0,L|256:288,1,55
80,192,110512,1,0,0:0:0:0:
256,192,110614,2,0,L|192:192,1,55
375,128,110818,2,0,L|320:128,1,55
496,64,111022,2,0,L|432:64,1,55
176,64,111226,6,0,B|16:64|16:64|103:64,1,247.500009441376
320,192,111634,2,0,L|384:192,2,55
144,192,112042,1,0,0:0:0:0:
320,192,112144,2,0,P|336:256|320:304,1,110
144,304,112450,1,0,0:0:0:0:
432,304,112655,1,0,0:0:0:0:
464,240,112723,1,0,0:0:0:0:
432,176,112791,1,0,0:0:0:0:
224,192,112859,6,0,L|112:192,1,110
48,192,113165,1,0,0:0:0:0:
288,192,113267,2,0,L|400:192,1,110
48,128,113675,2,0,L|160:128,1,110
224,128,113981,1,0,0:0:0:0:
464,128,114083,2,0,L|352:128,1,110
48,128,114492,6,0,L|32:160,7,27.5
256,192,114900,2,0,P|384:192|464:112,1,247.500009441376
256,112,115308,1,0,0:0:0:0:
48,112,115410,1,0,0:0:0:0:
464,112,115614,1,0,0:0:0:0:
256,112,115716,1,0,0:0:0:0:
400,112,115920,1,0,0:0:0:0:
48,112,116124,6,0,P|48:176|64:224,1,110
96,224,116379,1,0,0:0:0:0:
128,224,116430,1,0,0:0:0:0:
320,192,116532,1,0,0:0:0:0:
128,192,116634,2,0,L|64:192,1,55
320,192,116838,2,0,L|384:192,2,55
128,192,117145,2,0,L|16:192,1,110
80,128,117417,1,0,0:0:0:0:
144,128,117485,1,0,0:0:0:0:
208,128,117553,1,0,0:0:0:0:
144,128,117621,1,0,0:0:0:0:
208,128,117689,1,0,0:0:0:0:
400,128,117757,6,0,P|448:144|464:208,1,110
432,240,118063,1,0,0:0:0:0:
49,194,118165,2,0,L|80:240,1,55
432,192,118369,2,0,L|401:237,1,55
80,192,118573,2,0,L|110:237,1,55
400,192,118777,1,0,0:0:0:0:
112,192,118879,1,0,0:0:0:0:
368,192,118981,1,0,0:0:0:0:
399,235,119083,1,0,0:0:0:0:
384,286,119185,1,0,0:0:0:0:
336,306,119287,1,0,0:0:0:0:
112,192,119390,5,0,0:0:0:0:
336,192,119492,2,0,L|400:192,1,55
112,112,119696,2,0,L|48:112,1,55
400,112,119900,2,0,L|464:112,2,55
48,64,120206,2,0,L|48:192,1,110
464,64,120512,6,0,B|144:64|144:64|64:32|64:192|64:352|136:320|136:320|136:152,1,825.000031471254
