osu file format v14

[General]
AudioFilename: PAPAYAPA BASS.mp3
AudioLeadIn: 0
PreviewTime: 13578
Countdown: 0
SampleSet: Soft
StackLeniency: 0.6
Mode: 0
LetterboxInBreaks: 0
WidescreenStoryboard: 1

[Editor]
Bookmarks: 14293,27354,53476,60007,66129,81231,100007
DistanceSpacing: 0.2
BeatDivisor: 8
GridSize: 32
TimelineZoom: 1.2

[Metadata]
Title:PAPAYAPA BASS
TitleUnicode:PAPAYAPA BASS
Artist:Camellia feat. Nanahira
ArtistUnicode:かめりあ feat. ななひら
Creator:Mir
Version:LMT's Hyper
Source:beatmania IIDX 24 SINOBUZ
Tags:mondo groove basshouse vocal Konami bemani Japanese Lasse LMT
BeatmapID:1370007
BeatmapSetID:529991

[Difficulty]
HPDrainRate:5
CircleSize:4
OverallDifficulty:5
ApproachRate:7.5
SliderMultiplier:1.2
SliderTickRate:1

[Events]
//Background and Video events
0,0,"resizedcamellia.jpg",0,0
//Break Periods
2,53676,59182
//Storyboard Layer 0 (Background)
//Storyboard Layer 1 (Fail)
//Storyboard Layer 2 (Pass)
//Storyboard Layer 3 (Foreground)
//Storyboard Sound Samples

[TimingPoints]
1232,408.163265306122,4,2,1,30,1,0
7762,-100,4,2,1,50,0,0
11027,-100,4,2,1,50,0,0
13680,-100,4,2,1,60,0,0
14293,-100,4,2,1,80,0,1
27354,-100,4,2,1,60,0,0
53476,-100,4,2,1,60,0,0
73221,-100,4,2,1,5,0,0
73272,-100,4,2,1,60,0,0
73629,-100,4,2,1,5,0,0
73680,-100,4,2,1,60,0,0
74038,-100,4,2,1,5,0,0
74089,-100,4,2,1,60,0,0
74242,-100,4,2,1,5,0,0
74293,-100,4,2,1,60,0,0
74446,-100,4,2,1,5,0,0
74497,-100,4,2,1,60,0,0
74650,-100,4,2,1,5,0,0
74701,-100,4,2,1,60,0,0
74854,-100,4,2,1,5,0,0
74905,-100,4,2,1,60,0,0
75262,-100,4,2,1,5,0,0
75313,-100,4,2,1,60,0,0
81231,-100,4,2,1,80,0,1
107354,-100,4,2,1,60,0,0
119905,-100,4,2,1,60,0,0
120415,-100,4,2,1,5,0,0
120823,-100,4,2,1,60,0,0

[Colours]
Combo1 : 255,255,55
Combo2 : 0,255,255
Combo3 : 221,221,221
Combo4 : 255,89,89

[HitObjects]
348,91,1232,6,0,L|224:78,1,120,0|2,3:2|0:2,0:0:0:0:
202,87,1742,1,2,0:2:0:0:
242,155,1946,2,0,L|345:165,1,89.9999999999999,2|2,0:2|0:0,0:0:0:0:
340,241,2456,2,0,L|268:233,1,60,2|2,0:0|0:0,0:0:0:0:
205,225,2864,6,0,B|185:263|185:263|199:316,2,89.9999999999999,2|2|0,0:2|0:2|0:2,0:0:0:0:
183,77,3885,5,2,0:2:0:0:
145,8,4089,1,2,0:2:0:0:
105,74,4293,1,2,0:2:0:0:
142,145,4497,2,0,L|273:138,1,120,2|2,0:2|0:2,0:0:0:0:
290,137,5007,1,2,0:2:0:0:
263,212,5211,2,0,L|156:218,1,89.9999999999999,2|2,0:2|0:0,0:0:0:0:
133,292,5721,2,0,L|204:289,1,60,2|2,0:0|0:0,0:0:0:0:
267,285,6129,6,0,L|358:281,1,89.9999999999999,2|2,0:2|0:2,0:0:0:0:
456,349,6742,2,0,B|474:290|474:290|432:222,1,120,2|2,0:2|0:2,0:0:0:0:
396,174,7354,1,2,0:2:0:0:
476,170,7558,1,2,0:2:0:0:
433,242,7762,6,0,L|342:232,1,89.9999999999999,2|2,3:2|0:2,0:0:0:0:
314,245,8170,1,2,3:2:0:0:
288,262,8272,1,2,0:2:0:0:
269,184,8476,1,2,0:2:0:0:
241,199,8578,2,0,L|147:185,2,89.9999999999999,0|0|2,3:2|3:2|3:2,0:0:0:0:
208,275,9395,6,0,B|186:315|186:315|203:364,2,89.9999999999999,2|2|0,3:2|0:2|0:2,0:0:0:0:
285,261,10211,1,0,3:2:0:0:
312,240,10313,2,0,L|325:168,1,60,0|0,0:0|3:2,0:0:0:0:
352,165,10619,2,0,L|365:93,1,60,2|0,0:2|3:2,0:0:0:0:
326,34,11027,6,0,B|299:22|299:22|260:33,1,60,0|0,3:2|3:2,0:0:0:0:
220,86,11436,2,0,B|193:98|193:98|154:87,1,60,0|0,3:2|3:2,0:0:0:0:
135,76,11742,1,0,3:2:0:0:
104,65,11844,2,0,B|42:47,1,60,0|0,3:2|3:2,0:0:0:0:
35,127,12252,2,0,B|97:145,1,60,0|0,3:2|3:2,0:0:0:0:
138,211,12660,6,0,L|109:244,3,30,0|0|0|0,3:2|3:2|3:2|3:2,0:0:0:0:
164,172,13068,2,0,L|193:139,3,30,0|0|0|0,3:2|3:2|3:2|3:2,0:0:0:0:
176,214,13476,1,0,3:0:0:0:
220,294,13680,5,2,0:0:0:0:
278,244,13885,1,2,0:0:0:0:
300,318,14089,1,2,0:0:0:0:
224,304,14293,6,0,L|134:279,1,90,6|2,3:2|0:2,0:0:0:0:
112,298,14701,1,10,3:2:0:0:
88,314,14803,1,2,0:2:0:0:
95,221,15007,1,2,0:2:0:0:
119,202,15109,2,0,L|196:221,1,60,0|2,3:2|0:2,0:0:0:0:
248,238,15517,2,0,L|325:257,1,60,10|2,3:2|0:2,0:0:0:0:
376,275,15925,6,0,B|400:239|400:239|458:255,1,90,2|2,3:2|0:2,0:0:0:0:
477,263,16334,1,8,3:2:0:0:
469,178,16538,2,0,L|396:157,1,60,0|0,0:2|3:2,0:0:0:0:
336,134,16946,5,2,0:2:0:0:
268,93,17150,1,10,3:2:0:0:
334,56,17354,1,2,0:2:0:0:
338,144,17558,6,0,L|238:158,1,90,2|2,3:2|0:2,0:0:0:0:
232,174,17966,1,10,3:2:0:0:
214,193,18068,1,2,0:2:0:0:
268,246,18272,1,2,0:2:0:0:
290,226,18374,2,0,L|372:215,1,60,0|2,3:2|0:2,0:0:0:0:
410,285,18783,2,0,L|333:296,1,60,10|2,3:2|0:2,0:0:0:0:
282,329,19191,6,0,L|191:316,1,90,2|2,3:2|0:2,0:0:0:0:
100,383,19803,2,0,B|64:331|64:331|103:276,1,120,2|0,0:2|0:2,0:0:0:0:
121,206,20415,1,10,3:2:0:0:
43,202,20619,1,2,0:2:0:0:
87,277,20823,6,0,L|187:259,1,90,6|2,3:2|0:2,0:0:0:0:
198,277,21231,1,2,3:2:0:0:
223,297,21334,1,2,0:2:0:0:
287,255,21538,1,2,0:2:0:0:
311,275,21640,2,0,L|402:251,2,90,0|0|2,3:2|3:2|3:2,0:0:0:0:
332,187,22456,6,0,B|383:173|383:173|394:138,1,90,2|2,3:2|0:2,0:0:0:0:
402,106,22864,1,0,3:2:0:0:
476,138,23068,2,0,L|455:209,1,60,0|0,0:2|3:2,0:0:0:0:
458,289,23476,5,2,0:2:0:0:
388,257,23680,1,2,0:2:0:0:
313,273,23885,1,2,3:2:0:0:
241,242,24089,5,2,3:2:0:0:
233,268,24191,1,2,0:2:0:0:
168,213,24395,1,2,0:2:0:0:
176,187,24497,1,0,0:0:0:0:
255,160,24701,1,2,0:2:0:0:
194,106,24905,2,0,L|123:98,1,60,10|10,0:2|0:2,0:0:0:0:
237,37,25313,2,0,L|314:48,1,60,10|10,0:2|0:2,0:0:0:0:
70,51,25721,5,2,3:2:0:0:
64,60,26129,6,0,B|46:96|46:96|63:120|63:120|35:166|71:241,1,180,2|0,3:2|0:0,0:0:0:0:
140,203,26946,2,0,P|127:171|151:128,1,60,0|0,0:2|0:0,0:0:0:0:
121,279,27354,6,0,B|128:306|128:306|168:280|228:298,1,120,6|0,3:2|3:2,0:0:0:0:
269,239,27966,2,0,B|275:222|275:222|326:210,1,60,2|0,0:2|3:2,0:0:0:0:
349,206,28272,1,2,0:2:0:0:
362,282,28476,1,2,0:2:0:0:
334,290,28578,2,0,B|328:307|328:307|266:319,1,60,0|0,3:2|0:2,0:0:0:0:
420,230,28987,6,0,B|436:212|436:212|488:214|496:169,1,90,2|2,3:2|0:2,0:0:0:0:
500,163,29395,1,2,3:2:0:0:
502,137,29497,1,2,0:2:0:0:
435,94,29701,1,2,0:2:0:0:
360,122,29905,1,2,0:2:0:0:
339,138,30007,1,2,0:2:0:0:
272,90,30211,2,0,B|250:75|250:75|193:74,1,60,2|2,3:2|0:2,0:0:0:0:
266,169,30619,6,0,B|237:166|237:166|211:150|211:150|181:164|181:164|143:162,1,120,6|0,3:2|3:2,0:0:0:0:
132,91,31231,2,0,B|119:76|119:76|63:72,1,60,2|0,0:2|3:2,0:0:0:0:
62,48,31538,1,2,0:2:0:0:
7,104,31742,1,2,0:2:0:0:
29,128,31844,2,0,B|42:143|42:143|110:147,1,60,0|0,3:2|0:2,0:0:0:0:
211,68,32252,6,0,B|240:41|240:41|290:41,1,90,2|0,3:2|0:2,0:0:0:0:
314,44,32660,2,0,L|383:44,1,60,2|0,3:2|0:2,0:0:0:0:
431,95,33068,6,0,B|410:128|410:128|349:128,1,90,2|0,3:2|0:2,0:0:0:0:
335,127,33476,2,0,L|256:127,1,60,2|0,3:2|0:2,0:0:0:0:
439,12,33885,6,0,B|458:32|496:23|496:23|491:61|518:82,1,120,6|8,3:2|3:2,0:0:0:0:
483,147,34497,2,0,B|463:157|463:157|462:219,1,60,2|0,0:2|3:2,0:0:0:0:
462,218,34803,1,2,0:2:0:0:
383,217,35007,1,0,0:2:0:0:
383,181,35109,2,0,B|383:153|383:153|350:136,1,60,8|0,3:2|0:2,0:0:0:0:
425,285,35517,6,0,B|412:317|421:349|421:349|396:365,1,90,0|2,3:2|0:2,0:0:0:0:
374,372,35925,1,10,3:2:0:0:
348,383,36027,1,2,0:2:0:0:
327,308,36231,1,2,0:2:0:0:
253,339,36436,2,0,L|216:334,2,30,0|2|2,0:2|0:2|0:2,0:0:0:0:
216,255,36844,2,0,L|255:264,2,30,2|2|0,0:2|0:2|0:2,0:0:0:0:
183,248,37150,6,0,B|153:241|153:241|131:200,1,60,6|2,3:2|0:2,0:0:0:0:
130,188,37456,1,2,0:2:0:0:
117,156,37558,2,0,B|110:138|110:138|53:127,1,60,10|2,3:2|0:2,0:0:0:0:
100,58,37966,5,2,3:2:0:0:
106,59,38068,1,2,0:2:0:0:
112,60,38170,1,2,0:2:0:0:
118,61,38272,1,2,0:2:0:0:
124,63,38374,2,0,L|183:72,1,60,10|2,3:2|0:2,0:0:0:0:
216,140,38783,6,0,B|246:133|246:133|265:90,1,60,2|2,3:2|0:2,0:0:0:0:
269,80,39089,1,2,0:2:0:0:
282,48,39191,2,0,B|289:30|289:30|351:17,1,60,10|2,3:2|0:2,0:0:0:0:
360,19,39497,1,2,0:2:0:0:
397,15,39599,1,2,3:2:0:0:
373,96,39803,5,2,0:2:0:0:
428,151,40007,1,2,0:2:0:0:
446,75,40211,1,2,0:2:0:0:
353,172,40415,6,0,B|334:192|334:192|302:166|241:177,1,120,6|8,3:2|3:2,0:0:0:0:
169,183,41027,2,0,B|136:181|136:181|106:146,1,60,2|0,0:2|3:2,0:0:0:0:
57,113,41436,1,0,0:2:0:0:
61,204,41641,2,0,B|50:190|50:190|3:189,1,60,8|0,3:2|0:2,0:0:0:0:
133,88,42048,6,0,B|155:76|155:76|181:90|221:77,1,90,0|2,3:2|0:2,0:0:0:0:
245,74,42456,1,10,3:2:0:0:
276,65,42558,1,2,0:2:0:0:
340,113,42762,1,2,0:2:0:0:
313,187,42966,1,2,0:2:0:0:
285,197,43068,5,2,0:2:0:0:
225,147,43272,1,10,3:2:0:0:
182,214,43476,1,2,0:2:0:0:
131,152,43680,6,0,B|108:151|85:126|85:126|53:147|22:153,1,120,6|10,3:2|3:2,0:0:0:0:
50,230,44293,2,0,B|78:216|78:216|112:232,1,60,2|0,0:2|3:2,0:0:0:0:
82,302,44701,1,2,0:2:0:0:
115,375,44905,2,0,L|39:377,1,60,8|2,3:2|0:2,0:0:0:0:
164,307,45313,6,0,B|190:307|190:307|211:289|211:289|254:289,1,90,2|0,3:2|3:2,0:0:0:0:
274,287,45721,2,0,L|345:288,1,60,2|0,3:2|3:2,0:0:0:0:
410,288,46129,1,2,0:2:0:0:
426,213,46334,5,2,3:2:0:0:
486,265,46538,1,2,3:2:0:0:
499,190,46742,1,2,0:2:0:0:
347,206,46946,6,0,B|321:212|292:188|292:188|262:216|220:204,1,120,6|0,3:2|3:2,0:0:0:0:
163,211,47558,2,0,L|92:213,1,60,2|0,0:2|3:2,0:0:0:0:
96,136,47966,1,2,0:2:0:0:
125,136,48068,2,0,L|241:132,1,90,2|2,3:2|3:2,0:0:0:0:
28,204,48578,6,0,B|29:174|29:174|15:146|26:108,1,90,0|0,3:2|0:0,0:0:0:0:
22,91,48987,1,2,3:2:0:0:
21,66,49089,1,0,0:2:0:0:
97,54,49293,1,2,0:2:0:0:
122,54,49395,2,0,L|193:51,1,60,0|2,3:2|0:2,0:0:0:0:
238,105,49803,2,0,B|251:98|256:81|256:81|263:97|284:109,1,60,2|0,0:2|0:0,0:0:0:0:
127,132,50211,6,0,B|164:130|164:130|183:159,1,60,6|2,3:2|0:2,0:0:0:0:
186,166,50517,1,2,3:2:0:0:
199,185,50619,2,0,B|205:196|205:196|257:192,1,60,2|2,0:2|0:2,0:0:0:0:
283,267,51027,5,2,3:2:0:0:
276,267,51129,1,2,0:2:0:0:
270,267,51231,1,2,0:2:0:0:
264,268,51333,1,2,3:2:0:0:
257,269,51435,2,0,L|194:272,1,60,2|2,0:2|0:2,0:0:0:0:
321,195,51844,6,0,L|394:189,1,60,2|2,3:2|0:2,0:0:0:0:
404,188,52150,1,2,3:2:0:0:
432,186,52252,2,0,L|485:184,3,30,2|2|2|2,0:2|0:2|0:2|0:2,0:0:0:0:
460,223,52660,2,0,L|506:247,3,30,2|2|2|2,3:2|0:2|3:2|3:2,0:0:0:0:
461,269,53068,2,0,L|490:314,3,30,2|2|2|2,0:2|3:2|3:2|0:2,0:0:0:0:
448,319,53476,5,0,3:0:0:0:
188,146,60007,6,0,B|308:140|308:140|340:213,1,180,0|0,0:2|0:2,0:0:0:0:
260,225,60823,2,0,B|140:231|140:231|110:170,1,180,2|2,0:2|0:2,0:0:0:0:
202,121,61640,6,0,B|322:115|322:115|352:176,1,180,0|2,0:2|0:2,0:0:0:0:
259,235,62456,2,0,B|139:241|139:241|109:180,1,180,2|2,0:2|0:2,0:0:0:0:
94,97,63272,6,0,L|77:21,1,60,2|0,0:2|3:2,0:0:0:0:
173,79,63680,2,0,L|156:6,1,60,0|0,3:2|3:2,0:0:0:0:
257,79,64089,2,0,L|264:110,2,30,0|0|0,3:2|3:2|3:2,0:0:0:0:
342,62,64497,2,0,L|349:93,2,30,0|0|0,3:2|3:2|3:2,0:0:0:0:
256,192,64905,12,0,66129,3:2:0:0:
410,91,66538,6,0,B|327:80|327:80|301:105,1,120,6|0,3:2|3:2,0:0:0:0:
263,171,67150,1,2,0:2:0:0:
330,210,67354,2,0,L|365:153,1,60,2|2,3:2|0:2,0:0:0:0:
255,184,67762,2,0,L|223:233,1,60,2|2,3:2|0:2,0:0:0:0:
175,300,68170,6,0,B|148:324|148:324|65:314,1,120,2|0,3:2|3:2,0:0:0:0:
12,252,68783,2,0,B|38:227|38:227|121:237,1,120,2|0,0:2|0:0,0:0:0:0:
180,292,69395,1,0,3:2:0:0:
240,147,69803,6,0,B|255:65|255:65|221:45,1,120,0|0,3:2|3:2,0:0:0:0:
153,17,70415,1,0,0:2:0:0:
115,85,70619,2,0,L|196:115,1,60,2|2,3:2|0:2,0:0:0:0:
152,178,71027,2,0,L|90:155,1,60,2|2,3:2|0:2,0:0:0:0:
210,247,71436,6,0,B|294:236|294:236|320:261,1,120,2|0,3:2|3:2,0:0:0:0:
270,317,72048,2,0,B|185:327|185:327|159:302,1,120,2|0,0:2|0:2,0:0:0:0:
209,237,72660,2,0,L|282:228,1,60,2|0,3:2|0:0,0:0:0:0:
242,100,73068,6,0,B|164:110|164:110|128:80,1,120,6|2,3:2|3:2,0:0:0:0:
59,53,73680,1,10,0:2:0:0:
70,131,73885,2,0,L|124:177,1,60,2|10,3:2|0:2,0:0:0:0:
58,223,74293,2,0,L|4:177,1,60,2|10,3:2|0:2,0:0:0:0:
141,247,74701,6,0,B|221:226|221:226|257:257,1,120,2|2,3:2|3:2,0:0:0:0:
310,204,75313,2,0,L|257:157,1,60,10|2,0:2|3:2,0:0:0:0:
190,153,75721,1,8,0:2:0:0:
164,159,75823,2,0,L|72:183,1,90,2|8,3:2|3:2,0:0:0:0:
59,260,76334,6,0,L|67:304,2,30,8|8|8,0:0|0:0|0:0,0:0:0:0:
137,252,76742,1,8,0:0:0:0:
161,248,76844,1,8,0:0:0:0:
142,329,77048,1,8,0:0:0:0:
217,307,77252,1,8,0:0:0:0:
295,289,77456,2,0,B|269:235|269:235|233:230,1,90,8|8,0:0|0:0,0:0:0:0:
224,156,77966,6,0,L|227:111,2,30,8|8|8,0:0|0:0|0:0,0:0:0:0:
302,164,78374,1,8,0:0:0:0:
326,168,78476,1,8,0:0:0:0:
307,87,78680,1,8,0:0:0:0:
382,109,78884,1,8,3:2:0:0:
456,140,79089,1,8,3:2:0:0:
447,162,79191,1,8,3:2:0:0:
390,217,79395,1,8,3:2:0:0:
397,243,79497,1,8,3:2:0:0:
404,269,79599,5,8,3:2:0:0:
223,160,80619,5,2,0:2:0:0:
173,98,80823,1,2,0:2:0:0:
251,87,81027,1,2,0:2:0:0:
146,170,81231,6,0,B|117:190|117:190|123:267,1,90,6|2,3:2|0:2,0:0:0:0:
125,270,81640,1,10,3:2:0:0:
130,297,81742,1,2,0:2:0:0:
213,310,81946,1,2,0:2:0:0:
210,282,82048,2,0,L|201:207,1,60,0|2,3:2|0:2,0:0:0:0:
157,367,82456,1,10,3:2:0:0:
231,384,82660,1,2,0:2:0:0:
286,335,82864,6,0,B|303:311|303:311|375:320,1,90,2|2,3:2|0:2,0:0:0:0:
389,322,83272,1,8,3:2:0:0:
384,243,83476,2,0,L|309:235,1,60,0|0,0:2|3:2,0:0:0:0:
246,228,83885,5,2,0:2:0:0:
289,164,84089,1,10,3:2:0:0:
213,154,84293,1,2,0:2:0:0:
259,92,84497,6,0,B|316:102|316:102|352:68,1,90,2|2,3:2|0:2,0:0:0:0:
355,62,84905,1,10,3:2:0:0:
378,42,85007,1,2,0:2:0:0:
438,95,85211,1,2,0:2:0:0:
415,115,85313,2,0,L|374:160,1,60,0|2,3:2|0:2,0:0:0:0:
455,17,85721,1,10,3:2:0:0:
512,73,85925,1,2,0:2:0:0:
496,146,86129,6,0,B|467:183|467:183|474:250,1,90,2|2,3:2|0:2,0:0:0:0:
512,350,86742,2,0,B|473:306|473:306|425:350,1,120,2|0,0:2|0:2,0:0:0:0:
368,299,87354,1,10,3:2:0:0:
356,371,87558,1,2,0:2:0:0:
378,223,87762,6,0,B|373:166|373:166|344:139,1,90,2|2,3:2|0:2,0:0:0:0:
328,123,88170,1,10,3:2:0:0:
304,102,88272,1,2,0:2:0:0:
287,191,88476,1,2,0:2:0:0:
264,170,88578,2,0,L|210:124,1,60,0|2,3:2|0:2,0:0:0:0:
311,272,88987,1,10,3:2:0:0:
235,258,89191,1,2,0:2:0:0:
160,278,89395,6,0,B|114:289|114:289|80:244,1,90,2|2,3:2|0:2,0:0:0:0:
72,232,89803,1,8,3:2:0:0:
115,154,90007,2,0,L|151:215,1,60,0|0,0:2|3:2,0:0:0:0:
39,161,90415,1,2,0:2:0:0:
73,90,90619,2,0,L|152:62,1,60,10|2,3:2|0:2,0:0:0:0:
188,120,91027,6,0,B|222:173|222:173|259:176,1,90,2|2,3:2|0:2,0:0:0:0:
273,174,91436,2,0,L|345:178,1,60,8|2,3:2|0:2,0:0:0:0:
351,179,91742,1,2,0:2:0:0:
376,181,91844,1,2,3:2:0:0:
378,103,92048,1,0,0:2:0:0:
356,102,92150,2,0,L|263:97,1,90,2|2,0:2|0:2,0:0:0:0:
445,142,92660,5,0,3:2:0:0:
455,65,92864,2,0,L|458:27,2,30,0|0|0,0:2|3:2|0:2,0:0:0:0:
446,166,93272,5,0,3:2:0:0:
445,190,93374,1,0,0:2:0:0:
444,215,93476,1,0,3:2:0:0:
361,203,93680,5,2,0:2:0:0:
286,181,93885,1,2,0:2:0:0:
305,258,94089,1,2,0:2:0:0:
355,125,94293,6,0,B|328:102|328:102|269:100,1,90,6|2,3:2|0:2,0:0:0:0:
244,99,94701,1,10,3:2:0:0:
217,99,94803,1,2,0:2:0:0:
277,183,95007,1,2,0:2:0:0:
247,182,95109,2,0,L|179:179,1,60,0|2,3:2|0:2,0:0:0:0:
353,198,95517,1,10,3:2:0:0:
422,167,95721,1,2,0:2:0:0:
426,88,95925,6,0,B|406:40|406:40|367:40,1,90,2|2,3:2|0:2,0:0:0:0:
243,19,96538,2,0,B|195:61|195:61|236:104,1,120,0|2,0:2|0:2,0:0:0:0:
280,166,97150,1,10,3:2:0:0:
204,170,97354,1,2,0:2:0:0:
312,98,97558,6,0,B|347:108|347:108|371:162,1,90,2|2,3:2|0:2,0:0:0:0:
378,175,97966,1,10,3:2:0:0:
385,196,98068,1,2,0:2:0:0:
439,116,98272,1,2,0:2:0:0:
448,138,98374,2,0,L|476:200,1,60,0|2,3:2|0:2,0:0:0:0:
409,42,98783,1,10,3:2:0:0:
334,18,98987,1,2,0:2:0:0:
262,44,99191,6,0,B|224:69|224:69|170:45,1,90,2|2,3:2|0:2,0:0:0:0:
73,34,99803,2,0,B|26:73|26:73|77:126,1,120,2|0,0:2|0:2,0:0:0:0:
105,182,100415,1,10,3:2:0:0:
30,183,100619,1,2,0:2:0:0:
147,113,100823,6,0,B|185:152|185:152|227:146,1,90,14|2,3:2|0:2,0:0:0:0:
244,143,101231,1,10,0:2:0:0:
280,136,101334,1,2,0:2:0:0:
278,213,101538,1,2,0:2:0:0:
244,220,101640,2,0,L|172:231,1,60,0|2,0:0|0:2,0:0:0:0:
356,233,102048,2,0,B|376:218|376:218|406:224|406:224|442:186,1,90,2|0,0:2|0:2,0:0:0:0:
461,206,102456,6,0,B|493:238|493:238|517:189,1,90,10|2,3:2|0:2,0:0:0:0:
493,359,103068,2,0,B|451:311|451:311|404:376,1,120,0|2,0:2|0:2,0:0:0:0:
357,308,103680,1,2,0:2:0:0:
287,341,103885,1,2,0:2:0:0:
222,298,104089,5,2,3:2:0:0:
204,314,104191,1,2,0:2:0:0:
160,244,104395,1,2,0:2:0:0:
150,223,104497,1,0,0:0:0:0:
122,316,104701,1,2,0:2:0:0:
72,249,104905,2,0,L|43:193,1,60,10|10,0:2|0:2,0:0:0:0:
212,167,105313,2,0,L|243:220,1,60,10|10,0:2|0:2,0:0:0:0:
85,77,105721,6,0,L|67:33,2,30,2|0|0,3:2|0:2|0:2,0:0:0:0:
116,152,106129,1,2,3:2:0:0:
170,85,106334,1,0,0:0:0:0:
188,75,106436,1,0,0:0:0:0:
207,65,106538,1,0,0:0:0:0:
222,58,106640,1,0,0:0:0:0:
284,110,106844,1,0,0:2:0:0:
302,120,106946,1,0,0:2:0:0:
376,92,107150,1,0,0:2:0:0:
442,135,107354,6,0,B|465:155|465:155|431:199|452:246,1,120,6|8,3:2|3:2,0:0:0:0:
429,316,107966,2,0,B|417:333|417:333|362:328,1,60,2|0,0:2|3:2,0:0:0:0:
343,323,108272,1,2,0:2:0:0:
277,288,108476,1,2,0:2:0:0:
299,261,108578,2,0,B|310:243|310:243|365:248,1,60,8|2,3:2|0:2,0:0:0:0:
264,365,108987,6,0,B|236:363|236:363|209:350|172:358,1,90,0|2,3:2|0:2,0:0:0:0:
142,350,109395,1,10,3:2:0:0:
112,353,109497,1,2,0:2:0:0:
53,296,109701,1,2,0:2:0:0:
106,238,109905,1,2,0:2:0:0:
137,233,110007,1,2,0:2:0:0:
179,161,110211,2,0,L|213:175,3,30,10|0|2|0,3:2|0:2|0:2|0:2,0:0:0:0:
144,148,110619,6,0,B|115:131|115:131|135:90|129:45,1,120,6|8,3:2|3:2,0:0:0:0:
202,14,111231,2,0,B|218:30|218:30|268:23,1,60,2|0,0:2|3:2,0:0:0:0:
284,20,111538,1,2,0:2:0:0:
319,100,111742,1,2,0:2:0:0:
283,102,111845,2,0,B|243:109|243:109|231:136,1,60,8|2,3:2|0:2,0:0:0:0:
294,235,112252,6,0,B|278:207|278:207|214:216,1,90,2|0,3:2|0:2,0:0:0:0:
196,219,112660,2,0,L|134:227,1,60,10|0,3:2|0:2,0:0:0:0:
146,339,113068,2,0,B|162:367|162:367|226:358,1,90,2|0,3:2|0:2,0:0:0:0:
244,355,113476,2,0,L|306:347,1,60,10|0,3:2|3:2,0:0:0:0:
136,226,113885,6,0,B|145:265|145:265|132:300|132:300|147:340,1,120,0|8,0:2|3:2,0:0:0:0:
65,252,114497,2,0,L|47:183,1,60,2|8,0:2|3:2,0:0:0:0:
45,178,114803,1,2,0:2:0:0:
115,137,115007,2,0,L|92:47,1,90,10|8,3:2|3:2,0:0:0:0:
191,164,115517,6,0,B|203:204|203:204|268:213,1,90,8|2,3:2|0:2,0:0:0:0:
279,215,115925,1,10,0:2:0:0:
312,219,116027,1,0,0:2:0:0:
315,140,116231,1,2,0:2:0:0:
278,134,116334,1,8,3:2:0:0:
345,68,116538,1,2,0:2:0:0:
400,143,116742,6,0,L|418:99,3,30,0|2|0|0,0:0|0:2|0:0|0:0,0:0:0:0:
386,178,117150,6,0,B|387:201|387:201|422:215,1,60,6|2,3:2|0:2,0:0:0:0:
442,223,117456,1,2,0:2:0:0:
473,237,117558,2,0,B|498:248|498:248|513:287,1,60,10|2,3:2|0:2,0:0:0:0:
429,312,117966,5,2,3:2:0:0:
422,308,118068,1,2,0:2:0:0:
415,305,118170,1,2,0:2:0:0:
409,301,118272,1,2,0:2:0:0:
402,299,118374,2,0,L|342:272,1,60,10|0,3:2|0:2,0:0:0:0:
269,244,118783,5,10,3:2:0:0:
251,258,118885,1,10,3:2:0:0:
181,206,119089,1,10,3:2:0:0:
110,156,119293,1,10,3:2:0:0:
39,198,119497,1,0,0:2:0:0:
25,213,119599,1,6,3:2:0:0:
164,55,119905,6,0,L|340:46,1,150,2|0,3:2|0:2,0:0:0:0:
