osu file format v14

[General]
AudioFilename: PAPAYAPA BASS.mp3
AudioLeadIn: 0
PreviewTime: 13578
Countdown: 0
SampleSet: Soft
StackLeniency: 0.6
Mode: 0
LetterboxInBreaks: 0
WidescreenStoryboard: 0

[Editor]
Bookmarks: 14293,27354,53476,60007,66129,81231,100007
DistanceSpacing: 0.2
BeatDivisor: 4
GridSize: 4
TimelineZoom: 3.599999

[Metadata]
Title:PAPAYAPA BASS
TitleUnicode:PAPAYAPA BASS
Artist:Camellia feat. Nanahira
ArtistUnicode:かめりあ feat. ななひら
Creator:Mir
Version:Papayapa!
Source:beatmania IIDX 24 SINOBUZ
Tags:mondo groove basshouse vocal Konami bemani Japanese Lasse LMT
BeatmapID:1123616
BeatmapSetID:529991

[Difficulty]
HPDrainRate:6
CircleSize:3.5
OverallDifficulty:8.5
ApproachRate:9.3
SliderMultiplier:2
SliderTickRate:1

[Events]
//Background and Video events
0,0,"resizedcamellia.jpg",0,0
//Break Periods
2,53676,59453
//Storyboard Layer 0 (Background)
//Storyboard Layer 1 (Fail)
//Storyboard Layer 2 (Pass)
//Storyboard Layer 3 (Foreground)
//Storyboard Sound Samples

[TimingPoints]
1232,408.163265306122,4,2,1,30,1,0
7762,-100,4,2,1,50,0,0
12660,-50,4,2,1,50,0,0
13680,-133.333333333333,4,2,1,60,0,0
14293,-66.6666666666667,4,2,1,60,0,0
16538,-50,4,2,1,60,0,0
16742,-66.6666666666667,4,2,1,60,0,0
23068,-50,4,2,1,60,0,0
23272,-66.6666666666667,4,2,1,60,0,0
26129,-133.333333333333,4,2,1,60,0,0
27354,-50,4,2,1,80,0,1
32660,-66.6666666666667,4,2,1,80,0,1
33068,-100,4,2,1,80,0,1
33476,-133.333333333333,4,2,1,80,0,0
33885,-50,4,2,1,80,0,1
45721,-66.6666666666667,4,2,1,80,0,1
46334,-50,4,2,1,80,0,1
48068,-100,4,2,1,80,0,1
48374,-50,4,2,1,80,0,1
53476,-100,4,2,1,60,0,0
66129,-133.333333333333,4,2,1,60,0,0
66538,-83.3333333333333,4,2,1,60,0,0
73221,-83.3333333333333,4,2,1,5,0,0
73272,-83.3333333333333,4,2,1,60,0,0
73629,-83.3333333333333,4,2,1,5,0,0
73680,-83.3333333333333,4,2,1,60,0,0
74038,-83.3333333333333,4,2,1,5,0,0
74089,-83.3333333333333,4,2,1,60,0,0
74242,-83.3333333333333,4,2,1,5,0,0
74293,-83.3333333333333,4,2,1,60,0,0
74446,-83.3333333333333,4,2,1,5,0,0
74497,-83.3333333333333,4,2,1,60,0,0
74650,-83.3333333333333,4,2,1,5,0,0
74701,-83.3333333333333,4,2,1,60,0,0
74854,-83.3333333333333,4,2,1,5,0,0
74905,-83.3333333333333,4,2,1,60,0,0
75262,-83.3333333333333,4,2,1,5,0,0
75313,-83.3333333333333,4,2,1,60,0,0
80007,-200,4,2,1,60,0,0
80619,-100,4,2,1,60,0,0
81231,-66.6666666666667,4,2,1,60,0,0
83476,-50,4,2,1,60,0,0
83680,-66.6666666666667,4,2,1,60,0,0
90007,-50,4,2,1,60,0,0
90211,-66.6666666666667,4,2,1,60,0,0
90415,-58.8235294117647,4,2,1,60,0,0
93680,-133.333333333333,4,2,1,60,0,0
93885,-90.9090909090909,4,2,1,60,0,0
94089,-76.9230769230769,4,2,1,60,0,0
94293,-66.6666666666667,4,2,1,60,0,0
96538,-50,4,2,1,60,0,0
96742,-66.6666666666667,4,2,1,60,0,0
103068,-50,4,2,1,60,0,0
103272,-66.6666666666667,4,2,1,60,0,0
104089,-76.9230769230769,4,2,1,60,0,0
105721,-66.6666666666667,4,2,1,60,0,0
106129,-133.333333333333,4,2,1,60,0,0
107354,-50,4,2,1,80,0,1
112660,-66.6666666666667,4,2,1,80,0,1
113068,-100,4,2,1,80,0,1
113885,-50,4,2,1,80,0,1
115313,-100,4,2,1,80,0,1
115517,-50,4,2,1,80,0,1
116742,-40,4,2,1,80,0,1
117150,-50,4,2,1,80,0,1
119905,-1000,4,2,1,60,0,0
120415,-1000,4,2,1,5,0,0
120823,-1000,4,2,1,60,0,0
120923,-25,4,2,1,60,0,0

[Colours]
Combo1 : 255,255,55
Combo2 : 0,255,255
Combo3 : 221,221,221
Combo4 : 255,89,89

[HitObjects]
88,127,619,5,2,0:2:0:0:
107,123,823,1,2,0:2:0:0:
126,119,1027,1,2,0:2:0:0:
366,335,1232,6,0,L|230:333,1,100,0|0,3:2|0:2,0:2:0:0:
204,260,1538,1,2,0:2:0:0:
261,198,1640,1,2,0:2:0:0:
204,260,1742,1,2,0:2:0:0:
326,138,1946,2,0,P|392:135|448:168,1,100,2|0,0:2|0:2,0:2:0:0:
427,326,2252,1,2,0:0:0:0:
368,222,2456,1,2,0:0:0:0:
433,339,2660,1,2,0:0:0:0:
193,357,2864,6,0,L|327:357,1,100,2|0,0:2|0:2,0:2:0:0:
293,357,3170,1,2,0:2:0:0:
293,357,3476,1,0,0:2:0:0:
357,135,3885,6,0,L|353:196,1,50,2|0,0:2|0:2,0:2:0:0:
339,125,4089,1,2,0:2:0:0:
323,113,4293,1,2,0:2:0:0:
160,220,4497,5,2,0:2:0:0:
121,36,4803,1,2,0:2:0:0:
50,103,4905,1,2,0:2:0:0:
121,36,5007,1,2,0:2:0:0:
71,191,5211,2,0,B|58:238|58:238|70:329,1,100,2|0,0:2|0:2,0:2:0:0:
160,362,5517,1,2,0:0:0:0:
72,305,5721,1,2,0:0:0:0:
166,372,5925,1,2,0:0:0:0:
311,176,6129,6,0,P|386:163|438:176,1,100,2|0,0:2|0:2,0:2:0:0:
326,189,6436,2,0,P|251:202|199:189,1,100,2|0,0:2|0:2,0:2:0:0:
245,52,6742,2,0,P|293:95|233:82,1,150,2|0,0:2|0:2,0:2:0:0:
161,78,7150,5,2,0:2:0:0:
141,73,7354,1,2,0:2:0:0:
121,68,7558,1,2,0:2:0:0:
140,360,7762,6,0,B|184:352|184:352|246:367,1,100,2|0,3:2|0:2,0:2:0:0:
330,254,8068,1,2,0:2:0:0:
239,241,8170,1,2,3:2:0:0:
330,254,8272,1,2,0:2:0:0:
153,224,8476,2,0,L|153:153,2,50,2|0|0,0:2|3:2|0:2,0:2:0:0:
8,150,8783,2,0,P|65:158|91:150,1,50,2|0,0:2|3:2,0:2:0:0:
165,81,8987,2,0,P|140:82|116:89,1,50,2|0,0:2|0:2,0:2:0:0:
5,161,9191,2,0,P|28:168|53:169,1,50,2|0,3:2|0:2,0:2:0:0:
237,126,9395,6,0,P|254:68|216:2,1,100,2|0,3:2|0:2,0:2:0:0:
229,152,9701,2,0,P|218:200|227:223,2,50,2|0|0,0:2|3:2|0:2,0:2:0:0:
229,152,10007,1,0,0:2:0:0:
416,201,10211,2,0,L|289:193,1,100,0|0,3:2|0:2,0:2:0:0:
316,194,10517,1,0,3:2:0:0:
316,194,10619,1,2,0:2:0:0:
271,301,10823,1,0,3:2:0:0:
192,99,11027,5,0,3:2:0:0:
213,87,11129,1,0,3:2:0:0:
237,85,11231,1,0,3:2:0:0:
259,94,11333,1,0,3:2:0:0:
285,106,11436,1,0,3:2:0:0:
323,121,11538,1,0,3:2:0:0:
364,119,11640,1,0,3:2:0:0:
402,100,11742,1,0,3:2:0:0:
417,64,11844,5,0,3:2:0:0:
366,41,11946,1,0,3:2:0:0:
311,31,12048,1,0,3:2:0:0:
256,35,12150,1,0,3:2:0:0:
204,53,12252,1,0,3:2:0:0:
155,79,12354,1,0,3:2:0:0:
100,79,12456,1,0,3:2:0:0:
48,59,12558,1,0,3:2:0:0:
50,139,12660,6,0,B|39:160|39:160|44:209,1,50,0|0,3:2|0:2,0:2:0:0:
70,185,12762,2,0,B|64:208|64:208|82:254,1,50,0|0,3:2|0:2,0:2:0:0:
106,213,12864,2,0,B|106:236|106:236|135:276,1,50,0|0,3:2|0:2,0:2:0:0:
145,209,12966,2,0,B|152:231|152:231|190:262,1,50,0|0,3:2|0:2,0:2:0:0:
177,180,13068,2,0,B|169:157|169:157|149:140,1,50,0|0,3:2|0:2,0:2:0:0:
216,176,13170,2,0,B|215:152|215:152|199:130,1,50,0|0,3:2|0:2,0:2:0:0:
252,204,13272,2,0,B|257:180|257:180|247:156,1,50,0|0,3:2|0:2,0:2:0:0:
272,250,13374,2,0,B|283:229|283:229|280:202,1,50,0|0,3:2|0:2,0:2:0:0:
255,286,13476,5,0,3:0:0:0:
377,317,13680,6,0,L|392:351,1,37.5000014305115,2|0,0:0|0:0,0:0:0:0:
309,254,13885,2,0,L|271:250,1,37.5000014305115,2|0,0:0|0:0,0:0:0:0:
407,228,14089,2,0,L|428:196,1,37.5000014305115,2|0,0:0|0:0,0:0:0:0:
208,375,14293,6,0,L|23:371,1,150.000005722046,6|0,3:2|0:2,0:2:0:0:
110,271,14599,1,2,0:2:0:0:
209,212,14701,1,10,3:2:0:0:
110,271,14803,2,0,L|14:270,1,75.0000028610231,2|0,0:2|0:2,0:2:0:0:
209,212,15007,2,0,L|305:211,2,75.0000028610231,2|0|0,0:2|3:2|0:2,0:2:0:0:
107,179,15313,2,0,P|90:142|97:89,1,75.0000028610231,2|0,0:2|0:2,0:2:0:0:
198,13,15517,2,0,P|197:50|181:83,1,75.0000028610231,10|0,3:2|0:2,0:2:0:0:
99,181,15721,2,0,P|82:144|89:91,1,75.0000028610231,2|0,0:2|0:2,0:2:0:0:
259,133,15925,6,0,B|345:107|325:174|458:117,1,150.000005722046,2|0,3:2|0:2,0:2:0:0:
497,159,16231,2,0,P|503:122|487:89,2,75.0000028610231,2|8|0,0:2|3:2|0:2,0:2:0:0:
427,235,16538,2,0,B|388:237|388:237|366:230|366:230|328:232,1,100,0|0,0:2|0:2,0:2:0:0:
164,233,16742,1,0,3:2:0:0:
174,231,16946,2,0,P|192:265|182:315,1,75.0000028610231,2|0,0:2|0:2,0:2:0:0:
90,280,17150,2,0,P|52:279|22:258,1,75.0000028610231,10|0,3:2|0:2,0:2:0:0:
86,181,17354,2,0,P|105:149|138:132,1,75.0000028610231,2|0,0:2|0:2,0:2:0:0:
389,158,17558,6,0,L|201:153,1,150.000005722046,2|0,3:2|0:2,0:2:0:0:
216,45,17864,1,2,0:2:0:0:
338,1,17966,1,10,3:2:0:0:
216,45,18068,2,0,L|74:41,1,75.0000028610231,2|0,0:2|0:2,0:2:0:0:
137,132,18272,2,0,L|62:134,2,75.0000028610231,2|0|0,0:2|3:2|0:2,0:2:0:0:
239,154,18578,2,0,P|248:190|238:235,1,75.0000028610231,2|0,0:2|0:2,0:2:0:0:
159,332,18783,2,0,P|152:295|161:259,1,75.0000028610231,10|0,3:2|0:2,0:2:0:0:
247,151,18987,2,0,P|256:187|246:232,1,75.0000028610231,2|0,0:2|0:2,0:2:0:0:
163,347,19191,6,0,L|353:351,1,150.000005722046,2|0,3:2|0:2,0:2:0:0:
389,295,19497,2,0,P|407:330|403:382,2,75.0000028610231,2|8|0,0:2|3:2|0:2,0:2:0:0:
346,211,19803,2,0,P|347:173|365:140,2,75.0000028610231,2|0|0,0:2|0:2|3:2,0:2:0:0:
444,89,20109,1,0,0:2:0:0:
401,51,20211,1,0,0:2:0:0:
349,49,20313,1,0,0:2:0:0:
296,80,20415,2,0,L|187:87,1,75.0000028610231,10|0,3:2|0:2,0:2:0:0:
167,165,20619,2,0,L|276:172,1,75.0000028610231,2|0,0:2|0:2,0:2:0:0:
114,247,20823,6,0,P|67:158|104:89,1,150.000005722046,6|0,3:2|0:2,0:2:0:0:
150,31,21129,1,2,0:2:0:0:
29,17,21231,1,2,3:2:0:0:
150,31,21334,2,0,L|259:38,1,75.0000028610231,2|0,0:2|0:2,0:2:0:0:
313,82,21538,2,0,L|387:77,2,75.0000028610231,2|0|0,0:2|3:2|0:2,0:2:0:0:
241,153,21844,2,0,L|166:148,1,75.0000028610231,2|0,0:2|3:2,0:2:0:0:
27,224,22048,2,0,L|101:219,1,75.0000028610231,2|0,0:2|0:2,0:2:0:0:
242,161,22252,2,0,L|167:156,1,75.0000028610231,2|0,3:2|0:2,0:2:0:0:
172,282,22456,6,0,B|248:259|243:313|322:282,1,150.000005722046,2|0,3:2|0:2,0:2:0:0:
394,221,22762,2,0,P|412:257|413:312,2,75.0000028610231,2|0|0,0:2|3:2|0:2,0:2:0:0:
307,66,23068,2,0,B|309:109|309:109|319:124|319:124|320:181,1,100,0|0,0:2|0:2,0:2:0:0:
318,283,23272,1,0,3:2:0:0:
318,296,23476,2,0,P|305:334|267:373,1,75.0000028610231,2|0,0:2|3:2,0:2:0:0:
221,278,23680,2,0,P|194:247|179:195,1,75.0000028610231,2|0,0:2|0:2,0:2:0:0:
286,189,23885,2,0,P|325:180|378:194,1,75.0000028610231,2|0,3:2|0:2,0:2:0:0:
221,278,24089,5,2,3:2:0:0:
215,129,24191,2,0,L|211:18,1,75.0000028610231,2|0,0:2|0:2,0:2:0:0:
30,116,24395,2,0,B|19:126|8:131|8:131|42:170|95:163|169:108,1,150.000005722046,2|0,0:2|0:2,0:2:0:0:
212,54,24701,1,2,0:2:0:0:
212,54,24905,5,10,0:2:0:0:
294,51,25007,1,8,0:2:0:0:
354,94,25109,1,10,0:2:0:0:
385,153,25211,1,8,0:2:0:0:
374,212,25313,1,10,0:2:0:0:
335,247,25415,1,8,0:2:0:0:
290,247,25517,1,10,0:2:0:0:
258,226,25619,1,8,0:2:0:0:
303,163,25721,6,0,L|292:141,8,18.7500007152558,2|0|0|0|0|0|0|0|0,3:2|0:2|0:2|0:2|0:2|0:2|0:2|0:2|0:2,0:2:0:0:
76,330,26129,6,2,B|47:347|41:371|41:371|-20:294|-3:208|62:175|106:222|65:261,1,300.000011444092,2|0,3:2|0:2,0:2:0:0:
72,252,27354,6,0,B|165:208|151:268|240:237|240:237|302:208|355:233|328:292|271:279|269:232,1,300,6|0,3:2|0:2,0:2:0:0:
196,163,27762,1,0,3:2:0:0:
196,163,27864,1,0,0:2:0:0:
196,163,27966,2,0,B|206:113|206:113|190:44,1,100,2|0,0:2|0:2,0:2:0:0:
53,66,28170,1,0,3:2:0:0:
53,66,28272,2,0,B|41:113|41:113|51:163,1,100,2|0,0:2|0:2,0:2:0:0:
130,320,28476,1,2,0:2:0:0:
159,238,28578,1,0,3:2:0:0:
169,243,28783,2,0,P|201:248|251:230,2,66.6666666666667,0|0|0,0:2|0:2|0:2,0:2:0:0:
196,163,28987,6,0,B|166:163|170:132|202:118|201:151|255:155|255:155|270:150|270:150|287:153|287:153|300:147|300:147|366:140,1,200,2|2,3:2|0:2,0:2:0:0:
409,81,29293,1,2,0:2:0:0:
435,170,29395,1,2,3:2:0:0:
340,143,29497,2,0,P|317:92|334:22,1,100,2|0,0:2|0:2,0:2:0:0:
435,170,29701,2,0,P|437:219|415:263,1,100,2|0,0:2|3:2,0:2:0:0:
307,337,29905,1,2,0:2:0:0:
235,274,30007,2,0,P|276:247|325:243,1,100,2|0,0:2|0:2,0:2:0:0:
178,348,30211,5,2,3:2:0:0:
98,380,30313,1,0,0:2:0:0:
60,300,30415,1,2,0:2:0:0:
142,266,30517,1,0,0:2:0:0:
178,348,30619,6,0,B|185:279|185:279|164:209|164:209|184:108|184:108|196:192,1,300,6|0,3:2|0:2,0:2:0:0:
317,343,31027,2,0,L|327:227,1,100,0|0,3:2|0:2,0:2:0:0:
298,61,31231,2,0,B|284:101|284:101|294:158,1,100,2|0,0:2|0:2,0:2:0:0:
491,178,31436,1,0,3:2:0:0:
491,178,31538,2,0,L|374:177,1,100,2|0,0:2|0:2,0:2:0:0:
294,157,31742,1,2,0:2:0:0:
332,238,31844,1,0,3:2:0:0:
325,243,32048,2,0,L|320:326,2,66.6666666666667,0|0|0,0:2|0:2|0:2,0:2:0:0:
200,54,32252,6,0,B|250:70|250:70|465:55,1,200,2|0,3:2|0:2,0:2:0:0:
490,64,32558,1,0,0:2:0:0:
443,146,32660,6,0,L|293:155,1,150.000005722046,2|0,3:2|0:2,0:2:0:0:
293,154,32966,1,0,0:2:0:0:
358,242,33068,6,0,L|458:237,1,100,2|0,3:2|0:2,0:2:0:0:
254,308,33374,2,0,L|204:311,1,50,0|2,0:2|3:2,0:2:0:0:
205,312,33680,2,0,L|242:309,1,37.5000014305115,0|0,0:2|0:2,0:2:0:0:
205,312,33885,6,0,B|145:307|145:307|90:322|90:322|-13:314|-13:314|86:341,1,300,6|0,3:2|0:2,0:2:0:0:
112,206,34293,1,8,3:2:0:0:
112,206,34395,1,0,0:2:0:0:
112,206,34497,2,0,B|126:157|126:157|110:86,1,100,2|0,0:2|0:2,0:2:0:0:
3,33,34701,1,0,3:2:0:0:
3,33,34803,2,0,B|-7:80|-7:80|6:129,1,100,2|0,0:2|0:2,0:2:0:0:
23,285,35007,1,0,0:2:0:0:
112,206,35109,1,8,3:2:0:0:
119,217,35313,2,0,L|199:214,2,66.6666666666667,0|0|0,0:2|0:2|0:2,0:2:0:0:
152,117,35517,6,0,B|122:117|126:86|158:72|157:105|211:109|211:109|226:104|226:104|243:107|243:107|256:101|256:101|322:94,1,200,0|2,3:2|0:2,0:2:0:0:
392,70,35823,1,2,0:2:0:0:
366,159,35925,1,10,3:2:0:0:
295,96,36027,2,0,P|291:47|313:3,1,100,2|0,0:2|0:2,0:2:0:0:
366,159,36231,2,0,P|388:203|386:252,2,100,2|0|0,0:2|3:2|0:2,0:2:0:0:
297,222,36538,1,2,0:2:0:0:
386,252,36640,2,0,L|501:252,1,100,2|8,0:2|3:2,0:2:0:0:
366,159,36844,1,2,0:2:0:0:
297,222,36946,2,0,P|249:247|163:236,1,100,2|0,0:2|0:2,0:2:0:0:
41,23,37150,6,0,B|21:71|21:71|33:158,1,100,6|0,3:2|0:2,0:2:0:0:
98,196,37354,5,2,0:2:0:0:
135,113,37456,1,2,0:2:0:0:
96,190,37558,5,10,3:2:0:0:
135,118,37660,1,2,0:2:0:0:
96,184,37762,5,2,0:2:0:0:
136,123,37864,1,2,0:2:0:0:
95,177,37966,5,2,3:2:0:0:
138,129,38068,1,2,0:2:0:0:
96,170,38170,5,2,0:2:0:0:
138,135,38272,1,2,0:2:0:0:
96,164,38374,6,0,P|78:216|99:303,1,100,10|0,3:2|0:2,0:2:0:0:
195,347,38578,2,0,P|196:297|179:250,1,100,2|0,0:2|0:2,0:2:0:0:
80,260,38783,6,0,L|254:245,1,100,2|0,3:2|0:2,0:2:0:0:
259,148,38987,5,2,0:2:0:0:
267,238,39089,1,2,0:2:0:0:
254,152,39191,5,10,3:2:0:0:
270,232,39293,1,2,0:2:0:0:
251,156,39395,5,2,0:2:0:0:
273,228,39497,1,2,0:2:0:0:
247,161,39599,6,0,L|238:69,2,66.6666666666667,2|2|2,3:2|0:2|0:2,0:2:0:0:
366,362,39803,2,0,P|374:327|336:248,1,100,2|0,0:2|3:2,0:2:0:0:
182,329,40007,2,0,L|322:322,1,100,2|0,0:2|0:2,0:2:0:0:
455,262,40211,2,0,L|356:267,1,100,2|0,0:2|0:2,0:2:0:0:
75,208,40415,6,0,B|22:157|22:157|122:173|122:173|278:163,1,300,6|0,3:2|0:2,0:2:0:0:
358,41,40823,1,8,3:2:0:0:
358,41,40925,1,0,0:2:0:0:
358,41,41027,2,0,B|306:69|306:69|157:78,1,200,2|0,0:2|3:2,0:2:0:0:
77,25,41334,5,2,0:2:0:0:
67,24,41385,1,2,0:2:0:0:
58,24,41436,2,0,B|48:74|48:74|56:139,1,100,0|2,0:2|0:2,0:2:0:0:
78,208,41640,1,8,3:2:0:0:
83,218,41844,2,0,L|149:218,2,66.6666666666667,0|0|0,0:2|0:2|0:2,0:2:0:0:
246,212,42048,6,0,B|216:212|220:243|252:257|251:224|305:220|305:220|320:225|320:225|336:221|336:221|351:226|351:226|415:224,1,200,0|2,3:2|0:2,0:2:0:0:
466,172,42354,1,2,0:2:0:0:
491,271,42456,1,10,3:2:0:0:
466,172,42558,2,0,P|451:123|467:68,1,100,2|0,0:2|0:2,0:2:0:0:
491,271,42762,2,0,P|501:319|486:366,1,100,2|0,0:2|3:2,0:2:0:0:
390,224,42966,1,2,0:2:0:0:
364,311,43068,2,0,P|389:316|435:303,2,50,2|2|2,0:2|0:2|0:2,0:2:0:0:
308,232,43272,5,10,3:2:0:0:
227,261,43374,1,0,0:2:0:0:
193,179,43476,1,2,0:2:0:0:
277,150,43578,1,0,0:2:0:0:
308,232,43680,6,0,B|249:214|249:214|194:231|194:231|132:171|77:183|38:259|143:270|167:208,1,300,6|0,3:2|0:2,0:2:0:0:
146,115,44089,2,0,P|99:116|22:164,1,100,10|0,3:2|0:2,0:2:0:0:
228,339,44293,2,0,B|236:268|236:268|213:223|213:223|223:125,1,200,2|0,0:2|3:2,0:2:0:0:
219,56,44599,5,2,0:2:0:0:
217,46,44650,1,2,0:2:0:0:
215,36,44701,2,0,L|274:37,2,50,2|2|2,0:2|0:2|0:2,0:2:0:0:
146,115,44905,1,8,3:2:0:0:
142,126,45109,2,0,L|63:126,2,66.6666666666667,2|2|2,0:2|0:2|0:2,0:2:0:0:
238,154,45313,6,0,L|472:153,1,200,2|0,3:2|0:2,0:2:0:0:
184,232,45619,1,0,3:2:0:0:
274,241,45721,6,0,L|362:240,1,75.0000028610231,2|0,3:2|0:2,0:2:0:0:
356,248,45925,2,0,L|282:249,1,75.0000028610231,0|0,3:2|0:2,0:2:0:0:
224,307,46129,6,0,L|225:329,4,18.7500007152558,2|0|0|0|0,0:2|0:2|0:2|0:2|0:2,0:2:0:0:
99,196,46334,6,0,P|92:236|119:296,1,100,2|0,3:2|0:2,0:2:0:0:
169,136,46538,2,0,P|189:91|183:42,1,100,2|0,3:2|0:2,0:2:0:0:
0,196,46742,2,0,L|128:196,1,100,2|0,0:2|0:2,0:2:0:0:
420,241,46946,6,0,B|467:202|467:202|218:202,1,300,6|0,3:2|0:2,0:2:0:0:
233,288,47354,2,0,L|361:288,1,100,0|0,3:2|0:2,0:2:0:0:
477,105,47558,2,0,B|431:110|431:110|397:106|397:106|357:120|357:120|329:116|329:116|261:121,1,200,2|0,0:2|3:2,0:2:0:0:
123,43,47864,5,2,0:2:0:0:
126,52,47915,1,2,0:2:0:0:
130,60,47966,2,0,L|181:58,1,50,2|0,0:2|0:2,0:2:0:0:
202,30,48068,6,0,B|180:14|180:14|180:101,1,100,2|0,3:2|0:2,0:2:0:0:
106,178,48374,2,0,L|222:178,1,100,2|0,3:2|0:2,0:2:0:0:
453,139,48578,6,0,B|402:130|402:130|301:145,1,100,0|2,3:2|0:2,0:2:0:0:
299,212,48783,2,0,L|296:288,3,66.6666666666667,2|2|2|2,0:0|0:2|0:0|3:2,0:0:0:0:
251,362,49089,2,0,P|283:372|394:320,1,100,0|0,0:2|0:2,0:2:0:0:
200,243,49293,2,0,P|168:233|57:285,2,100,2|0|2,0:2|3:2|0:2,0:2:0:0:
200,243,49548,1,2,0:2:0:0:
200,243,49599,2,0,L|203:330,2,50,2|0|0,0:2|0:2|0:2,0:2:0:0:
185,84,49803,6,0,B|164:89|146:108|146:108|154:71|148:42|148:42|256:79|222:-4|351:53,1,300,2|0,0:2|0:2,0:2:0:0:
413,82,50211,6,0,L|405:217,1,100,6|0,3:2|0:2,0:2:0:0:
341,246,50415,5,2,0:2:0:0:
304,163,50517,1,2,3:2:0:0:
343,240,50619,5,2,0:2:0:0:
304,168,50721,1,2,0:2:0:0:
343,234,50823,5,2,0:2:0:0:
303,173,50925,1,2,0:2:0:0:
344,226,51027,5,2,3:2:0:0:
306,183,51129,1,2,0:2:0:0:
343,220,51231,5,2,0:2:0:0:
304,184,51333,1,2,3:2:0:0:
342,214,51435,6,0,P|360:266|339:353,1,100,2|0,0:2|0:2,0:2:0:0:
235,384,51640,2,0,P|233:334|250:287,1,100,2|0,0:2|0:2,0:2:0:0:
383,87,51844,6,0,P|372:110|371:135,1,50,2|0,3:2|0:2,0:2:0:0:
400,96,51946,2,0,P|381:112|371:135,1,50,0|0,0:2|0:2,0:2:0:0:
412,110,52048,2,0,P|389:118|371:135,1,50,2|0,0:2|0:2,0:2:0:0:
419,127,52150,2,0,P|394:126|371:135,1,50,2|0,3:2|0:2,0:2:0:0:
418,146,52252,2,0,P|395:135|370:135,1,50,2|0,0:2|0:2,0:2:0:0:
411,162,52354,2,0,P|393:144|370:134,1,50,2|0,0:2|0:2,0:2:0:0:
398,175,52456,2,0,P|388:152|370:134,1,50,2|0,0:2|0:2,0:2:0:0:
381,182,52558,2,0,P|380:158|370:135,1,50,2|0,0:2|0:2,0:2:0:0:
338,221,52660,6,0,P|345:198|343:173,1,50,2|0,3:2|0:2,0:2:0:0:
292,226,52762,2,0,P|306:206|313:182,1,50,2|0,0:2|0:2,0:2:0:0:
255,207,52864,6,0,P|275:194|290:173,1,50,2|0,3:2|0:2,0:2:0:0:
169,212,52966,6,0,P|192:206|213:193,1,50,2|0,3:2|0:2,0:2:0:0:
150,168,53068,2,0,P|173:171|198:165,1,50,2|0,0:2|0:2,0:2:0:0:
138,123,53170,6,0,P|159:134|184:136,1,50,2|0,3:2|0:2,0:2:0:0:
67,66,53272,6,0,P|83:83|105:94,1,50,2|0,3:2|0:2,0:2:0:0:
98,36,53374,2,0,P|107:58|124:76,1,50,2|0,0:2|0:2,0:2:0:0:
192,0,53476,5,0,3:0:0:0:
269,135,60007,6,0,L|159:128,1,100,0|0,0:2|0:2,0:2:0:0:
100,213,60313,2,0,L|155:209,1,50,0|2,0:2|0:2,0:2:0:0:
211,307,60517,1,0,0:2:0:0:
211,307,60619,1,0,0:2:0:0:
335,227,60823,6,0,B|351:278|351:278|342:334,1,100,2|2,0:2|0:2,0:2:0:0:
431,380,61129,2,0,L|442:315,1,50,0|0,0:2|0:2,0:2:0:0:
433,222,61334,1,0,0:2:0:0:
433,222,61436,1,2,0:2:0:0:
341,132,61640,6,0,B|333:86|333:86|349:35,1,100,0|2,0:2|0:2,0:2:0:0:
260,14,61946,2,0,L|243:77,1,50,0|0,0:2|0:2,0:2:0:0:
259,159,62151,1,0,0:2:0:0:
259,159,62252,2,0,L|272:207,1,50,2|0,0:2|0:2,0:2:0:0:
157,116,62456,5,2,0:2:0:0:
78,103,62558,1,2,0:2:0:0:
164,206,62762,5,2,0:2:0:0:
243,219,62864,1,2,0:2:0:0:
99,282,63068,5,2,0:2:0:0:
0,115,63272,6,0,L|1:177,1,50,2|0,0:2|0:2,0:2:0:0:
6,208,63476,1,0,3:2:0:0:
0,313,63680,1,0,3:2:0:0:
93,384,63885,1,0,3:2:0:0:
327,362,64089,5,0,3:2:0:0:
302,313,64191,1,0,3:2:0:0:
304,259,64293,1,0,3:2:0:0:
330,211,64395,1,0,3:2:0:0:
387,194,64497,5,0,3:2:0:0:
324,162,64599,1,0,3:2:0:0:
254,178,64701,2,0,L|264:205,1,25,0|0,3:2|0:2,0:2:0:0:
207,226,64803,2,0,L|224:249,1,25,0|0,3:2|0:2,0:2:0:0:
182,311,64905,1,0,3:2:0:0:
180,326,65109,6,8,L|132:325,2,25,10|8|8,0:2|0:2|0:2,0:2:0:0:
220,196,65313,2,0,L|222:254,1,50,10|0,0:2|0:2,0:2:0:0:
137,107,65517,2,0,L|135:165,1,50,10|0,0:2|0:2,0:2:0:0:
46,215,65721,2,8,L|94:214,2,25,8|8|8,0:2|0:2|0:2,0:2:0:0:
56,349,65925,1,8,0:2:0:0:
56,349,66129,6,0,L|51:227,1,112.500004291535,2|0,0:2|0:2,0:2:0:0:
46,215,66538,6,0,L|241:217,1,179.999994506836,6|0,3:2|0:2,0:2:0:0:
225,216,66946,2,0,L|354:217,1,119.999996337891,0|2,3:2|0:2,0:2:0:0:
439,359,67354,1,2,3:2:0:0:
460,281,67558,1,2,0:2:0:0:
440,72,67762,1,2,3:2:0:0:
455,155,67966,1,2,0:2:0:0:
210,259,68170,6,0,B|114:294|126:221|8:267,1,179.999994506836,2|0,3:2|0:2,0:2:0:0:
34,258,68578,1,0,3:2:0:0:
165,181,68783,2,0,L|166:101,1,59.9999981689454,2|0,0:2|0:2,0:2:0:0:
96,45,68987,2,0,P|172:27|271:91,1,179.999994506836,0|0,3:2|0:2,0:2:0:0:
258,72,69395,2,0,P|334:27|420:44,1,179.999994506836,0|0,3:2|0:2,0:2:0:0:
420,56,69803,6,0,P|333:39|258:89,1,179.999994506836,0|0,3:2|0:2,0:2:0:0:
259,86,70211,2,0,P|234:59|143:41,1,119.999996337891,0|0,3:2|0:2,0:2:0:0:
355,132,70619,1,2,3:2:0:0:
275,185,70823,1,2,0:2:0:0:
56,245,71027,1,2,3:2:0:0:
136,284,71231,1,2,0:2:0:0:
425,266,71436,6,0,B|331:237|347:307|218:263,1,179.999994506836,2|0,3:2|0:2,0:2:0:0:
248,272,71844,1,0,3:2:0:0:
139,154,72048,2,0,B|88:137|79:172|21:155,2,119.999996337891,2|0|0,0:2|3:2|0:2,0:2:0:0:
142,333,72660,2,0,L|138:141,1,179.999994506836,2|0,3:2|0:2,0:2:0:0:
131,68,73068,6,0,L|243:54,1,89.9999972534181,6|0,3:2|0:2,0:2:0:0:
220,56,73272,1,10,0:2:0:0:
424,161,73476,2,0,L|312:147,1,89.9999972534181,2|0,3:2|0:2,0:2:0:0:
334,149,73680,1,10,0:2:0:0:
79,319,73885,2,0,L|190:305,1,89.9999972534181,2|0,3:2|0:2,0:2:0:0:
168,307,74089,2,0,L|265:318,1,89.9999972534181,10|0,0:2|0:2,0:2:0:0:
257,317,74293,2,0,L|347:305,1,89.9999972534181,2|0,3:2|0:2,0:2:0:0:
346,305,74497,2,0,L|444:316,1,89.9999972534181,10|0,0:2|0:2,0:2:0:0:
435,315,74701,6,0,L|421:203,1,89.9999972534181,2|0,3:2|0:2,0:2:0:0:
423,225,74905,1,10,0:2:0:0:
283,34,75109,2,0,L|294:123,1,89.9999972534181,2|0,3:2|0:2,0:2:0:0:
294,123,75313,2,0,L|286:182,1,59.9999981689454,10|0,0:2|0:2,0:2:0:0:
248,308,75517,1,2,3:2:0:0:
66,103,75721,1,8,0:2:0:0:
66,103,75823,2,0,P|119:129|157:124,2,59.9999981689454,2|0|0,3:2|0:2|0:2,0:2:0:0:
131,36,76129,2,0,P|155:18|183:10,1,59.9999981689454,8|0,3:2|0:2,0:2:0:0:
337,27,76334,5,8,0:0:0:0:
340,31,76436,1,8,0:0:0:0:
343,37,76538,1,8,0:0:0:0:
346,42,76640,1,8,0:0:0:0:
348,47,76742,1,8,0:0:0:0:
351,53,76844,1,8,0:0:0:0:
353,59,76946,1,8,0:0:0:0:
354,64,77048,1,8,0:0:0:0:
356,70,77150,1,8,0:0:0:0:
357,76,77252,1,8,0:0:0:0:
358,82,77354,1,8,0:0:0:0:
358,88,77456,1,8,0:0:0:0:
358,94,77558,1,8,0:0:0:0:
358,100,77660,1,8,0:0:0:0:
358,106,77762,1,8,0:0:0:0:
357,112,77864,1,8,0:0:0:0:
356,124,77966,5,8,0:0:0:0:
330,140,78068,1,8,0:0:0:0:
311,163,78170,1,8,0:0:0:0:
300,190,78272,1,8,0:0:0:0:
299,220,78374,1,8,0:0:0:0:
306,249,78476,1,8,0:0:0:0:
323,274,78578,1,8,0:0:0:0:
346,293,78680,1,8,0:0:0:0:
386,309,78783,5,8,3:2:0:0:
370,284,78885,1,8,3:2:0:0:
339,255,78987,1,8,3:2:0:0:
302,236,79089,1,8,3:2:0:0:
260,223,79191,1,8,3:2:0:0:
202,225,79293,1,8,3:2:0:0:
144,240,79395,1,8,3:2:0:0:
94,269,79497,1,8,3:2:0:0:
52,310,79599,5,8,3:2:0:0:
52,310,80007,6,2,P|106:303|144:315,1,75,2|0,0:2|0:2,0:2:0:0:
126,307,80415,1,0,3:2:0:0:
126,307,80517,1,0,3:2:0:0:
230,309,80619,2,0,P|233:334|245:357,1,50,2|0,0:2|0:2,0:2:0:0:
237,224,80823,2,0,P|248:201|253:177,1,50,2|0,0:2|0:2,0:2:0:0:
222,317,81027,2,0,P|225:342|237:365,1,50,2|0,0:2|0:2,0:2:0:0:
226,95,81231,6,0,L|408:97,1,150.000005722046,6|0,3:2|0:2,0:2:0:0:
482,102,81538,1,2,0:2:0:0:
425,8,81640,1,10,3:2:0:0:
482,102,81742,2,0,P|456:167|444:176,1,75.0000028610231,2|0,0:2|0:2,0:2:0:0:
363,195,81946,2,0,L|288:194,2,75.0000028610231,2|0|0,0:2|3:2|0:2,0:2:0:0:
443,262,82252,2,0,P|417:327|405:336,1,75.0000028610231,2|0,0:2|0:2,0:2:0:0:
315,260,82456,2,8,P|294:230|288:194,1,75.0000028610231,10|0,3:2|0:2,0:2:0:0:
449,267,82660,2,0,P|423:332|411:341,1,75.0000028610231,2|0,0:2|0:2,0:2:0:0:
323,271,82864,6,0,L|173:272,1,150.000005722046,2|0,3:2|0:2,0:2:0:0:
77,239,83170,2,0,P|72:287|82:319,2,75.0000028610231,2|8|0,0:2|3:2|0:2,0:2:0:0:
157,170,83476,2,0,B|161:132|161:132|154:117|154:117|159:34,1,100,0|0,0:2|0:2,0:2:0:0:
357,174,83680,1,0,3:2:0:0:
368,181,83885,2,0,P|405:181|440:169,1,75.0000028610231,2|0,0:2|0:2,0:2:0:0:
265,168,84089,2,0,P|245:199|238:236,1,75.0000028610231,10|0,3:2|0:2,0:2:0:0:
329,87,84293,2,0,P|311:54|283:29,1,75.0000028610231,2|2,0:2|0:2,0:2:0:0:
31,98,84497,6,0,B|84:93|84:93|120:107|120:107|210:101,1,150.000005722046,2|0,3:2|0:2,0:2:0:0:
265,168,84803,1,2,0:2:0:0:
329,87,84905,1,10,3:2:0:0:
265,168,85007,2,0,P|245:199|238:236,1,75.0000028610231,2|0,0:2|0:2,0:2:0:0:
347,235,85211,2,0,L|448:240,2,75.0000028610231,2|0|0,0:2|3:2|0:2,0:2:0:0:
291,319,85517,2,0,L|190:324,1,75.0000028610231,2|0,0:2|0:2,0:2:0:0:
68,245,85721,2,0,L|169:250,1,75.0000028610231,10|0,3:2|0:2,0:2:0:0:
293,328,85925,2,0,L|192:333,1,75.0000028610231,2|0,0:2|0:2,0:2:0:0:
239,236,86129,6,0,L|235:86,1,150.000005722046,2|0,3:2|0:2,0:2:0:0:
291,20,86435,2,0,P|258:2|220:0,2,75.0000028610231,2|10|0,0:2|3:2|0:2,0:2:0:0:
321,104,86741,2,0,P|358:103|391:85,2,75.0000028610231,2|0|0,0:2|0:2|3:2,0:2:0:0:
457,13,87047,1,0,0:2:0:0:
495,56,87149,1,0,0:2:0:0:
497,108,87251,1,0,0:2:0:0:
466,161,87354,2,0,L|461:235,1,75.0000028610231,10|0,3:2|0:2,0:2:0:0:
372,310,87558,2,0,L|367:235,1,75.0000028610231,2|0,0:2|0:2,0:2:0:0:
168,258,87762,6,0,B|153:239|153:239|294:239,1,150.000005722046,2|0,3:2|0:2,0:2:0:0:
461,235,88068,1,2,0:2:0:0:
465,333,88170,1,10,3:2:0:0:
461,235,88272,2,0,P|466:198|457:161,1,75.0000028610231,2|0,0:2|0:2,0:2:0:0:
359,137,88476,2,0,P|352:101|359:62,2,75.0000028610231,2|0|0,0:2|3:2|0:2,0:2:0:0:
352,244,88783,2,0,P|288:242|264:231,1,75.0000028610231,2|0,0:2|0:2,0:2:0:0:
172,135,88987,2,0,P|236:137|260:148,1,75.0000028610231,10|0,3:2|0:2,0:2:0:0:
351,255,89191,2,0,P|287:253|263:242,1,75.0000028610231,2|0,0:2|0:2,0:2:0:0:
191,375,89395,6,0,L|195:226,1,150.000005722046,2|0,3:2|0:2,0:2:0:0:
329,162,89701,2,0,L|427:159,2,75.0000028610231,2|8|0,0:2|3:2|0:2,0:2:0:0:
351,255,90007,2,0,B|388:252|388:252|409:260|409:260|449:255,1,100,0|0,0:2|0:2,0:2:0:0:
195,226,90211,1,0,3:2:0:0:
189,241,90415,2,0,B|147:251|147:251|73:241,1,85.0000016212464,2|0,0:2|0:2,0:2:0:0:
44,136,90619,2,8,B|86:126|86:126|160:136,1,85.0000016212464,10|0,3:2|0:2,0:2:0:0:
13,310,90823,2,0,L|17:192,1,85.0000016212464,2|0,0:2|0:2,0:2:0:0:
189,15,91027,5,2,3:2:0:0:
284,63,91129,2,0,P|326:74|392:62,1,85.0000016212464,2|0,0:2|0:2,0:2:0:0:
464,84,91334,2,0,L|461:0,2,85.0000016212464,2|8|0,0:2|3:2|0:2,0:2:0:0:
476,180,91640,2,0,L|391:180,1,85.0000016212464,2|2,0:2|0:2,0:2:0:0:
304,213,91844,2,0,L|187:212,1,85.0000016212464,2|2,3:2|0:2,0:2:0:0:
125,190,92048,1,0,0:2:0:0:
161,274,92150,2,0,P|180:329|167:377,2,85.0000016212464,2|8|0,0:2|3:2|0:2,0:2:0:0:
40,190,92456,2,0,L|143:190,1,85.0000016212464,2|0,0:2|0:2,0:2:0:0:
286,53,92660,6,0,B|340:54|321:-8|227:75|158:29,1,170.000003242493,0|0,3:2|0:2,0:2:0:0:
73,21,92966,1,0,3:2:0:0:
120,109,93068,2,0,P|133:166|111:211,1,85.0000016212464,0|0,0:2|0:2,0:2:0:0:
34,271,93272,2,0,P|26:229|39:189,1,85.0000016212464,0|0,3:2|0:2,0:2:0:0:
277,222,93476,1,0,3:2:0:0:
270,226,93680,6,0,P|251:229|233:229,1,37.5000014305115,2|0,0:2|0:2,0:2:0:0:
294,143,93885,2,0,P|301:126|331:98,1,55.0000016784668,2|0,0:2|0:2,0:2:0:0:
354,211,94089,2,0,P|366:225|369:286,1,64.9999970245363,2|0,0:2|0:2,0:2:0:0:
155,320,94293,6,0,B|247:298|215:352|330:319,1,150.000005722046,6|0,3:2|0:2,0:2:0:0:
374,269,94599,1,2,0:2:0:0:
406,366,94701,1,10,3:2:0:0:
374,269,94803,2,0,L|373:159,1,75.0000028610231,2|0,0:2|0:2,0:2:0:0:
430,86,95007,2,0,P|465:82|504:86,2,75.0000028610231,2|0|0,0:2|3:2|0:2,0:2:0:0:
286,118,95313,2,0,P|251:122|211:117,1,75.0000028610231,2|0,0:2|0:2,0:2:0:0:
81,47,95517,2,0,P|116:43|155:47,1,75.0000028610231,10|0,3:2|0:2,0:2:0:0:
287,128,95721,2,0,P|252:132|212:127,1,75.0000028610231,2|0,0:2|0:2,0:2:0:0:
69,57,95925,6,0,P|46:122|88:220,1,150.000005722046,2|0,3:2|0:2,0:2:0:0:
135,272,96231,2,0,L|220:267,2,75.0000028610231,2|8|0,0:2|3:2|0:2,0:2:0:0:
51,357,96538,2,0,B|89:352|89:352|112:362|112:362|181:356,1,100,0|0,0:2|0:2,0:2:0:0:
326,315,96742,1,0,3:2:0:0:
321,323,96946,2,0,P|292:346|255:350,1,75.0000028610231,2|0,0:2|0:2,0:2:0:0:
318,230,97150,2,0,P|311:193|326:159,1,75.0000028610231,10|0,3:2|0:2,0:2:0:0:
396,274,97354,2,0,P|430:286|452:316,1,75.0000028610231,2|0,0:2|0:2,0:2:0:0:
318,230,97558,6,0,B|272:224|272:224|224:233|224:233|167:225,1,150.000005722046,2|0,3:2|0:2,0:2:0:0:
70,200,97864,1,2,0:2:0:0:
99,297,97966,1,10,3:2:0:0:
70,200,98068,2,0,P|72:133|87:108,1,75.0000028610231,2|0,0:2|0:2,0:2:0:0:
178,80,98272,2,0,P|182:43|173:7,2,75.0000028610231,2|0|0,0:2|3:2|0:2,0:2:0:0:
183,187,98578,2,0,L|260:197,1,75.0000028610231,2|0,0:2|0:2,0:2:0:0:
373,94,98783,2,0,L|296:104,1,75.0000028610231,10|0,3:2|0:2,0:2:0:0:
177,196,98987,2,0,L|254:206,1,75.0000028610231,2|0,0:2|0:2,0:2:0:0:
390,91,99191,6,0,B|407:134|407:134|391:266,1,150.000005722046,2|0,3:2|0:2,0:2:0:0:
379,325,99497,2,0,L|304:315,2,75.0000028610231,2|8|0,0:2|3:2|0:2,0:2:0:0:
306,224,99803,2,0,B|268:222|268:222|233:235,2,75.0000028610231,2|0|0,0:2|0:2|3:2,0:2:0:0:
173,308,100109,1,0,0:2:0:0:
135,265,100211,1,0,0:2:0:0:
133,213,100313,1,0,0:2:0:0:
164,160,100415,2,0,L|168:85,1,75.0000028610231,10|0,3:2|0:2,0:2:0:0:
259,13,100619,2,0,L|263:87,1,75.0000028610231,2|0,0:2|0:2,0:2:0:0:
500,137,100823,6,0,L|326:131,1,150.000005722046,14|0,3:2|0:2,0:2:0:0:
257,172,101129,1,2,0:2:0:0:
340,232,101231,1,10,0:2:0:0:
257,172,101334,2,0,P|238:230|249:271,1,75.0000028610231,2|0,0:2|0:2,0:2:0:0:
278,340,101538,2,0,B|200:359|209:307|121:332,1,150.000005722046,2|0,0:2|0:2,0:2:0:0:
33,347,101844,2,0,P|34:309|50:276,1,75.0000028610231,2|0,0:2|0:2,0:2:0:0:
140,232,102048,2,0,L|167:229,4,18.7500007152558,2|0|0|0|0,0:2|0:2|0:2|0:2|0:2,0:2:0:0:
27,347,102252,2,0,P|28:309|44:276,1,75.0000028610231,2|0,0:2|0:2,0:2:0:0:
193,152,102456,6,0,B|149:142|149:142|97:156|97:156|10:150,1,150.000005722046,10|0,3:2|0:2,0:2:0:0:
186,52,102762,2,0,L|263:70,2,75.0000028610231,2|8|0,0:2|0:2|0:2,0:2:0:0:
193,152,103068,2,0,B|227:161|227:161|258:159|258:159|323:179,1,100,0|0,0:2|0:2,0:2:0:0:
437,220,103272,1,8,0:2:0:0:
425,246,103476,2,0,L|424:306,2,37.5000014305115,2|0|8,0:2|0:2|0:2,0:2:0:0:
336,255,103680,2,0,L|335:315,1,37.5000014305115,2|0,0:2|0:2,0:2:0:0:
326,259,103783,2,0,L|325:319,1,37.5000014305115,0|0,0:2|0:2,0:2:0:0:
314,262,103885,2,0,L|278:263,4,18.7500007152558,2|0|0|0|0,0:2|0:2|0:2|0:2|0:2,0:2:0:0:
129,241,104089,5,2,3:2:0:0:
159,336,104191,2,0,L|73:334,1,64.9999970245363,2|0,0:2|0:2,0:2:0:0:
0,245,104395,2,0,L|149:241,1,129.999994049073,2|0,0:2|0:2,0:2:0:0:
251,309,104701,1,2,0:2:0:0:
251,309,104905,5,10,0:2:0:0:
333,312,105007,1,8,0:2:0:0:
393,269,105109,1,10,0:2:0:0:
424,210,105211,1,8,0:2:0:0:
413,151,105313,1,10,0:2:0:0:
374,116,105415,1,8,0:2:0:0:
329,116,105517,1,10,0:2:0:0:
297,137,105619,1,8,0:2:0:0:
342,200,105721,6,0,L|331:222,8,18.7500007152558,2|0|0|0|0|0|0|0|0,3:2|0:2|0:2|0:2|0:2|0:2|0:2|0:2|0:2,0:2:0:0:
63,18,106129,6,2,B|52:41|25:56|25:56|90:95|126:-1|266:56,1,300.000011444092,2|0,3:2|0:2,0:2:0:0:
262,54,107150,2,0,L|261:104,1,37.5000014305115,0|0,0:2|0:2,0:2:0:0:
33,225,107354,6,0,B|87:206|87:206|154:207|154:207|208:169|208:169|270:168|270:168|181:256,1,300,6|0,3:2|0:2,0:2:0:0:
198,293,107762,2,0,L|305:291,1,100,8|0,3:2|0:2,0:2:0:0:
454,223,107966,2,0,B|409:207|409:207|329:209,1,100,2|0,0:2|0:2,0:2:0:0:
235,196,108170,1,0,3:2:0:0:
235,196,108272,2,0,L|233:88,1,100,2|0,0:2|0:2,0:2:0:0:
70,7,108476,1,2,0:2:0:0:
153,42,108578,1,8,3:2:0:0:
161,51,108783,2,0,B|184:27|184:27|226:26,2,66.6666666666667,2|2|2,0:2|0:2|0:2,0:2:0:0:
45,207,108987,6,0,B|99:234|146:193|146:193|174:199|174:199|196:191|196:191|252:197,1,200,0|2,3:2|0:2,0:2:0:0:
338,223,109293,1,2,0:2:0:0:
265,297,109395,1,10,3:2:0:0:
235,196,109497,2,0,L|233:88,1,100,2|0,0:2|0:2,0:2:0:0:
338,223,109701,2,0,P|370:277|366:322,1,100,2|0,0:2|3:2,0:2:0:0:
265,297,109905,1,2,0:2:0:0:
338,223,110007,2,0,L|446:221,1,100,2|0,0:2|0:2,0:2:0:0:
444,70,110211,5,10,3:2:0:0:
381,6,110313,1,0,0:2:0:0:
317,70,110415,1,2,0:2:0:0:
381,134,110517,1,0,0:2:0:0:
444,70,110619,6,0,B|377:62|377:62|317:71|317:71|271:47|180:57|175:89|204:121|273:90,1,300,6|0,3:2|0:2,0:2:0:0:
125,35,111027,2,0,B|111:85|111:85|126:145,1,100,8|0,3:2|0:2,0:2:0:0:
217,283,111231,2,0,B|228:236|228:236|214:186,1,100,2|0,0:2|0:2,0:2:0:0:
29,185,111436,1,0,3:2:0:0:
29,185,111538,2,0,B|15:235|15:235|26:281,1,100,2|0,0:2|0:2,0:2:0:0:
122,337,111742,1,2,0:2:0:0:
125,243,111844,1,8,3:2:0:0:
124,231,112048,2,0,L|124:141,2,66.6666666666667,2|2|2,0:2|0:2|0:2,0:2:0:0:
217,283,112252,6,0,L|437:278,1,200,2|0,3:2|0:2,0:2:0:0:
485,200,112558,1,0,0:2:0:0:
386,177,112660,6,0,L|236:180,1,150.000005722046,10|0,3:2|0:2,0:2:0:0:
236,180,112966,1,0,0:2:0:0:
172,93,113068,6,0,P|137:128|124:176,1,100,2|0,3:2|0:2,0:2:0:0:
217,283,113374,1,0,0:2:0:0:
116,273,113476,2,0,L|31:271,1,50,10|0,3:2|0:2,0:2:0:0:
0,359,113680,2,0,L|85:357,1,50,0|0,3:2|0:2,0:2:0:0:
302,376,113885,6,0,L|332:371,12,25,0|0|0|0|0|0|0|0|0|0|0|0|0,0:2|0:2|0:2|0:2|0:2|0:2|0:2|0:2|0:2|0:2|0:2|0:2|0:2,0:2:0:0:
409,326,114293,6,0,B|417:276|417:276|406:223,1,100,8|0,3:2|0:2,0:2:0:0:
217,283,114497,2,0,L|330:283,1,100,2|0,0:2|0:2,0:2:0:0:
411,232,114701,1,8,3:2:0:0:
411,232,114803,2,0,B|419:182|419:182|408:129,1,100,2|0,0:2|0:2,0:2:0:0:
223,67,115007,1,10,3:2:0:0:
214,73,115313,2,0,L|215:151,1,50,8|0,3:2|0:2,0:2:0:0:
274,242,115517,6,0,B|224:234|224:234|154:250,1,100,8|2,3:2|0:2,0:2:0:0:
81,369,115721,2,0,L|15:371,3,66.6666666666667,2|2|2|10,0:2|0:2|0:2|0:2,0:2:0:0:
112,292,116027,2,0,P|125:241|108:169,1,100,0|0,0:2|0:2,0:2:0:0:
37,97,116231,2,0,P|24:48|29:0,2,100,2|8|0,0:2|3:2|0:2,0:2:0:0:
126,92,116538,2,0,L|291:91,1,100,2|8,0:2|3:2,0:2:0:0:
246,219,116742,5,0,0:0:0:0:
221,219,116810,5,0,0:0:0:0:
209,197,116878,5,0,0:0:0:0:
221,176,116946,5,0,0:0:0:0:
246,176,117014,5,0,0:0:0:0:
259,197,117082,5,0,0:0:0:0:
246,219,117150,6,0,P|232:301|251:344,1,100,6|0,3:2|0:2,0:2:0:0:
321,367,117354,5,2,0:2:0:0:
358,284,117456,1,2,0:2:0:0:
319,361,117558,5,10,3:2:0:0:
358,289,117660,1,2,0:2:0:0:
319,355,117762,5,2,0:2:0:0:
359,294,117864,1,2,0:2:0:0:
318,347,117966,5,2,3:2:0:0:
356,304,118068,1,2,0:2:0:0:
319,341,118170,5,2,0:2:0:0:
358,305,118272,1,2,0:2:0:0:
318,334,118374,6,0,L|188:331,1,100,10|0,3:2|0:2,0:2:0:0:
52,279,118578,2,0,L|182:276,1,100,0|0,0:2|0:2,0:2:0:0:
342,191,118783,5,10,3:2:0:0:
191,86,118885,2,0,B|184:140|184:140|208:207,1,100,10|0,3:2|0:2,0:2:0:0:
353,83,119089,6,0,L|453:83,1,100,10|0,3:2|0:2,0:2:0:0:
199,183,119293,2,0,L|0:181,1,200,10|0,3:2|0:2,0:2:0:0:
422,288,119599,6,0,B|438:331|438:331|440:178,1,200,6|0,3:2|0:2,0:2:0:0:
208,330,119905,6,0,L|182:330,1,25,2|0,3:2|0:2,0:2:0:0:
