osu file format v14

[General]
AudioFilename: PAPAYAPA BASS.mp3
AudioLeadIn: 0
PreviewTime: 13578
Countdown: 0
SampleSet: Soft
StackLeniency: 0.6
Mode: 0
LetterboxInBreaks: 0
WidescreenStoryboard: 1

[Editor]
Bookmarks: 14293,18783,27354,53476,60007,66129,81231,100007
DistanceSpacing: 0.2
BeatDivisor: 4
GridSize: 32
TimelineZoom: 1.2

[Metadata]
Title:PAPAYAPA BASS
TitleUnicode:PAPAYAPA BASS
Artist:Camellia feat. Nanahira
ArtistUnicode:かめりあ feat. ななひら
Creator:Mir
Version:Normal
Source:beatmania IIDX 24 SINOBUZ
Tags:mondo groove basshouse vocal Konami bemani Japanese Lasse LMT
BeatmapID:1370266
BeatmapSetID:529991

[Difficulty]
HPDrainRate:3
CircleSize:3
OverallDifficulty:4
ApproachRate:5
SliderMultiplier:1
SliderTickRate:1

[Events]
//Background and Video events
0,0,"resizedcamellia.jpg",0,0
//Break Periods
2,53676,62072
//Storyboard Layer 0 (Background)
//Storyboard Layer 1 (Fail)
//Storyboard Layer 2 (Pass)
//Storyboard Layer 3 (Foreground)
//Storyboard Sound Samples

[TimingPoints]
1232,408.163265306122,4,2,1,30,1,0
7762,-100,4,2,1,50,0,0
13680,-100,4,2,1,60,0,0
14293,-100,4,2,1,80,0,1
27354,-100,4,2,1,60,0,0
53476,-100,4,2,1,60,0,0
73221,-100,4,2,1,5,0,0
73272,-100,4,2,1,60,0,0
73629,-100,4,2,1,5,0,0
73680,-100,4,2,1,60,0,0
74038,-100,4,2,1,5,0,0
74089,-100,4,2,1,60,0,0
74242,-100,4,2,1,5,0,0
74293,-100,4,2,1,60,0,0
74446,-100,4,2,1,5,0,0
74497,-100,4,2,1,60,0,0
74650,-100,4,2,1,5,0,0
74701,-100,4,2,1,60,0,0
74854,-100,4,2,1,5,0,0
74905,-100,4,2,1,60,0,0
75262,-100,4,2,1,5,0,0
75313,-100,4,2,1,60,0,0
81231,-100,4,2,1,80,0,1
107354,-100,4,2,1,60,0,0
119905,-100,4,2,1,60,0,0
120415,-100,4,2,1,5,0,0
120823,-100,4,2,1,60,0,0

[Colours]
Combo1 : 255,255,55
Combo2 : 0,255,255
Combo3 : 221,221,221
Combo4 : 255,89,89

[HitObjects]
154,146,619,6,0,L|86:142,2,50,2|2|2,0:2|0:2|0:2,0:0:0:0:
178,114,1232,5,0,3:2:0:0:
287,125,1640,2,0,L|378:120,2,75,2|2|2,0:2|0:2|0:0,0:0:0:0:
249,165,2456,2,0,P|233:189|230:231,1,50,2|2,0:0|0:0,0:0:0:0:
236,263,2864,2,0,L|241:354,2,75,2|2|0,0:2|0:2|0:2,0:0:0:0:
138,215,3885,2,0,L|70:221,2,50,2|2|2,0:2|0:2|0:2,0:0:0:0:
181,181,4497,5,2,0:2:0:0:
234,84,4905,2,0,L|321:84,2,75,2|2|2,0:2|0:2|0:0,0:0:0:0:
181,66,5721,2,0,L|131:64,1,50,2|2,0:0|0:0,0:0:0:0:
78,78,6129,2,0,P|56:109|49:146,2,75,2|2|2,0:2|0:2|0:2,0:0:0:0:
136,171,7150,2,0,L|192:169,2,50,2|2|2,0:2|0:2|0:2,0:0:0:0:
114,222,7762,6,0,P|110:271|126:318,1,100,2|2,3:2|3:2,0:0:0:0:
223,370,8578,2,0,L|320:373,2,75,0|0|2,3:2|3:2|3:2,0:0:0:0:
255,325,9395,2,0,P|277:277|269:222,1,100,2|0,3:2|3:2,0:0:0:0:
349,152,10211,2,0,L|423:150,2,75,0|0|0,3:2|3:2|3:2,0:0:0:0:
256,192,11027,12,0,13476,3:2:0:0:
80,134,14293,6,0,P|151:146|194:130,1,100,6|10,3:2|3:2,0:0:0:0:
225,114,14905,1,0,0:2:0:0:
225,114,15109,2,0,P|273:115|291:120,1,50,0|2,3:2|0:2,0:0:0:0:
316,151,15517,2,0,P|364:150|382:145,1,50,10|2,3:2|0:2,0:0:0:0:
418,135,15925,2,0,P|427:84|416:42,2,75,2|2|0,3:2|0:2|0:2,0:0:0:0:
449,240,16946,1,2,0:2:0:0:
449,240,17150,2,0,L|390:238,1,50,10|2,3:2|0:2,0:0:0:0:
347,218,17558,6,0,P|261:219|245:227,1,100,2|10,3:2|3:2,0:0:0:0:
208,259,18170,1,0,0:2:0:0:
208,259,18374,2,0,P|173:268|148:267,1,50,0|2,3:2|0:2,0:0:0:0:
117,231,18783,2,0,P|82:222|57:223,1,50,10|2,3:2|0:2,0:0:0:0:
14,234,19191,2,0,P|9:272|22:323,2,75,2|2|2,3:2|0:2|0:2,0:0:0:0:
65,136,20211,1,0,0:2:0:0:
65,136,20415,2,0,L|62:79,1,50,10|2,3:2|0:2,0:0:0:0:
114,67,20823,6,0,P|178:56|221:67,1,100,6|2,3:2|3:2,0:0:0:0:
256,94,21436,1,0,0:2:0:0:
256,94,21640,2,0,L|254:11,2,75,0|0|2,3:2|3:2|3:2,0:0:0:0:
294,133,22456,2,0,P|358:144|401:133,1,100,2|0,3:2|3:2,0:0:0:0:
444,121,23068,1,0,0:2:0:0:
492,146,23272,2,0,L|498:225,2,75,0|0|2,3:2|3:2|3:2,0:0:0:0:
256,192,24089,12,2,26129,3:2:0:0:
115,80,26946,5,0,0:2:0:0:
72,181,27354,6,0,B|119:187|119:187|182:172,1,100,6|0,3:2|3:2,0:0:0:0:
221,155,27966,1,2,0:2:0:0:
221,155,28170,2,0,L|332:152,1,100,0|0,3:2|3:2,0:0:0:0:
370,176,28783,1,0,0:2:0:0:
370,176,28987,2,0,P|390:247|373:289,1,100,2|2,3:2|3:2,0:0:0:0:
292,332,29803,2,0,L|177:328,1,100,0|2,3:2|3:2,0:0:0:0:
137,329,30415,1,2,0:2:0:0:
137,329,30619,6,0,B|147:281|147:281|132:213,1,100,6|0,3:2|3:2,0:0:0:0:
119,178,31231,1,2,0:2:0:0:
119,178,31436,2,0,L|122:75,1,100,0|0,3:2|3:2,0:0:0:0:
153,33,32048,1,0,0:2:0:0:
153,33,32252,2,0,L|271:30,2,100,2|2|2,3:2|3:2|3:2,0:0:0:0:
43,40,33476,1,2,3:2:0:0:
108,128,33885,6,0,P|122:183|115:227,1,100,6|8,3:2|3:2,0:0:0:0:
97,276,34497,1,2,0:2:0:0:
97,276,34701,2,0,L|208:276,1,100,0|8,3:2|3:2,0:0:0:0:
246,299,35313,1,0,0:2:0:0:
246,299,35517,2,0,B|231:249|231:249|246:181,1,100,0|10,3:2|3:2,0:0:0:0:
312,118,36334,2,0,B|327:68|327:68|312:0,1,100,0|8,3:2|3:2,0:0:0:0:
223,79,37150,5,6,3:2:0:0:
121,35,37558,2,0,L|112:91,1,50,10|2,3:2|0:2,0:0:0:0:
70,119,37966,2,0,L|79:175,1,50,2|2,3:2|0:2,0:0:0:0:
110,212,38374,2,0,L|101:268,1,50,10|2,3:2|0:2,0:0:0:0:
82,313,38783,5,2,3:2:0:0:
186,278,39191,2,0,L|242:287,1,50,10|2,3:2|0:2,0:0:0:0:
270,329,39599,2,0,L|326:320,1,50,2|2,3:2|0:2,0:0:0:0:
364,288,40007,1,2,0:2:0:0:
472,307,40415,6,0,P|480:258|469:209,1,100,6|8,3:2|3:2,0:0:0:0:
430,185,41027,1,2,0:2:0:0:
430,185,41231,2,0,P|421:116|436:75,1,100,0|8,3:2|3:2,0:0:0:0:
454,38,41844,1,0,0:2:0:0:
454,38,42048,2,0,B|403:27|403:27|336:43,1,100,0|10,3:2|3:2,0:0:0:0:
256,84,42864,2,0,B|205:95|205:95|138:79,1,100,0|10,3:2|3:2,0:0:0:0:
110,57,43476,1,2,0:2:0:0:
110,57,43680,6,0,L|114:168,1,100,6|10,3:2|3:2,0:0:0:0:
82,202,44293,1,2,0:2:0:0:
82,202,44497,2,0,L|86:313,1,100,0|8,3:2|3:2,0:0:0:0:
97,355,45109,1,2,0:2:0:0:
97,355,45313,2,0,P|23:361|-8:351,2,100,2|2|2,3:2|3:2|0:2,0:0:0:0:
182,284,46538,2,0,L|241:286,1,50,2|2,3:2|0:2,0:0:0:0:
268,244,46946,6,0,P|342:238|373:248,1,100,6|0,3:2|3:2,0:0:0:0:
410,277,47558,1,2,0:2:0:0:
410,277,47762,2,0,L|410:358,2,75,0|2|2,3:2|3:2|3:2,0:0:0:0:
455,245,48578,2,0,P|472:193|460:151,1,100,0|2,3:2|3:2,0:0:0:0:
381,72,49395,1,0,3:2:0:0:
282,120,49803,2,0,B|256:129|256:129|217:130,1,50,2|0,0:2|0:0,0:0:0:0:
191,94,50211,5,6,3:2:0:0:
83,73,50619,2,0,L|74:129,1,50,2|2,0:2|0:2,0:0:0:0:
32,157,51027,2,0,L|41:213,1,50,2|2,3:2|0:2,0:0:0:0:
72,250,51435,2,0,L|63:306,1,50,2|2,0:2|0:2,0:0:0:0:
256,192,51844,12,2,53476,3:2:0:0:
256,192,63272,12,2,64905,0:2:0:0:
86,104,66538,6,0,P|179:91|201:98,1,100,6|0,3:2|3:2,0:0:0:0:
231,116,67150,1,2,0:2:0:0:
231,116,67354,2,0,L|294:114,1,50,2|2,3:2|0:2,0:0:0:0:
333,97,67762,2,0,L|382:98,1,50,2|2,3:2|0:2,0:0:0:0:
433,120,68170,2,0,B|461:191|406:192|440:288,2,150,2|2|0,3:2|0:2|3:2,0:0:0:0:
370,28,69803,6,0,P|306:31|264:42,1,100,0|0,3:2|3:2,0:0:0:0:
219,56,70415,1,0,0:2:0:0:
219,56,70619,2,0,P|188:62|160:57,1,50,2|2,3:2|0:2,0:0:0:0:
124,28,71027,2,0,P|93:22|65:27,1,50,2|2,3:2|0:2,0:0:0:0:
34,62,71436,2,0,B|43:120|43:120|33:149|33:149|41:228,2,150,2|2|2,3:2|0:2|3:2,0:0:0:0:
134,107,73068,6,0,L|254:105,1,100,6|2,3:2|3:2,0:0:0:0:
285,124,73680,1,10,0:2:0:0:
285,124,73885,2,0,L|349:124,1,50,2|10,3:2|0:2,0:0:0:0:
384,100,74293,2,0,L|434:100,1,50,2|10,3:2|0:2,0:0:0:0:
456,150,74701,6,0,P|470:212|454:257,1,100,2|2,3:2|3:2,0:0:0:0:
436,295,75313,1,10,0:2:0:0:
436,295,75517,2,0,L|345:292,2,75,2|2|8,3:2|3:2|3:2,0:0:0:0:
256,192,76334,12,8,79599,0:0:0:0:
102,36,81231,6,0,P|82:102|92:141,1,100,6|10,3:2|3:2,0:0:0:0:
129,167,81844,1,0,0:2:0:0:
129,167,82048,2,0,P|140:206|138:228,1,50,0|2,3:2|0:2,0:0:0:0:
106,259,82456,2,0,P|95:298|97:320,1,50,10|2,3:2|0:2,0:0:0:0:
125,352,82864,2,0,L|37:349,2,75,2|2|0,3:2|0:2|0:2,0:0:0:0:
222,299,83885,1,2,0:2:0:0:
222,299,84089,2,0,L|285:296,1,50,10|2,3:2|0:2,0:0:0:0:
321,319,84497,6,0,P|379:331|430:315,1,100,2|10,3:2|3:2,0:0:0:0:
455,281,85109,1,0,0:2:0:0:
455,281,85313,2,0,L|453:219,1,50,0|2,3:2|0:2,0:0:0:0:
413,193,85721,2,0,L|415:131,1,50,10|2,3:2|0:2,0:0:0:0:
409,88,86129,2,0,L|496:82,2,75,2|2|2,3:2|0:2|0:2,0:0:0:0:
305,49,87150,1,0,0:2:0:0:
305,49,87354,2,0,L|248:45,1,50,10|2,3:2|0:2,0:0:0:0:
205,68,87762,6,0,P|161:83|104:75,1,100,2|10,3:2|3:2,0:0:0:0:
63,45,88374,1,0,0:2:0:0:
63,45,88578,2,0,L|59:102,1,50,0|2,3:2|0:2,0:0:0:0:
16,130,88987,2,0,L|20:187,1,50,10|2,3:2|0:2,0:0:0:0:
52,221,89395,2,0,P|101:227|140:215,2,75,2|2|0,3:2|0:2|0:2,0:0:0:0:
203,155,90619,1,10,3:2:0:0:
304,196,91027,6,0,P|354:226|378:273,1,100,2|8,3:2|3:2,0:0:0:0:
375,316,91640,1,2,0:2:0:0:
375,316,91844,2,0,L|435:322,2,50,2|0|8,3:2|0:2|3:2,0:0:0:0:
336,355,92456,1,2,0:2:0:0:
336,355,92660,6,0,P|257:349|233:338,1,100,0|0,3:2|0:2,0:0:0:0:
206,296,93272,1,0,3:2:0:0:
255,197,93680,2,0,L|192:204,2,50,2|2|2,0:2|0:2|0:2,0:0:0:0:
285,151,94293,6,0,P|309:86|301:41,1,100,6|10,3:2|3:2,0:0:0:0:
268,16,94905,1,0,0:2:0:0:
268,16,95109,2,0,L|206:24,1,50,0|2,3:2|0:2,0:0:0:0:
167,43,95517,2,0,L|117:36,1,50,10|2,3:2|0:2,0:0:0:0:
75,71,95925,2,0,P|37:84|-11:78,2,75,2|2|0,3:2|0:2|0:2,0:0:0:0:
158,143,96946,1,2,0:2:0:0:
158,143,97150,2,0,P|146:177|145:203,1,50,10|2,3:2|0:2,0:0:0:0:
146,245,97558,6,0,P|188:232|243:245,1,100,2|10,3:2|3:2,0:0:0:0:
279,284,98170,1,0,0:2:0:0:
279,284,98374,2,0,L|343:279,1,50,0|2,3:2|0:2,0:0:0:0:
380,300,98783,2,0,L|429:303,1,50,10|2,3:2|0:2,0:0:0:0:
481,283,99191,2,0,P|506:334|501:365,2,75,2|2|2,3:2|0:2|0:2,0:0:0:0:
419,191,100211,1,0,0:2:0:0:
419,191,100415,2,0,L|422:127,1,50,10|2,3:2|0:2,0:0:0:0:
400,89,100823,6,0,P|351:65|288:69,1,100,14|10,3:2|0:2,0:0:0:0:
196,66,101640,2,0,L|136:65,1,50,0|2,0:0|0:2,0:0:0:0:
105,101,102048,2,0,B|100:129|100:129|110:160,1,50,2|2,0:2|0:2,0:0:0:0:
151,181,102456,2,0,P|175:241|171:253,1,75,10|2,3:2|0:2,0:0:0:0:
151,326,103068,2,0,L|39:326,1,100,0|2,0:2|0:2,0:0:0:0:
16,283,103680,2,0,P|10:256|13:227,1,50,2|2,0:2|0:2,0:0:0:0:
256,192,104089,12,2,106129,3:2:0:0:
426,68,107354,6,0,B|381:59|381:59|311:68,1,100,6|8,3:2|3:2,0:0:0:0:
273,75,107966,1,2,0:2:0:0:
273,75,108170,2,0,L|164:72,1,100,0|8,3:2|3:2,0:0:0:0:
119,60,108783,1,2,0:2:0:0:
119,60,108987,2,0,P|109:117|135:169,1,100,0|10,3:2|3:2,0:0:0:0:
227,190,109803,2,0,P|237:247|211:299,1,100,0|10,3:2|3:2,0:0:0:0:
193,332,110415,1,2,0:2:0:0:
193,332,110619,6,0,B|242:324|242:324|303:332,1,100,6|8,3:2|3:2,0:0:0:0:
345,341,111231,1,2,0:2:0:0:
345,341,111436,2,0,L|451:341,1,100,0|8,3:2|3:2,0:0:0:0:
475,295,112048,1,2,0:2:0:0:
475,295,112252,2,0,P|481:229|457:184,1,100,2|10,3:2|3:2,0:0:0:0:
368,153,113068,2,0,P|362:87|386:42,1,100,2|10,3:2|3:2,0:0:0:0:
266,36,113885,6,0,L|146:43,1,100,0|8,0:2|3:2,0:0:0:0:
112,51,114497,1,2,0:2:0:0:
112,51,114701,2,0,B|78:39|78:39|56:0,2,75,8|10|8,3:2|3:2|3:2,0:0:0:0:
148,92,115517,2,0,P|158:172|146:202,1,100,8|10,3:2|0:2,0:0:0:0:
125,236,116129,1,0,0:2:0:0:
125,236,116334,2,0,L|45:231,1,75,8|8,3:2|3:2,0:0:0:0:
150,325,117150,5,6,3:2:0:0:
241,264,117558,2,0,L|290:256,1,50,10|2,3:2|0:2,0:0:0:0:
333,290,117966,2,0,L|382:297,1,50,2|2,3:2|0:2,0:0:0:0:
432,273,118374,1,10,3:2:0:0:
437,162,118783,6,0,L|436:67,1,75,10|10,3:2|3:2,0:0:0:0:
396,48,119293,1,10,3:2:0:0:
316,68,119599,2,0,L|224:68,1,75,6|2,3:2|3:2,0:0:0:0:
