osu file format v14

[General]
AudioFilename: audio.mp3
AudioLeadIn: 0
PreviewTime: 56585
Countdown: 0
SampleSet: None
StackLeniency: 0.7
Mode: 2
LetterboxInBreaks: 0
WidescreenStoryboard: 1

[Editor]
DistanceSpacing: 1.3
BeatDivisor: 3
GridSize: 8
TimelineZoom: 2.5

[Metadata]
Title:PAPAYAPA BASS ("BASSE DE NANA" Long ver.)
TitleUnicode:PAPAYAPA BASS ("BASSE DE NANA" Long ver.)
Artist:Camellia feat. Nanahira
ArtistUnicode:かめりあ feat. ななひら
Creator:Yumeno Himiko
Version:Rain
Source:beatmania IIDX 24 SINOBUZ
Tags:Confetto c96 comiket 96 かめるかめりあ kamelcamellia cametek Mir Sinnoh xinnoh AJamez Jemzuu examination exam Video Game Electronic MONDO-GROOVE BASSHOUSE ごーいん! Goin'!
BeatmapID:2443192
BeatmapSetID:1153119

[Difficulty]
HPDrainRate:6
CircleSize:3.6
OverallDifficulty:9.2
ApproachRate:9.2
SliderMultiplier:2.1
SliderTickRate:2

[Events]
//Background and Video events
0,0,"70518520_p0.jpg",0,0
//Break Periods
2,31377,33230
2,34643,36496
2,37908,39761
2,217500,223260
//Storyboard Layer 0 (Background)
//Storyboard Layer 1 (Fail)
//Storyboard Layer 2 (Pass)
//Storyboard Layer 3 (Foreground)
//Storyboard Layer 4 (Overlay)
//Storyboard Sound Samples

[TimingPoints]
1790,408.163265306122,4,2,1,40,1,0
2334,-100,4,2,1,70,0,0
2504,-100,4,2,1,40,0,0
4034,-100,4,2,1,70,0,0
4545,-100,4,2,1,40,0,0
7810,-100,4,2,1,70,0,0
8116,-100,4,2,1,40,0,0
10565,-100,4,2,1,70,0,0
10769,-100,4,2,1,40,0,0
11381,-100,4,2,1,70,0,0
11585,-100,4,2,1,40,0,0
12402,-100,4,2,1,70,0,0
12810,-100,4,2,1,40,0,0
13218,-100,4,2,0,50,0,0
13728,-100,4,2,0,70,0,0
13932,-100,4,2,0,50,0,0
14442,-100,4,2,1,50,0,0
14851,-83.3333333333333,4,2,1,60,0,0
15361,-83.3333333333333,4,2,1,100,0,0
18320,-83.3333333333333,4,2,1,70,0,0
18524,-83.3333333333333,4,2,1,100,0,0
18626,-83.3333333333333,4,2,1,70,0,0
18728,-83.3333333333333,4,2,1,100,0,0
18830,-83.3333333333333,4,2,1,70,0,0
18932,-83.3333333333333,4,2,1,100,0,0
21994,-83.3333333333333,4,2,1,70,0,0
22096,-83.3333333333333,4,2,1,100,0,0
25259,-83.3333333333333,4,2,1,70,0,0
25463,-83.3333333333333,4,2,1,100,0,0
25871,-83.3333333333333,4,2,1,70,0,0
26075,-83.3333333333333,4,2,1,100,0,0
26892,-83.3333333333333,4,2,1,70,0,0
27096,-83.3333333333333,4,2,1,100,0,0
27504,-83.3333333333333,4,2,1,70,0,0
27708,-83.3333333333333,4,2,1,100,0,0
29749,-83.3333333333333,4,2,1,70,0,0
29851,-83.3333333333333,4,2,1,100,0,0
30463,-83.3333333333333,4,2,1,70,0,0
30769,-83.3333333333333,4,2,1,100,0,0
33830,-100,4,2,1,30,0,0
40973,-100,4,2,1,40,0,0
42606,-100,4,2,1,50,0,0
43014,-100,4,2,1,70,0,0
43218,-100,4,2,1,50,0,0
43422,-100,4,2,0,60,0,0
43524,-100,4,2,0,70,0,0
43626,-100,4,2,0,60,0,0
43728,-100,4,2,0,70,0,0
43830,-100,4,2,0,60,0,0
43932,-100,4,2,0,70,0,0
44034,-100,4,2,0,60,0,0
44238,-100,4,2,1,60,0,0
44544,-100,4,2,1,70,0,0
44647,-100,4,2,1,60,0,0
51279,-100,4,2,1,70,0,0
51483,-100,4,2,1,60,0,0
51994,-100,4,2,1,70,0,0
52198,-100,4,2,1,60,0,0
52606,-100,4,2,1,70,0,0
52810,-100,4,2,1,60,0,0
53014,-100,4,2,1,70,0,0
53218,-100,4,2,1,60,0,0
53320,-100,4,2,1,70,0,0
53524,-100,4,2,1,60,0,0
55667,-100,4,2,1,80,0,0
56483,-100,4,2,1,60,0,0
57300,-66.6666666666667,4,2,1,100,0,1
57504,-66.6666666666667,4,2,1,100,0,0
60565,-66.6666666666667,4,2,1,100,0,1
60769,-66.6666666666667,4,2,1,100,0,0
62912,-66.6666666666667,4,2,1,70,0,0
63014,-66.6666666666667,4,2,1,100,0,0
63830,-66.6666666666667,4,2,1,100,0,1
64034,-66.6666666666667,4,2,1,100,0,0
64851,-66.6666666666667,4,2,1,70,0,0
65259,-66.6666666666667,4,2,1,100,0,0
66687,-66.6666666666667,4,2,1,70,0,0
66891,-66.6666666666667,4,2,1,100,0,0
68830,-66.6666666666667,4,2,1,70,0,0
69034,-66.6666666666667,4,2,1,100,0,0
69850,-66.6666666666667,4,2,0,100,0,0
70157,-66.6666666666667,4,2,0,70,0,0
70361,-66.6666666666667,4,2,1,100,0,1
70412,-66.6666666666667,4,2,1,70,0,1
70667,-66.6666666666667,4,2,1,100,0,1
71840,-66.6666666666667,4,2,1,70,0,1
71994,-66.6666666666667,4,2,1,100,0,1
72300,-66.6666666666667,4,2,1,70,0,1
72402,-66.6666666666667,4,2,1,100,0,1
72504,-66.6666666666667,4,2,1,70,0,1
72708,-66.6666666666667,4,2,1,100,0,1
73014,-66.6666666666667,4,2,1,70,0,1
73218,-66.6666666666667,4,2,1,100,0,1
73728,-66.6666666666667,4,2,1,70,0,1
74034,-66.6666666666667,4,2,1,100,0,1
75106,-66.6666666666667,4,2,1,70,0,1
75259,-66.6666666666667,4,2,1,100,0,1
76483,-66.6666666666667,4,2,1,70,0,1
76687,-66.6666666666667,4,2,1,100,0,1
76943,-66.6666666666667,4,2,1,70,0,1
77198,-66.6666666666667,4,2,1,100,0,1
78388,-66.6666666666667,4,2,1,70,0,1
78524,-66.6666666666667,4,2,1,100,0,1
78830,-66.6666666666667,4,2,1,70,0,1
78932,-66.6666666666667,4,2,1,100,0,1
79545,-66.6666666666667,4,2,1,70,0,1
79647,-66.6666666666667,4,2,1,100,0,1
82096,-66.6666666666667,4,2,1,70,0,1
82198,-66.6666666666667,4,2,1,100,0,1
82708,-66.6666666666667,4,2,1,70,0,1
82810,-66.6666666666667,4,2,1,100,0,1
83626,-66.6666666666667,4,2,1,70,0,1
83830,-66.6666666666667,4,2,1,100,0,1
84306,-66.6666666666667,4,2,1,70,0,1
84442,-66.6666666666667,4,2,1,100,0,1
84919,-66.6666666666667,4,2,1,70,0,1
85055,-66.6666666666667,4,2,1,100,0,1
85361,-66.6666666666667,4,2,1,70,0,1
85463,-66.6666666666667,4,2,1,100,0,1
85769,-66.6666666666667,4,2,1,70,0,1
85973,-66.6666666666667,4,2,1,100,0,1
87572,-66.6666666666667,4,2,1,70,0,1
87708,-66.6666666666667,4,2,1,100,0,1
87776,-66.6666666666667,4,2,1,70,0,1
87912,-66.6666666666667,4,2,1,100,0,1
88184,-66.6666666666667,4,2,1,70,0,1
88320,-66.6666666666667,4,2,1,100,0,1
90004,-66.6666666666667,4,2,1,70,0,1
90259,-66.6666666666667,4,2,1,100,0,1
91177,-66.6666666666667,4,2,1,70,0,1
91279,-66.6666666666667,4,2,1,100,0,1
91892,-66.6666666666667,4,2,1,70,0,1
91994,-66.6666666666667,4,2,1,100,0,1
92300,-66.6666666666667,4,2,1,70,0,1
92504,-66.6666666666667,4,2,1,100,0,1
96483,-100,4,2,1,100,0,0
96789,-100,4,2,1,60,0,0
99953,-100,4,2,1,70,0,0
100565,-100,4,2,1,40,0,0
101381,-100,4,2,1,80,0,0
103014,-66.6666666666667,4,2,1,100,0,0
103422,-66.6666666666667,4,2,2,100,0,0
103473,-66.6666666666667,4,2,2,70,0,0
103728,-66.6666666666667,4,2,2,100,0,0
104340,-66.6666666666667,4,2,2,70,0,0
104545,-66.6666666666667,4,2,2,100,0,0
104953,-66.6666666666667,4,2,2,70,0,0
105055,-66.6666666666667,4,2,2,100,0,0
106075,-66.6666666666667,4,2,2,70,0,0
106279,-66.6666666666667,4,2,2,100,0,0
106330,-66.6666666666667,4,2,2,70,0,0
106585,-66.6666666666667,4,2,2,100,0,0
106738,-66.6666666666667,4,2,2,70,0,0
106891,-66.6666666666667,4,2,2,100,0,0
106994,-66.6666666666667,4,2,2,70,0,0
107096,-66.6666666666667,4,2,2,100,0,0
109340,-66.6666666666667,4,2,2,70,0,0
109545,-66.6666666666667,4,2,2,100,0,0
109749,-66.6666666666667,4,2,2,70,0,0
109953,-66.6666666666667,4,2,2,100,0,0
110004,-66.6666666666667,4,2,2,70,0,0
110259,-66.6666666666667,4,2,2,100,0,0
111449,-66.6666666666667,4,2,2,70,0,0
111585,-66.6666666666667,4,2,2,100,0,0
112096,-66.6666666666667,4,2,2,70,0,0
112198,-66.6666666666667,4,2,2,100,0,0
112300,-66.6666666666667,4,2,2,70,0,0
112402,-66.6666666666667,4,2,2,100,0,0
114749,-66.6666666666667,4,2,2,70,0,0
114851,-66.6666666666667,4,2,2,100,0,0
115361,-66.6666666666667,4,2,2,70,0,0
115463,-66.6666666666667,4,2,2,100,0,0
115667,-66.6666666666667,4,2,2,70,0,0
115769,-66.6666666666667,4,2,2,100,0,0
116483,-66.6666666666667,4,2,2,70,0,0
116892,-66.6666666666667,4,2,2,100,0,0
117402,-66.6666666666667,4,2,2,70,0,0
117606,-66.6666666666667,4,2,2,100,0,0
117980,-66.6666666666667,4,2,2,70,0,0
118116,-66.6666666666667,4,2,2,100,0,0
119136,-66.6666666666667,4,2,2,70,0,0
119341,-66.6666666666667,4,2,2,100,0,0
119545,-66.6666666666667,4,2,2,70,0,0
119647,-66.6666666666667,4,2,2,100,0,0
119851,-66.6666666666667,4,2,2,70,0,0
120055,-66.6666666666667,4,2,2,100,0,0
121789,-66.6666666666667,4,2,0,100,0,0
121994,-66.6666666666667,4,2,0,75,0,0
122606,-66.6666666666667,4,2,2,100,0,0
122810,-66.6666666666667,4,2,2,70,0,0
122912,-66.6666666666667,4,2,2,100,0,0
123626,-66.6666666666667,4,2,2,70,0,0
123830,-66.6666666666667,4,2,2,100,0,0
123881,-66.6666666666667,4,2,2,70,0,0
124136,-66.6666666666667,4,2,2,100,0,0
124442,-66.6666666666667,4,2,2,70,0,0
124647,-66.6666666666667,4,2,2,100,0,0
124749,-66.6666666666667,4,2,2,70,0,0
124953,-66.6666666666667,4,2,2,100,0,0
125259,-66.6666666666667,4,2,2,70,0,0
125463,-66.6666666666667,4,2,2,100,0,0
125667,-66.6666666666667,4,2,2,70,0,0
125871,-66.6666666666667,4,2,1,100,0,0
127810,-66.6666666666667,4,2,1,70,0,0
127912,-66.6666666666667,4,2,1,100,0,0
129136,-66.6666666666667,4,2,1,70,0,0
131177,-66.6666666666667,4,2,1,40,0,0
131585,-66.6666666666667,4,2,1,60,0,0
131994,-66.6666666666667,4,2,1,80,0,0
132198,-66.6666666666667,4,2,1,70,0,0
132402,-66.6666666666667,4,2,1,100,0,0
134749,-66.6666666666667,4,2,1,70,0,0
134851,-66.6666666666667,4,2,1,100,0,0
134987,-66.6666666666667,4,2,1,70,0,0
135055,-66.6666666666667,4,2,1,100,0,0
135191,-66.6666666666667,4,2,1,70,0,0
135259,-66.6666666666667,4,2,1,100,0,0
138014,-66.6666666666667,4,2,1,70,0,0
138116,-66.6666666666667,4,2,1,100,0,0
139034,-66.6666666666667,4,2,1,70,0,0
139340,-66.6666666666667,4,2,1,100,0,0
139545,-66.6666666666667,4,2,1,70,0,0
139647,-66.6666666666667,4,2,1,100,0,0
139851,-66.6666666666667,4,2,1,70,0,0
140055,-66.6666666666667,4,2,1,100,0,0
140361,-66.6666666666667,4,2,1,70,0,0
140565,-66.6666666666667,4,2,1,100,0,0
142402,-66.6666666666667,4,2,1,70,0,0
143830,-66.6666666666667,4,2,1,100,0,0
144034,-66.6666666666667,4,2,0,80,0,0
145055,-66.6666666666667,4,2,1,80,0,0
145463,-66.6666666666667,4,2,1,100,0,0
147402,-66.6666666666667,4,2,1,70,0,0
147504,-66.6666666666667,4,2,1,100,0,0
148473,-66.6666666666667,4,2,1,70,0,0
148524,-66.6666666666667,4,2,1,100,0,0
148575,-66.6666666666667,4,2,1,70,0,0
148728,-66.6666666666667,4,2,1,100,0,0
150667,-66.6666666666667,4,2,1,70,0,0
150769,-66.6666666666667,4,2,1,100,0,0
151687,-66.6666666666667,4,2,1,70,0,0
151789,-66.6666666666667,4,2,1,100,0,0
151891,-66.6666666666667,4,2,1,70,0,0
151994,-66.6666666666667,4,2,1,100,0,0
153932,-66.6666666666667,4,2,1,70,0,0
154034,-66.6666666666667,4,2,1,100,0,0
154749,-66.6666666666667,4,2,1,70,0,0
154851,-66.6666666666667,4,2,1,100,0,0
154953,-66.6666666666667,4,2,1,70,0,0
155055,-66.6666666666667,4,2,1,100,0,0
159187,-66.6666666666667,4,2,1,70,0,0
159238,-66.6666666666667,4,2,1,100,0,0
160361,-66.6666666666667,4,2,1,70,0,0
160565,-66.6666666666667,4,2,1,60,0,0
161381,-66.6666666666667,4,2,1,100,0,0
161687,-66.6666666666667,4,2,1,70,0,0
161789,-66.6666666666667,4,2,1,100,0,0
161840,-66.6666666666667,4,2,1,70,0,0
162095,-66.6666666666667,4,2,1,100,0,0
162402,-66.6666666666667,4,2,1,70,0,0
162606,-66.6666666666667,4,2,1,100,0,0
162810,-66.6666666666667,4,2,1,70,0,0
163014,-66.6666666666667,4,2,1,100,0,0
165106,-66.6666666666667,4,2,1,70,0,0
165361,-66.6666666666667,4,2,1,100,0,0
167963,-66.6666666666667,4,2,1,70,0,0
168218,-66.6666666666667,4,2,1,100,0,0
168371,-66.6666666666667,4,2,1,70,0,0
168626,-66.6666666666667,4,2,1,100,0,0
168932,-66.6666666666667,4,2,1,70,0,0
169136,-66.6666666666667,4,2,1,100,0,0
169340,-66.6666666666667,4,2,1,70,0,0
169544,-66.6666666666667,4,2,1,100,0,0
171636,-66.6666666666667,4,2,1,70,0,0
171891,-66.6666666666667,4,2,1,100,0,0
172198,-66.6666666666667,4,2,1,70,0,0
172402,-66.6666666666667,4,2,1,100,0,0
173728,-66.6666666666667,4,2,1,70,0,0
173830,-66.6666666666667,4,2,1,100,0,0
174647,-66.6666666666667,4,2,1,70,0,0
174749,-66.6666666666667,4,2,1,100,0,0
174902,-66.6666666666667,4,2,1,70,0,0
175157,-66.6666666666667,4,2,1,100,0,0
175871,-66.6666666666667,4,2,1,70,0,0
176075,-66.6666666666667,4,2,1,100,0,0
178167,-66.6666666666667,4,2,1,70,0,0
178422,-66.6666666666667,4,2,1,100,0,0
178728,-66.6666666666667,4,2,1,70,0,0
178932,-66.6666666666667,4,2,1,100,0,0
181024,-66.6666666666667,4,2,1,70,0,0
181279,-66.6666666666667,4,2,1,100,0,0
181432,-66.6666666666667,4,2,1,70,0,0
181687,-66.6666666666667,4,2,1,100,0,0
182402,-66.6666666666667,4,2,1,70,0,0
182606,-66.6666666666667,4,2,1,100,0,0
184698,-66.6666666666667,4,2,1,70,0,0
184953,-66.6666666666667,4,2,1,100,0,0
187402,-66.6666666666667,4,2,1,70,0,0
187912,-66.6666666666667,4,2,1,100,0,0
188524,-66.6666666666667,4,2,1,70,0,0
188626,-66.6666666666667,4,2,1,100,0,0
191381,-66.6666666666667,4,2,1,70,0,0
191585,-66.6666666666667,4,2,1,100,0,0
191687,-66.6666666666667,4,2,1,70,0,0
191789,-66.6666666666667,4,2,1,100,0,0
191891,-66.6666666666667,4,2,1,70,0,0
191994,-66.6666666666667,4,2,1,100,0,0
195055,-66.6666666666667,4,2,1,70,0,0
195157,-66.6666666666667,4,2,1,100,0,0
198320,-66.6666666666667,4,2,1,70,0,0
198524,-66.6666666666667,4,2,1,100,0,0
200225,-66.6666666666667,4,2,1,70,0,0
200361,-66.6666666666667,4,2,1,100,0,0
200429,-66.6666666666667,4,2,1,70,0,0
200565,-66.6666666666667,4,2,1,100,0,0
200667,-66.6666666666667,4,2,1,70,0,0
200973,-66.6666666666667,4,2,1,100,0,0
201585,-66.6666666666667,4,2,1,70,0,0
201687,-66.6666666666667,4,2,1,100,0,0
201891,-66.6666666666667,4,2,1,70,0,0
201993,-66.6666666666667,4,2,1,100,0,0
202198,-66.6666666666667,4,2,1,70,0,0
202300,-66.6666666666667,4,2,1,100,0,0
203014,-66.6666666666667,4,2,1,70,0,0
203218,-66.6666666666667,4,2,1,100,0,0
204749,-66.6666666666667,4,2,1,70,0,0
204851,-66.6666666666667,4,2,1,100,0,0
204953,-66.6666666666667,4,2,1,70,0,0
205055,-66.6666666666667,4,2,1,100,0,0
206789,-66.6666666666667,4,2,1,70,0,0
206891,-66.6666666666667,4,2,1,100,0,0
207555,-66.6666666666667,4,2,1,70,0,0
207810,-66.6666666666667,4,2,1,100,0,0
208116,-66.6666666666667,4,2,1,70,0,0
208218,-66.6666666666667,4,2,1,100,0,0
208422,-66.6666666666667,4,2,1,70,0,0
208524,-66.6666666666667,4,2,1,100,0,0
208728,-66.6666666666667,4,2,1,70,0,0
208830,-66.6666666666667,4,2,1,100,0,0
210055,-66.6666666666667,4,2,1,70,0,0
210157,-66.6666666666667,4,2,1,100,0,0
210361,-66.6666666666667,4,2,1,70,0,0
210463,-66.6666666666667,4,2,1,100,0,0
211483,-66.6666666666667,4,2,1,70,0,0
211585,-66.6666666666667,4,2,1,100,0,0
211789,-66.6666666666667,4,2,1,70,0,0
211892,-66.6666666666667,4,2,1,100,0,0
212096,-66.6666666666667,4,2,1,70,0,0
212198,-66.6666666666667,4,2,1,100,0,0
212504,-66.6666666666667,4,2,1,70,0,0
212708,-66.6666666666667,4,2,1,100,0,0
213116,-66.6666666666667,4,2,1,70,0,0
213218,-66.6666666666667,4,2,1,100,0,0
213422,-66.6666666666667,4,2,1,70,0,0
213524,-66.6666666666667,4,2,1,100,0,0
213728,-66.6666666666667,4,2,1,70,0,0
213830,-66.6666666666667,4,2,1,100,0,0
215769,-66.6666666666667,4,2,1,70,0,0
216075,-100,4,2,1,100,0,0
216789,-100,4,2,1,70,0,0
216892,-100,4,2,1,100,0,0
223830,-100,4,2,1,50,0,0
224238,-100,4,2,1,70,0,0
224443,-100,4,2,1,50,0,0
225055,-100,4,2,1,70,0,0
225259,-100,4,2,1,50,0,0
225463,-100,4,2,1,60,0,0
225871,-100,4,2,1,70,0,0
226075,-100,4,2,1,60,0,0
227096,-66.6666666666667,4,2,1,60,0,0
229034,-66.6666666666667,4,2,1,70,0,0
229136,-66.6666666666667,4,2,1,60,0,0
229647,-66.6666666666667,4,2,1,70,0,0
229749,-66.6666666666667,4,2,1,60,0,0
230361,-66.6666666666667,4,2,1,100,0,0
230973,-66.6666666666667,4,2,1,70,0,0
231177,-66.6666666666667,4,2,1,100,0,0
233014,-66.6666666666667,4,2,1,70,0,0
233218,-66.6666666666667,4,2,1,100,0,0
233422,-66.6666666666667,4,2,1,70,0,0
233626,-66.6666666666667,4,2,1,100,0,0
234238,-66.6666666666667,4,2,1,70,0,0
234443,-66.6666666666667,4,2,1,100,0,0
236279,-66.6666666666667,4,2,1,70,0,0
236483,-66.6666666666667,4,2,1,100,0,0
236687,-66.6666666666667,4,2,1,70,0,0
236892,-66.6666666666667,4,2,1,100,0,0
239851,-66.6666666666667,4,2,1,70,0,0
239953,-66.6666666666667,4,2,1,50,0,0
240055,-66.6666666666667,4,2,1,70,0,0
240157,-66.6666666666667,4,2,1,50,0,0
242198,-66.6666666666667,4,2,1,60,0,0
242606,-66.6666666666667,4,2,1,70,0,0
243014,-66.6666666666667,4,2,1,80,0,0
243728,-66.6666666666667,4,2,1,70,0,0
243830,-66.6666666666667,4,2,1,80,0,0
245055,-66.6666666666667,4,2,1,100,0,1
245259,-66.6666666666667,4,2,1,100,0,0
248320,-66.6666666666667,4,2,1,100,0,1
248524,-66.6666666666667,4,2,1,100,0,0
250055,-66.6666666666667,4,2,1,70,0,0
250157,-66.6666666666667,4,2,1,100,0,0
250463,-66.6666666666667,4,2,1,70,0,0
250565,-66.6666666666667,4,2,1,100,0,0
250667,-66.6666666666667,4,2,1,70,0,0
250871,-66.6666666666667,4,2,1,100,0,0
251585,-66.6666666666667,4,2,1,100,0,1
251789,-66.6666666666667,4,2,1,100,0,0
256585,-66.6666666666667,4,2,1,70,0,0
256687,-66.6666666666667,4,2,1,100,0,0
257368,-66.6666666666667,4,2,1,70,0,0
257504,-66.6666666666667,4,2,0,100,0,0
257572,-66.6666666666667,4,2,0,70,0,0
257708,-66.6666666666667,4,2,0,100,0,0
258116,-66.6666666666667,4,2,1,100,0,1
258320,-66.6666666666667,4,2,1,100,0,0
261381,-66.6666666666667,4,2,1,100,0,1
261585,-66.6666666666667,4,2,1,100,0,0
263524,-66.6666666666667,4,2,1,70,0,0
263626,-66.6666666666667,4,2,1,100,0,0
263728,-66.6666666666667,4,2,1,70,0,0
263830,-66.6666666666667,4,2,1,100,0,0
265463,-66.6666666666667,4,2,1,70,0,0
265667,-66.6666666666667,4,2,1,100,0,0
266024,-66.6666666666667,4,2,1,70,0,0
266075,-66.6666666666667,4,2,1,100,0,0
266126,-66.6666666666667,4,2,1,70,0,0
266177,-66.6666666666667,4,2,1,100,0,0
267096,-66.6666666666667,4,2,1,70,0,0
267300,-66.6666666666667,4,2,1,100,0,0
269647,-66.6666666666667,4,2,1,70,0,0
269851,-66.6666666666667,4,2,1,100,0,0
270157,-66.6666666666667,4,2,1,70,0,0
270259,-66.6666666666667,4,2,1,100,0,0
271177,-66.6666666666667,4,2,1,100,0,1
271228,-66.6666666666667,4,2,1,70,0,1
271483,-66.6666666666667,4,2,1,100,0,1
272674,-66.6666666666667,4,2,1,70,0,1
272810,-66.6666666666667,4,2,1,100,0,1
273116,-66.6666666666667,4,2,1,70,0,1
273218,-66.6666666666667,4,2,1,100,0,1
273830,-66.6666666666667,4,2,1,70,0,1
273932,-66.6666666666667,4,2,1,100,0,1
275939,-66.6666666666667,4,2,1,70,0,1
276075,-66.6666666666667,4,2,1,100,0,1
276585,-66.6666666666667,4,2,1,70,0,1
276687,-66.6666666666667,4,2,1,100,0,1
277096,-66.6666666666667,4,2,1,70,0,1
277198,-66.6666666666667,4,2,1,100,0,1
277300,-66.6666666666667,4,2,1,70,0,1
277504,-66.6666666666667,4,2,1,100,0,1
277810,-66.6666666666667,4,2,1,70,0,1
277912,-66.6666666666667,4,2,1,100,0,1
279204,-66.6666666666667,4,2,1,70,0,1
279341,-66.6666666666667,4,2,1,100,0,1
279647,-66.6666666666667,4,2,1,70,0,1
279749,-66.6666666666667,4,2,1,100,0,1
280667,-66.6666666666667,4,2,1,70,0,1
280769,-66.6666666666667,4,2,1,100,0,1
282912,-66.6666666666667,4,2,1,70,0,1
283014,-66.6666666666667,4,2,1,100,0,1
283524,-66.6666666666667,4,2,1,70,0,1
283626,-66.6666666666667,4,2,1,100,0,1
284289,-66.6666666666667,4,2,1,70,0,1
284544,-66.6666666666667,4,2,1,100,0,1
285259,-66.6666666666667,4,2,1,70,0,1
285361,-66.6666666666667,4,2,1,100,0,1
285735,-66.6666666666667,4,2,1,70,0,1
285871,-66.6666666666667,4,2,1,100,0,1
286177,-66.6666666666667,4,2,1,70,0,1
286279,-66.6666666666667,4,2,1,100,0,1
286892,-66.6666666666667,4,2,1,70,0,1
286994,-66.6666666666667,4,2,1,100,0,1
287555,-66.6666666666667,4,2,1,70,0,1
287810,-66.6666666666667,4,2,1,100,0,1
289000,-66.6666666666667,4,2,1,70,0,1
289136,-66.6666666666667,4,2,1,100,0,1
289409,-66.6666666666667,4,2,1,70,0,1
289545,-66.6666666666667,4,2,1,100,0,1
290361,-66.6666666666667,4,2,3,100,0,1
290769,-66.6666666666667,4,2,1,100,0,1
291228,-66.6666666666667,4,2,1,70,0,1
291279,-66.6666666666667,4,2,1,100,0,1
291330,-66.6666666666667,4,2,1,70,0,1
291381,-66.6666666666667,4,2,1,100,0,1
291994,-66.6666666666667,4,2,1,70,0,1
292198,-66.6666666666667,4,2,1,100,0,1
292708,-66.6666666666667,4,2,1,70,0,1
292810,-66.6666666666667,4,2,1,100,0,1
293320,-66.6666666666667,4,2,1,70,0,1
293524,-66.6666666666667,4,2,1,100,0,1
293728,-66.6666666666667,4,2,1,70,0,1
293830,-66.6666666666667,4,2,1,100,0,1
293932,-66.6666666666667,4,2,1,70,0,1
294034,-66.6666666666667,4,2,1,100,0,1
295463,-66.6666666666667,4,2,1,70,0,1
295565,-66.6666666666667,4,2,1,100,0,1
296279,-66.6666666666667,4,2,1,70,0,1
296381,-66.6666666666667,4,2,1,100,0,1
296585,-66.6666666666667,4,2,1,70,0,1
296789,-66.6666666666667,4,2,1,100,0,1
296892,-66.6666666666667,4,2,1,5,0,1
297096,-66.6666666666667,4,2,1,70,0,0

[Colours]
Combo1 : 250,199,239
Combo2 : 105,194,228
Combo3 : 179,240,240

[HitObjects]
304,272,1177,6,0,L|416:272,2,105,2|2|2,0:2|0:2|0:2,0:0:0:0:
96,272,1790,6,0,P|47:173|148:112,1,210,2|2,0:2|0:2,0:2:0:0:
200,112,2334,1,0,0:0:0:0:
392,112,2504,6,0,L|384:304,1,157.5,2|2,0:2|0:2,0:2:0:0:
184,264,3014,2,0,L|176:128,1,105,2|2,0:2|0:2,0:2:0:0:
408,160,3422,6,0,L|216:144,2,157.5,2|2|0,0:2|0:2|0:0,0:2:0:0:
168,288,4238,1,0,0:0:0:0:
320,232,4545,1,0,0:2:0:0:
96,152,4851,1,0,0:2:0:0:
312,152,5055,6,0,P|368:192|312:312,1,210,2|2,0:2|0:2,0:2:0:0:
256,320,5565,1,2,0:2:0:0:
56,296,5769,2,0,L|224:272,1,157.5,2|2,0:2|0:2,0:2:0:0:
96,184,6279,1,2,0:2:0:0:
328,144,6483,1,2,0:2:0:0:
168,144,6687,6,0,P|83:171|82:292,1,210,2|2,0:2|0:2,0:2:0:0:
448,320,7504,1,0,0:2:0:0:
168,288,7810,1,0,0:0:0:0:
296,232,8116,1,2,0:2:0:0:
80,224,8320,6,0,P|39:159|160:80,1,210,2|2,0:2|0:2,0:2:0:0:
192,72,8830,1,2,0:2:0:0:
400,272,9034,2,0,L|216:264,1,157.5,2|0,0:2|0:2,0:2:0:0:
448,208,9545,2,0,L|456:96,1,105,2|0,0:2|0:2,0:2:0:0:
233,87,9953,5,2,0:2:0:0:
376,144,10259,1,2,0:2:0:0:
368,216,10565,1,0,0:0:0:0:
136,312,10769,5,2,0:2:0:0:
416,280,11075,1,2,0:2:0:0:
240,224,11381,1,0,0:0:0:0:
464,224,11585,6,0,P|483:183|367:92,1,210,2|0,0:2|0:2,0:2:0:0:
272,72,12198,1,2,0:2:0:0:
64,168,12402,2,0,L|192:160,1,105
336,272,12810,2,0,L|216:264,1,105,2|2,0:2|0:2,0:0:0:0:
48,256,13218,6,0,L|56:128,1,105,0|0,1:2|3:2,0:0:0:0:
240,72,13626,1,0,1:2:0:0:
290,66,13728,1,0,0:0:0:0:
329,99,13830,1,0,0:0:0:0:
331,150,13932,1,0,0:2:0:0:
296,187,14034,1,0,1:2:0:0:
245,186,14136,1,0,1:2:0:0:
176,184,14238,2,0,L|48:176,1,105,0|8,3:2|0:2,0:0:0:0:
184,288,14647,1,2,0:2:0:0:
464,296,14851,6,0,L|200:296,1,251.999992309571,6|2,3:2|3:2,0:2:0:0:
304,240,15361,1,2,0:2:0:0:
112,232,15565,1,0,0:2:0:0:
16,232,15667,6,0,L|208:232,2,188.999994232178,10|2|2,0:2|3:2|3:2,0:2:0:0:
328,232,16483,5,2,3:2:0:0:
382,212,16585,1,2,0:2:0:0:
404,159,16687,1,2,0:2:0:0:
373,112,16789,1,2,0:2:0:0:
304,104,16892,2,0,L|160:104,1,125.999996154785,2|2,3:2|0:2,0:0:0:0:
472,320,17300,6,0,L|488:112,1,188.999994232178,10|2,0:2|3:2,0:2:0:0:
232,120,17912,2,0,L|216:48,1,62.9999980773926,2|0,3:2|0:2,0:2:0:0:
392,256,18116,6,0,L|496:168,1,125.999996154785,6|0,3:2|0:0,0:2:0:0:
200,232,18524,1,2,0:2:0:0:
152,198,18626,1,0,0:0:0:0:
156,142,18728,1,2,0:2:0:0:
206,118,18830,1,0,0:0:0:0:
288,112,18932,6,0,L|80:112,2,188.999994232178,10|2|2,0:2|3:2|3:2,0:2:0:0:
104,312,19749,6,0,P|72:240|192:176,1,188.999994232178,2|0,0:2|0:2,0:2:0:0:
224,160,20157,2,0,L|360:160,1,125.999996154785,2|2,3:2|0:2,0:2:0:0:
64,144,20565,6,0,L|288:184,1,188.999994232178,10|2,0:2|3:2,0:2:0:0:
464,296,21177,2,0,L|368:304,1,62.9999980773926,2|0,3:2|0:2,0:2:0:0:
216,296,21381,6,0,P|136:296|32:120,1,251.999992309571,6|2,3:2|3:2,0:2:0:0:
192,168,21994,2,0,L|192:104,1,62.9999980773926,0|0,0:0|0:2,0:0:0:0:
88,72,22198,6,0,L|288:72,2,188.999994232178,10|2|2,0:2|3:2|3:2,0:2:0:0:
368,72,23014,5,2,0:2:0:0:
414,114,23116,1,2,0:2:0:0:
409,173,23218,1,2,0:2:0:0:
354,201,23320,1,2,0:2:0:0:
288,208,23422,2,0,L|160:208,1,125.999996154785,2|2,3:2|0:2,0:0:0:0:
464,328,23830,6,0,L|240:328,2,188.999994232178,10|2|2,0:2|3:2|3:2,0:2:0:0:
136,320,24647,6,0,P|64:248|168:160,1,251.999992309571,6|2,3:2|3:2,0:2:0:0:
320,136,25259,1,0,0:0:0:0:
96,80,25463,2,0,L|128:312,1,188.999994232178,2|2,3:2|3:2,0:0:0:0:
200,248,25871,2,0,L|56:264,1,125.999996154785,0|2,0:0|3:2,0:0:0:0:
384,312,26279,6,0,P|456:232|336:160,1,251.999992309571,2|2,3:2|3:2,0:2:0:0:
144,160,26892,1,0,0:0:0:0:
336,104,27096,2,0,L|112:128,1,188.999994232178,2|2,3:2|3:2,0:0:0:0:
248,168,27504,2,0,L|408:184,1,125.999996154785,0|2,0:0|3:2,0:0:0:0:
96,328,27912,6,0,L|80:176,1,125.999996154785,2|0,1:2|1:2,1:2:0:0:
280,176,28320,1,0,1:2:0:0:
104,136,28524,1,0,1:2:0:0:
304,96,28728,1,0,1:2:0:0:
88,56,28932,1,0,1:2:0:0:
360,48,29136,1,0,1:2:0:0:
420,78,29238,1,0,1:2:0:0:
426,138,29340,1,0,1:2:0:0:
373,179,29442,1,0,1:2:0:0:
184,296,29545,6,0,L|48:296,1,125.999996154785,6|0,3:2|0:0,0:0:0:0:
144,256,29851,1,0,0:2:0:0:
336,264,29953,6,0,P|422:234|320:96,1,314.999990386963,6|0,3:2|0:0,0:2:0:0:
224,96,30565,2,0,L|80:48,2,125.999996154785,0|2|2,0:0|0:2|0:2,0:0:0:0:
496,240,31177,5,6,3:2:0:0:
344,312,33830,6,0,L|224:296,2,105,2|2|2,0:2|0:2|0:2,0:0:0:0:
144,192,34443,1,2,0:2:0:0:
144,192,37096,5,2,0:2:0:0:
312,168,37300,1,2,0:2:0:0:
408,96,37504,1,2,0:2:0:0:
192,96,37708,1,2,0:2:0:0:
192,280,40361,6,0,L|80:280,2,105,2|2|2,0:2|0:2|0:2,0:2:0:0:
408,280,40973,6,0,L|392:96,1,157.5,2|2,0:2|0:2,0:2:0:0:
112,112,41585,2,0,L|104:48,1,52.5,2|0,0:2|0:2,0:2:0:0:
232,64,41789,2,0,L|216:248,1,157.5,2|2,0:2|0:2,0:2:0:0:
488,320,42402,1,2,0:2:0:0:
408,312,42504,1,0,0:2:0:0:
328,312,42606,6,0,P|242:300|176:200,1,210,2|0,0:2|0:0,0:0:0:0:
360,168,43218,6,0,L|368:96,1,52.5,2|0,0:2|0:2,0:0:0:0:
256,48,43422,6,0,L|168:48,2,70
368,104,43830,2,0,L|456:104,2,70
80,328,44238,6,0,P|48:272|88:184,1,157.5,4|0,3:2|0:0,0:0:0:0:
160,160,44647,1,2,0:2:0:0:
248,136,44749,1,2,0:2:0:0:
432,88,44953,2,0,L|432:280,1,157.5,2|2,0:2|0:2,0:2:0:0:
248,296,45463,1,2,0:2:0:0:
432,336,45667,1,2,0:2:0:0:
208,336,45871,6,0,P|144:336|72:256,1,157.5,2|2,0:2|0:2,0:2:0:0:
336,168,46483,1,2,0:2:0:0:
88,112,46892,2,0,L|208:112,2,105,2|2|2,0:2|0:2|0:2,0:0:0:0:
304,112,47504,6,0,P|351:155|288:240,1,157.5,2|2,0:2|0:2,0:2:0:0:
232,256,47912,1,2,0:2:0:0:
328,272,48014,1,2,0:2:0:0:
136,272,48218,2,0,P|96:224|168:152,1,157.5,2|2,0:2|0:2,0:2:0:0:
328,128,48728,1,2,0:2:0:0:
144,104,48932,1,2,0:2:0:0:
360,280,49136,6,0,P|432:256|464:160,1,157.5,2|2,0:2|0:2,0:2:0:0:
456,88,49545,1,0,0:2:0:0:
240,200,49749,1,2,0:2:0:0:
304,192,49851,1,2,0:2:0:0:
368,160,49953,5,2,0:2:0:0:
384,96,50055,1,2,0:2:0:0:
296,112,50157,1,2,0:2:0:0:
232,104,50259,1,2,0:2:0:0:
168,96,50361,1,2,0:2:0:0:
232,104,50463,1,2,0:2:0:0:
296,112,50565,1,2,0:2:0:0:
232,104,50667,1,2,0:2:0:0:
64,304,50769,6,0,L|56:128,1,157.5,4|0,3:2|0:2,0:2:0:0:
160,136,51177,2,0,L|168:56,1,52.5,8|0,0:2|0:0,0:2:0:0:
352,48,51483,2,0,L|256:200,1,157.5,0|0,0:2|0:2,0:0:0:0:
488,304,51994,2,0,L|360:288,1,105,0|8,0:0|0:2,0:0:0:0:
160,272,52402,6,0,L|152:144,1,105,8|0,0:2|0:0,0:2:0:0:
320,80,52810,1,8,0:2:0:0:
136,32,53014,1,0,0:0:0:0:
416,320,53218,6,0,L|432:152,1,157.5,8|8,0:2|0:2,0:2:0:0:
152,104,53830,1,8,0:2:0:0:
416,104,54034,5,0,3:2:0:0:
457,134,54136,1,0,3:2:0:0:
476,182,54238,1,0,3:2:0:0:
467,233,54340,1,0,3:2:0:0:
431,271,54442,1,8,3:2:0:0:
381,285,54544,1,0,3:2:0:0:
192,272,54647,1,0,3:2:0:0:
120,264,54749,1,0,3:2:0:0:
305,216,54851,5,0,3:2:0:0:
364,188,54953,1,0,3:2:0:0:
365,123,55055,1,0,3:2:0:0:
305,84,55157,1,0,3:2:0:0:
200,176,55259,1,8,3:2:0:0:
136,144,55361,1,0,3:2:0:0:
136,80,55463,1,0,3:2:0:0:
200,44,55565,1,0,3:2:0:0:
392,40,55667,5,0,1:2:0:0:
441,57,55769,1,0,1:2:0:0:
477,94,55871,1,0,1:2:0:0:
494,143,55973,1,0,1:2:0:0:
487,195,56075,1,8,1:2:0:0:
458,238,56177,1,0,1:2:0:0:
413,264,56279,1,0,1:2:0:0:
361,267,56381,1,0,1:2:0:0:
184,264,56483,6,0,L|64:256,1,105,2|2,0:2|0:2,0:2:0:0:
256,184,56892,1,2,0:2:0:0:
72,144,57096,1,2,0:2:0:0:
376,144,57300,6,0,P|443:193|357:285,1,236.250009012223,6|2,3:2|0:2,0:2:0:0:
272,272,57708,1,10,3:2:0:0:
184,256,57810,1,2,0:2:0:0:
448,336,58014,2,0,P|512:232|416:160,1,236.250009012223,2|2,0:2|0:2,0:0:0:0:
272,192,58524,2,0,P|247:84|304:64,1,157.500006008148,10|2,3:2|0:2,0:2:0:0:
448,120,58932,6,0,L|312:32,1,157.500006008148,2|0,3:2|0:2,0:2:0:0:
40,304,59341,1,8,3:2:0:0:
224,280,59545,1,2,0:2:0:0:
48,216,59749,2,0,L|40:56,1,157.500006008148,0|2,3:2|0:2,0:0:0:0:
232,64,60157,1,10,3:2:0:0:
48,48,60361,1,2,0:2:0:0:
384,248,60565,6,0,P|456:192|344:120,1,236.250009012223,6|2,3:2|0:2,0:2:0:0:
272,112,60973,1,10,3:2:0:0:
376,96,61075,1,2,0:2:0:0:
104,88,61279,6,0,P|56:136|160:248,1,236.250009012223,2|2,0:2|0:2,0:0:0:0:
304,288,61789,1,10,3:2:0:0:
128,312,61994,1,2,0:2:0:0:
392,328,62198,6,0,P|286:314|196:224,1,236.250009012223,2|2,3:2|0:2,0:2:0:0:
299,221,62606,1,8,3:2:0:0:
136,208,62810,1,2,0:2:0:0:
240,192,62912,1,0,0:0:0:0:
336,168,63014,6,0,L|360:88,3,78.7500030040742,0|2|2|2,3:2|0:2|0:2|0:2,0:0:0:0:
256,272,63422,2,0,L|96:272,1,157.500006008148,10|2,3:2|0:2,0:2:0:0:
384,272,63830,6,0,P|360:192|168:144,1,236.250009012223,6|0,3:2|0:2,0:2:0:0:
128,128,64238,1,10,3:2:0:0:
224,96,64341,1,2,0:2:0:0:
496,80,64545,2,0,P|472:160|304:200,1,236.250009012223,2|0,0:2|0:0,0:0:0:0:
472,296,65055,2,0,L|456:112,1,157.500006008148,0|10,0:0|3:2,0:0:0:0:
152,128,65463,6,0,P|56:168|40:312,2,236.250009012223,2|2|2,3:2|0:2|0:2,0:2:0:0:
336,136,66279,1,10,3:2:0:0:
128,136,66483,2,0,P|56:160|48:272,2,157.500006008148,0|0|10,0:2|0:0|3:2,0:0:0:0:
296,248,67096,5,14,3:2:0:0:
120,248,67198,2,0,L|240:144,1,157.500006008148,2|2,1:2|1:2,0:0:0:0:
16,72,67708,1,2,1:2:0:0:
192,96,67912,2,0,P|264:88|344:192,1,157.500006008148,2|2,1:2|1:2,0:0:0:0:
128,192,68320,2,0,P|40:200|8:304,1,157.500006008148,2|2,1:2|1:2,0:0:0:0:
296,312,68728,5,6,3:2:0:0:
360,280,68830,1,0,0:0:0:0:
368,216,68932,1,0,0:0:0:0:
304,176,69034,1,0,0:2:0:0:
136,88,69136,2,0,P|84:141|328:400,1,551.25002102852,6|0,3:2|3:2,0:2:0:0:
400,384,69953,2,0,P|448:320|384:264,1,157.500006008148,0|0,3:2|0:0,0:2:0:0:
88,184,70361,6,0,L|56:128,6,39.3750015020371,6|0|0|0|0|0|0,3:2|0:0|0:0|0:0|0:0|0:0|0:2,0:2:0:0:
175,192,70769,2,0,L|335:192,1,157.500006008148,2|2,3:2|0:2,0:2:0:0:
165,282,71177,5,2,3:2:0:0:
336,288,71279,2,0,L|336:128,1,157.500006008148,2|0,0:2|0:2,0:2:0:0:
216,128,71585,1,2,3:2:0:0:
384,176,71789,1,2,0:2:0:0:
384,149,71840,1,0,0:0:0:0:
384,123,71891,1,0,0:0:0:0:
184,96,71994,6,0,L|16:96,1,157.500006008148,2|0,3:2|0:2,0:2:0:0:
120,136,72300,1,0,0:0:0:0:
216,168,72402,1,2,3:2:0:0:
312,200,72504,1,0,0:0:0:0:
112,216,72708,2,0,L|112:48,1,157.500006008148,0|2,0:2|0:2,0:0:0:0:
216,56,73014,1,0,0:0:0:0:
408,56,73218,1,2,3:2:0:0:
216,248,73422,1,2,0:2:0:0:
480,248,73626,6,0,P|424:144|232:88,1,315.000012016297,4|2,3:2|3:2,0:2:0:0:
400,192,74238,1,2,0:2:0:0:
208,192,74443,1,2,3:2:0:0:
392,328,74545,2,0,L|392:160,1,157.500006008148,2|2,0:2|0:2,0:2:0:0:
304,232,74851,2,0,L|136:232,1,157.500006008148,0|2,3:2|0:2,0:2:0:0:
184,200,75106,1,0,0:0:0:0:
224,168,75157,1,0,0:0:0:0:
432,128,75259,6,0,P|408:80|304:64,1,157.500006008148,2|2,3:2|0:2,0:2:0:0:
224,64,75565,1,2,0:2:0:0:
144,216,75667,2,0,P|224:208|304:256,1,157.500006008148,2|2,3:2|0:2,0:2:0:0:
376,304,75973,1,2,0:2:0:0:
280,312,76075,6,0,P|196:292|262:189,1,236.250009012223,2|2,3:2|0:2,0:2:0:0:
336,184,76483,2,0,L|504:184,1,157.500006008148,0|2,0:1|0:2,0:1:0:0:
136,80,76892,5,4,3:2:0:0:
97,85,76943,1,0,0:0:0:0:
68,111,76994,1,0,0:0:0:0:
58,148,77045,1,0,0:0:0:0:
70,185,77096,1,0,0:0:0:0:
101,209,77147,1,0,0:0:0:0:
139,213,77198,1,0,0:2:0:0:
240,216,77300,2,0,L|408:216,1,157.500006008148,10|2,3:2|0:2,0:2:0:0:
208,312,77708,5,2,3:2:0:0:
384,312,77810,2,0,L|392:144,1,157.500006008148,2|2,0:2|0:2,0:2:0:0:
253,189,78116,2,0,L|237:13,1,157.500006008148,10|2,3:2|0:2,0:2:0:0:
304,48,78388,1,0,0:0:0:0:
368,64,78456,1,0,0:0:0:0:
304,48,78524,6,0,L|136:32,1,157.500006008148,0|0,3:2|0:2,0:2:0:0:
64,64,78830,1,0,0:0:0:0:
144,96,78932,1,10,3:2:0:0:
224,120,79034,1,0,0:2:0:0:
440,344,79238,6,0,L|456:184,1,157.500006008148,0|2,0:2|0:2,0:0:0:0:
360,184,79545,1,0,0:0:0:0:
264,176,79647,1,0,0:2:0:0:
360,160,79749,1,10,3:2:0:0:
456,152,79851,1,2,0:2:0:0:
368,120,79953,1,2,0:2:0:0:
280,80,80055,1,2,0:2:0:0:
88,304,80157,6,0,L|72:144,1,157.500006008148,4|2,3:2|0:2,0:2:0:0:
176,128,80463,1,2,0:2:0:0:
376,288,80565,2,0,L|392:192,1,78.7500030040742,10|2,3:2|0:2,0:0:0:0:
280,208,80769,2,0,L|264:120,1,78.7500030040742,2|2,0:2|0:2,0:0:0:0:
392,144,80973,2,0,L|376:32,1,78.7500030040742,2|2,3:2|0:2,0:0:0:0:
272,96,81177,2,0,L|288:8,1,78.7500030040742,2|2,0:2|0:2,0:0:0:0:
400,192,81381,2,0,L|384:360,1,157.500006008148,10|2,3:2|0:2,0:2:0:0:
88,320,81789,6,0,L|256:312,1,157.500006008148,2|2,3:2|0:2,0:2:0:0:
168,272,82096,1,0,0:0:0:0:
80,232,82198,2,0,L|72:152,1,78.7500030040742,10|2,3:2|0:2,0:0:0:0:
192,168,82402,2,0,L|184:80,1,78.7500030040742,2|2,0:2|0:2,0:0:0:0:
80,96,82606,5,2,3:2:0:0:
8,80,82708,1,0,0:0:0:0:
80,96,82810,1,2,0:2:0:0:
176,200,82912,1,2,3:2:0:0:
104,184,83014,1,2,0:2:0:0:
32,168,83116,1,0,0:2:0:0:
128,152,83218,1,2,0:2:0:0:
224,136,83320,1,0,0:2:0:0:
32,336,83422,6,0,L|24:160,1,157.500006008148,6|0,3:2|0:0,0:2:0:0:
336,152,83830,1,10,3:2:0:0:
152,184,84034,1,2,0:2:0:0:
320,264,84238,1,0,3:2:0:0:
368,224,84306,1,0,0:0:0:0:
320,184,84374,1,0,0:0:0:0:
272,144,84442,1,2,0:2:0:0:
424,192,84647,2,0,L|440:24,1,157.500006008148,10|2,3:2|0:2,0:2:0:0:
368,32,84919,1,0,0:0:0:0:
296,32,84987,1,0,0:0:0:0:
112,224,85055,6,0,L|96:40,1,157.500006008148,2|0,3:2|0:2,0:2:0:0:
192,104,85361,1,0,0:0:0:0:
288,88,85463,1,10,3:2:0:0:
192,72,85565,1,0,0:2:0:0:
480,304,85769,2,0,L|488:120,1,157.500006008148,0|2,0:0|0:0,0:0:0:0:
392,184,86075,1,2,0:2:0:0:
296,152,86177,1,2,0:2:0:0:
200,112,86279,2,0,L|360:104,1,157.500006008148,10|2,3:2|0:2,0:2:0:0:
440,96,86585,1,2,0:2:0:0:
128,304,86687,6,0,P|48:254|144:176,1,236.250009012223,6|0,3:2|0:2,0:2:0:0:
288,168,87096,2,0,L|456:160,1,157.500006008148,10|2,3:2|0:2,0:2:0:0:
248,192,87504,5,0,3:2:0:0:
208,176,87572,1,0,0:0:0:0:
192,132,87640,1,0,0:0:0:0:
205,92,87708,1,2,0:2:0:0:
248,74,87776,1,0,0:0:0:0:
296,74,87844,1,0,0:0:0:0:
152,72,87912,2,0,L|-8:72,1,157.500006008148,8|2,3:2|0:2,0:2:0:0:
48,112,88184,1,0,0:0:0:0:
104,144,88252,1,0,0:0:0:0:
288,168,88320,6,0,L|480:168,1,157.500006008148,0|0,3:2|0:2,0:2:0:0:
352,216,88626,1,2,3:2:0:0:
136,296,88728,1,10,3:2:0:0:
328,296,88932,1,2,3:2:0:0:
168,248,89136,2,2,L|336:248,1,157.500006008148,2|2,0:2|3:2,0:2:0:0:
232,208,89443,1,2,0:2:0:0:
40,200,89545,2,0,L|40:40,1,157.500006008148,2|2,3:2|0:2,0:2:0:0:
312,96,89953,6,0,L|360:56,6,39.3750015020371,6|0|0|0|0|0|0,3:2|0:0|0:0|0:0|0:0|0:0|0:2,0:2:0:0:
224,144,90361,2,0,L|384:144,1,157.500006008148,2|2,3:2|0:2,0:2:0:0:
176,248,90769,5,0,3:2:0:0:
344,248,90871,2,0,L|344:152,2,78.7500030040742,2|2|0,0:2|0:2|3:2,0:0:0:0:
248,256,91177,1,0,0:0:0:0:
152,248,91279,1,0,0:2:0:0:
232,288,91381,1,2,3:2:0:0:
320,328,91483,1,0,0:2:0:0:
144,336,91585,6,0,P|64:328|16:248,1,157.500006008148,2|0,3:2|0:2,0:2:0:0:
120,256,91892,1,0,0:0:0:0:
216,232,91994,1,0,3:2:0:0:
312,208,92096,1,0,0:2:0:0:
104,208,92300,6,0,L|104:48,1,157.500006008148,0|2,0:0|0:2,0:0:0:0:
200,88,92606,1,2,0:2:0:0:
104,80,92708,1,2,0:2:0:0:
296,56,92810,2,0,P|360:56|464:208,1,236.250009012223,2|0,0:2|0:2,0:2:0:0:
184,304,93218,6,0,L|184:144,1,157.500006008148,6|2,3:2|0:2,0:2:0:0:
288,144,93524,1,2,3:2:0:0:
96,128,93626,2,0,L|96:32,1,78.7500030040742,2|2,0:2|0:2,0:0:0:0:
216,88,93830,2,0,L|216:8,1,78.7500030040742,2|2,0:2|0:2,0:0:0:0:
96,192,94034,2,0,L|96:112,1,78.7500030040742,2|2,3:2|0:2,0:0:0:0:
216,208,94238,2,0,L|216:120,1,78.7500030040742,2|2,0:2|3:2,0:0:0:0:
96,280,94443,2,0,L|16:144,1,157.500006008148,2|2,0:2|0:2,0:2:0:0:
112,184,94749,1,0,0:2:0:0:
328,272,94851,6,0,L|488:272,1,157.500006008148,2|2,3:2|0:2,0:2:0:0:
392,240,95157,1,2,3:2:0:0:
168,152,95259,2,0,L|96:96,1,78.7500030040742,2|2,0:2|0:2,0:0:0:0:
288,96,95463,2,0,L|368:32,1,78.7500030040742,2|2,0:2|0:2,0:0:0:0:
112,272,95667,6,0,L|24:272,2,78.7500030040742,6|0|2,3:2|0:2|3:2,0:2:0:0:
288,192,95973,2,0,L|384:192,2,78.7500030040742,6|0|2,3:2|0:2|3:2,0:2:0:0:
72,192,96279,2,0,L|120:112,1,78.7500030040742,6|0,3:2|0:2,0:0:0:0:
344,120,96483,5,2,3:2:0:0:
192,120,96789,2,0,L|192:176,2,52.5,2|2|2,0:2|0:2|0:2,0:0:0:0:
344,120,97198,2,0,P|376:176|320:272,1,157.5,2|2,0:2|0:2,0:2:0:0:
184,256,97708,2,0,L|72:256,1,105,2|2,0:2|0:2,0:0:0:0:
288,120,98116,6,0,L|464:120,2,157.5,2|2|2,0:2|0:2|0:2,0:2:0:0:
72,248,98932,2,0,L|248:248,2,157.5,2|2|2,0:2|0:2|0:2,0:2:0:0:
272,328,99749,5,2,0:2:0:0:
144,328,99953,2,0,P|82:281|112:208,1,157.5,2|0,0:2|0:0,0:2:0:0:
160,184,100361,1,0,0:0:0:0:
232,176,100463,1,0,0:2:0:0:
299,160,100565,5,0,3:2:0:0:
353,124,100667,1,0,3:2:0:0:
345,64,100769,1,0,3:2:0:0:
288,40,100871,1,0,3:2:0:0:
224,57,100973,1,0,3:2:0:0:
188,113,101075,1,0,3:2:0:0:
208,165,101177,1,0,3:2:0:0:
270,175,101279,1,0,3:2:0:0:
448,176,101381,5,0,3:2:0:0:
495,225,101483,1,0,3:2:0:0:
483,282,101585,1,0,3:2:0:0:
423,299,101687,1,0,3:2:0:0:
232,293,101789,1,0,3:2:0:0:
171,257,101892,1,0,3:2:0:0:
172,190,101994,1,0,3:2:0:0:
234,159,102096,1,0,3:2:0:0:
432,136,102198,6,0,L|496:136,2,52.5,2|2|2,3:2|0:2|0:2,0:0:0:0:
144,136,102606,2,0,L|8:136,1,105,2|2,0:2|0:2,0:0:0:0:
368,312,103014,6,0,L|368:136,1,157.500006008148,2|2,3:2|3:2,0:2:0:0:
96,80,103422,1,6,3:2:0:0:
57,79,103473,1,0,0:0:0:0:
25,101,103524,1,0,0:0:0:0:
13,138,103575,1,0,0:0:0:0:
24,175,103626,1,0,0:0:0:0:
55,198,103677,1,0,0:0:0:0:
93,199,103728,1,0,0:0:0:0:
256,200,103830,6,0,L|432:200,1,157.500006008148,10|2,0:2|0:2,0:0:0:0:
344,160,104136,1,2,0:2:0:0:
168,104,104238,2,0,L|168:192,1,78.7500030040742,6|0,3:2|0:0,0:0:0:0:
320,320,104545,2,0,L|320:232,1,78.7500030040742,2|2,0:2|0:2,0:0:0:0:
24,192,104851,6,0,L|24:104,2,78.7500030040742,2|0|0,0:2|0:0|3:2,0:0:0:0:
120,192,105157,1,2,0:2:0:0:
440,320,105361,2,0,L|440:152,1,157.500006008148,0|2,0:2|0:2,0:0:0:0:
344,272,105667,1,2,0:2:0:0:
256,272,105769,1,2,0:2:0:0:
168,272,105871,2,0,L|168:96,1,157.500006008148,2|0,0:2|0:0,0:0:0:0:
448,112,106279,5,6,3:2:0:0:
481,132,106330,1,0,0:0:0:0:
501,165,106381,1,0,0:0:0:0:
506,204,106432,1,0,0:0:0:0:
492,241,106483,1,0,0:0:0:0:
464,268,106534,1,0,0:0:0:0:
427,279,106585,1,0,0:2:0:0:
216,272,106687,1,2,0:2:0:0:
176,272,106738,1,0,0:0:0:0:
137,272,106789,1,0,0:0:0:0:
97,272,106840,1,0,0:0:0:0:
58,272,106891,1,2,0:2:0:0:
136,248,106994,1,0,0:0:0:0:
336,240,107096,6,0,L|336:80,1,157.500006008148,10|2,0:2|3:2,0:2:0:0:
176,80,107504,1,6,3:2:0:0:
336,80,107708,1,2,0:2:0:0:
56,184,107912,6,0,L|152:184,1,78.7500030040742,2|2,0:2|0:2,0:0:0:0:
296,184,108218,1,0,0:2:0:0:
216,184,108320,2,0,L|216:288,2,78.7500030040742,2|2|2,3:2|0:2|0:2,0:0:0:0:
480,184,108728,1,10,0:2:0:0:
320,184,108932,2,0,L|456:72,2,157.500006008148,2|2|0,0:2|2:2|0:0,0:0:0:0:
48,184,109545,6,0,L|48:360,1,157.500006008148,6|0,0:2|0:0,0:2:0:0:
320,336,109953,1,4,3:2:0:0:
358,327,110004,1,0,0:0:0:0:
386,300,110055,1,0,0:0:0:0:
395,263,110106,1,0,0:0:0:0:
384,226,110157,1,0,0:0:0:0:
354,200,110208,1,0,0:0:0:0:
316,194,110259,1,0,0:2:0:0:
152,192,110361,6,0,L|0:112,1,157.500006008148,10|2,0:2|0:2,0:0:0:0:
96,112,110667,1,2,0:2:0:0:
288,152,110769,2,0,L|352:88,1,78.7500030040742,6|2,3:2|0:2,0:0:0:0:
144,304,111075,2,0,L|64:232,1,78.7500030040742,2|2,0:2|0:2,0:0:0:0:
288,304,111381,5,2,0:2:0:0:
340,304,111449,1,0,0:0:0:0:
393,304,111517,1,0,0:0:0:0:
340,304,111585,1,0,3:2:0:0:
88,304,111892,1,0,0:2:0:0:
168,304,111994,2,0,L|176:208,1,78.7500030040742,10|0,0:2|0:0,0:0:0:0:
80,208,112198,2,0,L|72:120,1,78.7500030040742,2|0,0:2|0:0,0:0:0:0:
182,127,112402,2,0,L|188:26,1,78.7500030040742,2|2,0:2|0:2,0:2:0:0:
74,53,112606,1,2,0:2:0:0:
416,120,112810,6,0,L|432:296,1,157.500006008148,6|2,3:2|0:2,0:2:0:0:
352,296,113116,1,2,0:2:0:0:
144,296,113218,2,0,L|136:216,1,78.7500030040742,2|2,0:2|0:2,0:0:0:0:
216,208,113422,2,0,L|224:120,1,78.7500030040742,2|2,0:2|0:2,0:0:0:0:
120,224,113626,2,0,L|112:144,1,78.7500030040742,10|2,0:2|0:2,0:0:0:0:
192,136,113830,2,0,L|200:48,1,78.7500030040742,2|2,3:2|0:2,0:0:0:0:
88,48,114034,2,0,L|240:120,1,157.500006008148,2|2,3:2|0:2,0:2:0:0:
496,320,114443,6,0,L|504:144,1,157.500006008148,2|2,0:2|0:2,0:2:0:0:
424,160,114749,1,0,0:0:0:0:
232,296,114851,2,0,L|320:280,1,78.7500030040742,2|2,3:2|0:2,0:0:0:0:
384,264,115055,2,0,L|272:248,1,78.7500030040742,2|2,0:2|0:2,0:0:0:0:
208,240,115259,5,10,0:2:0:0:
136,200,115361,1,0,0:0:0:0:
64,160,115463,1,2,0:2:0:0:
168,144,115565,2,0,L|272:144,2,78.7500030040742,10|0|0,0:2|0:0|0:2,0:0:0:0:
72,104,115871,2,0,L|160:104,1,78.7500030040742,2|0,0:2|0:2,0:2:0:0:
344,104,116075,5,6,3:2:0:0:
416,104,116177,1,2,0:2:0:0:
496,104,116279,1,2,0:2:0:0:
304,248,116381,2,0,L|192:248,2,78.7500030040742,2|0|2,0:2|0:0|0:2,0:0:0:0:
408,248,116687,2,0,L|328:248,1,78.7500030040742,2|2,0:2|0:2,0:0:0:0:
160,112,116892,6,0,L|56:112,2,78.7500030040742,14|2|2,0:2|3:2|0:2,0:0:0:0:
240,112,117198,1,2,0:2:0:0:
32,192,117300,2,0,L|32:280,1,78.7500030040742,6|0,3:2|0:0,0:0:0:0:
192,272,117606,2,0,L|192:176,1,78.7500030040742,2|2,0:2|0:2,0:0:0:0:
352,192,117912,1,2,0:2:0:0:
404,192,117980,1,0,0:0:0:0:
457,192,118048,1,0,0:0:0:0:
404,192,118116,1,0,3:2:0:0:
16,192,118422,2,0,L|15:96,1,78.7500030040742,0|10,0:2|0:2,0:0:0:0:
96,112,118626,1,2,0:2:0:0:
328,88,118728,6,0,L|504:88,2,157.500006008148,2|2|0,0:2|0:2|0:0,0:0:0:0:
56,88,119341,6,0,L|56:256,1,157.500006008148,6|0,3:2|0:0,0:2:0:0:
160,248,119647,2,0,L|256:248,2,78.7500030040742,0|2|0,0:2|0:2|0:0,0:0:0:0:
264,248,119953,2,0,L|272:160,1,78.7500030040742,0|0,0:0|0:2,0:0:0:0:
96,192,120157,2,0,L|88:24,1,157.500006008148,10|2,0:2|3:2,0:0:0:0:
392,320,120565,2,0,L|216:320,1,157.500006008148,6|2,3:2|0:2,0:2:0:0:
320,264,120871,1,0,0:2:0:0:
488,200,120973,6,0,L|488:112,1,78.7500030040742,2|2,0:2|0:2,0:0:0:0:
296,112,121177,2,2,L|128:112,1,157.500006008148,6|6,3:2|3:2,0:2:0:0:
344,112,121585,2,0,L|344:200,1,78.7500030040742,2|2,3:2|3:2,0:0:0:0:
136,200,121789,1,10,0:2:0:0:
224,200,121994,6,0,L|94:305,2,157.500006008148,2|2|2,0:2|0:2|0:2,0:0:0:0:
496,80,122606,6,0,L|296:72,1,157.500006008148,6|0,3:2|0:0,0:2:0:0:
256,128,122912,2,0,L|152:136,2,78.7500030040742,0|0|0,0:2|0:2|0:2,0:0:0:0:
368,208,123218,2,0,L|272:200,1,78.7500030040742,10|0,0:2|0:2,0:0:0:0:
88,304,123422,6,0,L|80:128,1,157.500006008148,2|0,3:2|0:0,0:0:0:0:
416,80,123830,1,10,0:2:0:0:
430,116,123881,1,0,0:0:0:0:
432,155,123932,1,0,0:0:0:0:
421,192,123983,1,0,0:0:0:0:
397,224,124034,1,0,0:0:0:0:
365,246,124085,1,0,0:0:0:0:
327,255,124136,1,0,0:2:0:0:
112,256,124238,6,0,L|280:240,1,157.500006008148,2|0,3:2|0:0,0:0:0:0:
352,232,124545,1,0,0:0:0:0:
152,184,124647,2,0,L|144:96,1,78.7500030040742,10|0,0:2|0:0,0:2:0:0:
336,80,124953,1,0,0:2:0:0:
448,96,125055,6,0,P|476:181|424:256,1,157.500006008148,2|0,3:2|0:0,0:0:0:0:
400,256,125327,1,0,0:0:0:0:
352,256,125395,1,0,0:0:0:0:
200,256,125463,2,0,L|8:256,1,157.500006008148,10|0,0:2|0:0,0:2:0:0:
384,344,125871,6,0,L|392:160,1,157.500006008148,6|2,3:2|0:2,0:2:0:0:
288,160,126177,1,2,3:2:0:0:
112,152,126279,1,2,0:2:0:0:
40,192,126381,1,2,0:2:0:0:
48,272,126483,1,2,0:2:0:0:
128,296,126585,1,2,0:2:0:0:
224,288,126687,2,0,L|304:240,1,78.7500030040742,2|2,3:2|0:2,0:2:0:0:
184,192,126892,2,0,L|88:120,1,78.7500030040742,2|2,0:2|3:2,0:0:0:0:
240,104,127096,2,0,L|432:96,1,157.500006008148,2|2,0:2|0:2,0:2:0:0:
112,320,127504,6,0,L|96:160,1,157.500006008148,2|2,3:2|0:2,0:2:0:0:
176,144,127810,1,0,0:0:0:0:
376,112,127912,2,0,L|472:112,1,78.7500030040742,2|2,0:2|0:2,0:0:0:0:
336,184,128116,2,0,L|232:184,1,78.7500030040742,2|2,0:2|0:2,0:0:0:0:
432,312,128320,6,0,L|512:312,2,78.7500030040742,6|0|2,3:2|0:2|3:2,0:2:0:0:
256,112,128626,2,0,L|176:112,2,78.7500030040742,6|0|2,3:2|0:2|3:2,0:0:0:0:
448,112,128932,2,0,L|448:216,1,78.7500030040742,6|0,3:2|0:2,0:2:0:0:
256,240,129136,5,6,3:2:0:0:
256,192,129545,12,2,130769,0:2:0:0:
208,336,131177,6,0,L|192:168,1,157.500006008148,2|2,3:2|3:2,0:0:0:0:
384,200,131585,2,0,L|400:112,1,78.7500030040742,2|2,3:2|3:2,0:0:0:0:
296,128,131789,2,0,L|288:48,1,78.7500030040742,2|2,3:2|3:2,0:0:0:0:
496,56,131994,2,0,L|336:64,1,157.500006008148,8|0,0:2|0:0,0:2:0:0:
56,248,132402,6,0,L|240:248,1,157.500006008148,4|0,3:2|0:2,0:2:0:0:
296,248,132708,1,2,0:2:0:0:
208,104,132810,2,0,L|128:104,1,78.7500030040742,10|2,3:2|0:2,0:0:0:0:
432,104,133116,6,0,P|464:152|368:296,1,236.250009012223,2|2,0:2|0:2,0:2:0:0:
200,320,133626,1,10,3:2:0:0:
392,336,133830,1,2,0:2:0:0:
88,272,134034,6,0,L|80:104,1,157.500006008148,2|0,3:2|0:2,0:2:0:0:
288,96,134443,1,8,3:2:0:0:
112,200,134647,2,0,L|192:192,1,78.7500030040742,2|0,0:2|0:0,0:2:0:0:
288,192,134851,1,2,3:2:0:0:
336,208,134919,1,2,0:2:0:0:
363,252,134987,1,2,0:2:0:0:
355,303,135055,1,2,0:2:0:0:
317,338,135123,1,2,0:2:0:0:
264,344,135191,1,2,0:2:0:0:
96,336,135259,2,0,L|88:160,1,157.500006008148,10|2,3:2|0:2,0:2:0:0:
416,104,135667,6,0,P|416:224|280:304,1,236.250009012223,6|2,3:2|0:2,0:2:0:0:
232,288,136075,1,10,3:2:0:0:
336,296,136177,1,2,0:2:0:0:
136,240,136381,6,0,P|80:184|184:88,1,236.250009012223,2|2,0:2|0:2,0:2:0:0:
464,88,136892,2,0,L|464:264,1,157.500006008148,10|2,3:2|0:2,0:2:0:0:
280,248,137300,6,0,P|151:254|96:368,2,236.250009012223,2|2|2,3:2|0:2|0:2,0:2:0:0:
368,256,138014,1,0,0:0:0:0:
168,248,138116,2,0,P|56:208|16:72,2,236.250009012223,2|2|0,3:2|3:2|3:2,0:2:0:0:
472,256,138932,6,0,P|472:160|272:64,1,315.000012016297,14|10,3:2|0:2,0:2:0:0:
112,64,139545,2,0,L|168:136,1,78.7500030040742,0|0,0:0|0:2,0:0:0:0:
344,208,139749,6,0,P|419:218|472:384,2,236.250009012223,6|2|0,3:2|3:2|0:0,0:2:0:0:
48,208,140565,6,0,L|48:24,1,157.500006008148,6|0,3:2|0:2,0:2:0:0:
216,48,140871,2,0,L|320:176,1,157.500006008148,2|0,3:2|0:2,0:0:0:0:
120,176,141177,2,0,L|56:264,1,78.7500030040742,2|0,3:2|0:2,0:2:0:0:
288,248,141381,6,0,P|392:248|456:112,2,236.250009012223,2|2|2,3:2|0:2|0:2,0:2:0:0:
0,248,142198,1,6,3:2:0:0:
256,192,142402,12,0,143830,1:2:0:0:
320,304,144034,6,0,L|336:208,1,78.7500030040742,0|0,3:2|3:2,0:0:0:0:
232,192,144238,2,0,L|216:104,1,78.7500030040742,0|0,1:2|3:2,0:0:0:0:
440,64,144545,2,0,L|456:248,1,157.500006008148,0|0,3:2|3:2,0:2:0:0:
248,256,144953,1,0,3:2:0:0:
344,296,145055,1,8,1:2:0:0:
344,296,145157,1,0,1:2:0:0:
248,328,145259,1,0,1:2:0:0:
344,352,145361,1,0,1:2:0:0:
80,352,145463,6,0,P|32:240|112:176,1,236.250009012223,4|4,3:2|3:2,0:2:0:0:
448,128,146279,6,0,L|216:56,2,236.250009012223,4|4|4,3:2|3:2|3:2,0:2:0:0:
96,288,147300,6,0,L|88:192,1,78.7500030040742,2|0,0:2|0:0,0:2:0:0:
192,184,147504,2,0,L|376:160,1,157.500006008148,2|2,1:2|0:2,0:2:0:0:
152,120,147912,2,0,L|168:296,1,157.500006008148,2|0,0:2|3:2,0:2:0:0:
264,304,148218,1,0,0:2:0:0:
368,288,148320,1,0,1:2:0:0:
401,268,148371,1,0,0:2:0:0:
422,235,148422,1,0,0:2:0:0:
426,196,148473,1,0,0:0:0:0:
412,160,148524,1,2,0:2:0:0:
383,134,148575,1,0,0:0:0:0:
345,124,148626,1,0,0:0:0:0:
128,112,148728,6,0,P|208:200|344:224,1,236.250009012223,4|4,3:2|3:2,0:2:0:0:
40,328,149545,6,0,L|280:224,2,236.250009012223,4|4|4,3:2|3:2|3:2,0:2:0:0:
376,192,150565,6,0,L|384:104,1,78.7500030040742,2|0,0:2|0:0,0:2:0:0:
280,88,150769,2,0,L|120:72,1,157.500006008148,2|2,1:2|0:2,0:2:0:0:
304,264,151177,2,0,L|480:248,1,157.500006008148,2|2,0:2|0:2,0:2:0:0:
248,152,151585,1,2,1:2:0:0:
180,183,151687,1,0,0:0:0:0:
180,258,151789,1,2,0:2:0:0:
248,289,151891,1,0,0:0:0:0:
440,296,151994,6,0,P|440:176|304:136,1,236.250009012223,6|4,3:2|3:2,0:2:0:0:
80,272,152810,6,0,L|304:168,2,236.250009012223,4|4|4,3:2|3:2|3:2,0:2:0:0:
392,288,153830,6,0,L|296:272,1,78.7500030040742,2|0,0:2|0:0,0:2:0:0:
216,264,154034,2,0,L|200:88,1,157.500006008148,2|2,1:2|0:2,0:0:0:0:
408,88,154443,1,2,0:2:0:0:
224,176,154647,1,2,3:2:0:0:
185,171,154698,1,0,0:2:0:0:
152,192,154749,1,0,0:0:0:0:
139,229,154800,1,0,0:0:0:0:
152,265,154851,1,0,1:2:0:0:
184,286,154902,1,0,0:2:0:0:
223,283,154953,1,0,0:0:0:0:
328,280,155055,2,0,L|424:280,1,78.7500030040742,0|0,3:2|0:2,0:2:0:0:
224,120,155259,6,0,P|120:120|56:232,2,236.250009012223,4|0|0,3:2|3:2|3:2,0:2:0:0:
496,200,156075,5,0,3:2:0:0:
248,232,156381,1,0,3:2:0:0:
64,256,156687,2,0,L|152:264,1,78.7500030040742,0|0,3:2|0:2,0:2:0:0:
336,264,156892,6,0,P|436:255|488:136,2,236.250009012223,0|0|0,3:2|3:2|3:2,0:2:0:0:
56,184,157708,5,0,3:2:0:0:
312,128,158014,1,0,3:2:0:0:
488,80,158320,2,0,L|392:72,1,78.7500030040742,0|0,3:2|0:2,0:2:0:0:
200,64,158524,6,0,L|24:48,1,157.500006008148,8|8,3:2|3:2,0:2:0:0:
344,112,158932,2,0,L|352:216,1,78.7500030040742,0|0,3:2|3:2,0:0:0:0:
248,192,159136,1,0,3:2:0:0:
242,231,159187,1,0,0:0:0:0:
237,270,159238,1,0,3:2:0:0:
480,328,159341,6,0,L|488:152,1,157.500006008148,12|0,3:2|0:2,0:2:0:0:
312,96,159647,2,0,L|112:72,1,157.500006008148,12|0,3:2|0:2,0:2:0:0:
392,80,159953,1,12,3:2:0:0:
144,272,160361,6,0,L|328:256,4,157.500006008148,0|2|2|2|2,0:0|0:2|0:2|0:2|0:2,0:0:0:0:
424,272,161381,6,0,P|472:192|352:120,1,236.250009012223,12|0,0:2|0:0,0:0:0:0:
104,112,161789,5,6,3:2:0:0:
70,131,161840,1,0,0:0:0:0:
49,164,161891,1,0,0:0:0:0:
45,203,161942,1,0,0:0:0:0:
60,239,161993,1,0,0:0:0:0:
89,264,162044,1,0,0:0:0:0:
127,273,162095,1,0,0:2:0:0:
328,272,162198,6,0,L|512:248,1,157.500006008148,10|0,3:2|0:0,0:2:0:0:
208,128,162606,2,0,L|56:40,2,157.500006008148,2|0|8,3:2|0:0|3:2,0:2:0:0:
408,152,163218,1,2,0:2:0:0:
112,304,163422,6,0,L|104:128,1,157.500006008148,2|2,3:2|0:2,0:2:0:0:
312,128,163830,2,0,L|320:-56,1,157.500006008148,10|2,3:2|0:2,0:2:0:0:
112,304,164238,1,2,3:2:0:0:
320,288,164443,1,2,0:2:0:0:
32,192,164647,2,0,L|224:160,1,157.500006008148,10|2,3:2|0:2,0:2:0:0:
464,136,165055,5,6,3:2:0:0:
472,174,165106,1,0,0:0:0:0:
467,213,165157,1,0,0:0:0:0:
450,248,165208,1,0,0:0:0:0:
422,275,165259,1,0,0:0:0:0:
386,292,165310,1,0,0:0:0:0:
348,296,165361,1,0,0:2:0:0:
176,296,165463,6,0,L|8:240,1,157.500006008148,10|0,3:2|0:2,0:2:0:0:
304,168,165871,2,0,L|448:72,2,157.500006008148,2|2|8,3:2|0:2|3:2,0:2:0:0:
96,168,166483,2,0,L|200:168,1,78.7500030040742,2|0,0:2|0:2,0:2:0:0:
368,168,166687,6,0,L|384:344,1,157.500006008148,2|2,3:2|0:2,0:2:0:0:
296,320,166994,1,2,3:2:0:0:
200,312,167096,1,10,0:2:0:0:
384,296,167300,1,2,3:2:0:0:
176,296,167504,6,0,L|152:120,1,157.500006008148,2|2,0:2|3:2,0:2:0:0:
456,120,167912,1,10,0:2:0:0:
480,150,167963,1,0,0:0:0:0:
491,188,168014,1,0,0:0:0:0:
486,227,168065,1,0,0:0:0:0:
468,261,168116,1,0,0:0:0:0:
438,286,168167,1,0,0:0:0:0:
400,297,168218,1,0,0:2:0:0:
168,296,168320,5,6,3:2:0:0:
130,283,168371,1,0,0:0:0:0:
104,255,168422,1,0,0:0:0:0:
96,217,168473,1,0,0:0:0:0:
107,180,168524,1,0,0:0:0:0:
135,153,168575,1,0,0:0:0:0:
173,144,168626,1,0,0:2:0:0:
344,144,168728,6,0,L|496:72,1,157.500006008148,10|0,0:2|0:0,0:2:0:0:
200,216,169136,2,0,L|72:88,2,157.500006008148,2|0|10,3:2|0:0|0:2,0:2:0:0:
408,216,169749,1,2,0:2:0:0:
80,336,169953,6,0,L|72:168,1,157.500006008148,2|2,3:2|0:2,0:2:0:0:
352,184,170361,2,0,L|352:16,1,157.500006008148,10|2,3:2|0:2,0:2:0:0:
184,32,170769,1,2,3:2:0:0:
464,280,170973,2,0,L|320:376,2,157.500006008148,2|10|2,0:2|3:2|0:2,0:2:0:0:
184,224,171585,5,6,3:2:0:0:
144,223,171636,1,0,0:0:0:0:
107,210,171687,1,0,0:0:0:0:
75,187,171738,1,0,0:0:0:0:
52,156,171789,1,0,0:0:0:0:
38,119,171840,1,0,0:0:0:0:
37,80,171891,1,0,0:2:0:0:
264,72,171994,6,0,L|248:240,1,157.500006008148,10|0,3:2|0:0,0:2:0:0:
88,328,172402,2,0,L|256:256,2,157.500006008148,2|2|8,3:2|0:2|3:2,0:2:0:0:
272,328,173014,2,0,L|368:288,1,78.7500030040742,2|2,0:2|0:2,0:0:0:0:
152,232,173218,6,0,P|72:216|56:136,1,157.500006008148,2|0,3:2|0:2,3:2:0:0:
152,144,173524,1,2,3:2:0:0:
336,144,173626,2,0,L|416:144,1,78.7500030040742,10|0,0:2|0:0,0:0:0:0:
208,304,173830,2,0,L|112:304,1,78.7500030040742,2|0,3:2|0:2,0:2:0:0:
344,304,174034,5,2,3:2:0:0:
413,279,174136,1,0,0:2:0:0:
414,205,174238,1,2,3:2:0:0:
344,179,174340,1,0,0:2:0:0:
160,168,174443,2,0,L|0:120,1,157.500006008148,10|0,3:2|0:0,0:0:0:0:
112,104,174749,1,0,0:2:0:0:
336,104,174851,5,6,3:2:0:0:
374,108,174902,1,0,0:0:0:0:
406,130,174953,1,0,0:0:0:0:
422,166,175004,1,0,0:0:0:0:
419,205,175055,1,0,0:0:0:0:
398,237,175106,1,0,0:0:0:0:
363,255,175157,1,0,0:2:0:0:
104,296,175259,6,0,L|264:280,1,157.500006008148,10|2,3:2|0:2,0:2:0:0:
464,264,175667,2,0,L|472:96,1,157.500006008148,6|0,3:2|0:0,0:2:0:0:
144,64,176075,2,0,L|152:240,1,157.500006008148,8|2,3:2|0:2,0:0:0:0:
472,320,176483,6,0,L|280:296,1,157.500006008148,2|2,3:2|0:2,0:2:0:0:
40,216,176892,2,0,L|216:208,1,157.500006008148,10|2,3:2|0:2,0:2:0:0:
400,200,177300,1,2,3:2:0:0:
112,336,177504,2,0,L|104:168,1,157.500006008148,2|10,0:2|3:2,0:2:0:0:
304,144,177912,1,2,0:2:0:0:
24,104,178116,5,6,3:2:0:0:
16,142,178167,1,0,0:0:0:0:
20,181,178218,1,0,0:0:0:0:
37,216,178269,1,0,0:0:0:0:
64,245,178320,1,0,0:0:0:0:
99,263,178371,1,0,0:0:0:0:
137,269,178422,1,0,0:2:0:0:
312,272,178524,6,0,L|472:272,1,157.500006008148,10|0,3:2|0:0,0:2:0:0:
272,272,178932,2,0,L|152:168,1,157.500006008148,2|2,3:2|0:2,0:0:0:0:
464,88,179341,2,0,L|288:104,1,157.500006008148,10|0,3:2|0:2,0:2:0:0:
24,336,179749,6,0,L|200:312,1,157.500006008148,2|2,3:2|0:2,0:0:0:0:
264,304,180055,1,0,3:2:0:0:
80,256,180157,2,0,L|80:80,1,157.500006008148,10|2,0:2|3:2,0:2:0:0:
256,128,180565,1,2,3:2:0:0:
80,96,180769,1,2,3:2:0:0:
360,104,180973,5,10,0:2:0:0:
398,102,181024,1,0,0:0:0:0:
434,118,181075,1,0,0:0:0:0:
458,149,181126,1,0,0:0:0:0:
465,187,181177,1,0,0:0:0:0:
454,224,181228,1,0,0:0:0:0:
427,252,181279,1,0,0:2:0:0:
232,224,181381,5,6,3:2:0:0:
193,222,181432,1,0,0:0:0:0:
160,242,181483,1,0,0:0:0:0:
144,277,181534,1,0,0:0:0:0:
151,315,181585,1,0,0:0:0:0:
178,343,181636,1,0,0:0:0:0:
216,351,181687,1,0,0:2:0:0:
392,352,181789,6,0,L|384:168,1,157.500006008148,10|2,3:2|0:2,0:2:0:0:
96,184,182198,2,0,L|80:16,1,157.500006008148,2|0,3:2|0:0,0:2:0:0:
352,80,182606,2,0,L|520:16,1,157.500006008148,8|2,3:2|0:2,0:0:0:0:
208,280,183014,6,0,L|200:104,1,157.500006008148,2|2,3:2|0:2,0:2:0:0:
496,264,183422,1,10,3:2:0:0:
344,296,183626,1,2,0:2:0:0:
152,320,183830,1,2,3:2:0:0:
304,352,184034,1,2,0:2:0:0:
16,232,184238,2,0,L|192:216,1,157.500006008148,10|2,3:2|0:2,0:2:0:0:
464,208,184647,5,6,3:2:0:0:
452,170,184698,1,0,0:0:0:0:
432,136,184749,1,0,0:0:0:0:
404,109,184800,1,0,0:0:0:0:
370,89,184851,1,0,0:0:0:0:
333,77,184902,1,0,0:0:0:0:
293,76,184953,1,0,0:2:0:0:
192,80,185055,6,0,L|32:72,1,157.500006008148,10|2,0:2|0:2,0:2:0:0:
320,320,185463,1,2,3:2:0:0:
360,255,185565,1,2,3:2:0:0:
335,183,185667,1,2,3:2:0:0:
263,158,185769,1,2,3:2:0:0:
176,160,185871,2,0,L|272:152,1,78.7500030040742,2|2,3:2|3:2,0:0:0:0:
432,144,186075,6,0,P|496:240|408:312,1,236.250009012223,12|0,3:2|0:2,0:0:0:0:
248,320,186483,2,0,P|136:312|48:200,1,236.250009012223,12|0,3:2|0:2,0:0:0:0:
296,184,186892,2,0,L|408:176,1,78.7500030040742,0|0,3:2|0:2,0:2:0:0:
176,88,187096,6,0,P|96:144|208:208,1,236.250009012223,12|0,3:2|0:0,0:2:0:0:
272,224,187504,2,0,L|96:224,1,157.500006008148
408,328,187912,6,0,P|448:232|272:128,1,315.000012016297,6|2,3:2|3:2,0:2:0:0:
104,128,188524,2,0,L|16:216,1,78.7500030040742,0|0,0:0|0:2,0:0:0:0:
240,264,188728,6,0,P|368:256|400:144,2,236.250009012223,10|2|2,0:2|3:2|3:2,0:2:0:0:
60,259,189545,5,2,0:2:0:0:
48,183,189647,1,2,0:2:0:0:
93,121,189749,1,2,0:2:0:0:
169,108,189851,1,2,0:2:0:0:
272,112,189953,2,0,L|96:88,1,157.500006008148,2|2,3:2|0:2,0:0:0:0:
384,336,190361,6,0,P|456:280|504:136,2,236.250009012223,10|2|2,0:2|3:2|3:2,0:2:0:0:
88,304,191177,6,0,L|80:136,1,157.500006008148,6|0,3:2|0:0,0:2:0:0:
280,96,191585,1,2,3:2:0:0:
327,155,191687,1,0,0:0:0:0:
309,229,191789,1,2,0:2:0:0:
241,262,191891,1,0,0:0:0:0:
64,320,191994,2,0,P|184:320|264:208,1,236.250009012223,10|2,0:2|3:2,0:2:0:0:
56,160,192606,2,0,L|160:152,1,78.7500030040742,2|0,3:2|0:2,0:0:0:0:
336,136,192810,6,0,P|432:192|312:312,1,315.000012016297,2|2,0:2|3:2,0:2:0:0:
128,296,193422,1,2,0:2:0:0:
456,72,193626,2,0,P|288:128|264:216,1,236.250009012223,10|2,0:2|3:2,0:2:0:0:
480,320,194238,2,0,L|384:312,1,78.7500030040742,2|0,3:2|0:2,0:2:0:0:
168,320,194443,6,0,P|88:256|216:136,1,315.000012016297,6|2,3:2|3:2,0:2:0:0:
408,112,195055,2,0,L|400:192,1,78.7500030040742,0|0,0:0|0:2,0:0:0:0:
216,280,195259,2,0,P|136:280|48:152,2,236.250009012223,10|2|2,0:2|3:2|3:2,0:2:0:0:
424,280,196075,5,2,0:2:0:0:
413,203,196177,1,2,0:2:0:0:
361,145,196279,1,2,0:2:0:0:
286,127,196381,1,2,0:2:0:0:
184,144,196483,2,0,L|392:128,1,157.500006008148,2|2,3:2|0:2,0:0:0:0:
48,320,196892,2,0,P|64:232|200:184,2,236.250009012223,10|2|2,0:2|3:2|3:2,0:2:0:0:
368,328,197708,6,0,P|350:222|176:128,1,315.000012016297,4|0,3:2|3:2,0:2:0:0:
352,128,198320,1,0,0:0:0:0:
64,304,198524,2,0,L|224:280,1,157.500006008148,8|0,3:2|0:2,0:2:0:0:
416,240,198932,1,0,0:2:0:0:
224,200,199136,1,0,3:2:0:0:
504,104,199341,6,0,L|496:272,1,157.500006008148,0|0,3:2|0:2,0:2:0:0:
304,280,199647,2,0,L|120:272,1,157.500006008148,0|0,3:2|0:2,0:0:0:0:
344,184,199953,2,0,L|352:88,1,78.7500030040742,0|0,3:2|3:2,0:0:0:0:
120,96,200157,5,10,0:2:0:0:
68,102,200225,1,0,0:0:0:0:
28,134,200293,1,0,0:0:0:0:
11,183,200361,1,2,0:2:0:0:
24,234,200429,1,0,0:0:0:0:
61,270,200497,1,0,0:0:0:0:
152,288,200565,2,0,L|248:304,1,78.7500030040742,2|0,0:2|0:0,0:0:0:0:
136,352,200769,2,0,L|48:336,1,78.7500030040742
304,352,200973,6,0,P|392:344|496:200,1,236.250009012223,4|0,3:2|0:2,0:2:0:0:
296,216,201381,2,0,P|208:192|160:120,1,157.500006008148,2|0,3:2|0:0,0:0:0:0:
272,128,201687,1,0,0:2:0:0:
464,104,201789,2,0,L|448:280,1,157.500006008148,10|0,3:2|0:2,0:2:0:0:
344,280,202096,2,0,L|152:288,1,157.500006008148,2|0,3:2|0:2,0:2:0:0:
280,248,202402,2,0,L|400:248,1,78.7500030040742,2|0,3:2|0:2,0:2:0:0:
144,232,202606,5,2,3:2:0:0:
97,171,202708,1,2,0:2:0:0:
116,98,202810,1,2,0:2:0:0:
186,68,202912,1,2,0:2:0:0:
288,80,203014,2,0,L|112:80,1,157.500006008148,0|2,0:0|0:2,0:0:0:0:
224,128,203320,1,0,0:2:0:0:
416,128,203422,6,0,L|400:320,1,157.500006008148,10|0,3:2|0:2,0:2:0:0:
304,304,203728,2,0,L|504:336,1,157.500006008148,2|0,3:2|0:2,0:2:0:0:
368,344,204034,2,0,L|248:320,1,78.7500030040742,10|0,3:2|0:2,0:2:0:0:
96,336,204238,6,0,P|64:248|192:184,1,236.250009012223,6|0,3:2|0:2,0:2:0:0:
272,176,204647,1,2,3:2:0:0:
330,129,204749,1,0,0:0:0:0:
318,55,204851,1,2,0:2:0:0:
248,29,204953,1,0,0:0:0:0:
40,152,205055,6,0,L|224:136,1,157.500006008148,8|0,3:2|0:2,0:2:0:0:
296,120,205361,2,0,L|104:96,1,157.500006008148,2|0,3:2|0:2,0:2:0:0:
240,72,205667,2,0,L|344:88,1,78.7500030040742,2|0,3:2|0:2,0:2:0:0:
144,320,205871,6,0,P|80:264|168:160,1,236.250009012223,2|2,3:2|0:2,0:2:0:0:
344,152,206279,2,0,L|520:144,1,157.500006008148,2|2,3:2|0:2,0:2:0:0:
424,208,206585,1,0,0:2:0:0:
200,320,206687,6,0,L|192:112,1,157.500006008148,10|0,3:2|0:2,0:2:0:0:
312,168,206994,2,0,L|304:8,1,157.500006008148,2|0,3:2|0:2,0:0:0:0:
184,24,207300,2,0,L|88:40,1,78.7500030040742,10|0,3:2|0:2,0:2:0:0:
320,312,207504,6,0,P|400:272|312:184,1,236.250009012223,6|0,3:2|0:2,0:2:0:0:
232,160,207912,2,0,L|32:136,1,157.500006008148,2|0,3:2|0:0,0:0:0:0:
176,112,208218,1,0,0:2:0:0:
384,64,208320,6,0,L|192:80,1,157.500006008148,10|0,3:2|0:2,0:2:0:0:
328,96,208626,2,0,L|336:272,1,157.500006008148,2|0,3:2|0:2,0:2:0:0:
232,272,208932,2,0,L|96:296,1,78.7500030040742,2|0,3:2|0:2,0:2:0:0:
384,328,209136,5,2,3:2:0:0:
430,269,209238,1,2,0:2:0:0:
404,198,209340,1,2,0:2:0:0:
330,184,209442,1,2,0:2:0:0:
224,176,209545,2,0,L|24:160,1,157.500006008148,2|2,3:2|0:2,0:0:0:0:
160,128,209851,1,0,0:2:0:0:
344,88,209953,6,0,L|512:64,1,157.500006008148,10|0,3:2|0:2,0:2:0:0:
400,176,210259,2,0,L|200:144,1,157.500006008148,2|0,3:2|0:2,0:2:0:0:
336,232,210565,2,0,L|464:256,1,78.7500030040742,10|0,3:2|0:2,0:2:0:0:
176,328,210769,6,0,P|72:280|176:160,1,315.000012016297,6|0,3:2|3:2,0:2:0:0:
368,152,211381,2,0,L|384:48,1,78.7500030040742,2|0,0:2|0:0,0:0:0:0:
176,48,211585,2,0,L|200:240,1,157.500006008148,8|0,3:2|0:0,0:2:0:0:
296,192,211892,2,0,L|464:168,1,157.500006008148,8|0,3:2|0:0,0:0:0:0:
352,152,212198,2,0,L|232:128,1,78.7500030040742,10|0,3:2|0:2,0:0:0:0:
472,320,212402,5,2,3:2:0:0:
502,249,212504,1,0,0:0:0:0:
470,180,212606,1,0,0:0:0:0:
397,157,212708,1,0,0:2:0:0:
296,144,212810,2,0,L|160:64,1,157.500006008148,0|2,3:2|0:2,0:2:0:0:
240,104,213116,1,0,0:0:0:0:
40,128,213218,6,0,L|56:304,1,157.500006008148,8|0,3:2|0:0,0:2:0:0:
160,272,213524,2,0,L|336:256,1,157.500006008148,8|0,3:2|0:0,0:0:0:0:
224,216,213830,2,0,L|320:208,1,78.7500030040742,10|0,3:2|0:2,0:0:0:0:
480,200,214034,6,0,L|488:32,1,157.500006008148,2|0,1:2|1:2,0:0:0:0:
328,168,214443,2,0,L|320:8,1,157.500006008148,0|0,1:2|1:2,0:0:0:0:
160,144,214851,2,0,L|88:0,1,157.500006008148,0|0,1:2|1:2,0:0:0:0:
280,80,215259,1,0,1:2:0:0:
327,139,215361,1,0,1:2:0:0:
310,214,215463,1,0,1:2:0:0:
243,249,215565,1,0,1:2:0:0:
48,248,215667,5,4,3:2:0:0:
50,325,215769,1,0,0:0:0:0:
103,380,215871,1,0,0:0:0:0:
180,387,215973,1,0,0:0:0:0:
392,384,216075,2,0,P|411:259|232:128,1,367.5,4|0,3:2|0:0,0:2:0:0:
408,112,216892,1,0,0:2:0:0:
104,256,217300,5,6,3:2:0:0:
400,312,223830,6,0,P|464:224|408:120,1,210,0|0,1:2|0:0,0:2:0:0:
320,112,224443,1,0,1:2:0:0:
104,168,224647,2,0,L|224:160,1,105,0|0,1:2|0:2,0:2:0:0:
384,152,225055,2,0,L|520:144,1,105,0|0,0:0|1:2,0:0:0:0:
280,72,225463,6,0,P|216:112|296:208,1,210,0|0,1:2|0:0,0:2:0:0:
368,224,226075,1,0,1:2:0:0:
176,336,226279,2,0,L|168:248,1,52.5,0|0,1:2|1:2,0:0:0:0:
336,240,226585,2,0,L|344:168,1,52.5,0|0,0:2|1:2,0:0:0:0:
160,128,226892,2,0,L|88:112,1,52.5,0|0,1:2|1:2,0:0:0:0:
320,88,227096,6,0,L|448:184,1,157.500006008148,0|0,1:2|3:2,0:0:0:0:
272,240,227504,1,0,3:2:0:0:
456,336,227708,1,0,3:2:0:0:
160,344,227912,5,0,3:2:0:0:
95,305,228014,1,0,3:2:0:0:
95,230,228116,1,0,3:2:0:0:
160,191,228218,1,0,3:2:0:0:
264,192,228320,1,0,3:2:0:0:
328,153,228422,1,0,3:2:0:0:
328,78,228524,1,0,3:2:0:0:
262,41,228626,1,0,3:2:0:0:
80,40,228728,6,0,P|40:144|152:240,1,236.250009012223,0|0,3:2|0:0,0:0:0:0:
216,240,229136,2,0,L|80:144,1,157.500006008148,0|0,1:2|1:2,0:2:0:0:
288,120,229545,2,0,L|368:112,2,78.7500030040742,0|0|0,1:2|0:0|1:2,0:0:0:0:
144,296,229953,2,0,P|232:288|328:160,1,236.250009012223,2|0,0:2|0:2,0:2:0:0:
128,72,230361,6,0,P|112:176|280:304,1,315.000012016297,6|2,3:2|3:2,0:2:0:0:
408,312,230973,1,0,0:0:0:0:
128,256,231177,2,0,L|112:72,1,157.500006008148,2|2,3:2|0:2,0:2:0:0:
312,144,231585,2,0,L|320:-40,1,157.500006008148,2|2,3:2|0:2,0:2:0:0:
136,88,231994,6,0,P|296:96|400:200,1,315.000012016297,2|2,3:2|3:2,0:2:0:0:
232,240,232606,1,0,0:2:0:0:
392,304,232810,2,0,L|208:296,1,157.500006008148,2|0,3:2|0:0,0:2:0:0:
48,248,233218,2,0,L|232:232,1,157.500006008148,2|0,3:2|0:0,0:2:0:0:
472,232,233626,6,0,P|464:136|248:56,1,315.000012016297,2|2,3:2|3:2,0:2:0:0:
144,48,234238,1,0,0:0:0:0:
320,152,234443,1,2,3:2:0:0:
136,240,234647,1,2,0:2:0:0:
336,280,234851,2,0,L|512:304,1,157.500006008148,2|2,3:2|0:2,0:2:0:0:
184,344,235259,6,0,P|112:296|240:160,1,315.000012016297,2|2,3:2|3:2,0:2:0:0:
384,168,235871,1,0,0:2:0:0:
184,144,236075,2,0,L|16:120,1,157.500006008148,2|0,3:2|0:0,0:2:0:0:
208,72,236483,2,0,L|40:56,1,157.500006008148,2|0,3:2|0:0,0:2:0:0:
416,320,236892,6,0,L|432:136,1,157.500006008148,2|2,3:2|0:2,0:2:0:0:
224,128,237300,1,2,3:2:0:0:
432,144,237504,1,2,0:2:0:0:
136,304,237708,2,0,L|120:136,1,157.500006008148,2|2,3:2|0:2,0:2:0:0:
432,184,238116,2,0,L|456:-8,1,157.500006008148,2|2,3:2|0:2,0:2:0:0:
112,56,238524,6,0,L|288:80,1,157.500006008148,2|2,3:2|0:2,0:2:0:0:
88,176,238932,1,2,3:2:0:0:
392,280,239136,1,2,0:2:0:0:
200,280,239341,2,0,L|192:112,1,157.500006008148,2|0,3:2|0:2,0:2:0:0:
304,216,239647,2,0,L|320:40,1,157.500006008148,2|0,3:2|0:0,0:2:0:0:
216,56,239953,2,0,L|120:48,1,78.7500030040742,2|0,3:2|0:0,0:0:0:0:
400,64,240157,5,0,1:2:0:0:
464,102,240259,1,0,1:2:0:0:
464,177,240361,1,0,1:2:0:0:
399,216,240463,1,0,1:2:0:0:
296,224,240565,2,0,L|200:224,1,78.7500030040742,0|0,1:2|1:2,0:0:0:0:
312,256,240769,2,0,L|416:256,1,78.7500030040742,0|0,1:2|1:2,0:0:0:0:
296,224,240973,6,0,L|200:224,1,78.7500030040742,0|0,1:2|1:2,1:2:0:0:
312,256,241177,2,0,L|416:256,1,78.7500030040742,0|0,1:2|1:2,0:0:0:0:
288,264,241381,1,0,1:2:0:0:
217,224,241483,1,0,1:2:0:0:
212,142,241585,1,0,1:2:0:0:
286,104,241687,1,0,1:2:0:0:
464,88,241789,5,0,1:2:0:0:
453,164,241891,1,0,1:2:0:0:
402,223,241993,1,0,1:2:0:0:
327,244,242095,1,0,1:2:0:0:
224,240,242198,2,0,L|112:232,1,78.7500030040742,0|0,1:2|1:2,1:2:0:0:
48,200,242402,2,0,L|168:192,1,78.7500030040742,0|0,1:2|1:2,0:0:0:0:
224,240,242606,6,0,L|112:232,1,78.7500030040742,0|0,1:2|1:2,1:2:0:0:
48,200,242810,2,0,L|168:192,1,78.7500030040742,0|0,1:2|1:2,0:0:0:0:
232,192,243014,1,0,1:2:0:0:
261,121,243116,1,0,1:2:0:0:
224,55,243218,1,0,3:2:0:0:
149,42,243320,1,0,3:2:0:0:
336,40,243422,6,0,P|432:48|472:208,1,236.250009012223,0|0,3:2|0:0,0:0:0:0:
256,264,243830,2,0,P|176:256|80:136,1,236.250009012223,2|0,0:2|0:2,0:2:0:0:
312,104,244238,2,0,P|336:176|304:272,1,157.500006008148,0|0,1:2|1:2,0:0:0:0:
120,304,244647,1,0,1:2:0:0:
320,352,244851,1,0,1:2:0:0:
48,352,245055,6,0,P|40:256|184:184,1,236.250009012223,6|2,3:2|0:2,0:2:0:0:
336,160,245463,2,0,L|440:152,1,78.7500030040742,10|2,3:2|0:2,0:0:0:0:
224,88,245769,2,0,P|136:152|256:208,1,236.250009012223,2|2,0:2|0:2,0:2:0:0:
496,312,246279,2,0,L|320:296,1,157.500006008148,10|2,3:2|0:2,0:2:0:0:
136,296,246687,6,0,L|128:120,1,157.500006008148,2|0,3:2|0:2,0:2:0:0:
448,64,247096,2,0,L|440:248,1,157.500006008148,8|2,3:2|0:2,0:0:0:0:
248,280,247504,1,0,3:2:0:0:
448,336,247708,2,0,L|312:232,2,157.500006008148,2|10|2,0:2|3:2|0:2,0:2:0:0:
160,336,248320,6,0,P|152:248|304:200,1,236.250009012223,6|2,3:2|0:2,0:2:0:0:
368,184,248728,2,0,L|280:176,1,78.7500030040742,10|2,3:2|0:2,0:0:0:0:
88,168,249034,6,0,P|64:256|184:328,1,236.250009012223,2|2,0:2|0:2,0:2:0:0:
360,256,249545,1,10,3:2:0:0:
168,224,249749,1,2,0:2:0:0:
440,224,249953,6,0,P|448:128|304:72,1,236.250009012223,2|2,3:2|0:2,0:2:0:0:
136,64,250361,2,0,L|240:64,1,78.7500030040742,8|0,3:2|0:0,0:0:0:0:
320,64,250565,2,0,L|368:168,1,78.7500030040742,2|0,0:2|0:0,0:2:0:0:
264,184,250769,2,0,L|216:280,3,78.7500030040742,0|2|2|2,0:0|0:2|0:2|0:2,0:0:0:0:
328,256,251177,2,0,L|496:296,1,157.500006008148,10|2,3:2|0:2,0:2:0:0:
192,336,251585,6,0,P|112:264|200:192,1,236.250009012223,6|2,3:2|0:2,0:2:0:0:
392,160,251994,2,0,L|400:48,1,78.7500030040742,10|2,3:2|0:2,0:0:0:0:
208,64,252300,6,0,P|241:160|376:224,1,236.250009012223,2|2,0:2|0:2,0:0:0:0:
32,336,252810,1,10,3:2:0:0:
200,304,253014,1,2,0:2:0:0:
496,256,253218,6,0,L|200:208,1,236.250009012223,2|2,3:2|0:2,0:2:0:0:
448,192,253626,2,0,L|456:24,1,157.500006008148,8|2,3:2|0:2,0:0:0:0:
248,104,254034,1,0,3:2:0:0:
416,152,254238,1,2,0:2:0:0:
64,288,254443,2,0,L|256:272,1,157.500006008148,10|2,3:2|0:2,0:2:0:0:
488,256,254851,6,0,P|416:160|272:128,1,236.250009012223,2|2,3:2|0:2,0:2:0:0:
208,128,255259,2,0,L|432:112,1,157.500006008148,8|2,3:2|0:2,0:0:0:0:
96,312,255667,2,0,L|88:136,1,157.500006008148,2|2,3:2|0:2,0:2:0:0:
192,136,255973,1,2,0:2:0:0:
400,304,256075,2,0,L|416:112,1,157.500006008148,8|2,3:2|0:2,0:0:0:0:
144,88,256483,6,0,L|16:80,2,78.7500030040742,6|0|0,3:2|0:0|0:2,0:2:0:0:
328,96,256789,1,0,3:2:0:0:
400,112,256892,1,8,0:2:0:0:
448,168,256994,1,0,0:2:0:0:
240,184,257096,2,0,L|160:184,1,78.7500030040742,0|0,3:2|0:2,0:2:0:0:
376,352,257300,5,2,3:2:0:0:
422,329,257368,1,0,0:0:0:0:
453,287,257436,1,0,0:0:0:0:
460,235,257504,1,2,3:2:0:0:
441,187,257572,1,0,0:0:0:0:
402,153,257640,1,0,0:0:0:0:
328,144,257708,2,0,L|240:144,1,78.7500030040742,2|2,3:2|3:2,3:2:0:0:
352,104,257912,2,0,L|440:104,1,78.7500030040742,2|2,3:2|3:2,0:0:0:0:
176,336,258116,6,0,P|144:256|256:176,1,236.250009012223,6|2,3:2|0:2,0:2:0:0:
441,187,258524,2,0,L|320:176,1,78.7500030040742,10|2,3:2|0:2,0:0:0:0:
192,136,258830,2,0,P|336:128|408:40,1,236.250009012223,2|0,0:2|0:2,0:2:0:0:
40,328,259341,2,0,L|64:152,1,157.500006008148,10|2,3:2|0:2,0:2:0:0:
352,120,259749,6,0,P|368:200|232:280,1,236.250009012223,2|2,3:2|0:2,0:2:0:0:
64,312,260157,2,0,L|240:304,1,157.500006008148,8|2,3:2|0:2,0:0:0:0:
424,296,260565,1,0,3:2:0:0:
152,192,260769,2,0,L|16:80,2,157.500006008148,2|10|2,0:2|3:2|0:2,0:2:0:0:
432,208,261381,6,0,P|464:112|336:48,1,236.250009012223,6|2,3:2|0:2,0:2:0:0:
264,32,261789,2,0,L|376:48,1,78.7500030040742,10|2,3:2|0:2,0:0:0:0:
64,296,262096,2,0,P|48:208|192:120,1,236.250009012223,2|2,0:2|0:2,0:0:0:0:
368,120,262606,2,2,L|520:200,1,157.500006008148,10|2,3:2|0:2,0:2:0:0:
200,296,263014,6,0,P|176:216|312:136,1,236.250009012223,2|2,3:2|0:2,0:2:0:0:
176,120,263422,2,0,L|80:112,1,78.7500030040742,8|0,3:2|0:0,0:0:0:0:
320,304,263626,2,0,L|328:208,1,78.7500030040742,2|0,0:2|0:0,0:2:0:0:
224,216,263830,1,0,3:2:0:0:
176,156,263932,1,2,0:2:0:0:
195,82,264034,1,2,0:2:0:0:
264,51,264136,1,2,0:2:0:0:
368,40,264238,2,0,L|488:32,1,78.7500030040742,10|0,3:2|0:2,0:2:0:0:
344,104,264443,2,0,L|232:112,1,78.7500030040742,2|0,0:2|0:2,0:2:0:0:
448,112,264647,6,0,P|472:200|360:296,1,236.250009012223,6|2,3:2|0:2,0:2:0:0:
280,312,265055,2,0,L|144:312,1,78.7500030040742,2|2,1:2|0:2,0:0:0:0:
392,240,265361,1,2,0:2:0:0:
288,240,265463,6,0,P|256:160|296:104,1,157.500006008148,0|2,0:0|0:2,0:0:0:0:
496,88,265871,1,2,1:2:0:0:
500,127,265922,1,2,0:2:0:0:
494,165,265973,1,2,0:2:0:0:
478,201,266024,1,0,0:0:0:0:
454,232,266075,1,2,0:2:0:0:
422,255,266126,1,0,0:0:0:0:
386,270,266177,1,0,0:2:0:0:
200,272,266279,6,0,P|112:272|40:128,2,236.250009012223,6|2|2,3:2|0:2|0:2,0:2:0:0:
408,256,267096,1,0,0:0:0:0:
208,216,267300,2,0,L|96:96,2,157.500006008148,2|2|2,0:2|0:2|0:2,0:2:0:0:
408,176,267912,5,6,3:2:0:0:
232,328,268014,2,0,L|232:152,1,157.500006008148,2|2,0:2|0:2,0:2:0:0:
440,96,268524,2,0,L|336:88,1,78.7500030040742,2|0,0:2|0:2,0:2:0:0:
184,88,268728,6,0,L|-8:80,1,157.500006008148,2|2,1:2|1:2,1:2:0:0:
312,224,269136,2,0,L|496:232,1,157.500006008148,2|2,1:2|1:2,1:2:0:0:
184,328,269545,5,6,3:2:0:0:
119,290,269647,1,0,0:0:0:0:
123,216,269749,1,0,0:0:0:0:
192,187,269851,1,0,0:2:0:0:
376,176,269953,2,0,P|424:88|360:56,1,157.500006008148,4|0,3:2|0:0,0:0:0:0:
304,48,270259,1,0,0:2:0:0:
128,48,270361,5,2,0:2:0:0:
105,120,270463,1,2,0:2:0:0:
147,184,270565,1,2,0:2:0:0:
223,192,270667,1,2,0:2:0:0:
328,192,270769,1,2,0:2:0:0:
144,288,270973,1,2,0:2:0:0:
424,288,271177,5,4,3:2:0:0:
459,272,271228,1,0,0:0:0:0:
484,242,271279,1,0,0:0:0:0:
491,203,271330,1,0,0:0:0:0:
479,166,271381,1,0,0:0:0:0:
451,139,271432,1,0,0:0:0:0:
414,128,271483,1,0,0:2:0:0:
224,128,271585,6,0,L|64:128,1,157.500006008148,10|2,3:2|0:2,0:2:0:0:
256,216,271994,1,2,3:2:0:0:
152,216,272096,2,0,L|152:376,1,157.500006008148,2|0,0:2|0:2,0:2:0:0:
352,368,272402,2,0,L|480:264,1,157.500006008148,8|2,3:2|0:2,0:2:0:0:
416,240,272674,1,0,0:0:0:0:
352,224,272742,1,0,0:0:0:0:
192,224,272810,6,0,L|24:224,1,157.500006008148,2|0,3:2|0:2,0:2:0:0:
112,160,273116,1,0,0:0:0:0:
192,104,273218,1,10,3:2:0:0:
272,40,273320,1,0,0:2:0:0:
64,40,273524,2,0,L|240:40,1,157.500006008148,0|2,0:2|0:2,0:0:0:0:
320,40,273830,2,0,L|176:40,1,78.7500030040742,0|0,0:0|0:2,0:0:0:0:
136,40,274034,2,0,L|136:224,1,157.500006008148,10|2,3:2|0:2,0:0:0:0:
424,208,274443,6,0,L|512:208,2,78.7500030040742,2|2|2,3:2|3:2|3:2,0:0:0:0:
96,208,274851,2,0,L|272:208,1,157.500006008148,10|2,3:2|0:2,0:2:0:0:
96,336,275259,1,2,3:2:0:0:
200,336,275361,2,0,L|368:336,1,157.500006008148,2|0,0:2|0:2,0:2:0:0:
184,232,275667,2,0,L|24:176,1,157.500006008148,10|2,3:2|0:2,0:2:0:0:
96,152,275939,1,0,0:0:0:0:
160,128,276007,1,0,0:0:0:0:
328,88,276075,6,0,P|392:144|320:200,1,157.500006008148,10|0,3:2|0:2,0:2:0:0:
264,224,276381,1,2,0:2:0:0:
368,232,276483,2,0,L|376:136,1,78.7500030040742,10|0,3:2|0:0,0:2:0:0:
272,136,276687,2,0,L|176:120,1,78.7500030040742,2|2,0:2|0:2,0:0:0:0:
304,104,276892,2,0,L|480:80,1,157.500006008148,2|0,3:2|0:0,0:2:0:0:
368,48,277198,1,2,0:2:0:0:
272,24,277300,1,0,0:0:0:0:
464,184,277504,1,2,0:2:0:0:
256,184,277708,5,2,0:2:0:0:
216,248,277810,1,0,0:0:0:0:
243,319,277912,1,0,3:2:0:0:
315,341,278014,1,0,3:2:0:0:
56,288,278116,2,0,L|256:264,1,157.500006008148,14|2,3:2|0:2,0:2:0:0:
416,248,278524,5,2,3:2:0:0:
312,248,278626,2,0,L|128:248,1,157.500006008148,2|2,0:2|0:2,0:2:0:0:
328,136,278932,2,0,L|504:136,1,157.500006008148,8|2,3:2|0:2,0:2:0:0:
432,96,279204,1,0,0:0:0:0:
368,64,279272,1,0,0:0:0:0:
184,64,279341,6,0,L|16:64,1,157.500006008148,2|0,3:2|0:2,0:2:0:0:
120,104,279647,1,0,0:0:0:0:
216,144,279749,1,10,3:2:0:0:
120,184,279851,1,2,3:2:0:0:
304,184,280055,2,0,P|368:248|280:312,1,157.500006008148,2|2,3:2|0:2,0:0:0:0:
256,344,280361,1,2,0:2:0:0:
152,344,280463,1,2,0:2:0:0:
256,352,280565,2,0,L|272:248,1,78.7500030040742,2|0,0:2|0:0,0:0:0:0:
168,256,280769,1,2,0:2:0:0:
448,256,280973,6,0,P|464:168|392:136,1,157.500006008148,4|2,3:2|0:2,0:2:0:0:
312,128,281279,1,2,0:2:0:0:
104,136,281381,2,0,L|208:120,1,78.7500030040742,10|2,3:2|0:2,0:0:0:0:
280,104,281585,2,0,L|376:88,1,78.7500030040742,2|2,0:2|0:2,0:0:0:0:
232,256,281789,5,2,3:2:0:0:
166,203,281891,1,2,0:2:0:0:
181,124,281993,1,2,0:2:0:0:
254,92,282095,1,2,0:2:0:0:
360,104,282198,2,0,L|168:88,1,157.500006008148,10|2,3:2|0:2,0:2:0:0:
304,64,282504,1,0,0:2:0:0:
472,296,282606,6,0,L|496:128,1,157.500006008148,2|2,3:2|0:2,0:2:0:0:
392,152,282912,1,0,0:0:0:0:
224,176,283014,1,10,3:2:0:0:
181,241,283116,1,2,0:2:0:0:
220,311,283218,1,2,0:2:0:0:
299,312,283320,1,2,0:2:0:0:
112,320,283422,6,0,L|16:320,2,78.7500030040742,2|0|2,3:2|0:0|0:2,0:2:0:0:
288,200,283728,2,0,L|384:200,2,78.7500030040742,0|2|0,3:2|0:2|0:2,0:0:0:0:
104,184,284034,2,0,L|200:184,1,78.7500030040742,2|0,0:2|0:2,0:2:0:0:
376,184,284238,5,6,3:2:0:0:
414,184,284289,1,0,0:0:0:0:
446,206,284340,1,0,0:0:0:0:
459,243,284391,1,0,0:0:0:0:
450,280,284442,1,0,0:0:0:0:
421,306,284493,1,0,0:0:0:0:
382,310,284544,1,0,0:2:0:0:
176,320,284647,6,0,L|168:136,1,157.500006008148,10|2,3:2|0:2,0:0:0:0:
368,128,285055,1,2,3:2:0:0:
264,128,285157,2,0,L|272:304,1,157.500006008148,2|2,0:2|0:2,0:2:0:0:
472,320,285463,2,0,L|296:304,1,157.500006008148,8|2,3:2|0:2,0:2:0:0:
304,240,285735,1,0,0:0:0:0:
288,176,285803,1,0,0:0:0:0:
440,176,285871,6,0,L|448:8,1,157.500006008148,2|0,3:2|0:2,0:2:0:0:
344,40,286177,1,0,0:0:0:0:
248,72,286279,1,10,3:2:0:0:
344,104,286381,1,0,0:2:0:0:
144,152,286585,2,0,L|320:144,1,157.500006008148,0|2,0:2|0:2,0:0:0:0:
224,208,286892,2,0,L|96:216,1,78.7500030040742,0|0,0:0|3:2,0:0:0:0:
272,208,287096,2,0,L|288:376,1,157.500006008148,10|2,3:2|3:2,0:0:0:0:
16,320,287504,5,6,3:2:0:0:
7,281,287555,1,0,0:0:0:0:
10,242,287606,1,0,0:0:0:0:
24,206,287657,1,0,0:0:0:0:
49,175,287708,1,0,0:0:0:0:
82,154,287759,1,0,0:0:0:0:
120,143,287810,1,0,0:2:0:0:
304,128,287912,6,0,L|488:120,1,157.500006008148,10|2,3:2|0:2,0:0:0:0:
304,256,288320,1,2,3:2:0:0:
200,256,288422,2,0,L|200:88,1,157.500006008148,2|0,0:2|0:2,0:2:0:0:
408,96,288728,2,0,L|408:280,1,157.500006008148,10|2,3:2|0:2,0:2:0:0:
344,240,289000,1,0,0:0:0:0:
280,232,289068,1,0,0:0:0:0:
128,232,289136,6,0,P|80:160|144:104,1,157.500006008148,2|0,3:2|3:2,0:2:0:0:
184,96,289409,1,0,0:0:0:0:
248,80,289477,1,0,0:0:0:0:
320,64,289545,2,0,L|160:48,1,157.500006008148,8|0,3:2|3:2,0:2:0:0:
248,104,289851,1,0,3:2:0:0:
352,120,289953,2,0,L|360:216,1,78.7500030040742,0|0,3:2|3:2,0:2:0:0:
256,224,290157,2,0,L|248:328,1,78.7500030040742,0|0,3:2|3:2,0:0:0:0:
440,320,290361,2,0,L|456:152,1,157.500006008148,10|2,3:2|0:2,0:2:0:0:
176,328,290769,5,2,3:2:0:0:
137,331,290820,1,0,0:2:0:0:
104,311,290871,1,0,0:2:0:0:
88,276,290922,1,0,0:2:0:0:
96,238,290973,1,0,0:2:0:0:
125,212,291024,1,0,0:2:0:0:
163,208,291075,1,0,0:2:0:0:
456,96,291177,6,0,L|304:184,1,157.500006008148,14|2,3:2|0:2,0:2:0:0:
440,240,291585,1,2,3:2:0:0:
336,240,291687,2,0,L|160:240,1,157.500006008148,2|2,0:2|3:2,0:2:0:0:
280,240,291994,2,0,L|448:240,1,157.500006008148,0|2,0:0|3:2,0:0:0:0:
112,104,292402,5,2,3:2:0:0:
320,104,292606,1,0,0:2:0:0:
400,152,292708,1,0,0:0:0:0:
480,208,292810,1,10,3:2:0:0:
400,272,292912,1,0,0:2:0:0:
192,264,293116,6,0,L|16:264,1,157.500006008148,0|0,0:2|0:0,0:0:0:0:
120,264,293422,2,0,L|208:264,1,78.7500030040742,0|0,0:0|3:2,0:0:0:0:
320,264,293626,1,2,0:2:0:0:
384,226,293728,1,0,0:0:0:0:
381,151,293830,1,2,0:2:0:0:
313,120,293932,1,0,0:0:0:0:
96,120,294034,6,0,P|56:192|160:248,1,157.500006008148,6|2,3:2|0:2,0:2:0:0:
192,264,294341,1,2,0:2:0:0:
296,280,294443,2,0,L|304:152,1,78.7500030040742,10|2,3:2|0:2,0:0:0:0:
200,176,294647,2,0,L|192:80,1,78.7500030040742,2|2,0:2|0:2,0:0:0:0:
400,56,294851,5,2,3:2:0:0:
463,97,294953,1,2,0:2:0:0:
461,172,295055,1,2,0:2:0:0:
397,212,295157,1,2,0:2:0:0:
288,216,295259,2,0,L|112:208,1,157.500006008148,10|0,3:2|0:0,0:2:0:0:
224,168,295565,1,0,0:2:0:0:
416,168,295667,6,0,L|512:168,2,78.7500030040742,2|2|0,3:2|3:2|0:2,0:0:0:0:
224,296,295973,2,0,L|128:296,2,78.7500030040742,2|0|2,3:2|0:2|0:0,0:2:0:0:
416,304,296279,2,0,L|432:192,1,78.7500030040742
224,192,296483,6,4,L|112:192,2,78.7500030040742,6|0|0,3:2|0:0|0:0,0:2:0:0:
416,192,296789,2,0,P|472:128|384:8,1,236.250009012223,6|0,3:2|0:0,0:2:0:0:
