osu file format v14

[General]
AudioFilename: audio.mp3
AudioLeadIn: 0
PreviewTime: 56585
Countdown: 0
SampleSet: Soft
StackLeniency: 0.7
Mode: 2
LetterboxInBreaks: 0
WidescreenStoryboard: 0

[Editor]
DistanceSpacing: 1.4
BeatDivisor: 4
GridSize: 8
TimelineZoom: 2.899999

[Metadata]
Title:PAPAYAPA BASS ("BASSE DE NANA" Long ver.)
TitleUnicode:PAPAYAPA BASS ("BASSE DE NANA" Long ver.)
Artist:Camellia feat. Nanahira
ArtistUnicode:かめりあ feat. ななひら
Creator:Yumeno Himiko
Version:Afternoon Tea Party
Source:beatmania IIDX 24 SINOBUZ
Tags:Confetto c96 comiket 96 かめるかめりあ kamelcamellia cametek Mir Sinnoh xinnoh AJamez Jemzuu examination exam Video Game Electronic MONDO-GROOVE BASSHOUSE ごーいん! Goin'!
BeatmapID:2406752
BeatmapSetID:1153119

[Difficulty]
HPDrainRate:7
CircleSize:5
OverallDifficulty:9.7
ApproachRate:9.7
SliderMultiplier:2.2
SliderTickRate:2

[Events]
//Background and Video events
0,0,"70518520_p0.jpg",0,0
//Break Periods
2,31377,33290
2,34643,36556
2,37908,39821
2,217500,223335
//Storyboard Layer 0 (Background)
//Storyboard Layer 1 (Fail)
//Storyboard Layer 2 (Pass)
//Storyboard Layer 3 (Foreground)
//Storyboard Layer 4 (Overlay)
//Storyboard Sound Samples

[TimingPoints]
1790,408.163265306122,4,2,1,40,1,0
3524,-100,4,2,1,70,0,0
3728,-100,4,2,1,40,0,0
4034,-100,4,2,1,70,0,0
4544,-100,4,2,1,40,0,0
7300,-100,4,2,1,70,0,0
7504,-100,4,2,1,40,0,0
7810,-100,4,2,1,70,0,0
8116,-100,4,2,1,40,0,0
10055,-100,4,2,1,70,0,0
10259,-100,4,2,1,40,0,0
10565,-100,4,2,1,70,0,0
10769,-100,4,2,1,40,0,0
10871,-100,4,2,1,70,0,0
11075,-100,4,2,1,40,0,0
11381,-100,4,2,1,70,0,0
11585,-100,4,2,1,40,0,0
12402,-100,4,2,1,70,0,0
12810,-100,4,2,1,40,0,0
13218,-100,4,2,0,50,0,0
13728,-100,4,2,0,70,0,0
13932,-100,4,2,0,50,0,0
14341,-100,4,2,0,70,0,0
14443,-100,4,2,1,50,0,0
14851,-66.6666666666667,4,2,1,60,0,0
15361,-66.6666666666667,4,2,1,100,0,0
15463,-66.6666666666667,4,2,1,70,0,0
15565,-66.6666666666667,4,2,1,100,0,0
18626,-66.6666666666667,4,2,1,70,0,0
18728,-66.6666666666667,4,2,1,100,0,0
18830,-66.6666666666667,4,2,1,70,0,0
18932,-66.6666666666667,4,2,1,100,0,0
20667,-66.6666666666667,4,2,1,70,0,0
20769,-66.6666666666667,4,2,1,100,0,0
20973,-66.6666666666667,4,2,1,70,0,0
21075,-66.6666666666667,4,2,1,100,0,0
21994,-66.6666666666667,4,2,1,70,0,0
22096,-66.6666666666667,4,2,1,100,0,0
24851,-66.6666666666667,4,2,1,70,0,0
25055,-66.6666666666667,4,2,1,100,0,0
25259,-66.6666666666667,4,2,1,70,0,0
25463,-66.6666666666667,4,2,1,100,0,0
25565,-66.6666666666667,4,2,1,70,0,0
25769,-66.6666666666667,4,2,1,100,0,0
25871,-66.6666666666667,4,2,1,70,0,0
26075,-66.6666666666667,4,2,1,100,0,0
26483,-66.6666666666667,4,2,1,70,0,0
26687,-66.6666666666667,4,2,1,100,0,0
26891,-66.6666666666667,4,2,1,70,0,0
27096,-66.6666666666667,4,2,1,100,0,0
27198,-66.6666666666667,4,2,1,70,0,0
27402,-66.6666666666667,4,2,1,100,0,0
27504,-66.6666666666667,4,2,1,70,0,0
27708,-66.6666666666667,4,2,1,100,0,0
28779,-66.6666666666667,4,2,1,70,0,0
28830,-66.6666666666667,4,2,1,100,0,0
28881,-66.6666666666667,4,2,1,70,0,0
28932,-66.6666666666667,4,2,1,100,0,0
28983,-66.6666666666667,4,2,1,70,0,0
29034,-66.6666666666667,4,2,1,100,0,0
29085,-66.6666666666667,4,2,1,70,0,0
29136,-66.6666666666667,4,2,1,100,0,0
29187,-66.6666666666667,4,2,1,70,0,0
29238,-66.6666666666667,4,2,1,100,0,0
29289,-66.6666666666667,4,2,1,70,0,0
29341,-66.6666666666667,4,2,1,100,0,0
29392,-66.6666666666667,4,2,1,70,0,0
29443,-66.6666666666667,4,2,1,100,0,0
29494,-66.6666666666667,4,2,1,70,0,0
29545,-66.6666666666667,4,2,1,100,0,0
29596,-66.6666666666667,4,2,1,70,0,0
29851,-66.6666666666667,4,2,1,100,0,0
29902,-66.6666666666667,4,2,1,70,0,0
29953,-66.6666666666667,4,2,1,100,0,0
30463,-83.3333333333333,4,2,1,70,0,0
30769,-83.3333333333333,4,2,1,100,0,0
33830,-83.3333333333333,4,2,1,30,0,0
40973,-83.3333333333333,4,2,1,40,0,0
42606,-83.3333333333333,4,2,1,50,0,0
42708,-83.3333333333333,4,2,1,70,0,0
42810,-83.3333333333333,4,2,1,50,0,0
43014,-83.3333333333333,4,2,1,70,0,0
43116,-83.3333333333333,4,2,1,50,0,0
43422,-83.3333333333333,4,2,0,60,0,0
43473,-83.3333333333333,4,2,0,70,0,0
43626,-83.3333333333333,4,2,0,60,0,0
43677,-83.3333333333333,4,2,0,70,0,0
43830,-83.3333333333333,4,2,0,60,0,0
43881,-83.3333333333333,4,2,0,70,0,0
44034,-83.3333333333333,4,2,0,60,0,0
44238,-83.3333333333333,4,2,1,60,0,0
51279,-83.3333333333333,4,2,1,70,0,0
51483,-83.3333333333333,4,2,1,60,0,0
51687,-83.3333333333333,4,2,1,70,0,0
51789,-83.3333333333333,4,2,1,60,0,0
51994,-83.3333333333333,4,2,1,70,0,0
52096,-83.3333333333333,4,2,1,60,0,0
52606,-83.3333333333333,4,2,1,70,0,0
52810,-83.3333333333333,4,2,1,60,0,0
53014,-83.3333333333333,4,2,1,70,0,0
53116,-83.3333333333333,4,2,1,60,0,0
53320,-83.3333333333333,4,2,1,70,0,0
53422,-83.3333333333333,4,2,1,60,0,0
53626,-83.3333333333333,4,2,1,70,0,0
53728,-83.3333333333333,4,2,1,60,0,0
53932,-83.3333333333333,4,2,1,70,0,0
54034,-83.3333333333333,4,2,1,60,0,0
54902,-83.3333333333333,4,2,1,70,0,0
54953,-83.3333333333333,4,2,1,60,0,0
55667,-83.3333333333333,4,2,1,80,0,0
56483,-83.3333333333333,4,2,1,60,0,0
57300,-66.6666666666667,4,2,1,100,0,1
57504,-66.6666666666667,4,2,1,100,0,0
59341,-33.3333333333333,4,2,1,100,0,0
59519,-33.3333333333333,4,2,1,70,0,0
59545,-33.3333333333333,4,2,1,100,0,0
59723,-33.3333333333333,4,2,1,70,0,0
59749,-66.6666666666667,4,2,1,100,0,0
60565,-66.6666666666667,4,2,1,100,0,1
60769,-66.6666666666667,4,2,1,100,0,0
62300,-66.6666666666667,4,2,1,70,0,0
62402,-66.6666666666667,4,2,1,100,0,0
62708,-66.6666666666667,4,2,1,70,0,0
62810,-66.6666666666667,4,2,1,100,0,0
63830,-66.6666666666667,4,2,1,100,0,1
64034,-66.6666666666667,4,2,1,70,0,0
64136,-66.6666666666667,4,2,1,100,0,0
66381,-66.6666666666667,4,2,1,70,0,0
66483,-66.6666666666667,4,2,1,100,0,0
66687,-66.6666666666667,4,2,1,70,0,0
66789,-66.6666666666667,4,2,1,100,0,0
67351,-66.6666666666667,4,2,1,70,0,0
67402,-66.6666666666667,4,2,1,100,0,0
67504,-66.6666666666667,4,2,1,70,0,0
67606,-66.6666666666667,4,2,1,100,0,0
67963,-66.6666666666667,4,2,1,70,0,0
68014,-66.6666666666667,4,2,1,100,0,0
68167,-66.6666666666667,4,2,1,70,0,0
68218,-66.6666666666667,4,2,1,100,0,0
68371,-66.6666666666667,4,2,1,70,0,0
68422,-66.6666666666667,4,2,1,100,0,0
68575,-66.6666666666667,4,2,1,70,0,0
68626,-66.6666666666667,4,2,1,100,0,0
68830,-66.6666666666667,4,2,1,70,0,0
69034,-66.6666666666667,4,2,1,100,0,0
69850,-66.6666666666667,4,2,0,100,0,0
70361,-66.6666666666667,4,2,1,100,0,0
70463,-66.6666666666667,4,2,1,70,0,1
70667,-66.6666666666667,4,2,1,100,0,1
71840,-66.6666666666667,4,2,1,70,0,1
71994,-66.6666666666667,4,2,1,100,0,1
72096,-66.6666666666667,4,2,1,70,0,1
72198,-66.6666666666667,4,2,1,100,0,1
73014,-66.6666666666667,4,2,1,70,0,1
73116,-66.6666666666667,4,2,1,100,0,1
73728,-66.6666666666667,4,2,1,70,0,1
73932,-66.6666666666667,4,2,1,100,0,1
75157,-66.6666666666667,4,2,1,70,0,1
75259,-66.6666666666667,4,2,1,100,0,1
76483,-66.6666666666667,4,2,1,70,0,1
76687,-66.6666666666667,4,2,1,100,0,1
76892,-33.3333333333333,4,2,1,100,0,1
77096,-66.6666666666667,4,2,1,70,0,1
77198,-66.6666666666667,4,2,1,100,0,1
78371,-66.6666666666667,4,2,1,70,0,1
78524,-66.6666666666667,4,2,1,100,0,1
79545,-66.6666666666667,4,2,1,70,0,1
79647,-66.6666666666667,4,2,1,100,0,1
82095,-66.6666666666667,4,2,1,70,0,1
82197,-66.6666666666667,4,2,1,100,0,1
82708,-66.6666666666667,4,2,1,70,0,1
82810,-66.6666666666667,4,2,1,100,0,1
83422,-33.3333333333333,4,2,1,100,0,1
83626,-66.6666666666667,4,2,1,70,0,1
83728,-66.6666666666667,4,2,1,100,0,1
84136,-66.6666666666667,4,2,1,70,0,1
84238,-66.6666666666667,4,2,1,100,0,1
84953,-66.6666666666667,4,2,1,70,0,1
85055,-66.6666666666667,4,2,1,100,0,1
85769,-66.6666666666667,4,2,1,70,0,1
85973,-66.6666666666667,4,2,1,100,0,1
86687,-33.3333333333333,4,2,1,100,0,1
86891,-33.3333333333333,4,2,1,70,0,1
86892,-66.6666666666667,4,2,1,70,0,1
86994,-66.6666666666667,4,2,1,100,0,1
87096,-33.3333333333333,4,2,1,100,0,1
87274,-33.3333333333333,4,2,1,70,0,1
87300,-33.3333333333333,4,2,1,100,0,1
87478,-33.3333333333333,4,2,1,70,0,1
87504,-66.6666666666667,4,2,1,100,0,1
88218,-66.6666666666667,4,2,1,70,0,1
88320,-66.6666666666667,4,2,1,100,0,1
89953,-33.3333333333333,4,2,1,100,0,1
90157,-66.6666666666667,4,2,1,70,0,1
90259,-66.6666666666667,4,2,1,100,0,1
90667,-66.6666666666667,4,2,1,70,0,1
90769,-66.6666666666667,4,2,1,100,0,1
91177,-66.6666666666667,4,2,1,70,0,1
91279,-66.6666666666667,4,2,1,100,0,1
91687,-66.6666666666667,4,2,1,70,0,1
91789,-66.6666666666667,4,2,1,100,0,1
92300,-66.6666666666667,4,2,1,70,0,1
92504,-66.6666666666667,4,2,1,100,0,1
92657,-66.6666666666667,4,2,1,70,0,1
92708,-66.6666666666667,4,2,1,100,0,1
96330,-66.6666666666667,4,2,1,70,0,1
96381,-66.6666666666667,4,2,1,100,0,1
96432,-66.6666666666667,4,2,1,70,0,1
96483,-83.3333333333333,4,2,1,100,0,0
96789,-83.3333333333333,4,2,1,60,0,0
99953,-83.3333333333333,4,2,1,70,0,0
100565,-83.3333333333333,4,2,1,40,0,0
101381,-83.3333333333333,4,2,1,80,0,0
103014,-66.6666666666667,4,2,1,100,0,0
103422,-66.6666666666667,4,2,2,100,0,0
103473,-66.6666666666667,4,2,2,70,0,0
103728,-66.6666666666667,4,2,2,100,0,0
104919,-66.6666666666667,4,2,2,70,0,0
105055,-66.6666666666667,4,2,2,100,0,0
106075,-66.6666666666667,4,2,2,70,0,0
106279,-33.3333333333333,4,2,2,100,0,0
106483,-66.6666666666667,4,2,2,70,0,0
106585,-66.6666666666667,4,2,2,100,0,0
106713,-66.6666666666667,4,2,2,70,0,0
106892,-66.6666666666667,4,2,2,100,0,0
106918,-66.6666666666667,4,2,2,70,0,0
107096,-66.6666666666667,4,2,2,100,0,0
108830,-66.6666666666667,4,2,2,70,0,0
108932,-66.6666666666667,4,2,2,100,0,0
108983,-66.6666666666667,4,2,2,70,0,0
109136,-66.6666666666667,4,2,2,100,0,0
109238,-66.6666666666667,4,2,2,70,0,0
109545,-33.3333333333333,4,2,2,100,0,0
109749,-66.6666666666667,4,2,2,70,0,0
109851,-66.6666666666667,4,2,2,100,0,0
109979,-66.6666666666667,4,2,2,70,0,0
110260,-66.6666666666667,4,2,2,100,0,0
110286,-66.6666666666667,4,2,2,70,0,0
110362,-66.6666666666667,4,2,2,100,0,0
111449,-66.6666666666667,4,2,2,70,0,0
111585,-66.6666666666667,4,2,2,100,0,0
112096,-66.6666666666667,4,2,2,70,0,0
112198,-66.6666666666667,4,2,2,100,0,0
112300,-66.6666666666667,4,2,2,70,0,0
112402,-66.6666666666667,4,2,2,100,0,0
112708,-66.6666666666667,4,2,2,70,0,0
112810,-66.6666666666667,4,2,2,100,0,0
114749,-66.6666666666667,4,2,2,70,0,0
114851,-66.6666666666667,4,2,2,100,0,0
115361,-66.6666666666667,4,2,2,70,0,0
115463,-66.6666666666667,4,2,2,100,0,0
115667,-66.6666666666667,4,2,2,70,0,0
115769,-66.6666666666667,4,2,2,100,0,0
116483,-66.6666666666667,4,2,2,70,0,0
116892,-66.6666666666667,4,2,2,100,0,0
117980,-66.6666666666667,4,2,2,70,0,0
118116,-66.6666666666667,4,2,2,100,0,0
119136,-66.6666666666667,4,2,2,70,0,0
119341,-66.6666666666667,4,2,2,100,0,0
119545,-66.6666666666667,4,2,2,70,0,0
119647,-66.6666666666667,4,2,2,100,0,0
119851,-66.6666666666667,4,2,2,70,0,0
120055,-66.6666666666667,4,2,2,100,0,0
121789,-66.6666666666667,4,2,0,100,0,0
121994,-66.6666666666667,4,2,0,75,0,0
122606,-66.6666666666667,4,2,2,100,0,0
122708,-66.6666666666667,4,2,2,70,0,0
122912,-66.6666666666667,4,2,2,100,0,0
123167,-66.6666666666667,4,2,2,70,0,0
123218,-66.6666666666667,4,2,2,100,0,0
123269,-66.6666666666667,4,2,2,70,0,0
123320,-66.6666666666667,4,2,2,100,0,0
123626,-66.6666666666667,4,2,2,70,0,0
123728,-66.6666666666667,4,2,2,100,0,0
123881,-66.6666666666667,4,2,2,70,0,0
124136,-66.6666666666667,4,2,2,100,0,0
124443,-66.6666666666667,4,2,2,70,0,0
124647,-66.6666666666667,4,2,2,100,0,0
124749,-66.6666666666667,4,2,2,70,0,0
124953,-66.6666666666667,4,2,2,100,0,0
125259,-66.6666666666667,4,2,2,70,0,0
125361,-66.6666666666667,4,2,2,100,0,0
125667,-66.6666666666667,4,2,2,70,0,0
125769,-66.6666666666667,4,2,2,100,0,0
125871,-66.6666666666667,4,2,1,100,0,0
127810,-66.6666666666667,4,2,1,70,0,0
127912,-66.6666666666667,4,2,1,100,0,0
129136,-66.6666666666667,4,2,1,70,0,0
131177,-66.6666666666667,4,2,1,40,0,0
131585,-66.6666666666667,4,2,1,60,0,0
131994,-66.6666666666667,4,2,1,80,0,0
132096,-66.6666666666667,4,2,1,70,0,0
132300,-66.6666666666667,4,2,1,80,0,0
132402,-66.6666666666667,4,2,1,100,0,0
134545,-66.6666666666667,4,2,1,70,0,0
134647,-66.6666666666667,4,2,1,100,0,0
134953,-66.6666666666667,4,2,1,70,0,0
135055,-66.6666666666667,4,2,1,100,0,0
135157,-66.6666666666667,4,2,1,70,0,0
135259,-66.6666666666667,4,2,1,100,0,0
137708,-33.3333333333333,4,2,1,100,0,0
137886,-33.3333333333333,4,2,1,70,0,0
137912,-33.3333333333333,4,2,1,100,0,0
138090,-33.3333333333333,4,2,1,70,0,0
138116,-66.6666666666667,4,2,1,100,0,0
138218,-66.6666666666667,4,2,1,70,0,0
138320,-66.6666666666667,4,2,1,100,0,0
139034,-66.6666666666667,4,2,1,70,0,0
139136,-66.6666666666667,4,2,1,100,0,0
139442,-66.6666666666667,4,2,1,70,0,0
139647,-66.6666666666667,4,2,1,100,0,0
139851,-66.6666666666667,4,2,1,70,0,0
139953,-66.6666666666667,4,2,1,100,0,0
140259,-66.6666666666667,4,2,1,70,0,0
140463,-66.6666666666667,4,2,1,100,0,0
142300,-66.6666666666667,4,2,1,70,0,0
143830,-66.6666666666667,4,2,1,100,0,0
144034,-66.6666666666667,4,2,0,80,0,0
145055,-66.6666666666667,4,2,1,80,0,0
145463,-66.6666666666667,4,2,1,100,0,0
145973,-66.6666666666667,4,2,1,70,0,0
146279,-66.6666666666667,4,2,1,100,0,0
147096,-66.6666666666667,4,2,1,70,0,0
147300,-66.6666666666667,4,2,1,100,0,0
147351,-66.6666666666667,4,2,1,70,0,0
147504,-66.6666666666667,4,2,1,100,0,0
147555,-66.6666666666667,4,2,1,70,0,0
147708,-66.6666666666667,4,2,1,100,0,0
147759,-66.6666666666667,4,2,1,70,0,0
147912,-66.6666666666667,4,2,1,100,0,0
147963,-66.6666666666667,4,2,1,70,0,0
148116,-66.6666666666667,4,2,1,100,0,0
148473,-66.6666666666667,4,2,1,70,0,0
148524,-66.6666666666667,4,2,1,100,0,0
148575,-66.6666666666667,4,2,1,70,0,0
148728,-66.6666666666667,4,2,1,100,0,0
149238,-66.6666666666667,4,2,1,70,0,0
149545,-66.6666666666667,4,2,1,100,0,0
150361,-66.6666666666667,4,2,1,70,0,0
150565,-66.6666666666667,4,2,1,100,0,0
150616,-66.6666666666667,4,2,1,70,0,0
150769,-66.6666666666667,4,2,1,100,0,0
150820,-66.6666666666667,4,2,1,70,0,0
150973,-66.6666666666667,4,2,1,100,0,0
151024,-66.6666666666667,4,2,1,70,0,0
151177,-66.6666666666667,4,2,1,100,0,0
151228,-66.6666666666667,4,2,1,70,0,0
151381,-66.6666666666667,4,2,1,100,0,0
151432,-66.6666666666667,4,2,1,70,0,0
151483,-66.6666666666667,4,2,1,100,0,0
151534,-66.6666666666667,4,2,1,70,0,0
151585,-66.6666666666667,4,2,1,100,0,0
151636,-66.6666666666667,4,2,1,70,0,0
151789,-66.6666666666667,4,2,1,100,0,0
151840,-66.6666666666667,4,2,1,70,0,0
151994,-66.6666666666667,4,2,1,100,0,0
152504,-66.6666666666667,4,2,1,70,0,0
152810,-66.6666666666667,4,2,1,100,0,0
153626,-66.6666666666667,4,2,1,70,0,0
153830,-66.6666666666667,4,2,1,100,0,0
153881,-66.6666666666667,4,2,1,70,0,0
154034,-66.6666666666667,4,2,1,100,0,0
154085,-66.6666666666667,4,2,1,70,0,0
154136,-66.6666666666667,4,2,1,100,0,0
154187,-66.6666666666667,4,2,1,70,0,0
154238,-66.6666666666667,4,2,1,100,0,0
154289,-66.6666666666667,4,2,1,70,0,0
154340,-66.6666666666667,4,2,1,100,0,0
154391,-66.6666666666667,4,2,1,70,0,0
154443,-66.6666666666667,4,2,1,100,0,0
154494,-66.6666666666667,4,2,1,70,0,0
154647,-66.6666666666667,4,2,1,100,0,0
155667,-66.6666666666667,4,2,1,70,0,0
155769,-66.6666666666667,4,2,1,100,0,0
156483,-66.6666666666667,4,2,1,70,0,0
156585,-66.6666666666667,4,2,1,100,0,0
157300,-66.6666666666667,4,2,1,70,0,0
157402,-66.6666666666667,4,2,1,100,0,0
158116,-66.6666666666667,4,2,1,70,0,0
158218,-66.6666666666667,4,2,1,100,0,0
160157,-66.6666666666667,4,2,1,70,0,0
160565,-66.6666666666667,4,2,1,60,0,0
160616,-66.6666666666667,4,2,1,70,0,0
160769,-66.6666666666667,4,2,1,60,0,0
160820,-66.6666666666667,4,2,1,70,0,0
160973,-66.6666666666667,4,2,1,60,0,0
161024,-66.6666666666667,4,2,1,70,0,0
161177,-66.6666666666667,4,2,1,60,0,0
161228,-66.6666666666667,4,2,1,70,0,0
161381,-66.6666666666667,4,2,1,100,0,0
161687,-66.6666666666667,4,2,1,70,0,0
161789,-33.3333333333333,4,2,1,100,0,0
161993,-33.3333333333333,4,2,1,70,0,0
161994,-66.6666666666667,4,2,1,70,0,0
162096,-66.6666666666667,4,2,1,100,0,0
162300,-66.6666666666667,4,2,1,70,0,0
162504,-66.6666666666667,4,2,1,100,0,0
162708,-66.6666666666667,4,2,1,70,0,0
162912,-66.6666666666667,4,2,1,100,0,0
163116,-66.6666666666667,4,2,1,70,0,0
163218,-66.6666666666667,4,2,1,100,0,0
165055,-33.3333333333333,4,2,1,100,0,0
165259,-66.6666666666667,4,2,1,70,0,0
165361,-66.6666666666667,4,2,1,100,0,0
165565,-66.6666666666667,4,2,1,70,0,0
165667,-66.6666666666667,4,2,1,100,0,0
166177,-66.6666666666667,4,2,1,70,0,0
166279,-66.6666666666667,4,2,1,100,0,0
167963,-66.6666666666667,4,2,1,70,0,0
168218,-66.6666666666667,4,2,1,100,0,0
168269,-66.6666666666667,4,2,1,70,0,0
168320,-33.3333333333333,4,2,1,100,0,0
168524,-66.6666666666667,4,2,1,70,0,0
168626,-66.6666666666667,4,2,1,100,0,0
168830,-66.6666666666667,4,2,1,70,0,0
169034,-66.6666666666667,4,2,1,100,0,0
169238,-66.6666666666667,4,2,1,70,0,0
169442,-66.6666666666667,4,2,1,100,0,0
169647,-66.6666666666667,4,2,1,70,0,0
169749,-66.6666666666667,4,2,1,100,0,0
171585,-33.3333333333333,4,2,1,100,0,0
171789,-66.6666666666667,4,2,1,70,0,0
171892,-66.6666666666667,4,2,1,100,0,0
172096,-66.6666666666667,4,2,1,70,0,0
172300,-66.6666666666667,4,2,1,100,0,0
173320,-66.6666666666667,4,2,1,70,0,0
173422,-66.6666666666667,4,2,1,100,0,0
174494,-66.6666666666667,4,2,1,70,0,0
174749,-66.6666666666667,4,2,1,100,0,0
174800,-66.6666666666667,4,2,1,70,0,0
174851,-66.6666666666667,4,2,1,100,0,0
174902,-66.6666666666667,4,2,1,70,0,0
175157,-66.6666666666667,4,2,1,100,0,0
175769,-66.6666666666667,4,2,1,70,0,0
175973,-66.6666666666667,4,2,1,100,0,0
176177,-66.6666666666667,4,2,1,70,0,0
176279,-66.6666666666667,4,2,1,100,0,0
178167,-66.6666666666667,4,2,1,70,0,0
178422,-66.6666666666667,4,2,1,100,0,0
178626,-66.6666666666667,4,2,1,70,0,0
178830,-66.6666666666667,4,2,1,100,0,0
179851,-66.6666666666667,4,2,1,70,0,0
179953,-66.6666666666667,4,2,1,100,0,0
180106,-66.6666666666667,4,2,1,70,0,0
180157,-66.6666666666667,4,2,1,100,0,0
181024,-66.6666666666667,4,2,1,70,0,0
181279,-66.6666666666667,4,2,1,100,0,0
181330,-66.6666666666667,4,2,1,70,0,0
181381,-66.6666666666667,4,2,1,100,0,0
181432,-66.6666666666667,4,2,1,70,0,0
181687,-66.6666666666667,4,2,1,100,0,0
182300,-66.6666666666667,4,2,1,70,0,0
182504,-66.6666666666667,4,2,1,100,0,0
182708,-66.6666666666667,4,2,1,70,0,0
182810,-66.6666666666667,4,2,1,100,0,0
184698,-66.6666666666667,4,2,1,70,0,0
184953,-66.6666666666667,4,2,1,100,0,0
186177,-66.6666666666667,4,2,1,70,0,0
186381,-66.6666666666667,4,2,1,100,0,0
186534,-66.6666666666667,4,2,1,70,0,0
186789,-66.6666666666667,4,2,1,100,0,0
186840,-66.6666666666667,4,2,1,70,0,0
186892,-66.6666666666667,4,2,1,100,0,0
187402,-66.6666666666667,4,2,1,70,0,0
187912,-66.6666666666667,4,2,1,100,0,0
188116,-66.6666666666667,4,2,1,70,0,0
188218,-66.6666666666667,4,2,1,100,0,0
188524,-66.6666666666667,4,2,1,70,0,0
188626,-66.6666666666667,4,2,1,100,0,0
191381,-66.6666666666667,4,2,1,70,0,0
191483,-66.6666666666667,4,2,1,100,0,0
191687,-66.6666666666667,4,2,1,70,0,0
191789,-66.6666666666667,4,2,1,100,0,0
191892,-66.6666666666667,4,2,1,70,0,0
191994,-66.6666666666667,4,2,1,100,0,0
193014,-66.6666666666667,4,2,1,70,0,0
193116,-66.6666666666667,4,2,1,100,0,0
193728,-66.6666666666667,4,2,1,70,0,0
193830,-66.6666666666667,4,2,1,100,0,0
194034,-66.6666666666667,4,2,1,70,0,0
194136,-66.6666666666667,4,2,1,100,0,0
194647,-66.6666666666667,4,2,1,70,0,0
194749,-66.6666666666667,4,2,1,100,0,0
195055,-66.6666666666667,4,2,1,70,0,0
195157,-66.6666666666667,4,2,1,100,0,0
197912,-66.6666666666667,4,2,1,70,0,0
198116,-66.6666666666667,4,2,1,100,0,0
198320,-66.6666666666667,4,2,1,70,0,0
198524,-66.6666666666667,4,2,1,100,0,0
199034,-66.6666666666667,4,2,1,70,0,0
199136,-66.6666666666667,4,2,1,100,0,0
199238,-66.6666666666667,4,2,1,70,0,0
199341,-66.6666666666667,4,2,1,100,0,0
200208,-66.6666666666667,4,2,1,70,0,0
200361,-66.6666666666667,4,2,1,100,0,0
200412,-66.6666666666667,4,2,1,70,0,0
200565,-66.6666666666667,4,2,1,100,0,0
200616,-66.6666666666667,4,2,1,70,0,0
200973,-66.6666666666667,4,2,1,100,0,0
201177,-66.6666666666667,4,2,1,70,0,0
201279,-66.6666666666667,4,2,1,100,0,0
201585,-66.6666666666667,4,2,1,70,0,0
201687,-66.6666666666667,4,2,1,100,0,0
201891,-66.6666666666667,4,2,1,70,0,0
201993,-66.6666666666667,4,2,1,100,0,0
202198,-66.6666666666667,4,2,1,70,0,0
202300,-66.6666666666667,4,2,1,100,0,0
203116,-66.6666666666667,4,2,1,70,0,0
203218,-66.6666666666667,4,2,1,100,0,0
204442,-66.6666666666667,4,2,1,70,0,0
204545,-66.6666666666667,4,2,1,100,0,0
204698,-66.6666666666667,4,2,1,70,0,0
204851,-66.6666666666667,4,2,1,100,0,0
204953,-66.6666666666667,4,2,1,70,0,0
205055,-66.6666666666667,4,2,1,100,0,0
206789,-66.6666666666667,4,2,1,70,0,0
206891,-66.6666666666667,4,2,1,100,0,0
207096,-66.6666666666667,4,2,1,70,0,0
207198,-66.6666666666667,4,2,1,100,0,0
207555,-66.6666666666667,4,2,1,70,0,0
207810,-66.6666666666667,4,2,1,100,0,0
208116,-66.6666666666667,4,2,1,70,0,0
208218,-66.6666666666667,4,2,1,100,0,0
208422,-66.6666666666667,4,2,1,70,0,0
208524,-66.6666666666667,4,2,1,100,0,0
208728,-66.6666666666667,4,2,1,70,0,0
208830,-66.6666666666667,4,2,1,100,0,0
209647,-66.6666666666667,4,2,1,70,0,0
209749,-66.6666666666667,4,2,1,100,0,0
210055,-66.6666666666667,4,2,1,70,0,0
210157,-66.6666666666667,4,2,1,100,0,0
210361,-66.6666666666667,4,2,1,70,0,0
210463,-66.6666666666667,4,2,1,100,0,0
210973,-66.6666666666667,4,2,1,70,0,0
211177,-66.6666666666667,4,2,1,100,0,0
211483,-66.6666666666667,4,2,1,70,0,0
211585,-66.6666666666667,4,2,1,100,0,0
212606,-66.6666666666667,4,2,1,70,0,0
212708,-66.6666666666667,4,2,1,100,0,0
213116,-66.6666666666667,4,2,1,70,0,0
213218,-66.6666666666667,4,2,1,100,0,0
215769,-66.6666666666667,4,2,1,70,0,0
215973,-66.6666666666667,4,2,1,100,0,0
216789,-66.6666666666667,4,2,1,70,0,0
216892,-66.6666666666667,4,2,1,100,0,0
217198,-66.6666666666667,4,2,1,70,0,0
217300,-66.6666666666667,4,2,1,100,0,0
223830,-83.3333333333333,4,2,1,50,0,0
224238,-83.3333333333333,4,2,1,70,0,0
224442,-83.3333333333333,4,2,1,50,0,0
224647,-71.4285714285714,4,2,1,50,0,0
224749,-71.4285714285714,4,2,1,70,0,0
224851,-71.4285714285714,4,2,1,50,0,0
225055,-71.4285714285714,4,2,1,70,0,0
225157,-71.4285714285714,4,2,1,50,0,0
225463,-83.3333333333333,4,2,1,60,0,0
225871,-83.3333333333333,4,2,1,70,0,0
226075,-83.3333333333333,4,2,1,60,0,0
226687,-71.4285714285714,4,2,1,60,0,0
226789,-71.4285714285714,4,2,1,70,0,0
226891,-83.3333333333333,4,2,1,60,0,0
227198,-83.3333333333333,4,2,1,70,0,0
227300,-83.3333333333333,4,2,1,60,0,0
228320,-66.6666666666667,4,2,1,60,0,0
228830,-66.6666666666667,4,2,1,70,0,0
228932,-66.6666666666667,4,2,1,60,0,0
229034,-66.6666666666667,4,2,1,70,0,0
229136,-66.6666666666667,4,2,1,60,0,0
229647,-66.6666666666667,4,2,1,70,0,0
229749,-66.6666666666667,4,2,1,60,0,0
230361,-66.6666666666667,4,2,1,100,0,0
230973,-66.6666666666667,4,2,1,70,0,0
231177,-66.6666666666667,4,2,1,100,0,0
231279,-66.6666666666667,4,2,1,70,0,0
231381,-66.6666666666667,4,2,1,100,0,0
231483,-66.6666666666667,4,2,1,70,0,0
231585,-66.6666666666667,4,2,1,100,0,0
231687,-66.6666666666667,4,2,1,70,0,0
231789,-66.6666666666667,4,2,1,100,0,0
231891,-66.6666666666667,4,2,1,70,0,0
231994,-66.6666666666667,4,2,1,100,0,0
233014,-66.6666666666667,4,2,1,70,0,0
233218,-66.6666666666667,4,2,1,100,0,0
233422,-66.6666666666667,4,2,1,70,0,0
233626,-66.6666666666667,4,2,1,100,0,0
234238,-66.6666666666667,4,2,1,70,0,0
234443,-66.6666666666667,4,2,1,100,0,0
234545,-66.6666666666667,4,2,1,70,0,0
234647,-66.6666666666667,4,2,1,100,0,0
234749,-66.6666666666667,4,2,1,70,0,0
234851,-66.6666666666667,4,2,1,100,0,0
234953,-66.6666666666667,4,2,1,70,0,0
235055,-66.6666666666667,4,2,1,100,0,0
235157,-66.6666666666667,4,2,1,70,0,0
235259,-66.6666666666667,4,2,1,100,0,0
236279,-66.6666666666667,4,2,1,70,0,0
236483,-66.6666666666667,4,2,1,100,0,0
236687,-66.6666666666667,4,2,1,70,0,0
236892,-66.6666666666667,4,2,1,100,0,0
237810,-66.6666666666667,4,2,1,70,0,0
237912,-66.6666666666667,4,2,1,100,0,0
238014,-66.6666666666667,4,2,1,70,0,0
238116,-66.6666666666667,4,2,1,100,0,0
238218,-66.6666666666667,4,2,1,70,0,0
238320,-66.6666666666667,4,2,1,100,0,0
238422,-66.6666666666667,4,2,1,70,0,0
238524,-66.6666666666667,4,2,1,100,0,0
239851,-66.6666666666667,4,2,1,70,0,0
239953,-66.6666666666667,4,2,1,50,0,0
240055,-66.6666666666667,4,2,1,70,0,0
240157,-66.6666666666667,4,2,1,50,0,0
242198,-66.6666666666667,4,2,1,60,0,0
242606,-66.6666666666667,4,2,1,70,0,0
243014,-66.6666666666667,4,2,1,80,0,0
243804,-66.6666666666667,4,2,1,70,0,0
243830,-66.6666666666667,4,2,1,80,0,0
245055,-33.3333333333333,4,2,1,100,0,1
245259,-66.6666666666667,4,2,1,100,0,0
247096,-33.3333333333333,4,2,1,100,0,0
247274,-33.3333333333333,4,2,1,70,0,0
247300,-33.3333333333333,4,2,1,100,0,0
247478,-33.3333333333333,4,2,1,70,0,0
247504,-66.6666666666667,4,2,1,100,0,0
248320,-66.6666666666667,4,2,1,100,0,1
248524,-66.6666666666667,4,2,1,100,0,0
249392,-66.6666666666667,4,2,1,70,0,0
249443,-66.6666666666667,4,2,1,100,0,0
250055,-66.6666666666667,4,2,1,70,0,0
250157,-66.6666666666667,4,2,1,100,0,0
250463,-66.6666666666667,4,2,1,70,0,0
250565,-66.6666666666667,4,2,1,100,0,0
251585,-66.6666666666667,4,2,1,100,0,1
251789,-66.6666666666667,4,2,1,100,0,0
253626,-33.3333333333333,4,2,1,100,0,0
253804,-33.3333333333333,4,2,1,70,0,0
253830,-33.3333333333333,4,2,1,100,0,0
254008,-33.3333333333333,4,2,1,70,0,0
254034,-66.6666666666667,4,2,1,100,0,0
256585,-66.6666666666667,4,2,1,70,0,0
256687,-66.6666666666667,4,2,1,100,0,0
257351,-66.6666666666667,4,2,1,70,0,0
257504,-66.6666666666667,4,2,0,100,0,0
257555,-66.6666666666667,4,2,0,70,0,0
257708,-66.6666666666667,4,2,0,100,0,0
258116,-33.3333333333333,4,2,1,100,0,1
258320,-66.6666666666667,4,2,1,100,0,0
260157,-33.3333333333333,4,2,1,100,0,0
260335,-33.3333333333333,4,2,1,70,0,0
260361,-33.3333333333333,4,2,1,100,0,0
260539,-33.3333333333333,4,2,1,70,0,0
260565,-66.6666666666667,4,2,1,100,0,0
261381,-66.6666666666667,4,2,1,100,0,1
261585,-66.6666666666667,4,2,1,100,0,0
263473,-66.6666666666667,4,2,1,70,0,0
263626,-66.6666666666667,4,2,1,100,0,0
263728,-66.6666666666667,4,2,1,70,0,0
263830,-66.6666666666667,4,2,1,100,0,0
265463,-66.6666666666667,4,2,1,70,0,0
265667,-66.6666666666667,4,2,1,100,0,0
265999,-66.6666666666667,4,2,1,70,0,0
266075,-66.6666666666667,4,2,1,100,0,0
266101,-66.6666666666667,4,2,1,70,0,0
266177,-66.6666666666667,4,2,1,100,0,0
266994,-66.6666666666667,4,2,1,70,0,0
267198,-66.6666666666667,4,2,1,100,0,0
267504,-33.3333333333333,4,2,1,100,0,0
267708,-66.6666666666667,4,2,1,100,0,0
268320,-66.6666666666667,4,2,1,70,0,0
268422,-66.6666666666667,4,2,1,100,0,0
269647,-66.6666666666667,4,2,1,70,0,0
269851,-66.6666666666667,4,2,1,100,0,0
270004,-66.6666666666667,4,2,1,70,0,0
270259,-66.6666666666667,4,2,1,100,0,0
270310,-66.6666666666667,4,2,1,70,0,0
270361,-66.6666666666667,4,2,1,100,0,0
271177,-66.6666666666667,4,2,1,100,0,1
271228,-66.6666666666667,4,2,1,70,0,1
271483,-66.6666666666667,4,2,1,100,0,1
272708,-66.6666666666667,4,2,1,70,0,1
272810,-66.6666666666667,4,2,1,100,0,1
273830,-66.6666666666667,4,2,1,70,0,1
273932,-66.6666666666667,4,2,1,100,0,1
274494,-66.6666666666667,4,2,1,70,0,1
274545,-66.6666666666667,4,2,1,100,0,1
274596,-66.6666666666667,4,2,1,70,0,1
274647,-66.6666666666667,4,2,1,100,0,1
275973,-66.6666666666667,4,2,1,70,0,1
276075,-66.6666666666667,4,2,1,100,0,1
277096,-66.6666666666667,4,2,1,70,0,1
277198,-66.6666666666667,4,2,1,100,0,1
277300,-66.6666666666667,4,2,1,70,0,1
277504,-66.6666666666667,4,2,1,100,0,1
277606,-66.6666666666667,4,2,1,70,0,1
277708,-66.6666666666667,4,2,1,100,0,1
277759,-66.6666666666667,4,2,1,70,0,1
277912,-66.6666666666667,4,2,1,100,0,1
278065,-66.6666666666667,4,2,1,70,0,1
278116,-66.6666666666667,4,2,1,100,0,1
279187,-66.6666666666667,4,2,1,70,0,1
279341,-66.6666666666667,4,2,1,100,0,1
280208,-66.6666666666667,4,2,1,70,0,1
280259,-66.6666666666667,4,2,1,100,0,1
280667,-66.6666666666667,4,2,1,70,0,1
280769,-66.6666666666667,4,2,1,100,0,1
282911,-66.6666666666667,4,2,1,70,0,1
283013,-66.6666666666667,4,2,1,100,0,1
283524,-66.6666666666667,4,2,1,70,0,1
283626,-66.6666666666667,4,2,1,100,0,1
284238,-33.3333333333333,4,2,1,100,0,1
284442,-33.3333333333333,4,2,1,70,0,1
284443,-66.6666666666667,4,2,1,70,0,1
284545,-66.6666666666667,4,2,1,100,0,1
284698,-66.6666666666667,4,2,1,70,0,1
284749,-66.6666666666667,4,2,1,100,0,1
284902,-66.6666666666667,4,2,1,70,0,1
284953,-66.6666666666667,4,2,1,100,0,1
285259,-66.6666666666667,4,2,1,70,0,1
285361,-66.6666666666667,4,2,1,100,0,1
285769,-66.6666666666667,4,2,1,70,0,1
285871,-66.6666666666667,4,2,1,100,0,1
286892,-66.6666666666667,4,2,1,70,0,1
286994,-66.6666666666667,4,2,1,100,0,1
287555,-66.6666666666667,4,2,1,70,0,1
287810,-66.6666666666667,4,2,1,100,0,1
287963,-66.6666666666667,4,2,1,70,0,1
288014,-66.6666666666667,4,2,1,100,0,1
288167,-66.6666666666667,4,2,1,70,0,1
288218,-66.6666666666667,4,2,1,100,0,1
289034,-66.6666666666667,4,2,1,70,0,1
289136,-66.6666666666667,4,2,1,100,0,1
290361,-66.6666666666667,4,2,3,100,0,1
290667,-66.6666666666667,4,2,1,100,0,1
291102,-66.6666666666667,4,2,1,70,0,1
291177,-66.6666666666667,4,2,1,100,0,1
291228,-66.6666666666667,4,2,1,70,0,1
291279,-66.6666666666667,4,2,1,100,0,1
291330,-66.6666666666667,4,2,1,70,0,1
291381,-66.6666666666667,4,2,1,100,0,1
291994,-66.6666666666667,4,2,1,70,0,1
292198,-66.6666666666667,4,2,1,100,0,1
292300,-66.6666666666667,4,2,1,70,0,1
292402,-66.6666666666667,4,2,1,100,0,1
293422,-66.6666666666667,4,2,1,70,0,1
293524,-66.6666666666667,4,2,1,100,0,1
295463,-66.6666666666667,4,2,1,70,0,1
295565,-66.6666666666667,4,2,1,100,0,1
296279,-66.6666666666667,4,2,1,70,0,1
296381,-66.6666666666667,4,2,1,100,0,1
296483,-33.3333333333333,4,2,1,100,0,1
296687,-33.3333333333333,4,2,1,70,0,1
296789,-66.6666666666667,4,2,1,100,0,1
296892,-66.6666666666667,4,2,1,5,0,1
297096,-66.6666666666667,4,2,1,70,0,0

[Colours]
Combo1 : 250,199,239
Combo2 : 105,194,228
Combo3 : 179,240,240

[HitObjects]
160,264,1177,6,0,L|32:264,2,110,2|2|2,0:2|0:2|0:2,0:0:0:0:
336,264,1790,6,0,P|400:212|325:130,1,220,2|2,0:2|0:2,0:2:0:0:
248,120,2300,1,2,0:2:0:0:
448,128,2504,6,0,L|424:344,1,165,2|2,0:2|0:2,0:2:0:0:
248,288,3014,2,0,L|240:168,1,110,2|2,0:2|0:2,0:2:0:0:
416,152,3422,6,0,L|488:144,1,55,2|0,0:2|0:0,0:2:0:0:
296,80,3728,2,0,L|120:64,1,165,2|0,0:2|0:0,0:2:0:0:
312,256,4238,2,0,L|496:240,2,165,0|0|0,0:0|0:2|0:2,0:0:0:0:
112,248,5055,6,0,P|80:184|192:104,1,220,2|2,0:2|0:2,0:2:0:0:
240,96,5565,1,2,0:2:0:0:
80,312,5769,2,0,L|72:112,1,165,2|2,0:2|0:2,0:2:0:0:
208,136,6279,2,0,L|72:144,1,110,2|2,0:2|0:2,0:0:0:0:
296,296,6687,6,0,P|362:287|457:146,1,220,2|2,0:2|0:2,0:2:0:0:
328,152,7300,1,0,0:0:0:0:
128,88,7504,2,0,L|312:72,2,165,0|0|2,0:2|0:0|0:2,0:0:0:0:
352,312,8320,6,0,P|352:256|208:176,1,220,2|2,0:2|0:2,0:2:0:0:
296,168,8830,1,2,0:2:0:0:
120,168,9034,2,0,P|80:112|168:40,1,165,2|0,0:2|0:2,0:2:0:0:
312,40,9545,2,0,L|432:40,1,110,2|0,0:2|0:2,0:2:0:0:
248,208,9953,6,0,L|240:128,1,55,2|0,0:2|0:0,0:2:0:0:
408,224,10259,2,0,L|216:248,1,165,2|0,0:2|0:0,0:2:0:0:
360,336,10769,2,0,L|368:280,1,55,2|0,0:2|0:0,0:2:0:0:
200,256,11075,2,0,P|200:168|280:136,1,165,2|0,0:2|0:0,0:2:0:0:
464,136,11585,6,0,L|216:112,1,220,2|0,0:2|0:2,0:2:0:0:
384,72,12198,1,2,0:2:0:0:
184,72,12402,2,0,P|112:120|192:208,1,220,0|2,0:0|0:2,0:0:0:0:
304,208,13014,1,2,0:2:0:0:
112,336,13218,5,0,1:2:0:0:
48,304,13320,1,0,0:2:0:0:
40,240,13422,1,0,3:2:0:0:
96,200,13524,1,0,0:2:0:0:
184,192,13626,2,0,L|248:184,3,55,0|0|0|0,1:2|0:0|0:0|0:2,0:2:0:0:
320,160,14034,5,0,1:2:0:0:
240,152,14136,1,0,1:2:0:0:
160,144,14238,1,0,3:2:0:0:
80,136,14341,1,0,0:0:0:0:
304,88,14443,1,8,0:2:0:0:
392,80,14545,1,0,0:2:0:0:
160,312,14647,1,2,0:2:0:0:
80,304,14749,1,0,0:2:0:0:
344,224,14851,6,0,L|56:48,1,330.000012588501,6|2,3:2|3:2,0:2:0:0:
168,56,15361,1,2,0:2:0:0:
352,152,15463,2,0,L|360:40,1,82.5000031471254,0|0,0:0|0:2,0:0:0:0:
192,72,15667,6,0,L|8:56,1,165.000006294251,10|0,0:2|0:2,0:2:0:0:
264,304,15973,2,0,L|440:296,1,165.000006294251,2|0,3:2|0:2,0:2:0:0:
176,224,16279,2,0,L|264:224,1,82.5000031471254,2|0,3:2|0:2,0:2:0:0:
448,168,16483,5,2,3:2:0:0:
368,152,16585,1,2,0:2:0:0:
448,168,16687,1,2,0:2:0:0:
368,152,16789,1,2,0:2:0:0:
456,104,16892,1,2,3:2:0:0:
296,74,17096,2,0,L|192:66,1,82.5000031471254,2|0,0:2|0:2,0:2:0:0:
448,288,17300,6,0,L|280:288,1,165.000006294251,10|0,0:2|0:2,0:2:0:0:
96,272,17606,2,0,L|272:272,1,165.000006294251,2|0,3:2|0:2,0:2:0:0:
64,176,17912,2,0,L|160:176,1,82.5000031471254,2|0,3:2|0:2,0:2:0:0:
392,168,18116,6,0,L|96:168,1,247.500009441376,6|0,3:2|0:2,0:2:0:0:
320,88,18524,2,0,L|216:88,1,82.5000031471254,2|0,0:2|0:0,0:0:0:0:
80,248,18728,1,0,0:0:0:0:
32,248,18796,1,0,0:0:0:0:
80,248,18864,1,0,0:0:0:0:
264,192,18932,6,0,L|88:192,1,165.000006294251,10|0,0:2|0:2,0:2:0:0:
360,104,19238,2,0,L|176:104,1,165.000006294251,2|0,3:2|0:2,0:2:0:0:
400,304,19545,2,0,L|496:304,1,82.5000031471254,2|0,3:2|0:2,0:2:0:0:
224,296,19749,6,0,P|144:240|260:180,1,247.500009441376,2|0,0:2|0:2,0:2:0:0:
416,144,20157,2,0,L|320:144,1,82.5000031471254,2|0,3:2|0:2,0:2:0:0:
96,288,20361,6,0,L|80:192,1,82.5000031471254,2|0,0:2|0:2,0:2:0:0:
248,192,20565,2,0,L|256:104,1,82.5000031471254,10|0,0:2|0:0,0:2:0:0:
96,96,20769,2,0,L|192:96,1,82.5000031471254,0|2,0:2|3:2,0:0:0:0:
352,264,20973,2,0,L|248:248,1,82.5000031471254,0|0,0:0|0:2,0:0:0:0:
88,224,21177,2,0,L|0:208,1,82.5000031471254,2|0,3:2|0:2,0:2:0:0:
248,104,21381,6,0,P|328:144|224:224,1,247.500009441376,6|0,3:2|0:2,0:2:0:0:
408,240,21789,2,0,L|504:232,1,82.5000031471254,2|2,3:2|0:2,0:0:0:0:
392,192,21994,1,0,0:0:0:0:
480,176,22096,1,0,0:2:0:0:
240,80,22198,6,0,L|72:72,1,165.000006294251,10|0,0:2|0:2,0:2:0:0:
312,280,22504,2,0,L|512:280,1,165.000006294251,2|0,3:2|0:2,0:2:0:0:
208,208,22810,2,0,L|304:208,1,82.5000031471254,2|0,3:2|0:2,0:2:0:0:
80,112,23014,5,2,0:2:0:0:
168,144,23116,1,2,0:2:0:0:
80,112,23218,1,2,0:2:0:0:
168,144,23320,1,2,0:2:0:0:
320,288,23422,2,0,L|128:280,1,165.000006294251,2|2,3:2|0:2,0:0:0:0:
480,128,23830,6,0,L|472:320,1,165.000006294251,10|0,0:2|0:2,0:2:0:0:
280,144,24136,2,0,L|456:144,1,165.000006294251,2|0,3:2|0:2,0:2:0:0:
160,288,24443,2,0,L|48:288,1,82.5000031471254,2|0,3:2|0:2,0:2:0:0:
336,296,24647,6,0,L|368:112,1,165.000006294251,6|0,3:2|0:0,0:2:0:0:
192,144,25055,2,0,L|176:-32,1,165.000006294251,2|0,3:2|0:0,0:2:0:0:
464,72,25463,5,2,3:2:0:0:
384,88,25565,1,0,0:0:0:0:
176,120,25769,1,2,3:2:0:0:
272,136,25871,2,0,L|448:160,1,165.000006294251,0|2,0:0|3:2,0:0:0:0:
120,328,26279,6,0,L|96:160,1,165.000006294251,2|0,3:2|0:0,0:2:0:0:
264,192,26687,2,0,L|304:16,1,165.000006294251,2|0,3:2|0:0,0:2:0:0:
32,48,27096,5,2,3:2:0:0:
112,72,27198,1,0,0:0:0:0:
304,128,27402,1,2,3:2:0:0:
208,144,27504,2,0,L|32:176,1,165.000006294251,0|2,0:0|3:2,0:0:0:0:
392,304,27912,6,0,L|280:288,1,82.5000031471254,2|0,1:2|1:2,1:2:0:0:
144,248,28116,2,0,L|240:240,1,82.5000031471254,0|0,1:2|1:2,0:0:0:0:
416,192,28320,2,0,L|328:192,1,82.5000031471254,0|0,1:2|1:2,0:0:0:0:
160,144,28524,2,0,L|256:144,1,82.5000031471254,0|0,1:2|1:2,0:0:0:0:
400,160,28728,5,0,1:2:0:0:
440,128,28779,1,0,0:0:0:0:
440,80,28830,1,0,1:2:0:0:
400,56,28881,1,0,0:0:0:0:
168,240,28932,1,0,1:2:0:0:
128,208,28983,1,0,0:0:0:0:
128,160,29034,1,0,1:2:0:0:
168,136,29085,1,0,0:0:0:0:
328,256,29136,6,0,L|392:248,1,41.2500015735627,0|0,1:2|0:0,0:0:0:0:
192,192,29238,2,0,L|152:184,1,41.2500015735627,0|0,1:2|0:0,0:0:0:0:
368,184,29341,2,0,L|416:176,1,41.2500015735627,0|0,1:2|0:0,0:0:0:0:
176,104,29443,2,0,L|120:96,1,41.2500015735627,0|0,1:2|0:0,0:0:0:0:
368,112,29545,5,6,3:2:0:0:
408,116,29596,1,0,0:0:0:0:
442,139,29647,1,0,0:0:0:0:
461,175,29698,1,0,0:0:0:0:
461,216,29749,1,0,0:0:0:0:
442,252,29800,1,0,0:0:0:0:
409,276,29851,1,0,0:2:0:0:
368,281,29902,1,0,0:0:0:0:
168,312,29953,6,0,P|48:243|169:44,1,412.500015735627,6|0,3:2|0:0,0:2:0:0:
440,120,30565,5,0,0:0:0:0:
264,152,30769,1,2,0:2:0:0:
96,176,30973,1,2,0:2:0:0:
400,288,31177,5,6,3:2:0:0:
208,288,33830,5,2,0:2:0:0:
184,224,34034,1,2,0:2:0:0:
328,192,34238,1,2,0:2:0:0:
72,104,34443,1,2,0:2:0:0:
112,272,37096,5,2,0:2:0:0:
248,192,37300,1,2,0:2:0:0:
112,120,37504,1,2,0:2:0:0:
400,160,37708,1,2,0:2:0:0:
296,296,40361,6,0,L|288:176,1,65.9999979858399,2|0,0:2|0:2,0:2:0:0:
400,216,40565,2,0,L|408:120,1,65.9999979858399,2|0,0:2|0:2,0:2:0:0:
288,144,40769,2,0,L|280:40,1,65.9999979858399,2|0,0:2|0:2,0:2:0:0:
384,328,40973,6,0,L|184:304,1,197.99999395752,2|2,0:2|0:2,0:2:0:0:
408,240,41585,2,0,L|408:160,1,65.9999979858399,2|0,0:2|0:2,0:2:0:0:
304,120,41789,2,0,L|512:96,1,197.99999395752,2|2,0:2|0:2,0:2:0:0:
264,56,42402,2,0,L|256:144,1,65.9999979858399,2|0,0:2|0:2,0:2:0:0:
360,144,42606,5,2,0:2:0:0:
408,208,42708,1,0,0:0:0:0:
376,280,42810,1,0,0:2:0:0:
296,296,42912,1,2,0:2:0:0:
216,296,43014,2,0,L|136:296,3,65.9999979858399,0|0|2|0,0:0|0:2|0:2|0:2,0:0:0:0:
256,296,43422,5,0,0:0:0:0:
297,284,43490,1,0,0:0:0:0:
323,250,43558,1,0,0:0:0:0:
321,206,43626,1,0,0:0:0:0:
292,174,43694,1,0,0:0:0:0:
249,167,43762,1,0,0:0:0:0:
176,136,43830,6,0,L|96:136,2,43.9999986572266
248,96,44034,2,0,L|312:96,2,43.9999986572266
24,304,44238,5,4,3:2:0:0:
352,232,44647,2,0,L|360:160,1,65.9999979858399,2|2,0:2|0:2,0:0:0:0:
208,112,44953,2,0,L|9:4,1,197.99999395752,2|2,0:2|0:2,0:2:0:0:
192,192,45463,1,2,0:2:0:0:
24,240,45667,1,2,0:2:0:0:
204,295,45871,6,0,L|393:208,1,197.99999395752,2|2,0:2|0:2,0:2:0:0:
184,216,46483,1,2,0:2:0:0:
470,50,46892,2,0,L|352:144,2,131.99999597168,2|2|2,0:2|0:2|0:2,0:0:0:0:
280,48,47504,6,0,P|264:120|352:224,1,197.99999395752,2|2,0:2|0:2,0:2:0:0:
432,176,47912,1,2,0:2:0:0:
328,192,48014,1,2,0:2:0:0:
144,328,48218,2,0,L|336:248,1,197.99999395752,2|2,0:2|0:2,0:2:0:0:
176,264,48728,1,2,0:2:0:0:
344,208,48932,1,2,0:2:0:0:
179,214,49136,6,0,P|110:152|156:51,1,197.99999395752,2|2,0:2|0:2,0:2:0:0:
248,72,49545,1,0,0:2:0:0:
456,256,49749,1,2,0:2:0:0:
360,256,49851,1,2,0:2:0:0:
280,256,49953,1,2,0:2:0:0:
360,256,50055,1,2,0:2:0:0:
456,256,50157,1,2,0:2:0:0:
360,256,50259,1,2,0:2:0:0:
456,256,50361,1,2,0:2:0:0:
360,192,50463,1,2,0:2:0:0:
456,112,50565,1,2,0:2:0:0:
360,112,50667,1,2,0:2:0:0:
176,128,50769,6,0,P|114:161|192:240,1,197.99999395752,4|0,3:2|0:2,0:2:0:0:
344,328,51177,2,0,L|352:256,1,65.9999979858399,8|0,0:2|0:0,0:2:0:0:
256,248,51381,2,0,L|264:168,1,65.9999979858399,0|0,0:0|0:2,0:0:0:0:
456,168,51585,1,8,0:2:0:0:
376,152,51687,1,0,0:0:0:0:
296,136,51789,1,0,0:2:0:0:
136,112,51892,1,8,0:2:0:0:
216,104,51994,1,0,0:0:0:0:
296,96,52096,1,0,0:2:0:0:
112,56,52198,2,0,L|24:40,1,65.9999979858399,8|0,0:2|0:2,0:2:0:0:
304,32,52402,6,0,L|288:192,1,131.99999597168,8|0,0:2|0:0,0:2:0:0:
24,272,52810,1,8,0:2:0:0:
120,184,53014,2,0,L|32:176,1,65.9999979858399,0|0,0:0|0:2,0:0:0:0:
256,96,53218,6,0,L|176:88,2,65.9999979858399,8|0|0,0:2|0:0|0:2,0:2:0:0:
424,224,53524,1,8,0:2:0:0:
344,232,53626,1,0,0:0:0:0:
264,240,53728,1,0,0:2:0:0:
448,320,53830,2,0,L|368:328,1,65.9999979858399,8|0,0:2|0:0,0:0:0:0:
112,312,54034,6,0,L|40:320,1,65.9999979858399,0|0,3:2|3:2,0:0:0:0:
144,224,54238,2,0,L|64:232,1,65.9999979858399,0|0,3:2|3:2,0:0:0:0:
272,152,54443,2,0,L|352:136,1,65.9999979858399,8|0,3:2|3:2,0:0:0:0:
240,72,54647,2,0,L|328:56,1,65.9999979858399,0|0,3:2|3:2,0:0:0:0:
464,304,54851,5,0,3:2:0:0:
431,301,54902,1,0,0:0:0:0:
398,298,54953,1,0,3:2:0:0:
288,232,55055,2,0,L|384:224,1,65.9999979858399,0|0,3:2|3:2,0:0:0:0:
152,136,55259,2,0,L|72:120,1,65.9999979858399,8|0,3:2|3:2,0:0:0:0:
184,248,55463,2,0,L|104:232,1,65.9999979858399,0|0,3:2|3:2,0:0:0:0:
314,318,55667,5,0,1:2:0:0:
358,290,55718,1,0,1:2:0:0:
367,237,55769,1,0,1:2:0:0:
328,200,55820,1,0,1:2:0:0:
275,198,55871,1,0,1:2:0:0:
229,171,55922,1,0,1:2:0:0:
224,118,55973,1,0,1:2:0:0:
272,98,56024,1,0,1:2:0:0:
384,96,56075,6,0,L|440:88,1,32.99999899292,8|0,1:2|1:2,1:2:0:0:
264,272,56177,2,0,L|224:280,1,32.99999899292,0|0,1:2|1:2,1:2:0:0:
368,296,56279,2,0,L|416:288,1,32.99999899292,0|0,1:2|1:2,1:2:0:0:
248,360,56381,2,0,L|184:368,1,32.99999899292,0|0,1:2|1:2,1:2:0:0:
432,360,56483,6,0,P|476:303|430:285,1,131.99999597168,2|2,0:2|0:2,0:2:0:0:
368,216,56789,1,2,0:2:0:0:
144,160,56892,2,0,L|240:152,1,65.9999979858399,2|2,0:2|0:2,0:2:0:0:
416,104,57096,2,0,L|328:96,1,65.9999979858399,2|2,0:2|0:2,0:2:0:0:
64,304,57300,6,0,L|248:288,1,165.000006294251,6|0,3:2|0:2,0:2:0:0:
136,248,57606,1,2,0:2:0:0:
320,160,57708,2,0,L|208:144,3,82.5000031471254,10|2|0|2,3:2|0:2|0:2|0:2,0:0:0:0:
464,320,58116,6,0,L|280:304,1,165.000006294251,0|2,3:2|0:2,0:0:0:0:
384,256,58422,1,0,0:2:0:0:
120,152,58524,2,0,L|216:168,1,82.5000031471254,10|0,3:2|0:2,0:2:0:0:
440,112,58728,2,0,L|352:96,1,82.5000031471254,2|0,0:2|0:2,0:2:0:0:
112,336,58932,6,0,L|280:320,1,165.000006294251,2|0,3:2|0:2,0:2:0:0:
184,280,59238,1,2,0:2:0:0:
424,168,59341,6,0,L|120:144,1,288.750011014939,8|0,3:2|0:0,0:0:0:0:
136,96,59545,2,0,L|432:72,1,288.750011014939,2|0,0:2|0:0,0:2:0:0:
422,72,59749,6,0,L|312:64,1,82.5000031471254,0|0,3:2|0:2,0:0:0:0:
96,280,59953,2,0,L|200:264,1,82.5000031471254,2|0,0:2|0:2,0:2:0:0:
368,232,60157,2,0,L|464:216,1,82.5000031471254,10|0,3:2|0:2,0:2:0:0:
192,144,60361,2,0,L|72:128,1,82.5000031471254,2|0,0:2|0:2,0:2:0:0:
344,344,60565,6,0,L|120:312,1,165.000006294251,6|0,3:2|0:2,0:2:0:0:
272,280,60871,1,2,0:2:0:0:
64,192,60973,2,0,L|160:192,3,82.5000031471254,10|2|0|2,3:2|0:2|0:2|0:2,0:0:0:0:
360,192,61381,6,0,P|416:128|352:80,1,165.000006294251,0|2,3:2|0:2,0:0:0:0:
288,80,61687,1,0,0:2:0:0:
464,304,61789,2,0,L|368:304,1,82.5000031471254,10|0,3:2|0:2,0:2:0:0:
160,192,61994,2,0,L|256:192,1,82.5000031471254,2|0,0:2|0:2,0:2:0:0:
472,248,62198,6,0,L|472:160,1,82.5000031471254,2|0,3:2|0:0,0:2:0:0:
288,88,62402,2,0,L|384:88,1,82.5000031471254,0|2,0:2|0:2,0:0:0:0:
144,304,62606,2,0,L|61:304,1,82.5000031471254,8|0,3:2|0:0,0:0:0:0:
368,272,62810,6,0,L|472:272,1,82.5000031471254,2|0,0:2|0:0,0:2:0:0:
272,208,63014,1,0,3:2:0:0:
360,168,63116,1,2,0:2:0:0:
267,200,63218,1,2,0:2:0:0:
360,168,63320,1,2,0:2:0:0:
160,120,63422,2,0,L|64:120,1,82.5000031471254,10|0,3:2|0:2,0:2:0:0:
344,304,63626,2,0,L|432:304,1,82.5000031471254,2|0,0:2|0:2,0:2:0:0:
160,208,63830,6,0,L|384:208,1,165.000006294251,6|0,3:2|0:0,0:2:0:0:
240,256,64136,1,0,0:2:0:0:
424,256,64238,2,0,L|424:160,1,82.5000031471254,10|2,3:2|0:2,0:0:0:0:
320,160,64443,2,0,L|320:64,1,82.5000031471254,0|2,0:2|0:2,0:0:0:0:
480,336,64647,2,0,L|224:328,2,247.500009441376,10|10|10,3:2|3:2|3:2,0:2:0:0:
392,296,65361,1,0,0:2:0:0:
112,208,65463,6,0,L|304:192,1,165.000006294251,2|0,3:2|0:2,0:2:0:0:
184,160,65769,1,2,0:2:0:0:
360,160,65871,2,0,L|368:64,1,82.5000031471254,8|0,3:2|0:2,0:0:0:0:
152,312,66075,2,0,L|288:312,1,82.5000031471254,2|0,0:2|0:2,0:2:0:0:
48,192,66279,6,0,L|144:192,2,82.5000031471254,10|0|0,3:2|0:0|0:2,0:2:0:0:
328,88,66585,2,0,L|216:88,2,82.5000031471254,10|0|0,3:2|0:0|0:2,0:2:0:0:
104,88,66892,2,0,L|208:88,1,82.5000031471254,10|0,3:2|0:2,0:2:0:0:
432,80,67096,6,0,L|432:168,1,82.5000031471254,14|2,3:2|1:2,0:0:0:0:
328,168,67300,1,0,1:2:0:0:
328,209,67351,1,0,0:0:0:0:
328,250,67402,1,2,1:2:0:0:
224,264,67504,2,0,L|224:360,1,82.5000031471254,0|0,0:0|1:2,0:0:0:0:
120,256,67708,2,0,L|120:152,1,82.5000031471254,2|0,1:2|1:2,1:2:0:0:
312,112,67912,5,2,1:2:0:0:
353,112,67963,1,0,0:0:0:0:
312,112,68014,1,0,1:2:0:0:
200,112,68116,1,2,1:2:0:0:
158,112,68167,1,0,0:0:0:0:
200,112,68218,1,0,1:2:0:0:
392,256,68320,5,2,1:2:0:0:
433,256,68371,1,0,0:0:0:0:
392,256,68422,1,0,1:2:0:0:
144,256,68524,1,2,1:2:0:0:
102,256,68575,1,0,0:0:0:0:
144,256,68626,1,0,1:2:0:0:
368,184,68728,6,0,L|480:184,3,82.5000031471254,6|0|0|0,3:2|0:0|0:0|0:2,0:2:0:0:
216,176,69136,6,0,B|112:176|112:176|112:272|112:272|372:272|372:272|208:272,1,577.500022029878,6|0,3:2|3:2,0:2:0:0:
72,112,69953,2,0,L|320:112,1,247.500009441376,0|0,3:2|3:2,0:2:0:0:
56,320,70361,6,0,L|184:320,3,82.5000031471254,6|0|0|0,3:2|0:0|0:0|0:2,0:2:0:0:
368,152,70769,2,0,L|264:152,1,82.5000031471254,2|0,3:2|0:2,0:2:0:0:
64,240,70973,2,0,L|160:240,1,82.5000031471254,2|0,0:2|0:2,0:2:0:0:
336,240,71177,5,2,3:2:0:0:
152,104,71279,2,0,L|336:104,1,165.000006294251,2|0,0:2|0:2,0:2:0:0:
152,168,71585,2,0,L|48:168,1,82.5000031471254,2|0,3:2|0:2,0:2:0:0:
344,168,71789,2,0,L|424:168,2,55.0000020980836,0|2|2,0:0|0:0|0:0,0:0:0:0:
176,312,71994,6,0,L|176:224,1,82.5000031471254,2|0,3:2|0:0,0:2:0:0:
344,168,72198,1,0,0:2:0:0:
280,160,72266,1,2,0:2:0:0:
216,152,72334,1,2,0:2:0:0:
392,56,72402,2,0,L|488:56,2,82.5000031471254,2|2|0,3:2|0:2|0:2,0:2:0:0:
184,56,72708,6,0,L|-8:56,1,165.000006294251,0|2,0:0|0:0,0:0:0:0:
272,264,73014,2,0,L|354:264,1,82.5000031471254,0|2,0:0|0:2,0:0:0:0:
80,336,73218,2,0,L|80:240,1,82.5000031471254,2|2,3:2|0:2,0:0:0:0:
288,152,73422,2,0,L|176:152,1,82.5000031471254,2|2,0:2|0:2,0:0:0:0:
448,328,73626,6,0,L|352:328,3,82.5000031471254,4|0|0|0,3:2|0:0|0:0|0:2,0:2:0:0:
168,208,74034,2,0,L|264:208,1,82.5000031471254,2|0,3:2|0:2,0:2:0:0:
456,96,74238,2,0,L|344:96,1,82.5000031471254,2|0,0:2|0:2,0:2:0:0:
160,96,74443,1,2,3:2:0:0:
384,232,74545,2,0,L|200:232,1,165.000006294251,2|2,0:2|0:2,0:2:0:0:
392,320,74851,2,0,L|480:320,1,82.5000031471254,0|0,3:2|0:2,0:2:0:0:
304,176,75055,1,2,0:2:0:0:
376,176,75157,1,0,0:0:0:0:
248,176,75208,1,0,0:0:0:0:
120,112,75259,6,0,L|288:112,1,165.000006294251,2|2,3:2|0:2,0:2:0:0:
192,144,75565,1,2,0:2:0:0:
24,296,75667,2,0,L|208:296,1,165.000006294251,2|2,3:2|0:2,0:2:0:0:
96,256,75973,1,2,0:2:0:0:
344,184,76075,6,0,L|16:184,1,247.500009441376,2|2,3:2|0:2,0:2:0:0:
320,296,76483,2,0,L|488:296,1,165.000006294251,0|2,0:1|0:2,0:1:0:0:
400,256,76789,1,0,0:2:0:0:
80,104,76892,6,0,B|448:104,1,330.000012588501,4|0,3:2|0:0,0:2:0:0:
328,152,77198,1,0,0:2:0:0:
144,232,77300,2,0,L|56:232,1,82.5000031471254,10|0,3:2|0:2,0:2:0:0:
256,328,77504,2,0,L|136:328,1,82.5000031471254,2|0,0:2|0:2,0:2:0:0:
384,232,77708,5,2,3:2:0:0:
208,144,77810,2,0,L|376:144,1,165.000006294251,2|2,0:2|0:2,0:2:0:0:
160,224,78116,2,0,L|72:224,1,82.5000031471254,10|0,3:2|0:2,0:2:0:0:
272,224,78320,2,0,L|344:224,2,55.0000020980836,0|2|2,0:0|0:0|0:0,0:0:0:0:
96,112,78524,6,0,L|272:112,1,165.000006294251,0|0,3:2|0:2,0:2:0:0:
200,88,78796,1,2,0:2:0:0:
144,56,78864,1,2,0:2:0:0:
344,64,78932,1,10,3:2:0:0:
168,192,79034,2,0,L|64:192,1,82.5000031471254,0|2,0:2|0:2,0:0:0:0:
312,192,79238,6,0,L|488:192,1,165.000006294251,0|2,0:2|0:2,0:0:0:0:
280,96,79545,2,0,L|184:96,1,82.5000031471254,0|0,0:0|0:2,0:0:0:0:
400,328,79749,2,0,L|416:232,1,82.5000031471254,10|2,3:2|0:2,0:0:0:0:
192,232,79953,2,0,L|320:232,1,82.5000031471254,2|2,0:2|0:2,0:0:0:0:
48,136,80157,6,0,L|224:136,1,165.000006294251,4|2,3:2|0:2,0:2:0:0:
120,104,80463,1,2,0:2:0:0:
224,136,80565,1,10,3:2:0:0:
132,104,80667,1,2,0:2:0:0:
236,136,80769,1,2,0:2:0:0:
144,104,80871,1,2,0:2:0:0:
248,136,80973,5,2,3:2:0:0:
156,104,81075,1,2,0:2:0:0:
260,136,81177,1,2,0:2:0:0:
168,104,81279,1,2,0:2:0:0:
400,192,81381,2,0,L|317:192,1,82.5000031471254,10|0,3:2|0:2,0:2:0:0:
73,264,81585,2,0,L|156:264,1,82.5000031471254,2|0,0:2|0:2,0:2:0:0:
372,132,81789,6,0,L|196:132,1,165.000006294251,2|2,3:2|0:2,0:2:0:0:
300,100,82095,1,0,0:0:0:0:
196,132,82197,1,10,3:2:0:0:
288,100,82299,1,2,0:2:0:0:
184,132,82401,1,2,0:2:0:0:
276,100,82503,1,2,0:2:0:0:
112,132,82606,6,0,L|12:132,2,82.5000031471254,2|0|2,3:2|0:0|0:2,0:2:0:0:
368,272,82912,2,0,L|252:272,2,82.5000031471254,2|2|0,3:2|0:2|0:2,0:0:0:0:
112,272,83218,2,0,L|212:272,1,82.5000031471254,2|0,0:2|0:2,0:2:0:0:
424,112,83422,6,0,L|72:112,1,330.000012588501,6|0,3:2|0:0,0:2:0:0:
184,152,83728,1,0,0:2:0:0:
392,152,83830,2,0,L|496:152,1,82.5000031471254,10|0,3:2|0:2,0:2:0:0:
200,288,84034,2,0,L|200:192,1,82.5000031471254,2|0,0:2|0:0,0:2:0:0:
368,200,84238,5,0,3:2:0:0:
192,104,84341,1,2,0:2:0:0:
152,104,84392,1,2,0:2:0:0:
192,104,84443,1,2,0:2:0:0:
280,104,84545,1,0,0:2:0:0:
80,264,84647,2,0,L|184:264,1,82.5000031471254,10|0,3:2|0:2,0:2:0:0:
368,264,84851,2,0,L|480:264,1,82.5000031471254,2|0,0:2|0:0,0:0:0:0:
328,192,85004,1,0,0:0:0:0:
208,184,85055,6,0,L|384:184,1,165.000006294251,2|0,3:2|0:2,0:2:0:0:
312,152,85327,1,2,0:2:0:0:
248,120,85395,1,2,0:2:0:0:
392,96,85463,2,0,L|296:96,2,82.5000031471254,10|0|2,3:2|0:2|0:2,0:2:0:0:
184,296,85769,2,0,L|392:296,1,165.000006294251,0|2,0:0|0:0,0:0:0:0:
176,192,86075,2,0,L|72:192,1,82.5000031471254,2|2,0:2|0:2,0:2:0:0:
280,104,86279,2,0,L|168:104,1,82.5000031471254,10|2,3:2|0:2,0:2:0:0:
392,200,86483,2,0,L|480:200,1,82.5000031471254,2|2,0:2|0:2,0:0:0:0:
152,320,86687,6,0,L|496:320,1,330.000012588501,6|0,3:2|0:0,0:2:0:0:
400,264,86994,1,0,0:2:0:0:
144,120,87096,6,0,L|440:120,1,288.750011014939,10|0,3:2|0:0,0:2:0:0:
432,120,87300,2,0,L|136:120,1,288.750011014939,2|0,0:2|0:0,0:2:0:0:
144,120,87504,5,0,3:2:0:0:
328,192,87606,1,2,0:2:0:0:
369,192,87657,1,2,0:2:0:0:
410,192,87708,1,2,0:2:0:0:
304,192,87810,1,2,0:2:0:0:
96,280,87912,2,0,L|208:280,1,82.5000031471254,8|0,3:2|0:2,0:2:0:0:
384,288,88116,2,0,L|496:288,1,82.5000031471254,2|0,0:2|0:0,0:0:0:0:
344,208,88269,1,0,0:0:0:0:
208,208,88320,6,0,L|392:208,1,165.000006294251,0|0,3:2|0:2,0:2:0:0:
272,200,88626,1,2,3:2:0:0:
64,112,88728,2,0,L|152:112,1,82.5000031471254,10|0,3:2|0:2,0:2:0:0:
48,256,88932,2,0,L|144:256,1,82.5000031471254,2|0,3:2|0:2,0:2:0:0:
352,256,89136,2,2,L|352:144,1,82.5000031471254,2|2,0:2|0:2,0:2:0:0:
224,160,89341,2,0,L|224:64,1,82.5000031471254,2|2,3:2|0:2,0:0:0:0:
424,64,89545,2,0,L|312:64,1,82.5000031471254,2|0,3:2|0:2,0:2:0:0:
128,296,89749,2,0,L|224:296,1,82.5000031471254,2|0,0:2|0:2,0:2:0:0:
424,192,89953,6,0,L|80:192,1,330.000012588501,6|0,3:2|0:0,0:2:0:0:
192,176,90259,1,0,0:2:0:0:
408,168,90361,2,0,L|408:280,1,82.5000031471254,2|0,3:2|0:2,0:2:0:0:
208,296,90565,2,0,L|304:296,1,82.5000031471254,2|0,0:2|0:0,0:2:0:0:
80,136,90769,5,0,3:2:0:0:
272,136,90871,1,2,0:2:0:0:
320,136,90922,1,2,0:2:0:0:
368,136,90973,1,2,0:2:0:0:
272,136,91075,1,0,3:2:0:0:
80,288,91177,2,0,L|192:288,1,82.5000031471254,0|0,0:0|0:2,0:0:0:0:
344,216,91381,2,0,L|248:216,1,82.5000031471254,2|0,3:2|0:2,0:2:0:0:
80,208,91585,6,0,L|80:296,1,82.5000031471254,2|0,3:2|0:0,0:2:0:0:
296,104,91789,1,0,0:2:0:0:
248,104,91858,1,2,0:2:0:0:
200,104,91926,1,2,0:2:0:0:
392,96,91994,1,0,3:2:0:0:
480,200,92096,2,0,L|384:200,1,82.5000031471254,0|2,0:2|0:2,0:0:0:0:
136,296,92300,6,0,L|328:296,1,165.000006294251,0|2,0:0|0:2,0:0:0:0:
128,184,92606,1,2,0:2:0:0:
86,184,92657,1,0,0:0:0:0:
45,184,92708,1,2,0:2:0:0:
304,184,92810,2,0,P|384:248|272:328,1,247.500009441376,2|0,0:2|0:2,0:2:0:0:
96,336,93218,6,0,L|200:328,1,82.5000031471254,6|0,3:2|0:2,0:2:0:0:
416,272,93422,2,0,L|432:192,1,82.5000031471254,2|2,0:2|3:2,0:0:0:0:
256,160,93626,2,0,L|256:72,1,82.5000031471254,2|2,0:2|0:2,0:0:0:0:
88,288,93830,2,0,L|72:192,1,82.5000031471254,2|2,0:2|0:2,0:0:0:0:
336,200,94034,6,0,L|232:200,1,82.5000031471254,2|2,3:2|0:2,0:0:0:0:
408,112,94238,2,0,L|296:112,1,82.5000031471254,2|2,0:2|3:2,0:0:0:0:
144,288,94443,2,0,L|264:288,1,82.5000031471254,2|0,0:2|0:2,0:2:0:0:
464,328,94647,2,0,L|336:328,1,82.5000031471254,2|0,0:2|0:2,0:2:0:0:
112,144,94851,6,0,L|296:144,1,165.000006294251,2|2,3:2|0:2,0:2:0:0:
184,104,95157,1,2,3:2:0:0:
400,232,95259,1,2,0:2:0:0:
320,232,95361,1,2,0:2:0:0:
400,168,95463,1,2,0:2:0:0:
152,112,95565,1,2,0:2:0:0:
344,96,95667,6,0,L|248:96,2,82.5000031471254,6|0|2,3:2|0:2|3:2,0:2:0:0:
96,248,95973,2,0,L|208:248,2,82.5000031471254,6|0|2,3:2|0:2|3:2,0:2:0:0:
352,256,96279,1,6,3:2:0:0:
392,232,96330,1,0,0:0:0:0:
392,184,96381,1,0,0:2:0:0:
352,160,96432,1,0,0:0:0:0:
96,152,96483,5,2,3:2:0:0:
280,160,96789,1,2,0:2:0:0:
192,160,96892,2,0,L|192:240,1,65.9999979858399,2|2,0:2|0:2,0:0:0:0:
368,312,97198,2,0,L|384:88,1,197.99999395752,2|2,0:2|0:2,0:2:0:0:
224,120,97708,1,2,0:2:0:0:
384,144,97912,1,2,0:2:0:0:
184,296,98116,6,0,P|58:244|56:172,2,197.99999395752,2|2|2,0:2|0:2|0:2,0:2:0:0:
368,232,98932,2,0,P|447:208|486:73,2,197.99999395752,2|2|2,0:2|0:2|0:2,0:2:0:0:
168,192,99749,5,2,0:2:0:0:
328,192,99953,2,0,P|336:272|168:344,1,263.99999194336,2|0,0:2|0:0,0:2:0:0:
120,328,100463,1,0,0:2:0:0:
208,304,100565,5,0,3:2:0:0:
272,256,100667,1,0,3:2:0:0:
272,176,100769,1,0,3:2:0:0:
208,136,100871,1,0,3:2:0:0:
128,128,100973,1,0,3:2:0:0:
56,96,101075,1,0,3:2:0:0:
56,24,101177,1,0,3:2:0:0:
128,0,101279,1,0,3:2:0:0:
320,8,101381,6,0,L|400:8,1,65.9999979858399,0|0,3:2|3:2,0:0:0:0:
216,184,101585,2,0,L|120:184,1,65.9999979858399,0|0,3:2|3:2,0:0:0:0:
320,192,101789,2,0,L|400:192,1,65.9999979858399,0|0,3:2|3:2,0:0:0:0:
152,288,101994,2,0,L|240:288,1,65.9999979858399,0|0,3:2|3:2,0:2:0:0:
384,288,102198,6,0,L|472:288,3,65.9999979858399,2|2|2|2,3:2|0:2|0:2|0:2,0:0:0:0:
216,160,102606,2,0,L|56:160,1,131.99999597168,2|2,0:2|0:2,0:0:0:0:
168,128,102912,1,2,0:2:0:0:
376,128,103014,6,0,L|272:128,1,82.5000031471254,2|0,3:2|0:2,0:2:0:0:
456,216,103218,2,0,L|352:216,1,82.5000031471254,2|0,3:2|0:2,0:2:0:0:
176,304,103422,1,6,3:2:0:0:
217,304,103473,1,0,0:0:0:0:
258,304,103524,1,0,0:0:0:0:
299,304,103575,1,0,0:0:0:0:
341,304,103626,1,0,0:0:0:0:
304,256,103677,1,0,0:0:0:0:
256,256,103728,1,0,0:0:0:0:
88,240,103830,6,0,L|0:240,1,82.5000031471254,10|2,0:2|0:2,0:0:0:0:
232,192,104034,2,0,L|232:96,1,82.5000031471254,2|2,0:2|0:2,0:0:0:0:
32,72,104238,2,0,L|216:72,1,165.000006294251,6|0,3:2|0:2,0:0:0:0:
112,120,104545,1,2,0:2:0:0:
304,192,104647,6,0,L|168:192,1,82.5000031471254,2|0,0:2|0:2,0:2:0:0:
400,288,104851,1,2,0:2:0:0:
464,288,104919,1,0,0:0:0:0:
400,288,104987,1,0,0:0:0:0:
256,288,105055,1,0,3:2:0:0:
448,168,105157,2,0,L|264:168,1,165.000006294251,2|0,0:2|0:2,0:0:0:0:
496,120,105463,6,0,L|496:32,1,82.5000031471254,10|2,0:2|0:2,0:0:0:0:
264,248,105667,2,0,L|368:248,1,82.5000031471254,2|2,0:2|0:2,0:0:0:0:
176,152,105871,2,0,L|272:152,2,82.5000031471254,2|2|0,0:2|0:2|0:0,0:0:0:0:
488,312,106279,6,0,L|144:312,1,330.000012588501,6|0,3:2|0:0,0:2:0:0:
248,272,106585,1,0,0:2:0:0:
416,264,106687,5,2,0:2:0:0:
448,264,106713,1,0,0:0:0:0:
440,240,106738,1,0,0:0:0:0:
472,240,106764,1,0,0:0:0:0:
448,208,106789,1,0,0:0:0:0:
480,208,106815,1,0,0:0:0:0:
448,176,106841,1,0,0:0:0:0:
480,176,106867,1,0,0:0:0:0:
440,144,106892,5,2,0:2:0:0:
472,144,106918,1,0,0:0:0:0:
424,112,106943,1,0,0:0:0:0:
456,112,106969,1,0,0:0:0:0:
400,88,106994,1,0,0:0:0:0:
432,88,107020,1,0,0:0:0:0:
376,64,107045,1,0,0:0:0:0:
216,80,107096,6,0,L|128:80,1,82.5000031471254,10|0,0:2|0:2,0:2:0:0:
320,280,107300,2,0,L|320:192,1,82.5000031471254,2|0,3:2|0:2,0:2:0:0:
112,208,107504,2,0,L|200:208,1,82.5000031471254,6|0,3:2|0:2,0:2:0:0:
408,312,107708,2,0,L|304:312,1,82.5000031471254,2|0,0:2|0:2,0:2:0:0:
136,312,107912,5,2,0:2:0:0:
368,256,108014,2,0,L|368:88,1,165.000006294251,2|0,0:2|0:2,0:2:0:0:
272,88,108320,2,0,L|368:88,3,82.5000031471254,2|2|2|2,3:2|0:2|0:2|0:2,0:0:0:0:
128,88,108728,6,0,L|128:184,1,82.5000031471254,10|0,0:2|0:0,0:0:0:0:
224,176,108932,1,2,0:2:0:0:
265,176,108983,1,0,0:0:0:0:
306,176,109034,1,0,0:0:0:0:
128,248,109136,2,0,L|224:248,1,82.5000031471254,2|0,2:2|0:0,0:0:0:0:
400,104,109341,2,0,L|304:104,1,82.5000031471254
16,344,109545,6,0,L|376:344,1,330.000012588501,6|0,0:2|0:0,0:2:0:0:
256,296,109851,1,0,0:2:0:0:
96,264,109953,5,4,3:2:0:0:
64,264,109979,1,0,0:0:0:0:
72,240,110004,1,0,0:0:0:0:
40,240,110030,1,0,0:0:0:0:
64,208,110055,1,0,0:0:0:0:
32,208,110081,1,0,0:0:0:0:
64,176,110107,1,0,0:0:0:0:
32,176,110131,1,0,0:0:0:0:
72,144,110158,5,0,0:0:0:0:
40,144,110182,1,0,0:0:0:0:
88,112,110209,1,0,0:0:0:0:
56,112,110233,1,0,0:0:0:0:
112,88,110260,1,0,0:2:0:0:
80,88,110284,1,0,0:0:0:0:
136,64,110311,1,0,0:0:0:0:
296,80,110362,6,0,L|384:80,1,82.5000031471254,10|2,0:2|0:2,0:0:0:0:
152,224,110565,2,0,L|248:224,1,82.5000031471254,2|2,0:2|0:2,0:0:0:0:
424,224,110769,1,6,3:2:0:0:
200,328,110871,2,0,L|392:328,1,165.000006294251,2|2,0:2|0:2,0:2:0:0:
128,176,111177,6,0,L|304:176,1,165.000006294251,2|2,0:2|0:2,0:2:0:0:
240,152,111449,1,0,0:0:0:0:
184,128,111517,1,0,0:0:0:0:
352,264,111585,2,0,L|152:264,1,165.000006294251,0|2,3:2|0:2,0:0:0:0:
272,216,111892,1,0,0:2:0:0:
96,208,111994,6,0,L|96:112,1,82.5000031471254,10|0,0:2|0:0,0:0:0:0:
272,80,112198,2,0,L|360:80,1,82.5000031471254,2|0,0:2|0:0,0:0:0:0:
224,144,112351,1,0,0:0:0:0:
88,288,112402,2,0,L|200:288,1,82.5000031471254,2|2,0:2|0:2,0:2:0:0:
336,184,112606,2,0,L|253:184,1,82.5000031471254,2|0,0:2|0:0,0:0:0:0:
416,80,112810,6,0,L|240:80,1,165.000006294251,6|2,3:2|0:2,0:2:0:0:
344,48,113116,1,2,0:2:0:0:
240,80,113218,1,2,0:2:0:0:
332,48,113320,1,2,0:2:0:0:
228,80,113422,1,2,0:2:0:0:
320,48,113524,1,2,0:2:0:0:
216,80,113626,5,10,0:2:0:0:
308,48,113728,1,2,0:2:0:0:
204,80,113830,1,2,3:2:0:0:
296,48,113932,1,2,0:2:0:0:
188,80,114034,2,0,L|296:80,1,82.5000031471254,2|0,3:2|0:2,0:2:0:0:
472,208,114238,2,0,L|389:208,1,82.5000031471254,2|0,0:2|0:2,0:2:0:0:
120,152,114443,6,0,L|296:152,1,165.000006294251,2|2,0:2|0:2,0:2:0:0:
192,120,114749,1,0,0:0:0:0:
296,152,114851,1,2,3:2:0:0:
204,120,114953,1,2,0:2:0:0:
308,152,115055,1,2,0:2:0:0:
216,120,115157,1,2,0:2:0:0:
416,120,115259,6,0,L|512:120,2,82.5000031471254,10|0|2,0:2|0:0|0:2,0:2:0:0:
256,272,115565,1,10,0:2:0:0:
352,272,115667,1,0,0:0:0:0:
448,272,115769,1,0,0:2:0:0:
192,152,115871,2,0,L|296:152,1,82.5000031471254,2|0,0:2|0:2,0:2:0:0:
112,304,116075,5,6,3:2:0:0:
70,304,116126,1,2,0:2:0:0:
29,304,116177,1,2,0:2:0:0:
70,304,116228,1,2,0:2:0:0:
304,304,116279,2,0,L|408:296,1,82.5000031471254,2|2,0:2|0:2,0:0:0:0:
136,128,116483,2,0,L|16:120,1,82.5000031471254,0|2,0:0|0:2,0:0:0:0:
304,128,116687,2,0,L|392:112,1,82.5000031471254,2|2,0:2|0:2,0:0:0:0:
176,240,116892,5,14,0:2:0:0:
384,240,116994,2,0,L|256:224,1,82.5000031471254,2|2,3:2|0:2,0:2:0:0:
112,160,117198,1,2,0:2:0:0:
336,128,117300,2,0,L|128:128,1,165.000006294251,6|0,3:2|0:2,0:0:0:0:
256,80,117606,1,2,0:2:0:0:
56,280,117708,6,0,L|232:280,1,165.000006294251,2|2,0:2|0:2,0:2:0:0:
168,240,117980,1,0,0:0:0:0:
112,200,118048,1,0,0:0:0:0:
296,216,118116,1,0,3:2:0:0:
128,128,118218,2,0,L|224:128,2,82.5000031471254,2|2|0,0:2|0:2|0:2,0:0:0:0:
352,128,118524,6,0,L|352:40,1,82.5000031471254,10|2,0:2|0:2,0:0:0:0:
176,40,118728,2,0,L|80:40,1,82.5000031471254,2|2,0:2|0:2,0:0:0:0:
288,176,118932,2,0,L|184:176,1,82.5000031471254,2|2,0:2|0:2,0:0:0:0:
384,304,119136,1,0,0:0:0:0:
80,320,119341,6,0,L|264:320,1,165.000006294251,6|0,3:2|0:0,0:2:0:0:
152,280,119647,1,0,0:2:0:0:
344,272,119749,2,0,L|456:272,1,82.5000031471254,2|0,0:2|0:0,0:2:0:0:
224,152,119953,2,0,L|136:152,1,82.5000031471254,0|0,0:0|0:2,0:0:0:0:
384,152,120157,5,10,0:2:0:0:
144,224,120259,2,0,L|256:224,1,82.5000031471254,0|2,0:2|3:2,0:0:0:0:
384,72,120463,1,0,0:2:0:0:
144,80,120565,2,0,L|144:168,1,82.5000031471254,6|0,3:2|0:2,0:2:0:0:
336,272,120769,2,0,L|240:272,1,82.5000031471254,2|0,0:2|0:2,0:2:0:0:
472,128,120973,6,0,L|384:128,1,82.5000031471254,2|2,0:2|0:2,0:0:0:0:
160,216,121177,2,2,L|256:216,1,82.5000031471254,6|2,3:2|0:2,0:2:0:0:
72,312,121381,2,0,L|168:312,1,82.5000031471254,6|0,3:2|0:2,0:2:0:0:
352,160,121585,1,2,3:2:0:0:
184,136,121687,1,2,3:2:0:0:
352,88,121789,1,10,0:2:0:0:
192,248,121994,6,0,L|328:136,2,165.000006294251,2|2|2,0:2|0:2|0:2,0:0:0:0:
464,312,122606,6,0,L|352:312,1,82.5000031471254,6|0,3:2|0:0,0:2:0:0:
192,296,122810,1,0,0:0:0:0:
376,192,122912,2,0,L|472:192,1,82.5000031471254,0|0,0:2|0:2,0:0:0:0:
272,112,123116,1,0,0:2:0:0:
313,112,123167,1,0,0:0:0:0:
354,112,123218,1,10,0:2:0:0:
313,112,123269,1,0,0:0:0:0:
272,112,123320,1,0,0:2:0:0:
88,112,123422,6,0,L|88:200,1,82.5000031471254,2|2,3:2|0:2,0:0:0:0:
312,224,123626,2,0,L|416:224,1,82.5000031471254,0|0,0:0|0:2,0:0:0:0:
120,320,123830,1,10,0:2:0:0:
161,320,123881,1,0,0:0:0:0:
202,320,123932,1,0,0:0:0:0:
243,320,123983,1,0,0:0:0:0:
285,320,124034,1,0,0:0:0:0:
200,288,124136,1,0,0:2:0:0:
416,288,124238,6,0,L|512:288,1,82.5000031471254,2|2,3:2|0:2,0:0:0:0:
288,160,124443,1,0,0:0:0:0:
234,160,124511,1,0,0:0:0:0:
184,160,124579,1,0,0:0:0:0:
312,160,124647,2,0,L|312:48,1,82.5000031471254,10|0,0:2|0:0,0:2:0:0:
120,216,124851,2,0,L|208:216,1,82.5000031471254,0|0,0:0|0:2,0:0:0:0:
432,88,125055,6,0,L|320:88,1,82.5000031471254,2|2,3:2|0:2,0:0:0:0:
128,160,125259,1,0,0:0:0:0:
176,160,125310,1,0,0:0:0:0:
224,160,125361,1,0,0:2:0:0:
400,248,125463,2,0,L|224:248,1,165.000006294251,10|0,0:2|0:0,0:2:0:0:
328,224,125769,1,0,0:2:0:0:
128,208,125871,6,0,L|32:208,1,82.5000031471254,6|0,3:2|0:2,0:2:0:0:
384,48,126075,2,0,L|480:48,1,82.5000031471254,2|2,0:2|3:2,0:0:0:0:
312,136,126279,2,0,L|416:136,1,82.5000031471254,2|2,0:2|0:2,0:0:0:0:
240,216,126483,2,0,L|328:216,1,82.5000031471254,2|2,0:2|0:2,0:0:0:0:
112,192,126687,6,0,L|24:192,1,82.5000031471254,2|2,3:2|0:2,0:2:0:0:
232,352,126892,2,0,L|149:352,1,82.5000031471254,2|2,0:2|3:2,0:0:0:0:
360,368,127096,2,0,L|360:280,1,82.5000031471254,2|0,0:2|0:2,0:2:0:0:
168,128,127300,2,0,L|64:128,1,82.5000031471254,2|0,0:2|0:2,0:2:0:0:
392,128,127504,6,0,L|272:128,1,82.5000031471254,2|0,3:2|0:2,0:2:0:0:
96,256,127708,1,2,0:2:0:0:
176,256,127810,1,0,0:0:0:0:
96,256,127912,1,2,0:2:0:0:
352,256,128014,1,2,0:2:0:0:
192,144,128116,2,0,L|296:144,1,82.5000031471254,2|2,0:2|0:2,0:0:0:0:
448,88,128320,6,0,L|352:88,2,82.5000031471254,6|0|2,3:2|0:2|3:2,0:2:0:0:
216,256,128626,1,6,3:2:0:0:
312,256,128728,1,0,0:2:0:0:
408,256,128830,1,2,3:2:0:0:
232,336,128932,2,0,L|136:336,1,82.5000031471254,6|0,3:2|0:2,0:2:0:0:
400,336,129136,6,0,P|464:280|352:176,1,247.500009441376,6|2,3:2|0:2,0:0:0:0:
216,144,129545,2,0,L|112:136,1,82.5000031471254,2|2,3:2|0:2,0:0:0:0:
440,64,129851,6,0,P|456:152|336:272,1,247.500009441376,2|0,0:2|0:0,0:2:0:0:
192,264,130361,1,0,0:0:0:0:
344,328,130565,1,0,0:0:0:0:
88,328,130769,6,0,P|50:245|144:226,1,165.000006294251,2|0,0:2|0:0,0:2:0:0:
184,200,131075,1,0,0:2:0:0:
352,192,131177,2,0,L|448:192,1,82.5000031471254,2|2,3:2|3:2,0:0:0:0:
200,112,131381,2,0,L|200:8,1,82.5000031471254,2|2,3:2|3:2,0:0:0:0:
360,40,131585,6,0,L|480:40,3,82.5000031471254,2|2|2|2,3:2|3:2|3:2|3:2,0:0:0:0:
192,256,131994,2,0,L|32:256,1,82.5000031471254,8|0,0:2|0:0,0:2:0:0:
328,136,132198,2,0,L|424:136,1,82.5000031471254,0|0,0:0|0:2,0:0:0:0:
184,144,132402,6,0,L|0:144,1,165.000006294251,4|0,3:2|0:2,0:2:0:0:
112,120,132708,1,2,0:2:0:0:
336,240,132810,1,10,3:2:0:0:
144,248,132912,2,0,L|248:248,1,82.5000031471254,2|0,0:2|0:2,0:2:0:0:
432,120,133116,6,0,L|216:120,1,165.000006294251,2|0,0:2|0:2,0:2:0:0:
432,184,133422,2,0,L|432:288,1,82.5000031471254,2|0,0:2|0:2,0:2:0:0:
216,272,133626,2,0,L|120:272,1,82.5000031471254,10|0,3:2|0:2,0:2:0:0:
336,136,133830,2,0,L|208:136,1,82.5000031471254,2|0,0:2|0:2,0:2:0:0:
48,80,134034,6,0,L|240:80,1,165.000006294251,2|0,3:2|0:2,0:2:0:0:
128,128,134341,1,2,0:2:0:0:
336,136,134443,2,0,L|432:136,1,82.5000031471254,8|0,3:2|0:0,0:0:0:0:
216,304,134647,6,0,L|24:304,1,165.000006294251,2|2,0:2|3:2,0:2:0:0:
120,272,134919,1,2,0:2:0:0:
192,240,134987,1,2,0:2:0:0:
120,216,135055,1,2,0:2:0:0:
48,184,135123,1,2,0:2:0:0:
120,152,135191,1,2,0:2:0:0:
336,192,135259,2,0,L|432:192,1,82.5000031471254,10|2,3:2|0:2,0:2:0:0:
176,88,135463,2,0,L|272:88,1,82.5000031471254,2|2,0:2|0:2,0:0:0:0:
456,320,135667,6,0,L|272:320,1,165.000006294251,6|0,3:2|0:2,0:2:0:0:
384,288,135973,1,2,0:2:0:0:
208,272,136075,1,10,3:2:0:0:
384,152,136177,2,0,L|296:152,1,82.5000031471254,2|0,0:2|0:2,0:2:0:0:
96,72,136381,6,0,L|288:72,1,165.000006294251,2|0,0:2|0:2,0:2:0:0:
88,136,136687,2,0,L|184:136,1,82.5000031471254,2|0,0:2|0:2,0:2:0:0:
376,256,136892,2,0,L|256:256,1,82.5000031471254,10|0,3:2|0:2,0:2:0:0:
456,144,137096,2,0,L|358:143,1,82.5000031471254,2|0,0:2|0:2,0:2:0:0:
160,328,137300,6,0,L|336:328,1,165.000006294251,2|0,3:2|0:2,0:2:0:0:
232,288,137606,1,2,0:2:0:0:
456,144,137708,2,0,L|128:144,1,288.750011014939,8|0,3:2|0:0,0:0:0:0:
167,144,137912,2,0,L|456:144,1,288.750011014939,2|0,0:2|0:0,0:0:0:0:
456,144,138116,6,0,L|456:40,1,82.5000031471254,2|0,3:2|0:0,0:2:0:0:
360,64,138320,1,0,0:2:0:0:
168,240,138422,2,0,L|264:240,2,82.5000031471254,2|10|0,3:2|0:2|0:2,0:0:0:0:
360,240,138728,2,0,L|256:240,1,82.5000031471254,0|0,3:2|0:2,0:2:0:0:
96,240,138932,6,0,L|8:240,2,82.5000031471254,14|0|0,3:2|0:0|0:2,0:2:0:0:
368,120,139238,2,0,L|496:120,2,82.5000031471254,2|10|0,3:2|0:2|0:0,0:0:0:0:
120,112,139545,2,0,L|216:112,1,82.5000031471254,0|0,0:0|0:2,0:0:0:0:
432,320,139749,6,0,L|336:320,2,82.5000031471254,6|0|0,3:2|0:0|0:2,0:2:0:0:
168,264,140055,2,0,L|56:264,2,82.5000031471254,2|10|0,3:2|0:2|0:0,0:0:0:0:
432,152,140361,2,0,L|328:152,1,82.5000031471254,0|0,0:0|0:2,0:0:0:0:
88,144,140565,6,0,L|256:144,1,165.000006294251,6|0,3:2|0:2,0:2:0:0:
464,312,140871,2,0,L|288:312,1,165.000006294251,2|0,3:2|0:2,0:0:0:0:
488,144,141177,2,0,L|384:144,1,82.5000031471254,2|0,3:2|0:2,0:2:0:0:
144,264,141381,6,0,L|328:264,1,165.000006294251,2|0,3:2|0:2,0:2:0:0:
80,184,141687,2,0,P|39:96|104:67,1,165.000006294251,2|0,0:2|0:2,0:2:0:0:
280,72,141994,2,0,L|376:72,1,82.5000031471254,2|0,0:2|0:2,0:2:0:0:
120,296,142198,5,6,3:2:0:0:
256,192,142300,12,0,143830,1:2:0:0:
144,304,144034,5,0,3:2:0:0:
272,280,144136,1,0,3:2:0:0:
144,264,144238,1,0,1:2:0:0:
272,240,144341,1,0,3:2:0:0:
96,144,144545,6,0,L|192:144,1,82.5000031471254,0|0,3:2|0:2,0:2:0:0:
376,144,144749,2,0,L|472:144,1,82.5000031471254,0|0,3:2|0:2,0:2:0:0:
256,288,144953,1,0,3:2:0:0:
448,288,145055,2,0,L|448:192,1,82.5000031471254,8|0,1:2|1:2,0:2:0:0:
256,96,145259,2,0,L|152:96,1,82.5000031471254,0|0,1:2|1:2,0:0:0:0:
448,288,145463,6,0,L|280:288,1,165.000006294251,4|0,3:2|0:2,0:2:0:0:
56,288,145769,2,0,L|56:120,1,165.000006294251,4|0,3:2|0:0,0:2:0:0:
472,128,146279,2,0,L|216:128,2,247.500009441376,4|4|4,3:2|3:2|3:2,0:2:0:0:
184,304,147096,5,0,0:0:0:0:
336,296,147300,2,0,L|344:232,1,41.2500015735627,2|0,0:2|0:0,0:2:0:0:
200,216,147504,2,0,L|192:160,1,41.2500015735627,2|0,1:2|0:0,0:2:0:0:
336,144,147708,2,0,L|312:104,1,41.2500015735627,2|0,0:2|0:0,0:2:0:0:
168,88,147912,2,0,L|112:72,1,41.2500015735627,2|0,0:2|0:0,0:2:0:0:
288,56,148116,2,0,L|344:56,1,41.2500015735627,0|0,3:2|0:2,0:2:0:0:
288,80,148218,1,0,0:2:0:0:
112,304,148320,5,0,1:2:0:0:
73,290,148371,1,0,0:2:0:0:
43,262,148422,1,0,0:2:0:0:
28,224,148473,1,0,0:0:0:0:
30,183,148524,1,2,0:2:0:0:
49,146,148575,1,0,0:0:0:0:
81,121,148626,1,0,0:0:0:0:
120,111,148677,1,0,0:0:0:0:
280,112,148728,6,0,L|480:112,1,165.000006294251,4|0,3:2|0:2,0:2:0:0:
224,272,149034,2,0,L|224:88,1,165.000006294251,4|0,3:2|0:0,0:2:0:0:
464,280,149545,6,0,L|184:280,2,247.500009441376,4|4|4,3:2|3:2|3:2,0:2:0:0:
160,112,150361,5,0,0:0:0:0:
304,112,150565,2,0,L|296:168,1,41.2500015735627,2|0,0:2|0:0,0:2:0:0:
160,208,150769,2,0,L|144:264,1,41.2500015735627,2|0,1:2|0:0,0:2:0:0:
296,256,150973,2,0,L|344:256,1,41.2500015735627,2|0,0:2|0:0,0:2:0:0:
200,320,151177,6,0,L|192:264,1,41.2500015735627,2|0,0:2|0:0,0:2:0:0:
344,256,151381,1,2,0:2:0:0:
367,223,151432,1,0,0:0:0:0:
358,184,151483,1,0,1:2:0:0:
323,165,151534,1,0,0:0:0:0:
200,144,151585,1,2,1:2:0:0:
167,120,151636,1,0,0:0:0:0:
170,81,151687,1,0,0:0:0:0:
204,62,151738,1,0,0:0:0:0:
344,136,151789,1,2,0:2:0:0:
373,109,151840,1,0,0:0:0:0:
368,70,151891,1,0,0:0:0:0:
332,52,151942,1,0,0:0:0:0:
176,288,151994,6,0,L|8:288,1,165.000006294251,6|0,3:2|0:2,0:2:0:0:
288,296,152300,2,0,L|288:112,1,165.000006294251,4|0,3:2|0:0,0:2:0:0:
24,80,152810,6,0,L|288:80,2,247.500009441376,4|4|4,3:2|3:2|3:2,0:2:0:0:
344,192,153626,5,0,0:0:0:0:
184,192,153830,2,0,L|168:240,1,41.2500015735627,2|0,0:2|0:0,0:2:0:0:
312,72,154034,1,2,1:2:0:0:
352,80,154085,1,0,0:0:0:0:
384,105,154136,1,0,0:2:0:0:
402,141,154187,1,0,0:0:0:0:
402,182,154238,1,2,0:2:0:0:
384,219,154289,1,0,0:0:0:0:
351,244,154340,1,0,1:2:0:0:
311,252,154391,1,0,0:0:0:0:
208,248,154443,6,0,L|144:248,1,41.2500015735627,2|0,0:2|0:0,0:2:0:0:
304,336,154647,2,0,L|312:280,1,41.2500015735627,2|0,3:2|0:2,0:2:0:0:
152,168,154851,2,0,L|144:120,1,41.2500015735627,0|0,1:2|0:2,0:0:0:0:
360,80,155055,2,0,L|480:80,1,82.5000031471254,0|0,3:2|0:2,0:2:0:0:
176,312,155259,6,0,L|168:144,1,165.000006294251,4|0,3:2|0:2,0:2:0:0:
264,136,155565,1,0,3:2:0:0:
72,88,155667,2,0,L|184:80,1,82.5000031471254,0|0,0:0|0:2,0:0:0:0:
376,240,155871,2,0,L|264:232,1,82.5000031471254,0|0,3:2|0:2,0:2:0:0:
104,240,156075,6,0,L|280:224,1,165.000006294251,0|0,3:2|0:2,0:2:0:0:
184,168,156381,1,0,3:2:0:0:
376,168,156483,2,0,L|280:168,1,82.5000031471254,0|0,0:0|0:2,0:0:0:0:
104,328,156687,2,0,L|200:328,1,82.5000031471254,0|0,3:2|0:2,0:2:0:0:
416,336,156892,6,0,L|416:168,1,165.000006294251,0|0,3:2|0:2,0:2:0:0:
320,136,157198,1,0,3:2:0:0:
160,104,157300,2,0,L|64:88,1,82.5000031471254,0|0,0:0|0:2,0:0:0:0:
232,264,157504,2,0,L|136:248,1,82.5000031471254,0|0,3:2|0:2,0:2:0:0:
416,88,157708,6,0,L|224:88,1,165.000006294251,0|0,3:2|0:2,0:2:0:0:
328,136,158014,1,0,3:2:0:0:
128,192,158116,2,0,L|232:192,1,82.5000031471254,0|0,0:0|0:2,0:0:0:0:
424,296,158320,2,0,L|304:296,1,82.5000031471254,0|0,3:2|0:2,0:2:0:0:
120,304,158524,6,0,L|120:216,1,82.5000031471254,8|0,3:2|0:2,0:2:0:0:
360,184,158728,2,0,L|456:184,1,82.5000031471254,8|0,3:2|0:2,0:2:0:0:
200,104,158932,2,0,L|288:104,1,82.5000031471254,0|0,3:2|3:2,0:0:0:0:
112,184,159136,2,0,L|8:184,1,82.5000031471254,0|0,3:2|3:2,0:0:0:0:
152,280,159289,1,0,3:2:0:0:
272,280,159341,6,0,L|72:280,1,165.000006294251,12|0,3:2|0:2,0:2:0:0:
352,136,159647,2,0,L|176:136,1,165.000006294251,12|0,3:2|0:2,0:2:0:0:
408,136,159953,2,0,L|408:328,1,165.000006294251,12|0,3:2|0:0,0:2:0:0:
152,296,160361,1,0,0:0:0:0:
456,192,160565,2,0,L|456:144,1,41.2500015735627,2|0,0:2|0:0,0:2:0:0:
136,136,160769,2,0,L|136:72,1,41.2500015735627,2|0,0:2|0:0,0:2:0:0:
464,48,160973,2,0,L|400:48,1,41.2500015735627,2|0,0:2|0:0,0:2:0:0:
112,288,161177,2,0,L|176:288,1,41.2500015735627,2|0,0:2|0:0,0:2:0:0:
384,296,161381,6,0,B|288:296|240:272|240:272|240:152,1,247.500009441376,12|0,0:2|0:0,0:0:0:0:
432,88,161789,6,0,L|88:88,1,330.000012588501,6|0,3:2|0:0,0:2:0:0:
192,136,162096,1,0,0:2:0:0:
432,136,162198,2,0,L|416:232,1,82.5000031471254,10|0,3:2|0:0,0:2:0:0:
240,208,162402,2,0,L|224:312,1,82.5000031471254,0|0,0:0|0:2,0:0:0:0:
432,136,162606,6,0,L|416:232,1,82.5000031471254,2|0,3:2|0:0,0:2:0:0:
240,208,162810,2,0,L|224:312,1,82.5000031471254,0|0,0:0|0:2,0:0:0:0:
432,136,163014,2,0,L|416:232,1,82.5000031471254,8|0,3:2|0:0,0:0:0:0:
80,64,163218,2,0,L|176:88,1,82.5000031471254,2|0,0:2|0:2,0:2:0:0:
344,160,163422,6,0,L|432:184,1,82.5000031471254,2|0,3:2|0:2,0:2:0:0:
80,64,163626,2,0,L|176:88,1,82.5000031471254,2|0,0:2|0:2,0:2:0:0:
344,160,163830,2,0,L|432:184,1,82.5000031471254,10|0,3:2|0:2,0:2:0:0:
80,64,164034,2,0,L|176:88,1,82.5000031471254,2|0,0:2|0:2,0:2:0:0:
344,160,164238,2,0,L|432:184,1,82.5000031471254,2|0,3:2|0:2,0:2:0:0:
80,64,164443,2,0,L|176:88,1,82.5000031471254,2|0,0:2|0:2,0:2:0:0:
344,192,164647,2,0,L|448:192,1,82.5000031471254,10|0,3:2|0:2,0:2:0:0:
208,320,164851,2,0,L|312:320,1,82.5000031471254,2|0,0:2|0:2,0:2:0:0:
88,128,165055,6,0,L|440:128,1,330.000012588501,6|0,3:2|0:0,0:2:0:0:
336,192,165361,1,0,0:2:0:0:
88,328,165463,6,0,L|80:240,1,82.5000031471254,10|0,3:2|0:0,0:2:0:0:
256,200,165667,2,0,L|248:104,1,82.5000031471254,0|2,0:2|0:2,0:0:0:0:
88,328,165871,2,0,L|80:240,1,82.5000031471254,2|0,3:2|0:2,0:2:0:0:
256,200,166075,2,0,L|248:104,1,82.5000031471254,2|0,0:2|0:0,0:2:0:0:
88,328,166279,2,0,L|80:240,1,82.5000031471254,8|2,3:2|0:2,0:0:0:0:
384,336,166483,2,0,L|288:320,1,82.5000031471254,2|0,0:2|0:2,0:2:0:0:
112,168,166687,6,0,L|16:152,1,82.5000031471254,2|2,3:2|0:2,0:2:0:0:
384,336,166892,2,0,L|288:320,1,82.5000031471254,2|2,0:2|3:2,0:0:0:0:
112,168,167096,2,0,L|16:152,1,82.5000031471254,10|0,0:2|0:2,0:2:0:0:
296,272,167300,2,0,L|400:248,1,82.5000031471254,2|0,3:2|0:2,0:2:0:0:
184,192,167504,2,0,L|16:192,1,165.000006294251,2|2,0:2|3:2,0:2:0:0:
112,160,167810,1,2,0:2:0:0:
376,160,167912,1,10,0:2:0:0:
413,175,167963,1,0,0:0:0:0:
440,206,168014,1,0,0:0:0:0:
453,245,168065,1,0,0:0:0:0:
450,286,168116,1,0,0:0:0:0:
430,322,168167,1,0,0:0:0:0:
397,347,168218,1,0,0:2:0:0:
357,356,168269,1,0,0:0:0:0:
128,304,168320,6,0,L|480:304,1,330.000012588501,6|0,3:2|0:0,0:2:0:0:
368,264,168626,1,0,0:2:0:0:
112,200,168728,6,0,L|128:104,1,82.5000031471254,10|0,0:2|0:0,0:2:0:0:
296,112,168932,2,0,L|312:24,1,82.5000031471254,0|0,0:0|0:2,0:0:0:0:
112,200,169136,2,0,L|128:104,1,82.5000031471254,2|0,3:2|0:0,0:2:0:0:
296,112,169340,2,0,L|312:24,1,82.5000031471254,0|0,0:0|0:2,0:0:0:0:
112,200,169545,2,0,L|128:104,1,82.5000031471254,10|0,0:2|0:0,0:0:0:0:
488,320,169749,2,0,L|472:224,1,82.5000031471254,2|0,0:2|0:2,0:2:0:0:
296,184,169953,6,0,L|208:184,1,82.5000031471254,2|0,3:2|0:2,0:2:0:0:
24,320,170157,2,0,L|40:232,1,82.5000031471254,2|0,0:2|0:2,0:2:0:0:
216,184,170361,2,0,L|304:184,1,82.5000031471254,10|0,3:2|0:2,0:2:0:0:
488,320,170565,2,0,L|472:232,1,82.5000031471254,2|0,0:2|0:2,0:2:0:0:
296,184,170769,2,0,L|208:184,1,82.5000031471254,2|0,3:2|0:2,0:2:0:0:
384,296,170973,2,0,L|488:296,1,82.5000031471254,2|0,0:2|0:2,0:2:0:0:
224,96,171177,2,0,L|128:96,1,82.5000031471254,10|0,3:2|0:2,0:2:0:0:
360,96,171381,2,0,L|448:96,1,82.5000031471254,2|0,0:2|0:2,0:2:0:0:
152,192,171585,6,0,L|496:192,1,330.000012588501,6|0,3:2|0:0,0:2:0:0:
400,248,171892,1,0,0:2:0:0:
192,336,171994,6,0,L|216:232,1,82.5000031471254,10|0,3:2|0:0,0:2:0:0:
392,248,172198,2,0,L|416:144,1,82.5000031471254,0|0,0:0|0:2,0:0:0:0:
192,336,172402,2,0,L|168:232,1,82.5000031471254,2|0,3:2|0:2,0:2:0:0:
392,248,172606,2,0,L|376:144,1,82.5000031471254,2|2,0:2|0:2,0:0:0:0:
192,336,172810,2,0,L|168:240,1,82.5000031471254,8|0,3:2|0:2,0:0:0:0:
392,248,173014,2,0,L|416:152,1,82.5000031471254,2|2,0:2|0:2,0:0:0:0:
144,128,173218,6,0,L|48:128,1,82.5000031471254,2|0,3:2|0:0,3:2:0:0:
296,72,173422,2,0,L|408:72,2,82.5000031471254,0|2|10,0:2|3:2|0:2,0:0:0:0:
408,72,173830,2,0,L|320:72,1,82.5000031471254,2|0,3:2|0:2,0:2:0:0:
152,256,174034,2,0,L|264:256,1,82.5000031471254,2|0,3:2|0:2,0:2:0:0:
56,256,174238,2,0,L|56:160,1,82.5000031471254,2|0,3:2|0:2,0:2:0:0:
352,112,174443,5,10,3:2:0:0:
387,129,174494,1,0,0:0:0:0:
415,159,174545,1,0,0:0:0:0:
429,198,174596,1,0,0:0:0:0:
427,239,174647,1,0,0:0:0:0:
410,276,174698,1,0,0:0:0:0:
380,304,174749,1,0,0:2:0:0:
341,317,174800,1,0,0:0:0:0:
144,312,174851,6,0,L|128:272,4,41.2500015735627,6|0|0|0|0,3:2|0:0|0:0|0:0|0:0,0:2:0:0:
240,312,175157,1,0,0:2:0:0:
408,144,175259,2,0,L|304:144,1,82.5000031471254,10|0,3:2|0:2,0:2:0:0:
120,72,175463,2,0,L|216:72,1,82.5000031471254,2|0,0:2|0:2,0:2:0:0:
408,64,175667,6,0,L|408:160,1,82.5000031471254,6|0,3:2|0:0,0:2:0:0:
224,192,175871,2,0,L|224:304,1,82.5000031471254,0|0,0:0|0:2,0:0:0:0:
408,64,176075,2,0,L|408:160,1,82.5000031471254,8|0,3:2|0:0,0:0:0:0:
168,80,176279,2,0,L|72:80,1,82.5000031471254,2|0,0:2|0:2,0:2:0:0:
328,176,176483,6,0,L|416:176,1,82.5000031471254,2|0,3:2|0:2,0:2:0:0:
240,280,176687,2,0,L|157:280,1,82.5000031471254,2|0,0:2|0:2,0:2:0:0:
328,176,176892,2,0,L|416:176,1,82.5000031471254,10|0,3:2|0:2,0:2:0:0:
240,280,177096,2,0,L|157:280,1,82.5000031471254,2|0,0:2|0:2,0:2:0:0:
328,176,177300,2,0,L|416:176,1,82.5000031471254,2|0,3:2|0:2,0:2:0:0:
240,280,177504,2,0,L|157:280,1,82.5000031471254,2|0,0:2|0:2,0:2:0:0:
440,288,177708,2,0,L|440:200,1,82.5000031471254,10|0,3:2|0:2,0:2:0:0:
232,120,177912,2,0,L|336:120,1,82.5000031471254,2|0,0:2|0:2,0:2:0:0:
88,120,178116,5,6,3:2:0:0:
50,135,178167,1,0,0:0:0:0:
36,172,178218,1,0,0:0:0:0:
52,209,178269,1,0,0:0:0:0:
90,223,178320,1,0,0:0:0:0:
192,224,178422,1,0,0:2:0:0:
376,216,178524,2,0,L|280:216,1,82.5000031471254,10|0,3:2|0:0,0:2:0:0:
464,328,178728,2,0,L|368:328,1,82.5000031471254,0|0,0:0|0:2,0:0:0:0:
128,336,178932,6,0,L|128:240,1,82.5000031471254,2|2,3:2|0:2,0:0:0:0:
328,240,179136,2,0,L|328:144,1,82.5000031471254,2|2,0:2|0:2,0:0:0:0:
128,152,179341,2,0,L|128:64,1,82.5000031471254,10|0,3:2|0:2,0:2:0:0:
328,56,179545,2,2,L|416:56,1,82.5000031471254,0|0,0:2|0:2,0:2:0:0:
200,200,179749,6,0,L|104:200,1,82.5000031471254,2|0,3:2|0:0,0:0:0:0:
328,304,179953,2,0,L|424:304,1,82.5000031471254,2|0,0:2|3:2,0:2:0:0:
272,240,180106,1,0,0:0:0:0:
136,152,180157,2,0,L|240:152,1,82.5000031471254,10|0,0:2|0:2,0:2:0:0:
408,152,180361,2,0,L|504:152,1,82.5000031471254,2|0,3:2|0:2,0:2:0:0:
224,288,180565,6,0,L|40:288,1,165.000006294251,2|2,3:2|3:2,0:0:0:0:
304,192,180871,1,0,0:2:0:0:
128,192,180973,1,10,0:2:0:0:
87,197,181024,1,0,0:0:0:0:
53,220,181075,1,0,0:0:0:0:
34,255,181126,1,0,0:0:0:0:
32,296,181177,1,0,0:0:0:0:
50,333,181228,1,0,0:0:0:0:
83,358,181279,1,0,0:2:0:0:
123,365,181330,1,0,0:0:0:0:
384,304,181381,6,0,L|424:280,4,41.2500015735627,6|0|0|0|0,3:2|0:0|0:0|0:0|0:0,0:2:0:0:
288,304,181687,1,0,0:2:0:0:
96,136,181789,2,0,L|280:136,1,165.000006294251,10|2,3:2|0:2,0:2:0:0:
168,104,182096,1,0,0:2:0:0:
408,128,182198,6,0,L|400:232,1,82.5000031471254,2|0,3:2|0:0,0:2:0:0:
224,232,182402,2,0,L|216:344,1,82.5000031471254,0|0,0:0|0:2,0:0:0:0:
408,128,182606,2,0,L|400:232,1,82.5000031471254,8|0,3:2|0:0,0:0:0:0:
152,128,182810,2,0,L|56:128,1,82.5000031471254,2|0,0:2|0:2,0:2:0:0:
304,128,183014,6,0,L|400:128,1,82.5000031471254,2|0,3:2|0:2,0:2:0:0:
192,264,183218,2,0,L|304:264,1,82.5000031471254,2|0,0:2|0:2,0:2:0:0:
72,64,183422,2,0,L|176:64,1,82.5000031471254,10|0,3:2|0:2,0:2:0:0:
344,176,183626,2,0,L|248:176,1,82.5000031471254,2|0,0:2|0:2,0:2:0:0:
464,296,183830,6,0,L|368:296,1,82.5000031471254,2|0,3:2|0:2,0:2:0:0:
168,200,184034,2,0,L|264:200,1,82.5000031471254,2|0,0:2|0:2,0:2:0:0:
472,96,184238,2,0,L|368:96,1,82.5000031471254,10|0,3:2|0:2,0:2:0:0:
96,304,184443,2,0,L|208:304,1,82.5000031471254,2|0,0:2|0:2,0:2:0:0:
352,184,184647,5,6,3:2:0:0:
310,184,184698,1,0,0:0:0:0:
269,184,184749,1,0,0:0:0:0:
310,184,184800,1,0,0:0:0:0:
352,184,184851,1,0,0:0:0:0:
256,184,184953,1,0,0:2:0:0:
448,176,185055,6,0,L|448:272,1,82.5000031471254,10|2,0:2|0:2,0:2:0:0:
352,272,185259,2,0,L|352:368,1,82.5000031471254,2|2,0:2|0:2,0:0:0:0:
160,184,185463,2,0,L|56:184,3,82.5000031471254,2|2|2|2,3:2|3:2|3:2|3:2,0:0:0:0:
304,72,185871,2,0,L|416:72,3,82.5000031471254,2|2|12|0,3:2|3:2|3:2|0:0,0:0:0:0:
176,72,186279,6,0,L|80:72,1,82.5000031471254,0|0,0:0|0:2,0:0:0:0:
360,72,186483,1,12,3:2:0:0:
400,69,186534,1,0,0:0:0:0:
437,87,186585,1,0,0:0:0:0:
459,121,186636,1,0,0:0:0:0:
461,161,186687,1,0,0:0:0:0:
442,197,186738,1,0,0:0:0:0:
407,219,186789,1,0,0:2:0:0:
367,220,186840,1,0,0:0:0:0:
192,216,186892,2,0,L|288:216,1,82.5000031471254,0|0,3:2|0:2,0:2:0:0:
96,344,187096,6,0,P|56:272|144:136,1,247.500009441376,12|0,3:2|0:0,0:2:0:0:
216,144,187504,1,0,0:0:0:0:
48,144,187708,1,0,0:0:0:0:
392,304,187912,6,0,L|184:296,1,165.000006294251,6|0,3:2|0:0,0:2:0:0:
320,264,188218,1,0,0:2:0:0:
128,224,188320,2,0,L|112:120,1,82.5000031471254,2|2,3:2|0:2,0:0:0:0:
232,144,188524,2,0,L|216:32,1,82.5000031471254,0|0,0:0|0:2,0:0:0:0:
48,304,188728,2,0,L|312:280,2,247.500009441376,10|2|2,0:2|3:2|3:2,0:2:0:0:
144,320,189443,1,0,0:2:0:0:
424,280,189545,6,0,L|312:264,3,82.5000031471254,2|2|2|2,0:2|0:2|0:2|0:2,0:0:0:0:
168,224,189953,2,0,L|352:224,1,165.000006294251,2|2,3:2|0:2,0:0:0:0:
248,168,190259,1,0,0:2:0:0:
64,88,190361,6,0,L|320:88,2,247.500009441376,10|2|2,0:2|3:2|3:2,0:2:0:0:
160,120,191075,1,0,0:2:0:0:
424,256,191177,6,0,L|248:256,1,165.000006294251,6|0,3:2|0:0,0:2:0:0:
344,216,191483,1,0,0:2:0:0:
256,160,191585,2,0,L|344:160,1,82.5000031471254,2|0,3:2|0:0,0:0:0:0:
104,152,191789,1,2,0:2:0:0:
48,128,191858,1,0,0:0:0:0:
104,96,191926,1,2,0:0:0:0:
256,96,191994,6,0,L|512:96,2,247.500009441376,10|2|2,0:2|3:2|3:2,0:2:0:0:
352,128,192708,1,0,0:2:0:0:
192,288,192810,6,0,L|16:288,1,165.000006294251,2|0,0:2|0:0,0:2:0:0:
112,240,193116,1,0,0:2:0:0:
328,248,193218,2,0,L|328:152,1,82.5000031471254,2|0,3:2|0:2,0:2:0:0:
112,88,193422,2,0,L|208:88,1,82.5000031471254,2|0,0:2|0:2,0:2:0:0:
440,272,193626,6,0,L|336:272,1,82.5000031471254,10|0,0:2|0:0,0:2:0:0:
168,272,193830,2,0,L|72:272,1,82.5000031471254,0|2,0:2|3:2,0:0:0:0:
264,176,194034,2,0,L|160:176,1,82.5000031471254,0|0,0:0|0:2,0:0:0:0:
352,80,194238,2,0,L|248:80,1,82.5000031471254,2|0,3:2|0:2,0:2:0:0:
56,160,194443,6,0,L|224:160,1,165.000006294251,6|0,3:2|0:0,0:2:0:0:
144,216,194749,1,0,0:2:0:0:
360,224,194851,2,0,L|368:128,1,82.5000031471254,2|2,3:2|0:2,0:0:0:0:
256,128,195055,2,0,L|264:40,1,82.5000031471254,0|0,0:0|0:2,0:0:0:0:
456,256,195259,6,0,L|208:256,2,247.500009441376,10|2|2,0:2|3:2|3:2,0:2:0:0:
368,208,195973,1,0,0:2:0:0:
184,152,196075,5,2,0:2:0:0:
88,152,196177,1,2,0:2:0:0:
184,152,196279,1,2,0:2:0:0:
88,152,196381,1,2,0:2:0:0:
312,152,196483,2,0,L|496:152,1,165.000006294251,2|2,3:2|0:2,0:0:0:0:
392,104,196789,1,0,0:2:0:0:
128,80,196892,6,0,L|416:80,2,247.500009441376,10|2|2,0:2|3:2|3:2,0:2:0:0:
216,128,197606,1,0,0:2:0:0:
48,128,197708,6,0,L|48:312,1,165.000006294251,4|0,3:2|0:0,0:2:0:0:
360,296,198116,2,0,L|184:296,1,165.000006294251,0|0,3:2|0:0,0:2:0:0:
496,304,198524,2,0,L|496:136,1,165.000006294251,8|0,3:2|0:2,0:2:0:0:
400,136,198830,1,0,3:2:0:0:
208,128,198932,2,0,L|208:32,1,82.5000031471254,0|0,0:2|0:0,0:0:0:0:
440,48,199136,2,0,L|357:48,1,82.5000031471254,0|0,3:2|0:0,0:0:0:0:
80,272,199341,6,0,L|248:272,1,165.000006294251,0|0,3:2|0:2,0:2:0:0:
416,168,199647,2,0,L|232:168,1,165.000006294251,0|0,3:2|0:2,0:0:0:0:
448,80,199953,2,0,L|365:80,1,82.5000031471254,0|0,3:2|3:2,0:0:0:0:
128,80,200157,1,10,0:2:0:0:
88,91,200208,1,0,0:0:0:0:
60,120,200259,1,0,0:0:0:0:
49,159,200310,1,0,0:0:0:0:
59,198,200361,1,2,0:2:0:0:
87,228,200412,1,0,0:0:0:0:
126,239,200463,1,0,0:0:0:0:
304,240,200565,1,2,0:2:0:0:
345,240,200616,1,0,0:0:0:0:
304,240,200667,1,0,0:0:0:0:
101,320,200769,1,0,0:0:0:0:
142,320,200820,1,0,0:0:0:0:
184,320,200871,1,0,0:0:0:0:
408,112,200973,6,0,L|224:112,1,165.000006294251,4|0,3:2|0:0,0:2:0:0:
336,144,201279,1,0,0:2:0:0:
488,248,201381,2,0,L|384:248,1,82.5000031471254,2|2,3:2|0:2,0:0:0:0:
208,248,201585,2,0,L|208:160,1,82.5000031471254,0|0,0:0|0:2,0:0:0:0:
400,96,201789,6,0,L|296:96,2,82.5000031471254,10|0|0,3:2|0:0|0:2,0:2:0:0:
144,192,202096,2,0,L|248:192,2,82.5000031471254,2|0|0,3:2|0:0|0:2,0:2:0:0:
376,192,202402,2,0,L|376:304,1,82.5000031471254,2|0,3:2|0:2,0:2:0:0:
88,288,202606,6,0,L|192:288,2,82.5000031471254,2|2|2,3:2|0:2|0:2,0:0:0:0:
288,120,202912,2,0,L|104:120,1,165.000006294251,2|0,0:2|0:0,0:0:0:0:
352,48,203218,2,0,L|448:48,1,82.5000031471254,2|0,0:2|0:2,0:2:0:0:
168,320,203422,6,0,L|168:136,1,165.000006294251,10|0,3:2|0:2,0:2:0:0:
392,144,203728,2,0,L|184:144,1,165.000006294251,2|0,3:2|0:2,0:2:0:0:
432,248,204034,2,0,L|328:248,1,82.5000031471254,10|0,3:2|0:2,0:2:0:0:
72,256,204238,6,0,L|256:256,1,165.000006294251,6|0,3:2|0:0,0:2:0:0:
144,208,204545,1,0,0:2:0:0:
360,208,204647,1,2,3:2:0:0:
396,191,204698,1,0,0:0:0:0:
411,153,204749,1,0,0:0:0:0:
395,117,204800,1,0,0:0:0:0:
357,102,204851,1,2,0:2:0:0:
256,104,204953,1,0,0:0:0:0:
424,320,205055,6,0,L|424:152,1,165.000006294251,8|0,3:2|0:2,0:2:0:0:
200,144,205361,2,0,L|384:144,1,165.000006294251,2|0,3:2|0:2,0:2:0:0:
152,256,205667,2,0,L|48:256,1,82.5000031471254,2|0,3:2|0:2,0:2:0:0:
320,256,205871,6,0,L|504:256,1,165.000006294251,2|0,3:2|0:2,0:2:0:0:
392,224,206177,1,2,0:2:0:0:
200,152,206279,2,0,L|112:152,1,82.5000031471254,2|0,3:2|0:2,0:2:0:0:
432,64,206483,2,0,L|328:64,1,82.5000031471254,2|0,0:2|0:2,0:2:0:0:
120,296,206687,6,0,L|224:296,3,82.5000031471254,10|0|0|2,3:2|0:0|0:2|3:2,0:2:0:0:
368,296,207096,2,0,L|472:296,1,82.5000031471254,0|0,0:0|0:2,0:0:0:0:
256,104,207300,2,0,L|160:104,1,82.5000031471254,10|0,3:2|0:2,0:2:0:0:
432,104,207504,6,0,L|448:152,4,41.2500015735627,6|0|0|0|0,3:2|0:0|0:0|0:0|0:0,0:2:0:0:
336,104,207810,1,0,0:2:0:0:
80,264,207912,2,0,L|168:264,1,82.5000031471254,2|0,3:2|0:2,0:0:0:0:
336,264,208116,2,0,L|456:264,1,82.5000031471254,0|0,0:0|0:2,0:0:0:0:
200,144,208320,6,0,L|96:144,2,82.5000031471254,10|0|0,3:2|0:0|0:2,0:2:0:0:
392,216,208626,2,0,L|304:216,2,82.5000031471254,2|0|0,3:2|0:0|0:2,0:2:0:0:
200,304,208932,2,0,L|312:304,1,82.5000031471254,2|0,3:2|0:2,0:2:0:0:
56,304,209136,6,0,L|56:208,1,82.5000031471254,2|2,3:2|0:2,0:0:0:0:
152,216,209341,1,2,0:2:0:0:
312,120,209443,2,0,L|224:120,2,82.5000031471254,2|2|0,0:2|3:2|0:0,0:0:0:0:
480,192,209749,2,0,L|384:192,1,82.5000031471254,2|0,0:2|0:2,0:2:0:0:
176,56,209953,6,0,L|88:56,2,82.5000031471254,10|0|0,3:2|0:0|0:2,0:2:0:0:
392,304,210259,2,0,L|504:304,2,82.5000031471254,2|0|0,3:2|0:0|0:2,0:2:0:0:
56,216,210565,2,0,L|152:216,1,82.5000031471254,10|0,3:2|0:2,0:2:0:0:
336,136,210769,6,0,L|144:136,1,165.000006294251,6|0,3:2|0:0,0:2:0:0:
488,24,211177,2,0,L|304:24,1,165.000006294251,0|2,3:2|0:2,0:2:0:0:
408,72,211483,1,0,0:0:0:0:
192,264,211585,6,0,L|440:264,2,247.500009441376,8|8|10,3:2|3:2|3:2,0:2:0:0:
288,248,212300,1,0,0:2:0:0:
64,248,212402,6,0,L|64:72,1,165.000006294251,2|0,3:2|0:0,0:2:0:0:
160,80,212708,1,0,0:2:0:0:
352,184,212810,2,0,L|160:184,1,165.000006294251,0|2,3:2|0:2,0:2:0:0:
280,144,213116,1,0,0:0:0:0:
104,312,213218,6,0,L|360:312,2,247.500009441376,8|8|10,3:2|3:2|3:2,0:2:0:0:
200,280,213932,1,0,0:2:0:0:
416,272,214034,5,2,1:2:0:0:
336,256,214136,1,0,1:2:0:0:
432,232,214238,1,0,1:2:0:0:
352,216,214341,1,0,1:2:0:0:
160,200,214443,1,0,1:2:0:0:
256,192,214545,1,0,1:2:0:0:
352,184,214647,1,0,1:2:0:0:
256,192,214749,1,0,1:2:0:0:
56,312,214851,6,0,L|160:296,1,82.5000031471254,0|0,1:2|1:2,0:0:0:0:
312,272,215055,2,0,L|424:248,1,82.5000031471254,0|0,1:2|1:2,0:0:0:0:
152,152,215259,2,0,L|280:128,1,82.5000031471254,0|0,1:2|1:2,0:0:0:0:
448,112,215463,2,0,L|344:88,1,82.5000031471254,0|0,1:2|1:2,0:0:0:0:
159,80,215667,5,4,3:2:0:0:
107,95,215735,1,0,0:0:0:0:
75,139,215803,1,0,0:0:0:0:
76,193,215871,1,0,0:0:0:0:
109,236,215939,1,0,0:0:0:0:
161,250,216007,1,0,0:0:0:0:
416,360,216075,6,0,B|176:360|176:360|120:320|120:320|120:32,1,577.500022029878,4|0,3:2|0:0,0:2:0:0:
360,48,216892,2,0,L|360:312,1,247.500009441376,0|0,0:2|0:0,0:0:0:0:
120,256,217300,1,6,3:2:0:0:
312,304,223830,6,0,L|320:160,1,131.99999597168,0|0,1:2|0:2,0:2:0:0:
160,144,224238,2,0,L|16:120,1,131.99999597168,0|0,0:0|1:2,0:0:0:0:
136,104,224545,1,0,1:2:0:0:
232,96,224647,2,0,L|352:80,1,76.9999976501466,0|0,1:2|0:0,0:2:0:0:
208,200,224851,2,0,L|96:192,1,76.9999976501466,0|0,0:2|1:2,0:0:0:0:
232,304,225055,2,0,L|344:296,1,76.9999976501466,0|0,0:0|0:2,0:0:0:0:
192,360,225259,2,0,L|88:352,1,76.9999976501466,0|0,1:2|1:2,0:0:0:0:
296,224,225463,6,0,L|472:216,1,131.99999597168,0|0,1:2|0:2,0:2:0:0:
328,184,225769,1,0,1:2:0:0:
224,144,225871,2,0,L|384:136,1,131.99999597168,0|0,0:0|1:2,0:0:0:0:
272,104,226177,1,0,0:2:0:0:
355,137,226279,1,0,1:2:0:0:
184,96,226381,2,0,L|184:256,1,131.99999597168,0|0,1:2|0:2,0:2:0:0:
304,232,226687,2,0,L|208:232,2,76.9999976501466,0|0|0,1:2|0:0|1:2,0:0:0:0:
232,232,226994,1,0,1:2:0:0:
80,232,227096,6,0,L|80:144,1,65.9999979858399,0|0,1:2|0:0,0:0:0:0:
192,168,227300,2,0,L|200:96,1,65.9999979858399,0|0,3:2|0:2,0:2:0:0:
80,336,227504,2,0,L|120:264,1,65.9999979858399,0|0,3:2|0:2,0:2:0:0:
224,256,227708,2,0,L|304:224,1,65.9999979858399,0|0,3:2|0:2,0:2:0:0:
72,80,227912,2,0,L|144:80,1,65.9999979858399,0|0,3:2|3:2,0:0:0:0:
312,80,228116,2,0,L|416:80,1,65.9999979858399,0|0,3:2|3:2,0:0:0:0:
72,208,228320,2,0,L|176:208,1,82.5000031471254,0|0,3:2|3:2,0:0:0:0:
344,208,228524,2,0,L|456:208,1,82.5000031471254,0|0,3:2|3:2,0:0:0:0:
160,336,228728,5,0,3:2:0:0:
328,288,228830,2,0,L|224:288,2,82.5000031471254,0|0|0,0:0|1:2|0:0,0:0:0:0:
176,192,229136,2,0,L|80:192,1,82.5000031471254,0|0,1:2|0:2,0:2:0:0:
360,104,229341,2,0,L|256:104,1,82.5000031471254,0|0,1:2|0:2,0:2:0:0:
104,104,229545,2,0,L|0:104,3,82.5000031471254,0|0|0|0,1:2|0:0|1:2|0:2,0:0:0:0:
232,312,229953,2,0,P|384:279|461:203,1,247.500009441376,2|0,0:2|0:2,0:2:0:0:
176,112,230361,6,0,B|16:112|16:112|192:112,1,330.000012588501,6|2,3:2|3:2,0:2:0:0:
466,112,230973,2,0,L|384:112,1,82.5000031471254
80,248,231177,6,0,L|184:248,1,82.5000031471254,2|0,3:2|0:0,0:2:0:0:
272,312,231381,2,0,L|160:312,1,82.5000031471254,2|0,0:2|0:0,0:2:0:0:
64,192,231585,2,0,L|176:192,1,82.5000031471254,2|0,3:2|0:0,0:2:0:0:
280,328,231789,2,0,L|168:328,1,82.5000031471254,2|0,0:2|0:0,0:2:0:0:
32,328,231994,6,0,B|32:216|32:216|224:104,1,330.000012588501,2|2,3:2|3:2,0:2:0:0:
448,80,232606,1,0,0:2:0:0:
152,112,232810,2,0,L|128:280,1,165.000006294251,2|0,3:2|0:0,0:2:0:0:
336,312,233218,2,0,L|152:304,1,165.000006294251,2|0,3:2|0:0,0:2:0:0:
480,96,233626,6,0,B|312:96|312:96|496:96,1,330.000012588501,2|2,3:2|3:2,0:2:0:0:
288,176,234238,2,0,L|184:176,1,82.5000031471254
432,336,234443,6,0,L|432:240,1,82.5000031471254,2|0,3:2|0:0,0:2:0:0:
312,240,234647,2,0,L|216:240,1,82.5000031471254,2|0,0:2|0:0,0:2:0:0:
104,232,234851,2,0,L|104:144,1,82.5000031471254,2|0,3:2|0:0,0:2:0:0:
232,136,235055,2,0,L|328:136,1,82.5000031471254,2|0,0:2|0:0,0:2:0:0:
128,256,235259,6,0,B|320:256|320:256|320:56,1,330.000012588501,2|2,3:2|3:2,0:2:0:0:
120,112,235871,1,0,0:2:0:0:
432,192,236075,2,0,L|224:192,1,165.000006294251,2|0,3:2|0:0,0:2:0:0:
8,320,236483,2,0,L|184:320,1,165.000006294251,2|0,3:2|0:0,0:2:0:0:
464,320,236892,6,0,L|464:144,1,165.000006294251,2|2,3:2|0:2,0:2:0:0:
176,168,237300,2,0,L|176:-8,1,165.000006294251,2|2,3:2|0:2,0:2:0:0:
448,168,237708,2,0,L|344:168,1,82.5000031471254,2|0,3:2|0:0,0:2:0:0:
184,264,237912,2,0,L|288:264,1,82.5000031471254,2|0,0:2|0:0,0:2:0:0:
432,168,238116,2,0,L|328:168,1,82.5000031471254,2|0,3:2|0:0,0:2:0:0:
168,264,238320,2,0,L|272:264,1,82.5000031471254,2|0,0:2|0:0,0:2:0:0:
432,272,238524,6,0,L|432:64,1,165.000006294251,2|2,3:2|0:2,0:2:0:0:
144,88,238932,2,0,L|336:88,1,165.000006294251,2|2,3:2|0:2,0:2:0:0:
16,288,239341,2,0,L|208:288,1,165.000006294251,2|0,3:2|0:2,0:2:0:0:
368,144,239647,2,0,L|160:144,1,165.000006294251,2|0,3:2|0:0,0:2:0:0:
376,288,239953,2,0,L|472:288,1,82.5000031471254,2|0,3:2|0:0,0:0:0:0:
184,288,240157,5,0,1:2:0:0:
144,280,240208,1,0,1:2:0:0:
116,248,240259,1,0,1:2:0:0:
118,169,240361,1,0,1:2:0:0:
188,134,240463,1,0,1:2:0:0:
360,128,240565,2,0,L|472:128,3,82.5000031471254,0|0|0|0,1:2|1:2|1:2|1:2,0:0:0:0:
232,240,240973,6,0,L|112:240,3,82.5000031471254,0|0|0|0,1:2|1:2|1:2|1:2,1:2:0:0:
368,312,241381,2,0,L|256:312,1,82.5000031471254,0|0,1:2|1:2,0:0:0:0:
112,136,241585,2,0,L|208:136,1,82.5000031471254,0|0,1:2|1:2,0:0:0:0:
368,288,241789,5,0,1:2:0:0:
408,280,241840,1,0,1:2:0:0:
436,248,241891,1,0,1:2:0:0:
434,169,241993,1,0,1:2:0:0:
364,134,242095,1,0,1:2:0:0:
192,112,242198,2,0,L|80:112,1,82.5000031471254,0|0,1:2|1:2,1:2:0:0:
208,200,242402,2,0,L|96:200,1,82.5000031471254,0|0,1:2|1:2,0:0:0:0:
368,80,242606,6,0,L|456:80,1,82.5000031471254,0|0,1:2|1:2,1:2:0:0:
200,192,242810,2,0,L|304:192,1,82.5000031471254,0|0,1:2|1:2,0:0:0:0:
488,312,243014,1,0,1:2:0:0:
447,312,243065,1,0,1:2:0:0:
406,312,243116,1,0,1:2:0:0:
136,128,243218,2,0,L|232:128,1,82.5000031471254,0|0,3:2|3:2,0:0:0:0:
448,256,243422,6,0,L|192:248,1,247.500009441376,0|0,3:2|0:0,0:0:0:0:
138,256,243830,2,0,P|232:256|312:120,1,247.500009441376,2|0,0:2|0:2,0:2:0:0:
136,128,244238,6,0,L|32:128,1,82.5000031471254,0|0,1:2|1:2,0:0:0:0:
256,240,244443,2,0,L|368:240,1,82.5000031471254,0|0,1:2|0:2,0:2:0:0:
112,320,244647,2,0,L|208:320,1,82.5000031471254,0|0,1:2|0:2,0:2:0:0:
464,88,244851,2,0,L|368:88,1,82.5000031471254,0|0,1:2|0:2,0:2:0:0:
112,168,245055,6,0,L|472:168,1,330.000012588501,6|0,3:2|0:2,0:2:0:0:
352,216,245361,1,2,0:2:0:0:
144,296,245463,2,0,L|248:296,2,82.5000031471254,10|2|0,3:2|0:2|0:2,0:0:0:0:
352,112,245769,2,0,L|144:112,1,165.000006294251,2|0,0:2|0:2,0:2:0:0:
360,216,246075,2,0,L|448:216,1,82.5000031471254,2|0,0:2|0:2,0:2:0:0:
136,216,246279,2,0,L|136:112,1,82.5000031471254,10|0,3:2|0:2,0:2:0:0:
320,80,246483,2,0,L|184:80,1,82.5000031471254,2|0,0:2|0:2,0:2:0:0:
456,312,246687,6,0,L|240:312,1,165.000006294251,2|0,3:2|0:2,0:2:0:0:
376,264,246994,1,2,0:2:0:0:
96,128,247096,6,0,L|392:128,1,288.750011014939,8|0,3:2|0:0,0:0:0:0:
384,128,247300,2,0,L|96:128,1,288.750011014939,2|0,0:2|0:0,0:2:0:0:
96,128,247504,2,0,L|96:216,1,82.5000031471254,0|0,3:2|0:2,0:0:0:0:
288,208,247708,2,0,L|384:208,1,82.5000031471254,2|0,0:2|0:2,0:2:0:0:
176,304,247912,2,0,L|56:304,1,82.5000031471254,10|0,3:2|0:2,0:2:0:0:
336,304,248116,2,0,L|336:208,1,82.5000031471254,2|0,0:2|0:2,0:2:0:0:
96,136,248320,6,0,L|304:136,1,165.000006294251,6|0,3:2|0:2,0:2:0:0:
176,88,248626,1,2,0:2:0:0:
400,88,248728,2,0,L|288:88,2,82.5000031471254,10|2|0,3:2|0:2|0:2,0:0:0:0:
208,224,249034,6,0,L|32:224,1,165.000006294251,2|0,0:2|0:2,0:2:0:0:
256,328,249341,1,2,0:2:0:0:
256,286,249392,1,0,0:0:0:0:
256,245,249443,1,0,0:2:0:0:
96,120,249545,2,0,L|192:120,1,82.5000031471254,10|0,3:2|0:2,0:2:0:0:
368,120,249749,2,0,L|464:120,1,82.5000031471254,2|0,0:2|0:2,0:2:0:0:
176,288,249953,6,0,L|64:288,3,82.5000031471254,2|0|0|2,3:2|0:0|0:2|0:2,0:2:0:0:
312,288,250361,2,0,L|408:288,1,82.5000031471254,8|0,3:2|0:0,0:0:0:0:
168,160,250565,2,0,L|472:160,1,247.500009441376,2|2,0:2|0:2,0:2:0:0:
216,104,250973,2,0,L|216:8,1,82.5000031471254,2|2,0:2|0:2,0:0:0:0:
408,256,251177,2,0,L|296:256,1,82.5000031471254,10|0,3:2|0:2,0:2:0:0:
104,320,251381,2,0,L|224:320,1,82.5000031471254,2|0,0:2|0:2,0:2:0:0:
400,112,251585,6,0,L|176:112,1,165.000006294251,6|0,3:2|0:2,0:2:0:0:
328,144,251892,1,2,0:2:0:0:
136,144,251994,1,10,3:2:0:0:
328,256,252096,2,0,L|232:256,2,82.5000031471254,2|0|2,0:2|0:2|0:2,0:2:0:0:
96,328,252402,6,0,L|296:328,1,165.000006294251,0|2,3:2|0:2,0:0:0:0:
168,288,252708,1,0,0:2:0:0:
16,192,252810,2,0,L|112:192,1,82.5000031471254,10|0,3:2|0:2,0:2:0:0:
328,104,253014,2,0,L|224:104,1,82.5000031471254,2|0,0:2|0:2,0:2:0:0:
64,104,253218,6,0,L|64:288,1,165.000006294251,2|0,3:2|0:2,0:2:0:0:
160,272,253524,1,2,0:2:0:0:
400,184,253626,6,0,L|88:184,1,288.750011014939,8|0,3:2|0:0,0:0:0:0:
111,184,253830,2,0,L|400:184,1,288.750011014939,2|0,0:2|0:0,0:2:0:0:
400,184,254034,6,0,L|400:280,1,82.5000031471254,0|0,3:2|0:2,0:0:0:0:
168,288,254238,2,0,L|250:288,1,82.5000031471254,2|0,0:2|0:2,0:2:0:0:
64,104,254443,2,0,L|176:104,1,82.5000031471254,10|0,3:2|0:2,0:2:0:0:
368,216,254647,2,0,L|240:216,1,82.5000031471254,2|0,0:2|0:2,0:2:0:0:
48,208,254851,6,0,L|240:208,1,165.000006294251,2|0,3:2|0:2,0:2:0:0:
128,264,255157,1,2,0:2:0:0:
328,264,255259,2,0,L|328:168,1,82.5000031471254,8|2,3:2|0:2,0:0:0:0:
136,96,255463,2,0,L|232:96,1,82.5000031471254,2|0,0:2|0:2,0:2:0:0:
416,88,255667,6,0,L|320:88,2,82.5000031471254,2|0|2,3:2|0:2|0:2,0:2:0:0:
320,88,255973,1,2,0:2:0:0:
104,232,256075,2,0,L|216:232,1,82.5000031471254,8|0,3:2|0:2,0:0:0:0:
368,240,256279,2,0,L|456:240,1,82.5000031471254,2|0,0:2|0:2,0:2:0:0:
184,320,256483,6,0,L|320:320,2,82.5000031471254,6|0|0,3:2|0:0|0:2,0:2:0:0:
392,152,256789,2,0,L|296:152,2,82.5000031471254,0|8|0,3:2|0:2|0:2,0:0:0:0:
192,80,257096,2,0,L|88:80,1,82.5000031471254,0|0,3:2|0:2,0:2:0:0:
336,80,257300,5,2,3:2:0:0:
376,85,257351,1,0,0:0:0:0:
411,106,257402,1,0,0:0:0:0:
435,139,257453,1,0,0:0:0:0:
443,179,257504,1,2,3:2:0:0:
435,219,257555,1,0,0:0:0:0:
411,253,257606,1,0,0:0:0:0:
376,274,257657,1,0,0:0:0:0:
200,272,257708,2,0,L|96:256,1,82.5000031471254,2|2,3:2|3:2,3:2:0:0:
336,176,257912,2,0,L|440:168,1,82.5000031471254,2|2,3:2|3:2,0:0:0:0:
136,88,258116,6,0,L|480:88,1,330.000012588501,6|0,3:2|0:2,0:2:0:0:
376,128,258422,1,2,0:2:0:0:
160,192,258524,2,0,L|264:192,2,82.5000031471254,10|2|0,3:2|0:2|0:2,0:0:0:0:
368,296,258830,6,0,L|144:296,1,165.000006294251,2|0,0:2|0:2,0:2:0:0:
368,216,259136,2,0,L|464:216,1,82.5000031471254,0|0,0:2|0:2,0:2:0:0:
224,96,259341,2,0,L|128:96,1,82.5000031471254,10|0,3:2|0:2,0:2:0:0:
344,168,259545,2,0,L|224:168,1,82.5000031471254,2|0,0:2|0:2,0:2:0:0:
56,280,259749,6,0,L|240:280,1,165.000006294251,2|0,3:2|0:2,0:2:0:0:
136,240,260055,1,2,0:2:0:0:
440,184,260157,6,0,L|112:184,1,288.750011014939,8|0,3:2|0:0,0:0:0:0:
151,184,260361,2,0,L|440:184,1,288.750011014939,2|0,0:2|0:0,0:2:0:0:
440,184,260565,6,0,L|320:184,1,82.5000031471254,0|0,3:2|0:2,0:0:0:0:
144,304,260769,2,0,L|240:304,1,82.5000031471254,2|0,0:2|0:2,0:2:0:0:
440,304,260973,2,0,L|440:216,1,82.5000031471254,10|0,3:2|0:2,0:2:0:0:
216,128,261177,2,0,L|312:128,1,82.5000031471254,2|0,0:2|0:2,0:2:0:0:
56,304,261381,6,0,L|296:304,1,165.000006294251,6|0,3:2|0:2,0:2:0:0:
128,264,261687,1,2,0:2:0:0:
336,264,261789,1,10,3:2:0:0:
176,176,261892,2,0,L|64:176,2,82.5000031471254,2|0|2,0:2|0:2|0:2,0:2:0:0:
360,88,262198,6,0,L|160:88,1,165.000006294251,0|2,3:2|0:2,0:0:0:0:
288,128,262504,1,0,0:2:0:0:
472,232,262606,2,2,L|368:232,1,82.5000031471254,10|0,3:2|0:2,0:2:0:0:
168,232,262810,2,0,L|56:232,1,82.5000031471254,2|0,0:2|0:2,0:2:0:0:
304,328,263014,6,0,L|496:328,1,165.000006294251,2|0,3:2|0:2,0:2:0:0:
376,288,263320,1,2,0:2:0:0:
168,232,263422,1,8,3:2:0:0:
168,190,263473,1,0,0:0:0:0:
168,149,263524,1,0,0:0:0:0:
352,144,263626,2,0,L|448:144,1,82.5000031471254,2|0,0:2|0:0,0:2:0:0:
224,304,263830,6,0,L|336:304,3,82.5000031471254,0|2|2|2,3:2|0:2|0:2|0:2,0:0:0:0:
136,192,264238,2,0,L|32:192,1,82.5000031471254,10|0,3:2|0:2,0:2:0:0:
288,96,264443,2,0,L|192:96,1,82.5000031471254,2|0,0:2|0:2,0:2:0:0:
456,96,264647,6,0,L|456:280,1,165.000006294251,6|0,3:2|0:2,0:2:0:0:
360,264,264953,1,2,0:2:0:0:
160,272,265055,2,0,L|160:168,1,82.5000031471254,2|2,1:2|0:2,0:0:0:0:
280,184,265259,2,0,L|280:88,1,82.5000031471254,0|2,0:2|0:2,0:0:0:0:
56,104,265463,6,0,L|232:104,1,165.000006294251,0|2,0:0|0:2,0:0:0:0:
136,160,265769,1,0,0:2:0:0:
336,160,265871,5,2,1:2:0:0:
360,160,265897,1,2,0:2:0:0:
352,184,265922,1,2,0:2:0:0:
376,184,265948,1,2,0:2:0:0:
360,208,265973,1,2,0:2:0:0:
384,208,265999,1,0,0:0:0:0:
352,232,266024,1,0,0:0:0:0:
376,232,266050,1,0,0:0:0:0:
336,248,266075,1,2,0:2:0:0:
360,248,266101,1,0,0:0:0:0:
320,264,266126,1,0,0:0:0:0:
344,264,266152,1,0,0:0:0:0:
296,272,266177,1,0,0:2:0:0:
88,328,266279,6,0,L|344:328,2,247.500009441376,6|2|2,3:2|0:2|0:2,0:2:0:0:
184,304,266994,1,0,0:0:0:0:
392,272,267096,6,0,L|408:184,1,82.5000031471254,0|0,0:0|0:2,0:0:0:0:
304,192,267300,2,0,L|288:80,1,82.5000031471254,2|0,0:2|0:2,0:2:0:0:
488,88,267504,2,0,L|144:88,1,330.000012588501,2|2,0:2|0:2,0:2:0:0:
248,128,267810,1,2,0:2:0:0:
72,256,267912,5,6,3:2:0:0:
272,256,268014,2,0,L|368:256,2,82.5000031471254,2|0|2,0:2|0:2|0:2,0:2:0:0:
176,256,268320,2,0,L|168:144,1,82.5000031471254,0|0,0:0|0:2,0:0:0:0:
288,168,268524,2,0,L|296:80,1,82.5000031471254,2|0,0:2|0:2,0:2:0:0:
168,80,268728,6,0,L|40:64,1,82.5000031471254,2|0,1:2|1:2,1:2:0:0:
184,168,268932,2,0,L|80:152,1,82.5000031471254,2|0,1:2|1:2,1:2:0:0:
296,224,269136,2,0,L|392:216,1,82.5000031471254,2|0,1:2|1:2,1:2:0:0:
272,328,269341,2,0,L|360:320,1,82.5000031471254,2|0,1:2|1:2,1:2:0:0:
112,296,269545,5,6,3:2:0:0:
208,288,269647,1,0,0:0:0:0:
112,296,269749,1,0,0:0:0:0:
208,288,269851,1,0,0:2:0:0:
376,320,269953,5,4,3:2:0:0:
416,319,270004,1,0,0:0:0:0:
453,301,270055,1,0,0:0:0:0:
477,268,270106,1,0,0:0:0:0:
485,228,270157,1,0,0:0:0:0:
473,189,270208,1,0,0:0:0:0:
445,159,270259,1,0,0:2:0:0:
407,144,270310,1,0,0:0:0:0:
216,144,270361,6,0,L|120:144,3,82.5000031471254,2|2|2|2,0:2|0:2|0:2|0:2,0:2:0:0:
312,72,270769,2,0,L|496:72,1,165.000006294251,2|2,0:2|0:2,0:2:0:0:
152,272,271177,6,0,L|104:224,4,41.2500015735627,4|0|0|0|0,3:2|0:0|0:0|0:0|0:0,0:2:0:0:
248,240,271483,1,0,0:2:0:0:
416,152,271585,2,0,L|320:152,1,82.5000031471254,10|0,3:2|0:2,0:2:0:0:
112,144,271789,2,0,L|208:144,1,82.5000031471254,2|0,0:2|0:2,0:2:0:0:
416,256,271994,1,2,3:2:0:0:
216,320,272096,2,0,L|392:320,1,165.000006294251,2|0,0:2|0:2,0:2:0:0:
192,200,272402,2,0,L|288:200,1,82.5000031471254,8|0,3:2|0:2,0:2:0:0:
120,120,272606,2,0,L|32:120,2,55.0000020980836,2|0|0,0:2|0:0|0:0,0:0:0:0:
288,64,272810,6,0,L|104:64,1,165.000006294251,2|0,3:2|0:2,0:2:0:0:
184,88,273082,1,2,0:2:0:0:
248,112,273150,1,2,0:2:0:0:
416,192,273218,2,0,L|312:192,2,82.5000031471254,10|0|2,3:2|0:2|0:2,0:2:0:0:
224,192,273524,6,0,L|224:328,1,82.5000031471254,0|2,0:2|3:2,0:0:0:0:
384,288,273728,2,0,L|280:288,2,82.5000031471254,2|0|0,0:2|0:0|0:2,0:2:0:0:
128,200,274034,2,0,L|224:200,1,82.5000031471254,10|2,3:2|0:2,0:0:0:0:
416,112,274238,2,0,L|304:112,1,82.5000031471254,2|2,0:2|0:2,0:0:0:0:
136,112,274443,6,0,L|80:112,1,41.2500015735627,2|0,3:2|0:0,0:0:0:0:
240,176,274545,2,0,L|288:176,1,41.2500015735627,2|0,3:2|0:0,0:0:0:0:
136,248,274647,2,0,L|136:136,1,82.5000031471254,2|0,3:2|0:2,0:2:0:0:
352,304,274851,2,0,L|168:304,1,165.000006294251,10|2,3:2|0:2,0:2:0:0:
280,280,275157,1,0,0:2:0:0:
464,280,275259,5,2,3:2:0:0:
280,152,275361,2,0,L|472:152,1,165.000006294251,2|0,0:2|0:2,0:2:0:0:
256,88,275667,2,0,L|136:88,1,82.5000031471254,10|0,3:2|0:2,0:2:0:0:
368,88,275871,1,2,0:2:0:0:
376,184,275939,1,0,0:0:0:0:
252,183,276007,1,0,0:0:0:0:
120,184,276075,6,0,L|104:360,1,165.000006294251,10|0,3:2|0:2,0:2:0:0:
200,344,276381,1,2,0:2:0:0:
368,232,276483,2,0,L|168:232,1,165.000006294251,10|2,3:2|0:2,0:2:0:0:
296,200,276789,1,2,0:2:0:0:
480,200,276892,6,0,L|480:32,1,165.000006294251,2|0,3:2|0:0,0:2:0:0:
376,32,277198,1,2,0:2:0:0:
120,288,277300,1,0,0:0:0:0:
424,256,277504,2,0,L|336:248,1,82.5000031471254,2|0,0:2|0:0,0:0:0:0:
144,248,277708,5,2,0:2:0:0:
106,232,277759,1,0,0:0:0:0:
77,202,277810,1,0,0:0:0:0:
63,164,277861,1,0,0:0:0:0:
65,123,277912,1,0,3:2:0:0:
84,86,277963,1,0,3:2:0:0:
115,60,278014,1,0,3:2:0:0:
154,48,278065,1,0,0:0:0:0:
352,48,278116,2,0,L|456:48,1,82.5000031471254,14|0,3:2|0:2,0:2:0:0:
240,144,278320,2,0,L|352:144,1,82.5000031471254,2|0,0:2|0:2,0:2:0:0:
136,256,278524,5,2,3:2:0:0:
328,256,278626,2,0,L|160:256,1,165.000006294251,2|2,0:2|0:2,0:2:0:0:
352,168,278932,2,0,L|440:168,1,82.5000031471254,8|0,3:2|0:2,0:2:0:0:
216,88,279136,2,0,L|168:88,1,41.2500015735627,2|0,0:2|0:0,0:0:0:0:
320,144,279238,2,0,L|368:144,1,41.2500015735627
200,144,279341,6,0,L|16:144,1,165.000006294251,2|0,3:2|0:2,0:2:0:0:
96,176,279613,1,2,0:2:0:0:
160,200,279681,1,2,0:2:0:0:
312,256,279749,1,10,3:2:0:0:
136,256,279851,2,0,L|224:256,2,82.5000031471254,2|0|2,3:2|0:2|3:2,0:2:0:0:
392,264,280157,5,2,0:2:0:0:
392,222,280208,1,0,0:0:0:0:
392,181,280259,1,2,0:2:0:0:
296,152,280361,1,2,0:2:0:0:
392,136,280463,1,2,0:2:0:0:
294,105,280565,1,2,0:2:0:0:
395,86,280667,1,0,0:0:0:0:
292,55,280769,1,2,0:2:0:0:
397,35,280871,1,2,0:2:0:0:
48,136,280973,6,0,L|224:136,1,165.000006294251,4|2,3:2|0:2,0:2:0:0:
120,104,281279,1,2,0:2:0:0:
224,136,281381,1,10,3:2:0:0:
132,104,281483,1,2,0:2:0:0:
236,136,281585,1,2,0:2:0:0:
144,104,281687,1,2,0:2:0:0:
248,136,281789,5,2,3:2:0:0:
156,104,281891,1,2,0:2:0:0:
260,136,281993,1,2,0:2:0:0:
168,104,282095,1,2,0:2:0:0:
392,136,282197,2,0,L|309:136,1,82.5000031471254,10|0,3:2|0:2,0:2:0:0:
156,264,282401,2,0,L|56:264,1,82.5000031471254,2|0,0:2|0:2,0:2:0:0:
328,136,282606,6,0,L|152:136,1,165.000006294251,2|2,3:2|0:2,0:2:0:0:
256,104,282911,1,0,0:0:0:0:
152,136,283013,1,10,3:2:0:0:
244,104,283115,1,2,0:2:0:0:
140,136,283217,1,2,0:2:0:0:
232,104,283319,1,2,0:2:0:0:
416,264,283422,6,0,L|320:264,2,82.5000031471254,2|0|2,3:2|0:0|0:2,0:2:0:0:
216,192,283728,2,0,L|120:192,2,82.5000031471254,0|2|0,3:2|0:2|0:2,0:0:0:0:
416,120,284034,2,0,L|304:120,1,82.5000031471254,2|0,0:2|0:2,0:2:0:0:
104,328,284238,6,0,L|440:328,1,330.000012588501,6|0,3:2|0:0,0:2:0:0:
328,296,284545,1,0,0:2:0:0:
160,288,284647,1,10,3:2:0:0:
154,247,284698,1,0,0:0:0:0:
148,206,284749,1,0,0:2:0:0:
368,120,284851,1,2,0:2:0:0:
326,120,284902,1,0,0:0:0:0:
285,120,284953,1,0,0:2:0:0:
472,192,285055,5,2,3:2:0:0:
312,192,285157,2,0,L|216:192,2,82.5000031471254,2|0|2,0:2|0:0|0:2,0:2:0:0:
96,296,285463,2,0,L|178:296,1,82.5000031471254,8|0,3:2|0:2,0:2:0:0:
376,296,285667,2,0,L|464:296,2,55.0000020980836,2|0|0,0:2|0:0|0:0,0:0:0:0:
208,136,285871,6,0,L|408:136,1,165.000006294251,2|0,3:2|0:2,0:2:0:0:
312,96,286143,1,2,0:2:0:0:
256,56,286211,1,2,0:2:0:0:
432,48,286279,1,10,3:2:0:0:
248,200,286381,2,0,L|330:200,1,82.5000031471254,0|2,0:2|0:2,0:0:0:0:
176,312,286585,6,0,L|8:312,1,165.000006294251,0|2,0:2|0:2,0:0:0:0:
216,256,286892,2,0,L|304:256,1,82.5000031471254,0|0,0:0|3:2,0:0:0:0:
120,144,287096,2,0,L|216:144,1,82.5000031471254,10|2,3:2|0:2,0:0:0:0:
432,144,287300,2,0,L|432:32,1,82.5000031471254,2|2,3:2|0:2,0:0:0:0:
232,64,287504,5,6,3:2:0:0:
273,64,287555,1,0,0:0:0:0:
314,64,287606,1,0,0:0:0:0:
355,64,287657,1,0,0:0:0:0:
397,64,287708,1,0,0:0:0:0:
355,64,287759,1,0,0:0:0:0:
314,64,287810,1,0,0:2:0:0:
120,72,287912,1,10,3:2:0:0:
120,113,287963,1,0,0:0:0:0:
120,154,288014,1,0,0:2:0:0:
320,160,288116,1,2,0:2:0:0:
278,160,288167,1,0,0:0:0:0:
237,160,288218,1,0,0:2:0:0:
48,272,288320,5,2,3:2:0:0:
280,272,288422,2,0,L|115:272,1,165.000006294251,2|0,0:2|0:2,0:2:0:0:
352,280,288728,2,0,L|352:176,1,82.5000031471254,10|0,3:2|0:2,0:2:0:0:
152,120,288932,2,0,L|272:120,1,82.5000031471254,2|0,0:2|0:0,0:0:0:0:
440,232,289136,6,0,L|256:232,1,165.000006294251,2|0,3:2|3:2,0:2:0:0:
312,192,289392,1,0,3:2:0:0:
352,160,289443,1,0,3:2:0:0:
400,128,289494,1,0,3:2:0:0:
208,320,289545,6,0,L|40:320,1,165.000006294251,8|0,3:2|3:2,0:2:0:0:
88,296,289801,1,0,3:2:0:0:
136,272,289852,1,0,3:2:0:0:
184,256,289903,1,0,3:2:0:0:
328,256,289953,2,0,L|424:256,1,82.5000031471254,0|0,3:2|3:2,0:2:0:0:
224,264,290157,2,0,L|224:152,1,82.5000031471254,0|0,3:2|3:2,0:0:0:0:
464,104,290361,2,0,L|272:104,1,165.000006294251,10|2,3:2|0:2,0:2:0:0:
400,136,290667,1,0,0:2:0:0:
152,272,290769,5,2,3:2:0:0:
120,272,290795,1,0,0:2:0:0:
128,248,290820,1,0,0:2:0:0:
96,248,290846,1,0,0:2:0:0:
120,216,290871,1,0,0:2:0:0:
88,216,290897,1,0,0:2:0:0:
120,184,290923,1,0,0:2:0:0:
88,184,290949,1,0,0:2:0:0:
128,152,290974,5,0,0:2:0:0:
96,152,291000,1,0,0:2:0:0:
144,120,291025,1,0,0:2:0:0:
112,120,291051,1,0,0:2:0:0:
168,96,291076,1,0,0:2:0:0:
136,96,291102,1,0,0:0:0:0:
192,72,291127,1,0,0:0:0:0:
392,320,291177,6,0,L|432:272,4,41.2500015735627,14|0|0|0|2,3:2|0:0|0:2|0:0|0:2,0:2:0:0:
304,320,291483,1,0,0:2:0:0:
104,320,291585,1,2,3:2:0:0:
280,192,291687,2,0,L|88:192,1,165.000006294251,2|2,0:2|3:2,0:2:0:0:
384,192,291994,2,0,L|384:24,1,165.000006294251,0|2,0:0|3:2,0:0:0:0:
280,24,292300,1,0,0:0:0:0:
64,312,292402,6,0,L|280:312,1,165.000006294251,2|0,3:2|0:2,0:2:0:0:
168,280,292674,1,2,0:2:0:0:
104,248,292742,1,2,0:2:0:0:
264,248,292810,1,10,3:2:0:0:
104,176,292912,2,0,L|208:176,2,82.5000031471254,0|2|0,0:2|0:2|0:2,0:0:0:0:
328,88,293218,6,0,L|128:88,1,165.000006294251,2|0,3:2|0:0,0:0:0:0:
264,128,293524,1,0,3:2:0:0:
480,176,293626,1,2,0:2:0:0:
416,208,293694,1,2,0:2:0:0:
352,240,293762,1,2,0:2:0:0:
192,336,293830,1,2,0:2:0:0:
256,304,293898,1,2,0:2:0:0:
320,272,293966,1,2,0:2:0:0:
496,112,294034,6,0,L|272:88,1,165.000006294251,6|2,3:2|0:2,0:2:0:0:
432,56,294341,1,2,0:2:0:0:
112,312,294443,2,0,L|96:208,1,82.5000031471254,10|2,3:2|0:2,0:0:0:0:
288,208,294647,2,0,L|288:104,1,82.5000031471254,2|2,0:2|0:2,0:0:0:0:
464,320,294851,2,0,L|368:304,1,82.5000031471254,2|2,3:2|0:2,0:0:0:0:
200,232,295055,2,0,L|296:224,1,82.5000031471254,2|2,0:2|0:2,0:0:0:0:
472,192,295259,2,0,L|248:160,1,165.000006294251,10|0,3:2|0:0,0:2:0:0:
416,152,295565,1,0,0:2:0:0:
168,112,295667,6,0,L|264:112,2,82.5000031471254,2|2|0,3:2|3:2|0:2,0:0:0:0:
392,248,295973,2,0,L|296:248,2,82.5000031471254,2|0|2,3:2|0:2|0:0,0:2:0:0:
88,248,296279,2,0,L|200:248,1,82.5000031471254
408,112,296483,6,4,L|64:112,1,330.000012588501,6|0,3:2|0:0,0:2:0:0:
336,352,296789,6,0,P|375:263|326:115,1,247.500009441376,6|0,3:2|0:0,0:2:0:0:
