osu file format v14

[General]
AudioFilename: audio.mp3
AudioLeadIn: 0
PreviewTime: 83380
Countdown: 0
SampleSet: Normal
StackLeniency: 0.7
Mode: 0
LetterboxInBreaks: 0
WidescreenStoryboard: 0

[Editor]
Bookmarks: 36401,69082,85422,124231,166103,182444
DistanceSpacing: 0.8
BeatDivisor: 4
GridSize: 16
TimelineZoom: 2.599999

[Metadata]
Title:Ningen vs Kyuunage Robot Tama-chan no Catch Ball Taiketsu
TitleUnicode:人間 vs. 球投げロボットたまちゃんのキャッチボール対決
Artist:Camellia feat. Nanahira
ArtistUnicode:Camellia feat. Nanahira
Creator:cococolaco
Version:Tama-chan!!!
Source:
Tags:hard tech map
BeatmapID:1892632
BeatmapSetID:907001

[Difficulty]
HPDrainRate:3
CircleSize:4.2
OverallDifficulty:9
ApproachRate:9.7
SliderMultiplier:2
SliderTickRate:1

[Events]
//Background and Video events
0,0,"image0.jpg",0,0
//Break Periods
2,124431,132927
//Storyboard Layer 0 (Background)
//Storyboard Layer 1 (Fail)
//Storyboard Layer 2 (Pass)
//Storyboard Layer 3 (Foreground)
//Storyboard Sound Samples

[TimingPoints]
657,255.31914893617,4,1,0,60,1,0
38188,-66.6666666666667,4,1,0,60,0,0
39210,-100,4,1,0,60,0,0
39976,-66.6666666666667,4,1,0,60,0,0
40231,-100,4,1,0,60,0,0
40486,-66.6666666666667,4,1,0,60,0,0
40869,-100,4,1,0,60,0,0
42018,-66.6666666666667,4,1,0,60,0,0
43550,-100,4,1,0,60,0,0
44061,-66.6666666666667,4,1,0,60,0,0
44827,-100,4,1,0,60,0,0
48656,-66.6666666666667,4,1,0,60,0,0
50571,-100,4,1,0,60,0,0
51720,-66.6666666666667,4,1,0,60,0,0
51848,-100,4,1,0,60,0,0
52742,-133.333333333333,4,1,0,60,0,0
54274,-66.6666666666667,4,1,0,60,0,0
55550,-100,4,1,0,60,0,0
56827,-133.333333333333,4,1,0,60,0,0
58359,-100,4,1,0,60,0,0
58614,-100,4,1,0,60,0,0
60401,-66.6666666666667,4,1,0,60,0,0
61167,-100,4,1,0,60,0,0
62699,-66.6666666666667,4,1,0,60,0,0
63210,-100,4,1,0,60,0,0
64997,-133.333333333333,4,1,0,60,0,0
75210,-100,4,1,0,60,0,0
76231,-133.333333333333,4,1,0,60,0,0
85422,-66.6666666666667,4,1,0,60,0,1
93593,-133.333333333333,4,1,0,60,0,0
95635,-66.6666666666667,4,1,0,60,0,1
99720,-100,4,1,0,60,0,1
103550,-133.333333333333,4,1,0,60,0,1
103805,-100,4,1,0,60,0,0
135210,-66.6666666666667,4,1,0,60,0,0
136231,-100,4,1,0,60,0,0
136997,-66.6666666666667,4,1,0,60,0,0
137252,-100,4,1,0,60,0,0
139295,-66.6666666666667,4,1,0,60,0,0
140316,-100,4,1,0,60,0,0
141082,-66.6666666666667,4,1,0,60,0,0
141593,-100,4,1,0,60,0,0
144656,-66.6666666666667,4,1,0,60,0,0
145678,-100,4,1,0,60,0,0
148742,-66.6666666666667,4,1,0,60,0,0
148869,-100,4,1,0,60,0,0
149763,-133.333333333333,4,1,0,60,0,0
151550,-100,4,1,0,60,0,0
154359,-133.333333333333,4,1,0,60,0,0
155380,-100,4,1,0,60,0,0
162274,-133.333333333333,4,1,0,60,0,0
172231,-100,4,1,0,60,0,0
173125,-133.333333333333,4,1,0,60,0,0
178359,-100,4,1,0,60,0,0
178614,-133.333333333333,4,1,0,60,0,0
178869,-100,4,1,0,60,0,0
179124,-133.333333333333,4,1,0,60,0,0
179380,-100,4,1,0,60,0,0
179635,-133.333333333333,4,1,0,60,0,0
179891,-100,4,1,0,60,0,0
180146,-133.333333333333,4,1,0,60,0,0
181167,-100,4,1,0,60,0,0
181550,-133.333333333333,4,1,0,60,0,0
182444,-66.6666666666667,4,1,0,60,0,1
190614,-133.333333333333,4,1,0,60,0,0
191891,-100,4,1,0,60,0,0
192656,-66.6666666666667,4,1,0,60,0,1
196742,-100,4,1,0,60,0,1
200571,-133.333333333333,4,1,0,60,0,0
237593,256.136606189968,4,1,0,60,1,0
242971,255.31914893617,4,1,0,60,1,0
250119,300,4,1,0,60,1,0

[Colours]
Combo1 : 238,232,102
Combo2 : 57,207,234
Combo3 : 237,65,237
Combo4 : 103,231,119

[HitObjects]
324,119,35380,6,0,L|315:74,30,25
338,204,36401,5,0,0:0:0:0:
234,49,36529,1,0,0:0:0:0:
413,125,36656,2,0,P|463:117|521:106,1,100
241,193,36912,5,0,0:0:0:0:
415,286,37039,1,0,0:0:0:0:
163,249,37167,2,0,P|113:239|64:231,1,100
260,283,37422,5,0,0:0:0:0:
156,155,37550,2,0,B|140:109|140:109|154:50,1,100
413,125,37805,1,0,0:0:0:0:
241,193,37933,1,0,0:0:0:0:
358,55,38061,6,0,P|320:52|290:74,1,50,0|0,0:0|2:0,0:0:0:0:
163,249,38188,2,0,B|107:297|6:309|3:237|74:222|116:309,1,225.000008583069
63,364,38444,5,0,0:0:0:0:
115,170,38571,1,0,0:0:0:0:
212,108,38699,5,0,0:0:0:0:
276,295,38827,1,0,0:0:0:0:
393,334,38954,5,0,0:0:0:0:
462,132,39082,1,0,0:0:0:0:
279,206,39210,6,0,L|165:226,1,100
331,119,39401,1,0,0:0:0:0:
344,135,39465,2,0,L|455:145,1,100
212,108,39720,5,0,0:0:0:0:
401,50,39848,1,0,0:0:0:0:
247,20,39976,6,0,B|230:56|230:56|243:99,1,75.0000028610231,0|0,0:0|2:0,0:0:0:0:
351,234,40103,2,0,P|371:266|398:303,1,75.0000028610231,0|0,0:0|2:0,0:0:0:0:
180,223,40231,2,0,P|132:238|83:247,1,100
276,180,40486,6,0,B|357:174|439:198|439:198|415:176|384:126,1,225.000008583069,0|0,0:0|2:0,0:0:0:0:
355,81,40742,1,0,0:0:0:0:
240,328,40869,2,0,P|230:297|229:257,1,50,0|0,0:0|2:0,0:0:0:0:
366,97,40997,6,0,P|382:166|372:267,1,150,0|0,0:0|2:0,0:0:0:0:
310,286,41252,1,0,0:0:0:0:
180,127,41380,2,0,P|119:120|75:112,1,100
145,321,41635,1,0,0:0:0:0:
276,180,41763,1,0,0:0:0:0:
66,100,41891,2,0,B|52:126|52:126|56:156,1,50,0|0,0:0|2:0,0:0:0:0:
232,350,42018,6,0,B|240:314|240:314|224:268,1,75.0000028610231,0|0,0:0|2:0,0:0:0:0:
175,199,42146,2,0,B|167:163|167:163|179:126,1,75.0000028610231,0|0,0:0|2:0,0:0:0:0:
274,77,42274,2,0,B|343:121|439:94|439:94|390:59,1,225.000008583069,0|0,0:0|2:0,0:0:0:0:
196,13,42529,5,0,0:0:0:0:
390,145,42656,1,0,0:0:0:0:
432,222,42784,5,0,0:0:0:0:
232,350,42912,1,0,0:0:0:0:
276,180,43039,5,0,0:0:0:0:
88,142,43167,1,0,0:0:0:0:
0,250,43295,6,0,B|52:230|52:230|92:240|92:240|142:224,1,150.000005722046
225,101,43486,1,0,0:0:0:0:
225,101,43550,2,0,B|273:85|273:85|335:102,1,100
464,324,43805,2,0,B|416:340|416:340|354:323,1,100
305,261,43997,1,0,0:0:0:0:
305,261,44061,6,0,P|306:222|315:164,1,75.0000028610231,0|0,0:0|2:0,0:0:0:0:
80,182,44188,2,0,P|113:202|159:239,1,75.0000028610231,0|0,0:0|2:0,0:0:0:0:
260,26,44316,2,0,P|225:44|170:65,1,75.0000028610231,0|0,0:0|2:0,0:0:0:0:
222,233,44444,2,0,L|213:286,2,37.5000014305115
237,148,44571,5,0,0:0:0:0:
102,55,44699,1,0,0:0:0:0:
313,99,44827,2,0,P|366:92|420:83,1,100
141,224,45082,2,0,P|91:215|42:209,1,100
310,186,45337,1,0,0:0:0:0:
434,363,45465,6,0,B|478:292|446:214|446:214,1,150
389,170,45720,1,0,0:0:0:0:
215,269,45848,1,0,0:0:0:0:
411,91,45976,2,0,P|378:88|337:82,1,50,0|0,0:0|2:0,0:0:0:0:
273,39,46103,5,0,0:0:0:0:
296,200,46231,1,0,0:0:0:0:
119,313,46359,5,0,0:0:0:0:
92,117,46486,1,0,0:0:0:0:
361,261,46614,5,0,0:0:0:0:
231,127,46742,1,0,0:0:0:0:
215,269,46869,1,0,0:0:0:0:
383,127,46997,1,0,0:0:0:0:
296,200,47125,6,0,L|186:215,1,100
13,313,47380,2,0,L|84:324,1,50
93,233,47508,5,0,0:0:0:0:
93,233,47571,1,0,0:0:0:0:
93,233,47635,2,0,B|119:184|119:184|93:71,1,150
78,78,47891,1,0,0:0:0:0:
313,188,48018,2,0,P|360:196|422:202,1,100
11,164,48274,5,0,0:0:0:0:
441,58,48529,1,0,0:0:0:0:
379,121,48656,6,0,B|331:136|331:136|307:166|307:166|261:181|261:181|224:170|224:170|210:145|205:118,1,225.000008583069,0|0,0:0|2:0,0:0:0:0:
234,45,48912,1,0,0:0:0:0:
61,200,49039,6,0,B|109:215|109:215|133:245|133:245|179:260|179:260|216:249|216:249|230:224|235:197,1,225.000008583069,0|0,0:0|2:0,0:0:0:0:
206,124,49295,1,0,0:0:0:0:
378,279,49422,6,0,B|330:294|330:294|306:324|306:324|260:339|260:339|223:328|223:328|209:303|204:276,1,225.000008583069,0|0,0:0|2:0,0:0:0:0:
417,152,49678,6,0,B|475:284|475:284|438:358,1,225.000008583069,0|0,0:0|2:0,0:0:0:0:
304,320,49933,2,0,B|287:282|287:282|294:246,1,75.0000028610231,0|0,0:0|2:0,0:0:0:0:
356,74,50061,6,0,B|414:206|414:206|377:280,1,225.000008583069,0|0,0:0|2:0,0:0:0:0:
233,203,50316,2,0,B|216:165|216:165|223:129,1,75.0000028610231,0|0,0:0|2:0,0:0:0:0:
274,60,50444,5,0,0:0:0:0:
142,231,50571,2,0,L|107:241,2,25
316,154,50699,6,0,P|416:170|481:170,2,150,0|2|2,0:0|0:0|0:1,0:0:0:0:
164,34,51210,2,0,P|64:50|-1:50,2,150,0|2|2,0:0|0:0|0:1,0:0:0:0:
245,240,51720,2,0,B|257:279|257:279|244:323,1,75.0000028610231,0|0,0:0|2:0,0:0:0:0:
66,175,51848,6,0,P|120:165|172:150,1,100
347,267,52103,2,0,P|448:270|497:361,1,200
162,291,52486,5,0,0:0:0:0:
162,291,52550,1,0,0:0:0:0:
162,291,52614,1,0,0:0:0:0:
314,184,52742,2,0,P|319:91|323:14,1,150.000005722046
321,34,53125,1,0,0:0:0:0:
162,291,53252,6,0,B|73:275|13:341|13:341,2,150.000005722046
332,334,53891,2,0,P|371:333|434:325,1,75.0000028610231
406,329,54146,1,0,0:0:0:0:
178,301,54274,6,0,P|173:257|166:210,1,75.0000028610231,0|0,0:0|2:0,0:0:0:0:
320,248,54401,2,0,P|324:204|332:157,1,75.0000028610231,0|0,0:0|2:0,0:0:0:0:
118,159,54529,2,0,P|113:115|106:68,1,75.0000028610231,0|0,0:0|2:0,0:0:0:0:
380,100,54656,2,0,P|384:56|392:9,1,75.0000028610231,0|0,0:0|2:0,0:0:0:0:
213,149,54784,5,0,0:0:0:0:
75,249,54912,1,0,0:0:0:0:
189,70,55039,5,0,0:0:0:0:
411,196,55167,1,0,0:0:0:0:
280,82,55295,5,0,0:0:0:0:
168,226,55422,1,0,0:0:0:0:
318,344,55550,6,0,B|332:291|332:291|317:240,1,100
130,96,55742,1,0,0:0:0:0:
130,96,55805,2,0,B|116:149|116:149|131:200,1,100
198,348,56061,5,0,0:0:0:0:
280,82,56188,1,0,0:0:0:0:
204,237,56316,5,0,0:0:0:0:
165,274,56401,1,0,0:0:0:0:
112,277,56486,1,0,0:0:0:0:
257,245,56571,2,0,P|328:236|410:230,1,150
128,192,56827,6,0,P|123:99|119:22,1,150.000005722046
120,42,57210,1,0,0:0:0:0:
356,140,57337,6,0,B|445:124|505:190|505:190,2,150.000005722046
244,99,57976,1,0,0:0:0:0:
244,99,58039,1,0,0:0:0:0:
244,99,58103,2,0,P|250:137|253:195,1,75.0000028610231
56,306,58359,6,0,P|44:257|37:207,1,100
291,255,58614,2,0,P|338:260|408:272,1,100
159,157,58805,1,0,0:0:0:0:
159,157,58869,2,0,P|109:165|59:170,1,100
296,267,59125,5,0,0:0:0:0:
122,362,59252,1,0,0:0:0:0:
33,158,59380,5,0,0:0:0:0:
191,252,59508,1,0,0:0:0:0:
181,33,59635,6,0,P|190:86|199:141,1,100
303,151,59827,1,0,0:0:0:0:
312,168,59891,2,0,P|303:221|294:276,1,100
55,232,60146,2,0,P|107:222|166:211,1,100
215,149,60337,1,0,0:0:0:0:
215,149,60401,6,0,P|205:101|197:62,1,75.0000028610231,0|0,0:0|2:0,0:0:0:0:
409,178,60529,2,0,P|401:214|393:251,1,75.0000028610231,0|0,0:0|2:0,0:0:0:0:
313,83,60656,2,0,P|355:76|397:68,1,75.0000028610231,0|0,0:0|2:0,0:0:0:0:
242,230,60784,6,0,L|193:250,2,37.5000014305115
312,168,60912,5,0,0:0:0:0:
485,241,61039,1,0,0:0:0:0:
386,70,61167,2,0,P|324:66|270:60,1,100
134,319,61422,2,0,P|196:323|250:329,1,100
272,44,61678,2,0,P|210:40|156:34,1,100
85,219,61933,6,0,P|172:227|310:229,1,200
413,147,62316,2,0,P|326:139|188:137,1,200
30,302,62699,6,0,B|64:315|64:315|119:309,1,75.0000028610231,0|0,0:0|2:0,0:0:0:0:
131,141,62827,2,0,B|97:128|97:128|42:134,1,75.0000028610231,0|0,0:0|2:0,0:0:0:0:
193,335,62954,5,0,0:0:0:0:
85,219,63082,1,0,0:0:0:0:
264,276,63210,2,0,P|312:268|402:263,1,100
221,46,63465,2,0,P|138:41|57:29,1,150
61,23,63720,1,0,0:0:0:0:
298,179,63848,1,0,0:0:0:0:
372,122,63976,6,0,B|395:39|351:-23|351:-23|327:22,1,200
209,156,64359,2,0,B|186:239|230:301|230:301|254:256,1,200
298,179,64678,1,0,0:0:0:0:
298,179,64742,5,0,0:0:0:0:
160,62,64869,1,0,0:0:0:0:
340,259,64997,6,0,P|377:253|414:250,1,75.0000028610231,0|0,0:0|2:0,0:0:0:0:
108,201,65252,2,0,P|70:200|33:197,1,75.0000028610231,0|0,0:0|2:0,0:0:0:0:
146,365,65508,6,0,P|122:297|130:207,1,150.000005722046
358,126,66018,2,0,P|382:194|374:284,1,150.000005722046
221,314,66401,2,0,P|209:271|208:223,1,75.0000028610231,0|0,0:0|2:0,0:0:0:0:
248,116,66656,2,0,P|285:170|285:269,1,150.000005722046,0|0,0:0|2:0,0:0:0:0:
168,148,67039,5,0,0:0:0:0:
134,79,67167,1,0,0:0:0:0:
59,267,67295,6,0,P|132:251|217:239,1,150.000005722046
248,116,67678,2,0,P|175:100|90:88,1,150.000005722046
439,203,68061,6,0,P|444:240|456:291,1,75.0000028610231
452,276,68571,1,0,0:0:0:0:
287,346,68699,1,0,0:0:0:0:
240,265,68827,2,0,P|244:214|247:95,1,150.000005722046
247,115,69337,6,0,P|288:112|350:102,1,75.0000028610231
480,231,69593,2,0,P|418:209|320:201,1,150.000005722046
334,200,70103,1,0,0:0:0:0:
179,327,70231,2,0,P|137:329|76:340,1,75.0000028610231
239,239,70486,2,0,P|249:175|224:93,1,150.000005722046
150,55,70869,2,0,P|97:51|62:42,1,75.0000028610231
6,289,71125,6,0,P|55:256|153:211,1,150.000005722046
285,317,71508,1,0,0:0:0:0:
285,317,71571,1,0,0:0:0:0:
285,317,71635,2,0,P|318:330|371:341,1,75.0000028610231
424,155,71891,2,0,P|386:201|348:257,1,112.500004291535,0|0,0:0|2:0,0:0:0:0:
355,244,72146,5,0,0:0:0:0:
259,133,72274,1,0,0:0:0:0:
347,158,72401,1,0,0:0:0:0:
272,218,72529,1,0,0:0:0:0:
167,233,72656,6,0,P|168:157|162:62,1,150.000005722046
272,218,73039,1,0,0:0:0:0:
430,313,73167,6,0,P|440:273|438:231,1,75.0000028610231
249,59,73422,2,0,P|248:96|258:132,1,75.0000028610231
512,159,73678,2,0,P|470:155|434:148,1,75.0000028610231
272,218,73933,2,0,P|230:222|194:229,1,75.0000028610231
375,271,74188,5,0,0:0:0:0:
359,185,74316,2,0,P|353:130|352:10,1,150.000005722046
171,145,74699,2,0,P|105:141|50:131,1,112.500004291535,0|0,0:0|2:0,0:0:0:0:
44,116,74954,2,0,P|34:72|34:25,1,75.0000028610231
349,185,75210,6,0,B|425:153|491:189|491:189|468:246,1,200
187,325,75593,2,0,B|111:357|45:321|45:321|68:264,1,200
254,233,75976,5,0,0:0:0:0:
280,308,76103,1,0,0:0:0:0:
240,237,76231,6,0,P|242:162|239:87,1,150.000005722046
259,8,76614,2,0,P|256:82|258:157,1,150.000005722046
341,200,76997,2,0,B|380:209|380:209|430:198,1,75.0000028610231
167,128,77252,6,0,B|87:101|15:161|15:161,1,150.000005722046
24,153,77635,1,0,0:0:0:0:
258,157,77763,2,0,B|338:130|410:190|410:190,1,150.000005722046
211,284,78146,1,0,0:0:0:0:
252,355,78274,5,0,0:0:0:0:
124,327,78401,2,0,P|117:281|110:236,1,75.0000028610231
296,93,78656,2,0,P|291:157|290:250,1,150.000005722046
76,174,79039,2,0,P|29:171|-17:162,1,75.0000028610231
211,284,79295,6,0,P|279:271|370:260,1,150.000005722046
418,121,79678,1,0,0:0:0:0:
418,121,79742,1,0,0:0:0:0:
418,121,79805,2,0,P|380:91|354:54,1,75.0000028610231
191,195,80061,2,0,P|244:180|321:150,1,112.500004291535
309,144,80316,5,0,0:0:0:0:
242,28,80444,1,0,0:0:0:0:
228,108,80571,1,0,0:0:0:0:
304,249,80699,1,0,0:0:0:0:
175,209,80827,6,0,P|114:204|14:197,1,150.000005722046
228,108,81210,1,0,0:0:0:0:
338,130,81337,6,0,P|399:125|479:119,1,112.500004291535,0|0,0:0|2:0,0:0:0:0:
458,128,81593,2,0,L|375:135,1,75.0000028610231
150,355,81848,6,0,B|129:308|129:308|139:247,1,112.500004291535,0|0,0:0|2:0,0:0:0:0:
150,242,82103,2,0,L|137:331,1,75.0000028610231
362,355,82359,6,0,B|383:308|383:308|372:247,1,112.500004291535,0|0,0:0|2:0,0:0:0:0:
362,241,82614,2,0,L|375:330,1,75.0000028610231
174,130,82869,6,0,P|113:125|33:119,1,112.500004291535,0|0,0:0|2:0,0:0:0:0:
54,128,83125,2,0,L|136:135,1,75.0000028610231
256,64,83380,5,0,0:0:0:0:
256,320,83635,5,0,0:0:0:0:
256,192,83763,1,0,0:0:0:0:
256,64,83891,2,0,P|259:101|266:146,1,75.0000028610231
256,320,84082,1,0,0:0:0:0:
256,320,84146,2,0,P|253:283|246:238,1,75.0000028610231
169,188,84337,1,0,0:0:0:0:
169,188,84401,6,0,B|87:166|103:212|14:193,1,150.000005722046
343,188,84784,5,0,0:0:0:0:
343,188,84848,1,0,0:0:0:0:
343,188,84912,2,0,B|425:166|409:212|498:193,1,150.000005722046
342,183,85422,6,0,B|293:255|315:336|315:336|376:281,1,225.000008583069
363,174,85678,2,0,B|309:170|309:170|272:194|272:194|203:199,1,150.000005722046
155,87,85869,1,0,0:0:0:0:
228,48,85933,2,0,B|241:82|241:82|234:126,1,75.0000028610231
74,314,86061,2,0,B|61:280|61:280|68:236,1,75.0000028610231
134,109,86188,6,0,L|157:273,1,150.000005722046
337,328,86444,2,0,B|356:228|356:228|338:172,1,150.000005722046
442,199,86635,1,0,0:0:0:0:
442,199,86699,2,0,L|416:118,1,75.0000028610231
198,158,86827,1,0,0:0:0:0:
198,158,86891,1,0,0:0:0:0:
198,158,86954,2,0,B|252:154|252:154|289:178|289:178|358:183,1,150.000005722046
498,106,87146,1,0,0:0:0:0:
446,45,87210,6,0,B|405:38|405:38|359:56,1,75.0000028610231
233,241,87337,2,0,B|201:253|201:253|160:246,1,75.0000028610231
98,182,87465,6,0,P|91:134|86:102,1,75.0000028610231
293,53,87593,2,0,P|286:90|282:127,1,75.0000028610231
210,305,87720,6,0,B|181:240|221:213|192:143,1,150.000005722046
145,79,87912,1,0,0:0:0:0:
145,79,87976,6,0,P|180:65|225:59,1,75.0000028610231
151,234,88103,2,0,P|121:210|93:174,1,75.0000028610231
282,151,88231,2,0,P|276:188|259:230,1,75.0000028610231
197,157,88359,5,0,0:0:0:0:
339,259,88486,2,0,B|405:249|405:249|442:267|442:267|492:265|492:265|427:307,1,225.000008583069
151,234,88742,2,0,B|84:243|84:243|47:225|47:225|-2:227|-2:227|62:185,1,225.000008583069
323,64,88997,2,0,B|389:54|389:54|426:72|426:72|476:70|476:70|411:112,1,225.000008583069
349,152,89252,5,0,0:0:0:0:
178,15,89380,1,0,0:0:0:0:
170,222,89508,6,0,L|158:387,1,150.000005722046
268,244,89699,1,0,0:0:0:0:
268,244,89763,2,0,B|272:206|272:206|258:171,1,75.0000028610231
53,78,89891,2,0,B|48:115|48:115|62:150,1,75.0000028610231
287,94,90018,6,0,B|235:89|235:89|202:108|202:108|140:102,1,150.000005722046
64,284,90210,1,0,0:0:0:0:
134,321,90274,2,0,P|173:315|217:310,1,75.0000028610231
423,141,90401,2,0,P|384:147|340:152,1,75.0000028610231
188,364,90529,6,0,B|157:270|157:270|172:205,1,150.000005722046
348,151,90720,1,0,0:0:0:0:
348,151,90784,2,0,B|379:245|379:245|364:310,1,150.000005722046
269,326,90976,1,0,0:0:0:0:
269,326,91039,2,0,P|269:284|271:246,1,75.0000028610231
81,278,91167,2,0,P|72:175|64:104,1,150.000005722046
168,220,91359,1,0,0:0:0:0:
232,156,91422,2,0,L|241:69,1,75.0000028610231
78,294,91550,6,0,B|116:329|165:343|165:343|237:313,1,150.000005722046
466,69,91805,2,0,B|428:34|379:20|379:20|307:50,1,150.000005722046
261,251,92061,2,0,L|275:100,1,150.000005722046
253,23,92252,1,0,0:0:0:0:
237,101,92316,2,0,L|251:251,1,150.000005722046
256,352,92571,5,0,0:0:0:0:
148,234,92699,1,0,0:0:0:0:
90,223,92763,1,0,0:0:0:0:
39,213,92827,1,0,0:0:0:0:
343,146,92954,1,0,0:0:0:0:
401,135,93018,1,0,0:0:0:0:
452,125,93082,1,0,0:0:0:0:
253,23,93210,5,0,0:0:0:0:
134,127,93337,1,0,0:0:0:0:
341,313,93465,2,0,B|354:348|354:348|343:402,1,75.0000028610231
241,271,93593,6,0,P|247:192|249:115,1,150.000005722046
256,192,93912,12,0,94582,0:0:0:0:
256,192,94614,5,0,0:0:0:0:
76,313,94742,1,0,0:0:0:0:
256,117,94869,5,0,0:0:0:0:
425,323,94997,1,0,0:0:0:0:
256,42,95125,6,0,L|256:218,1,150.000005722046
37,111,95635,6,0,B|74:99|74:99|123:111,1,75.0000028610231
93,201,95763,1,0,0:0:0:0:
93,201,95827,1,0,0:0:0:0:
93,201,95891,2,0,B|155:194|155:194|194:211|194:211|261:205,1,150.000005722046
205,303,96082,1,0,0:0:0:0:
205,303,96146,6,0,L|292:293,1,75.0000028610231
169,149,96274,2,0,L|134:229,1,75.0000028610231
320,194,96401,2,0,L|267:123,1,75.0000028610231
257,380,96529,5,0,0:0:0:0:
238,206,96656,2,0,P|214:124|226:42,1,150.000005722046
399,111,96848,1,0,0:0:0:0:
399,111,96912,2,0,P|423:193|411:275,1,150.000005722046
157,363,97103,1,0,0:0:0:0:
157,363,97167,2,0,P|133:281|145:199,1,150.000005722046
275,133,97359,1,0,0:0:0:0:
324,198,97422,6,0,B|335:234|335:234|324:274,1,75.0000028610231
60,244,97550,2,0,B|50:207|50:207|61:171,1,75.0000028610231
128,122,97678,6,0,B|210:106|198:150|286:131,1,150.000005722046
253,48,97869,1,0,0:0:0:0:
253,48,97933,2,0,P|291:42|331:29,1,75.0000028610231
466,131,98061,2,0,P|476:174|480:216,1,75.0000028610231
366,265,98188,6,0,B|382:214|385:181|385:181|379:146|358:98,1,150.000005722046
199,95,98380,1,0,0:0:0:0:
199,95,98444,2,0,B|186:130|186:130|195:172,1,75.0000028610231
290,212,98571,5,0,0:0:0:0:
290,212,98635,1,0,0:0:0:0:
290,212,98699,2,0,B|236:206|236:206|199:219|199:219|129:214,1,150.000005722046
33,309,98891,1,0,0:0:0:0:
33,309,98954,2,0,B|87:303|87:303|124:316|124:316|194:311,1,150.000005722046
262,359,99146,1,0,0:0:0:0:
262,359,99210,6,0,B|270:319|270:319|255:275,1,75.0000028610231
63,216,99337,2,0,B|55:176|55:176|70:132,1,75.0000028610231
1,62,99465,1,0,0:0:0:0:
58,42,99529,1,0,0:0:0:0:
114,62,99593,1,0,0:0:0:0:
169,81,99656,1,0,0:0:0:0:
224,56,99720,6,0,P|326:52|448:43,1,200
423,45,100103,1,0,0:0:0:0:
265,154,100231,2,0,P|165:146|65:143,1,200
65,143,100614,1,0,0:0:0:0:
333,331,100742,6,0,B|352:282|352:282|332:222,1,100
179,53,100997,2,0,B|160:102|160:102|180:162,1,100
56,255,101252,2,0,L|175:235,1,100
296,121,101444,1,0,0:0:0:0:
363,163,101508,2,0,L|482:143,1,100
150,255,101763,5,0,0:0:0:0:
389,102,101891,1,0,0:0:0:0:
189,59,102018,1,0,0:0:0:0:
350,298,102146,1,0,0:0:0:0:
113,259,102274,5,0,0:0:0:0:
427,127,102402,1,0,0:0:0:0:
340,351,102529,1,0,0:0:0:0:
183,20,102656,1,0,0:0:0:0:
251,176,102784,5,0,0:0:0:0:
247,179,102848,1,0,0:0:0:0:
243,181,102912,1,0,0:0:0:0:
238,180,102976,1,0,0:0:0:0:
233,178,103039,1,0,0:0:0:0:
231,173,103103,1,0,0:0:0:0:
231,168,103167,1,0,0:0:0:0:
233,164,103231,1,0,0:0:0:0:
238,161,103295,1,0,0:0:0:0:
243,160,103359,1,0,0:0:0:0:
247,162,103422,1,0,0:0:0:0:
251,166,103486,1,0,0:0:0:0:
252,171,103550,6,0,L|263:282,1,112.500004291535
263,282,103805,5,0,0:0:0:0:
393,345,103933,1,0,0:0:0:0:
171,273,104061,2,0,P|118:282|46:290,1,100
384,91,104316,2,0,B|405:137|405:137|393:198,1,100
164,102,104571,2,0,B|154:53|154:53|175:7,1,100
267,287,104827,5,0,0:0:0:0:
267,287,104891,2,0,P|270:237|279:164,1,100
288,162,105082,2,0,P|176:192|77:188,1,200
361,234,105465,1,0,0:0:0:0:
446,184,105593,2,0,P|452:234|455:284,1,100
361,234,105848,6,0,B|321:141|401:122|347:38,1,200
183,212,106231,1,0,0:0:0:0:
121,160,106359,2,0,B|63:139|13:183|13:183,1,100
146,298,106614,2,0,B|204:319|254:275|254:275,1,100
331,32,106869,5,0,0:0:0:0:
195,197,106997,1,0,0:0:0:0:
391,215,107125,1,0,0:0:0:0:
393,227,107188,1,0,0:0:0:0:
396,239,107252,1,0,0:0:0:0:
399,251,107316,1,0,0:0:0:0:
402,263,107380,5,0,0:0:0:0:
451,132,107508,1,0,0:0:0:0:
311,155,107635,2,0,B|259:148|259:148|222:165|222:165|142:163,1,150
95,104,107891,6,0,L|81:51,3,50
55,186,108146,2,0,B|36:235|36:235|51:285,1,100
325,144,108401,2,0,B|338:98|338:98|319:49,1,100
140,234,108656,2,0,P|152:299|166:340,1,100
255,269,108848,1,0,0:0:0:0:
255,269,108912,6,0,B|337:266|315:314|405:314,1,150
494,205,109167,2,0,P|442:216|384:218,1,100
143,112,109422,2,0,P|195:101|253:99,1,100
437,126,109678,5,0,0:0:0:0:
214,192,109805,1,0,0:0:0:0:
394,313,109933,5,0,0:0:0:0:
357,188,110061,1,0,0:0:0:0:
328,55,110188,1,0,0:0:0:0:
272,251,110316,1,0,0:0:0:0:
272,251,110380,1,0,0:0:0:0:
272,251,110444,2,0,P|217:254|169:263,1,100
55,222,110635,1,0,0:0:0:0:
38,238,110699,6,0,B|19:187|19:187|26:142,1,100
195,0,110954,2,0,B|214:51|214:51|206:95,1,100
120,137,111146,1,0,0:0:0:0:
120,137,111210,2,0,L|104:76,1,50
52,18,111337,1,0,0:0:0:0:
212,187,111465,6,0,P|264:182|319:174,1,100
202,348,111720,1,0,0:0:0:0:
80,227,111848,2,0,L|58:203,2,25
139,284,111976,5,0,0:0:0:0:
32,375,112103,1,0,0:0:0:0:
139,284,112231,2,0,P|191:289|246:297,1,100
287,119,112486,2,0,P|264:167|270:216,1,100
444,365,112742,2,0,P|450:281|450:200,1,150
450,215,112997,6,0,P|398:207|349:187,1,100
264,19,113252,2,0,P|316:27|365:47,1,100
179,192,113508,5,0,0:0:0:0:
133,56,113635,1,0,0:0:0:0:
109,234,113763,5,0,0:0:0:0:
211,86,113891,1,0,0:0:0:0:
3,93,114018,5,0,0:0:0:0:
63,164,114146,2,0,B|165:139|152:200|272:169,1,200
259,172,114529,1,0,0:0:0:0:
424,183,114656,2,0,P|431:237|432:300,1,100
278,358,114912,1,0,0:0:0:0:
218,301,115039,6,0,P|212:266|211:233,1,50
259,172,115167,2,0,P|265:137|266:104,1,50
234,39,115295,1,0,0:0:0:0:
229,41,115359,1,0,0:0:0:0:
229,46,115423,1,0,0:0:0:0:
234,48,115486,1,0,0:0:0:0:
236,44,115550,5,0,0:0:0:0:
259,172,115678,1,0,0:0:0:0:
296,309,115805,1,0,0:0:0:0:
451,105,115933,1,0,0:0:0:0:
346,211,116061,6,0,L|125:232,1,200
332,73,116444,1,0,0:0:0:0:
167,0,116571,2,0,B|144:49|144:49|161:98,1,100
429,249,116827,2,0,B|444:205|444:205|421:156,1,100
216,199,117082,6,0,B|141:242|76:248|73:223|101:191|177:254,1,200
188,363,117465,2,0,L|192:299,1,50
346,211,117593,2,0,L|332:111,1,100
166,120,117848,2,0,L|179:20,1,100
360,28,118103,5,0,0:0:0:0:
216,199,118231,1,0,0:0:0:0:
66,145,118359,1,0,0:0:0:0:
332,111,118486,5,0,0:0:0:0:
239,328,118614,2,0,P|179:333|125:340,1,100
66,145,118869,2,0,P|115:145|164:136,1,100
338,25,119125,6,0,P|365:77|350:121,1,100
252,235,119316,1,0,0:0:0:0:
252,235,119380,2,0,P|258:178|262:79,1,150
186,50,119635,5,0,0:0:0:0:
179,35,119699,1,0,0:0:0:0:
113,229,119827,1,0,0:0:0:0:
98,243,119891,1,0,0:0:0:0:
348,219,120018,1,0,0:0:0:0:
348,219,120082,1,0,0:0:0:0:
348,219,120146,5,0,0:0:0:0:
244,127,120274,2,0,P|199:134|125:138,1,100
326,36,120529,6,0,B|461:4|385:93|531:71,1,200
359,119,120912,2,0,P|350:167|348:228,1,100
69,198,121167,6,0,P|46:121|131:32,1,200
443,186,121550,2,0,P|466:263|381:352,1,200
314,321,121933,1,0,0:0:0:0:
397,93,122188,6,0,P|343:90|195:66,1,200
116,294,122571,2,0,P|170:297|318:321,1,200
374,250,122954,1,0,0:0:0:0:
39,310,123210,6,0,B|2:212|2:212|32:106,1,200
288,21,123593,2,0,B|325:119|325:119|295:225,1,200
224,248,123976,1,0,0:0:0:0:
480,192,124231,5,0,0:0:0:0:
248,312,133422,5,0,0:0:0:0:
220,94,133550,1,0,0:0:0:0:
156,252,133678,2,0,P|106:245|56:241,1,100
335,170,133933,5,0,0:0:0:0:
406,305,134061,1,0,0:0:0:0:
244,217,134188,2,0,B|229:164|229:164|243:114,1,100
262,9,134444,5,0,0:0:0:0:
433,219,134571,2,0,P|427:274|425:328,1,100
166,269,134827,1,0,0:0:0:0:
335,170,134954,1,0,0:0:0:0:
93,74,135082,6,0,L|162:81,1,50,0|0,0:0|2:0,0:0:0:0:
352,180,135210,2,0,B|441:187|496:134|496:134|418:84,1,225.000008583069
356,54,135465,5,0,0:0:0:0:
328,273,135593,1,0,0:0:0:0:
221,323,135720,5,0,0:0:0:0:
146,114,135848,1,0,0:0:0:0:
47,133,135976,5,0,0:0:0:0:
241,226,136103,1,0,0:0:0:0:
205,37,136231,6,0,B|157:21|157:21|91:32,1,100
237,129,136422,1,0,0:0:0:0:
246,142,136486,2,0,B|294:150|294:150|342:134,1,100
161,262,136742,5,0,0:0:0:0:
422,203,136869,1,0,0:0:0:0:
298,71,136997,6,0,B|287:36|287:36|297:0,1,75.0000028610231,0|0,0:0|2:0,0:0:0:0:
487,173,137125,2,0,P|455:198|412:201,1,75.0000028610231,0|0,0:0|2:0,0:0:0:0:
246,142,137252,2,0,B|188:135|161:166|59:152,1,150
235,327,137508,6,0,P|253:275|248:227,1,100
130,70,137763,1,0,0:0:0:0:
28,251,137891,1,0,0:0:0:0:
161,262,138018,1,0,0:0:0:0:
351,237,138146,5,0,0:0:0:0:
362,245,138210,1,0,0:0:0:0:
373,251,138274,1,0,0:0:0:0:
488,227,138401,1,0,0:0:0:0:
273,346,138529,5,0,0:0:0:0:
249,230,138656,2,0,P|242:147|236:22,1,200
148,278,139039,1,0,0:0:0:0:
45,189,139167,6,0,P|76:193|121:197,1,50,0|0,0:0|2:0,0:0:0:0:
261,241,139295,2,0,B|317:289|418:301|421:229|350:214|308:301,1,225.000008583069
273,346,139550,5,0,0:0:0:0:
322,175,139678,1,0,0:0:0:0:
193,129,139805,5,0,0:0:0:0:
256,335,139933,1,0,0:0:0:0:
133,357,140061,5,0,0:0:0:0:
207,141,140188,1,0,0:0:0:0:
44,230,140316,6,0,P|95:223|155:216,1,100
261,241,140508,1,0,0:0:0:0:
261,241,140571,2,0,P|312:234|372:227,1,100
108,97,140827,5,0,0:0:0:0:
307,141,140954,1,0,0:0:0:0:
155,288,141082,6,0,B|139:249|139:249|143:209,1,75.0000028610231,0|0,0:0|2:0,0:0:0:0:
34,56,141210,2,0,B|75:61|75:61|108:85,1,75.0000028610231,0|0,0:0|2:0,0:0:0:0:
299,78,141337,2,0,B|273:111|273:111|236:127,1,75.0000028610231,0|0,0:0|2:0,0:0:0:0:
77,163,141465,6,0,L|31:181,2,37.5000014305115
163,142,141593,6,0,B|213:149|256:146|256:146|278:168|278:168|356:157,1,200
505,275,141976,2,0,B|448:278|415:268|415:268|380:282|380:282|350:270|350:270|293:275,1,200
192,342,142359,2,0,B|210:287|210:287|195:230,1,100
76,44,142614,6,0,B|25:86|25:86|16:154|16:154|53:209,1,200
325,263,142997,2,0,B|362:208|362:208|353:140|353:140|302:98,1,200
106,137,143380,2,0,P|177:128|220:119,1,100
389,53,143635,5,0,0:0:0:0:
263,184,143763,1,0,0:0:0:0:
344,265,143891,1,0,0:0:0:0:
325,344,144018,1,0,0:0:0:0:
325,344,144082,1,0,0:0:0:0:
325,344,144146,5,0,0:0:0:0:
244,180,144274,1,0,0:0:0:0:
402,62,144401,1,0,0:0:0:0:
257,271,144529,1,0,0:0:0:0:
179,103,144656,6,0,B|98:83|16:93|16:93|73:124,1,225.000008583069
122,180,144912,1,0,0:0:0:0:
257,49,145039,1,0,0:0:0:0:
345,203,145167,6,0,B|426:183|508:193|508:193|451:224,1,225.000008583069
173,337,145422,2,0,B|92:357|10:347|10:347|67:316,1,225.000008583069
158,242,145678,6,0,B|234:250|234:250|269:288|269:288|347:299,1,200
205,157,146061,2,0,P|196:105|186:54,1,100
173,337,146316,1,0,0:0:0:0:
345,203,146444,2,0,P|349:148|355:101,1,100
103,151,146699,6,0,P|43:215|98:344,1,200
345,203,147082,2,0,P|395:195|464:182,1,100
261,334,147337,1,0,0:0:0:0:
202,253,147465,2,0,L|211:184,1,50
175,75,147593,6,0,L|172:39,2,25
219,190,147720,6,0,P|153:154|79:144,2,150,0|2|2,0:0|0:1|0:1,0:0:0:0:
361,319,148231,2,0,P|426:283|500:273,2,150,0|2|2,0:0|0:1|0:1,0:0:0:0:
126,358,148742,2,0,B|113:319|113:319|122:276,1,75.0000028610231,0|0,0:0|2:0,0:0:0:0:
315,193,148869,6,0,P|386:201|441:200,1,100
175,75,149125,2,0,P|103:61|13:158,1,200
220,318,149508,5,0,0:0:0:0:
220,318,149571,1,0,0:0:0:0:
220,318,149635,1,0,0:0:0:0:
115,198,149763,2,0,P|127:124|134:49,1,150.000005722046
134,49,150146,1,0,0:0:0:0:
315,193,150274,6,0,B|399:176|461:209,1,150.000005722046
255,267,150656,2,0,P|204:274|154:273,1,75.0000028610231
403,268,150912,1,0,0:0:0:0:
334,320,151039,1,0,0:0:0:0:
302,183,151167,1,0,0:0:0:0:
252,355,151295,5,0,0:0:0:0:
290,172,151422,1,0,0:0:0:0:
158,286,151550,2,0,L|99:278,1,50
53,190,151678,5,0,0:0:0:0:
53,190,151742,1,0,0:0:0:0:
53,190,151805,2,0,B|33:138|33:138|47:87,1,100
315,193,152061,2,0,B|326:235|326:235|306:287,1,100
139,137,152316,5,0,0:0:0:0:
324,85,152444,1,0,0:0:0:0:
229,226,152571,5,0,0:0:0:0:
152,49,152699,1,0,0:0:0:0:
53,190,152827,6,0,L|65:291,1,100
155,327,153018,1,0,0:0:0:0:
155,327,153082,2,0,B|200:330|200:330|259:307,1,100
387,141,153337,5,0,0:0:0:0:
342,170,153422,1,0,0:0:0:0:
328,222,153508,1,0,0:0:0:0:
350,270,153593,6,0,L|359:358,1,66.6666666666667
190,230,153763,1,0,0:0:0:0:
251,158,153848,2,0,L|261:44,1,100
259,58,154231,1,0,0:0:0:0:
190,230,154359,6,0,B|80:203|37:279|37:279,2,150.000005722046
347,298,154997,1,0,0:0:0:0:
343,287,155061,1,0,0:0:0:0:
338,277,155125,1,0,0:0:0:0:
409,102,155252,1,0,0:0:0:0:
354,315,155380,6,0,L|286:305,1,50
190,230,155508,1,0,0:0:0:0:
363,327,155635,2,0,L|371:257,1,50
300,119,155763,5,0,0:0:0:0:
296,127,155827,1,0,0:0:0:0:
292,135,155891,1,0,0:0:0:0:
449,305,156018,1,0,0:0:0:0:
495,228,156146,5,0,0:0:0:0:
272,232,156274,1,0,0:0:0:0:
85,320,156401,5,0,0:0:0:0:
207,162,156529,1,0,0:0:0:0:
192,341,156656,2,0,B|171:293|171:293|187:233,1,100
299,147,156848,1,0,0:0:0:0:
299,147,156912,2,0,B|320:99|320:99|304:39,1,100
121,134,157167,5,0,0:0:0:0:
339,228,157295,1,0,0:0:0:0:
66,215,157422,5,0,0:0:0:0:
219,81,157550,1,0,0:0:0:0:
136,281,157678,5,0,0:0:0:0:
101,49,157805,2,0,L|95:16,2,25
121,134,157933,6,0,L|137:191,1,50
194,356,158061,1,0,0:0:0:0:
58,235,158188,2,0,B|137:223|137:223|181:249|181:249|283:236,1,200
108,327,158571,1,0,0:0:0:0:
214,156,158699,2,0,L|225:44,1,100
465,248,158954,6,0,P|440:190|311:164,1,200
194,352,159337,1,0,0:0:0:0:
334,243,159465,5,0,0:0:0:0:
165,142,159593,1,0,0:0:0:0:
195,62,159720,5,0,0:0:0:0:
306,23,159848,1,0,0:0:0:0:
265,115,159976,6,0,L|258:265,1,150,0|0,0:0|2:0,0:0:0:0:
258,264,160231,2,0,P|201:253|154:253,1,100
16,164,160486,2,0,P|83:157|172:139,1,150
164,141,160742,1,0,0:0:0:0:
306,23,160869,1,0,0:0:0:0:
393,73,160997,6,0,B|408:95|407:122|407:122,1,50,0|0,0:0|2:0,0:0:0:0:
379,218,161125,1,0,0:0:0:0:
380,61,161252,1,0,0:0:0:0:
245,172,161380,1,0,0:0:0:0:
326,121,161508,6,0,P|408:128|491:130,1,150
234,184,161763,2,0,P|152:191|69:193,1,150
388,308,162018,5,0,0:0:0:0:
203,361,162274,2,0,P|194:320|189:278,1,75.0000028610231
326,121,162529,2,0,P|337:166|334:202,1,75.0000028610231
307,271,162784,1,0,0:0:0:0:
244,235,162912,1,0,0:0:0:0:
165,305,163039,6,0,L|-17:335,1,150.000005722046
321,293,163422,2,0,L|409:306,1,75.0000028610231
244,235,163678,2,0,L|62:265,1,150.000005722046
275,152,164061,5,0,0:0:0:0:
178,82,164188,1,0,0:0:0:0:
334,82,164316,2,0,B|430:67|390:115|497:108,1,150.000005722046
178,82,164699,2,0,B|82:67|122:115|15:108,1,150.000005722046
256,272,165082,6,0,L|256:346,1,75.0000028610231
256,346,165593,1,0,0:0:0:0:
440,246,165720,1,0,0:0:0:0:
381,183,165848,2,0,P|376:123|376:22,1,150.000005722046
375,33,166359,6,0,P|328:30|284:25,1,75.0000028610231
227,83,166614,2,0,P|164:84|117:171,1,150.000005722046
175,276,166997,1,0,0:0:0:0:
88,354,167125,5,0,0:0:0:0:
58,275,167252,2,0,P|51:235|47:186,1,75.0000028610231
175,276,167508,2,0,B|269:272|244:327|348:306,1,150.000005722046
470,155,167891,2,0,B|481:114|481:114|469:74,1,75.0000028610231
391,213,168146,6,0,P|399:266|409:370,1,150.000005722046
301,204,168529,1,0,0:0:0:0:
301,204,168593,1,0,0:0:0:0:
301,204,168656,2,0,P|309:162|313:123,1,75.0000028610231
241,48,168912,2,0,P|199:60|106:75,1,112.500004291535,0|0,0:0|2:0,0:0:0:0:
131,72,169167,5,0,0:0:0:0:
183,17,169295,1,0,0:0:0:0:
218,141,169422,1,0,0:0:0:0:
168,204,169550,1,0,0:0:0:0:
70,153,169678,6,0,P|40:189|49:297,1,150.000005722046
252,217,170061,1,0,0:0:0:0:
320,274,170188,6,0,L|480:300,1,150.000005722046
468,298,170571,1,0,0:0:0:0:
186,155,170699,2,0,L|26:181,1,150.000005722046
37,179,171082,1,0,0:0:0:0:
260,378,171210,5,0,0:0:0:0:
253,289,171337,2,0,B|243:252|243:252|252:213,1,75.0000028610231
357,80,171593,1,0,0:0:0:0:
427,132,171720,2,0,L|418:265,1,112.500004291535
425,259,171976,2,0,P|383:256|345:248,1,75.0000028610231
113,51,172231,6,0,B|77:102|75:160|75:160|103:195|105:243,1,200
399,333,172614,2,0,B|435:282|437:224|437:224|409:188|407:141,1,200
222,51,172997,1,0,0:0:0:0:
179,148,173125,2,0,P|184:185|188:222,1,75.0000028610231
189,223,173508,5,0,0:0:0:0:
335,270,173635,1,0,0:0:0:0:
250,379,173763,2,0,P|254:341|259:304,1,75.0000028610231
336,185,174018,1,0,0:0:0:0:
215,52,174146,5,0,0:0:0:0:
215,52,174210,1,0,0:0:0:0:
215,52,174274,1,0,0:0:0:0:
146,130,174401,2,0,B|222:139|222:139|304:107,1,150.000005722046
410,194,174784,2,0,P|367:186|316:186,1,75.0000028610231
172,285,175039,2,0,P|134:286|97:294,1,75.0000028610231
290,112,175295,5,0,0:0:0:0:
368,270,175422,2,0,P|372:306|374:349,1,75.0000028610231
255,365,175678,2,0,B|269:319|268:279|268:279|259:244|244:209,1,150.000005722046
65,168,176061,1,0,0:0:0:0:
123,72,176188,5,0,0:0:0:0:
123,72,176252,1,0,0:0:0:0:
123,72,176316,2,0,B|195:61|220:88|291:73,1,150.000005722046
163,170,176699,1,0,0:0:0:0:
163,170,176763,1,0,0:0:0:0:
163,170,176827,2,0,P|154:211|153:256,1,75.0000028610231
362,272,177082,2,0,P|355:212|341:130,1,112.500004291535,0|0,0:0|2:0,0:0:0:0:
346,160,177337,5,0,0:0:0:0:
263,230,177465,1,0,0:0:0:0:
281,317,177593,1,0,0:0:0:0:
440,217,177720,1,0,0:0:0:0:
250,239,177848,6,0,P|255:158|258:82,1,150.000005722046
152,243,178231,1,0,0:0:0:0:
101,18,178359,6,0,B|79:70|79:70|95:105|95:105|76:167,1,150,0|0,0:0|2:0,0:0:0:0:
60,180,178614,2,0,P|117:168|164:161,1,75.0000028610231
361,160,178869,6,0,B|412:176|468:171|468:171|498:232,1,150,0|0,0:0|2:0,0:0:0:0:
417,251,179125,2,0,L|328:261,1,75.0000028610231
63,323,179380,6,0,B|39:237|39:237|63:170,1,150
141,128,179635,2,0,B|155:160|155:160|145:207,1,75.0000028610231
449,323,179891,6,0,B|473:237|473:237|449:170,1,150
371,128,180146,2,0,B|357:160|357:160|367:207,1,75.0000028610231
257,348,180401,5,0,0:0:0:0:
237,247,180529,1,0,0:0:0:0:
243,337,180656,2,0,P|248:289|252:240,1,75.0000028610231
210,178,180848,1,0,0:0:0:0:
204,166,180912,5,0,0:0:0:0:
250,262,181039,1,0,0:0:0:0:
293,186,181167,5,0,0:0:0:0:
254,173,181231,1,0,0:0:0:0:
217,191,181295,1,0,0:0:0:0:
181,208,181359,1,0,0:0:0:0:
141,202,181422,1,0,0:0:0:0:
318,100,181550,6,0,P|353:110|390:118,1,75.0000028610231
188,98,181805,1,0,0:0:0:0:
188,98,181869,1,0,0:0:0:0:
188,98,181933,2,0,P|135:111|7:129,1,150.000005722046
390,118,182444,6,0,B|405:180|405:180|385:211|385:211|395:273|395:273|354:221,1,225.000008583069
288,197,182699,2,0,B|383:172|362:217|455:198,1,150.000005722046
493,147,182891,1,0,0:0:0:0:
505,140,182954,5,0,0:0:0:0:
351,350,183082,2,0,B|335:316|335:316|338:268,1,75.0000028610231
390,118,183210,1,0,0:0:0:0:
248,278,183337,5,0,0:0:0:0:
248,278,183401,1,0,0:0:0:0:
248,278,183465,2,0,B|149:263|149:263|93:282,1,150.000005722046
101,180,183656,1,0,0:0:0:0:
101,180,183720,2,0,L|29:206,1,75.0000028610231
165,352,183848,5,0,0:0:0:0:
165,352,183912,1,0,0:0:0:0:
165,352,183976,2,0,P|171:310|166:270,1,75.0000028610231
214,192,184103,2,0,P|207:150|213:110,1,75.0000028610231
290,82,184231,2,0,B|350:105|452:112|455:67|406:34|358:119,1,225.000008583069
390,194,184486,6,0,P|352:193|316:182,1,75.0000028610231
267,0,184614,2,0,P|304:0|340:11,1,75.0000028610231
511,104,184742,6,0,B|427:82|454:125|332:108,1,150.000005722046
275,261,184933,1,0,0:0:0:0:
352,310,184997,6,0,B|366:274|366:274|355:229,1,75.0000028610231
245,179,185125,2,0,B|209:165|209:165|164:176,1,75.0000028610231
189,358,185252,2,0,B|224:366|224:366|260:352,1,75.0000028610231
115,279,185380,1,0,0:0:0:0:
275,261,185508,6,0,B|212:254|212:254|185:271|185:271|108:267,1,150.000005722046
318,186,185699,1,0,0:0:0:0:
361,119,185763,2,0,B|424:112|424:112|451:129|451:129|528:125,1,150.000005722046
287,70,185954,1,0,0:0:0:0:
221,25,186018,2,0,B|158:18|158:18|131:35|131:35|54:31,1,150.000005722046
43,107,186210,1,0,0:0:0:0:
26,115,186274,5,0,0:0:0:0:
241,145,186401,1,0,0:0:0:0:
26,358,186529,6,0,B|1:272|1:272|31:202,1,150.000005722046
157,118,186720,1,0,0:0:0:0:
241,145,186784,2,0,B|253:185|253:185|244:223,1,75.0000028610231
196,294,186912,1,0,0:0:0:0:
256,208,187039,6,0,L|341:198,1,75.0000028610231
159,197,187167,2,0,B|101:193|101:193|71:211|71:211|-5:208,1,150.000005722046
297,304,187422,1,0,0:0:0:0:
485,287,187550,6,0,P|511:194|488:135,1,150.000005722046
420,205,187742,1,0,0:0:0:0:
420,205,187805,2,0,P|408:164|391:131,1,75.0000028610231
256,59,187933,2,0,P|216:63|174:78,1,75.0000028610231
108,83,188061,6,0,B|218:88|183:146|270:141,1,150.000005722046
392,54,188252,1,0,0:0:0:0:
322,101,188316,2,0,P|318:139|319:183,1,75.0000028610231
448,250,188444,5,0,0:0:0:0:
448,250,188508,1,0,0:0:0:0:
448,250,188571,2,0,B|355:230|387:284|278:273,1,150.000005722046
38,49,188827,2,0,B|131:29|99:83|208:72,1,150.000005722046
217,318,189082,6,0,P|189:235|192:147,1,150.000005722046
254,43,189274,1,0,0:0:0:0:
334,65,189337,2,0,P|362:148|359:236,1,150.000005722046
296,362,189593,5,0,0:0:0:0:
109,212,189720,1,0,0:0:0:0:
58,204,189784,1,0,0:0:0:0:
8,193,189848,1,0,0:0:0:0:
391,119,189976,1,0,0:0:0:0:
442,111,190040,1,0,0:0:0:0:
492,100,190104,1,0,0:0:0:0:
254,43,190231,5,0,0:0:0:0:
199,300,190359,1,0,0:0:0:0:
363,209,190486,1,0,0:0:0:0:
259,127,190614,6,0,P|270:228|273:289,1,150.000005722046
256,192,190933,12,0,191603,0:0:0:0:
272,276,191635,5,0,0:0:0:0:
143,98,191763,1,0,0:0:0:0:
344,218,191891,2,0,L|459:227,1,100
185,170,192146,6,0,B|115:214|44:190|44:190|82:152,1,200
185,170,192656,6,0,L|198:250,1,75.0000028610231
341,361,192784,1,0,0:0:0:0:
341,361,192848,1,0,0:0:0:0:
341,361,192912,2,0,B|352:301|352:301|334:267|334:267|344:214,1,150.000005722046
438,105,193103,1,0,0:0:0:0:
400,24,193167,6,0,B|362:10|362:10|320:13,1,75.0000028610231
391,161,193295,2,0,B|421:135|421:135|440:97,1,75.0000028610231
276,84,193422,2,0,B|282:123|282:123|306:158,1,75.0000028610231
258,229,193550,5,0,0:0:0:0:
359,90,193678,1,0,0:0:0:0:
207,27,193805,2,0,P|127:52|44:58,1,150.000005722046
14,146,193997,1,0,0:0:0:0:
14,146,194061,2,0,P|15:186|25:229,1,75.0000028610231
246,375,194188,2,0,P|265:288|254:215,1,150.000005722046
156,161,194380,1,0,0:0:0:0:
93,209,194444,2,0,P|82:247|76:297,1,75.0000028610231
176,259,194571,5,0,0:0:0:0:
176,259,194635,1,0,0:0:0:0:
176,259,194699,2,0,B|259:237|250:299|351:279,1,150.000005722046
405,170,194891,1,0,0:0:0:0:
323,123,194954,2,0,B|308:159|308:159|315:199,1,75.0000028610231
491,360,195082,2,0,B|506:324|506:324|499:284,1,75.0000028610231,0|0,3:0|3:0,3:0:0:0:
405,170,195210,5,0,0:0:0:0:
422,326,195337,2,0,B|417:292|408:269|408:269|428:237|428:237|416:210|416:183,1,150.000005722046
494,137,195529,1,0,0:0:0:0:
497,122,195593,1,0,0:0:0:0:
314,194,195720,6,0,L|163:185,1,150.000005722046
43,49,195912,1,0,0:0:0:0:
43,49,195976,2,0,L|194:40,1,150.000005722046
92,235,196231,6,0,P|79:271|80:311,1,75.0000028610231
314,194,196359,2,0,P|314:156|301:121,1,75.0000028610231
209,139,196486,2,0,B|130:127|139:166|38:153,1,150.000005722046
185,279,196678,1,0,0:0:0:0:
269,308,196742,6,0,P|367:294|483:289,1,200
467,288,197125,1,0,0:0:0:0:
209,139,197252,2,0,P|111:125|-5:120,1,200
10,119,197635,1,0,0:0:0:0:
376,91,197763,6,0,P|395:145|389:191,1,100
116,322,198018,2,0,P|112:272|130:226,1,100
345,276,198274,6,0,P|406:268|454:264,1,100
209,139,198465,1,0,0:0:0:0:
209,139,198529,2,0,P|159:134|109:127,1,100
281,341,198784,5,0,0:0:0:0:
390,186,198912,1,0,0:0:0:0:
227,74,199039,1,0,0:0:0:0:
130,226,199167,1,0,0:0:0:0:
315,360,199295,5,0,0:0:0:0:
112,254,199423,1,0,0:0:0:0:
196,55,199551,1,0,0:0:0:0:
411,153,199678,1,0,0:0:0:0:
251,176,199805,5,0,0:0:0:0:
247,179,199869,1,0,0:0:0:0:
243,181,199933,1,0,0:0:0:0:
238,180,199997,1,0,0:0:0:0:
233,178,200060,1,0,0:0:0:0:
231,173,200124,1,0,0:0:0:0:
231,168,200188,1,0,0:0:0:0:
233,164,200252,1,0,0:0:0:0:
238,161,200316,1,0,0:0:0:0:
243,160,200380,1,0,0:0:0:0:
247,162,200443,1,0,0:0:0:0:
251,166,200507,1,0,0:0:0:0:
252,171,200571,6,0,B|266:236|261:283|261:283|243:241,1,150.000005722046
