osu file format v14

[General]
AudioFilename: audio.mp3
AudioLeadIn: 0
PreviewTime: 169841
Countdown: 0
SampleSet: Soft
StackLeniency: 0.5
Mode: 0
LetterboxInBreaks: 0
WidescreenStoryboard: 1

[Editor]
Bookmarks: 1156,12127,23098,34070,56013,61498,83441,105384,116356,127327,138298,149270,160241,171213,189556,193156,195898,215098,225213,226070,248013,253498
DistanceSpacing: 0.5
BeatDivisor: 4
GridSize: 32
TimelineZoom: 2.879998

[Metadata]
Title:NANI THE FUCK!!
TitleUnicode:NANI THE FUCK!!
Artist:Camellia feat. Nanahira
ArtistUnicode:かめりあ feat. ななひら
Creator:Mir
Version:Insane
Source:
Tags:ごーいん! go-in! Confetto c96 comiket 96 kamelcamellia cametek pop edm drum and bass dnb hardbass dubstep what the LMT japanese electronic instrumental
BeatmapID:2141331
BeatmapSetID:1021743

[Difficulty]
HPDrainRate:5
CircleSize:4
OverallDifficulty:8
ApproachRate:9
SliderMultiplier:1.5
SliderTickRate:1

[Events]
//Background and Video events
0,0,"nani the fck.jpg",0,0
//Break Periods
2,105584,115756
//Storyboard Layer 0 (Background)
//Storyboard Layer 1 (Fail)
//Storyboard Layer 2 (Pass)
//Storyboard Layer 3 (Foreground)
//Storyboard Layer 4 (Overlay)
//Storyboard Sound Samples

[TimingPoints]
1156,342.857142857143,4,2,1,30,1,0
1156,-200,4,2,1,30,0,0
11441,-66.6666666666667,4,2,1,50,0,0
11784,-50,4,2,1,70,0,0
11827,-50,4,2,1,5,0,0
11870,-66.6666666666667,4,2,1,70,0,0
13327,-133.333333333333,4,2,1,70,0,0
14870,-66.6666666666667,4,2,1,70,0,0
16413,-133.333333333333,4,2,1,70,0,0
16756,-66.6666666666667,4,2,1,70,0,0
17270,-133.333333333333,4,2,1,70,0,0
17613,-66.6666666666667,4,2,1,70,0,0
18813,-133.333333333333,4,2,1,70,0,0
20356,-66.6666666666667,4,2,1,70,0,0
21556,-133.333333333333,4,2,1,70,0,0
23098,-100,4,2,1,70,0,0
29956,-80,4,2,1,70,0,0
31327,-66.6666666666667,4,2,1,70,0,0
34070,-66.6666666666667,4,2,1,95,0,1
34756,-100,4,2,1,95,0,1
37841,-66.6666666666667,4,2,1,95,0,1
38870,-100,4,2,1,95,0,1
39556,-66.6666666666667,4,2,1,95,0,1
40241,-100,4,2,1,95,0,1
40756,-133.333333333333,4,2,1,95,0,1
40927,-100,4,2,1,95,0,1
41441,-133.333333333333,4,2,1,95,0,1
41613,-100,4,2,1,95,0,1
42298,-83.3333333333333,4,2,1,70,0,0
44698,-100,4,2,1,70,0,0
45041,-66.6666666666667,4,2,1,95,0,1
45427,-66.6666666666667,4,2,1,5,0,1
45470,-66.6666666666667,4,2,1,95,0,1
45513,-66.6666666666667,4,2,1,5,0,1
45556,-66.6666666666667,4,2,1,95,0,1
45598,-66.6666666666667,4,2,1,5,0,1
45641,-66.6666666666667,4,2,1,95,0,1
45684,-66.6666666666667,4,2,1,5,0,1
45727,-66.6666666666667,4,2,1,95,0,1
45898,-100,4,2,1,95,0,1
46070,-66.6666666666667,4,2,1,95,0,1
50184,-100,4,2,1,95,0,1
50527,-66.6666666666667,4,2,1,95,0,1
54641,-100,4,2,1,70,0,0
56013,-66.6666666666667,4,2,1,70,0,0
57298,-66.6666666666667,4,2,1,5,0,0
57384,-66.6666666666667,4,2,1,70,0,0
58670,-66.6666666666667,4,2,1,5,0,0
58756,-66.6666666666667,4,2,1,70,0,0
61498,-100,4,2,1,95,0,1
61841,-66.6666666666667,4,2,1,95,0,1
64241,-100,4,2,1,95,0,1
64584,-66.6666666666667,4,2,1,95,0,1
65956,-100,4,2,1,95,0,1
66641,-50,4,2,1,95,0,1
66984,-100,4,2,1,95,0,1
67327,-50,4,2,1,95,0,1
67670,-66.6666666666667,4,2,1,95,0,1
69384,-100,4,2,1,95,0,1
69727,-100,4,2,1,70,0,0
72127,-133.333333333333,4,2,1,70,0,0
72470,-50,4,2,1,95,0,1
72813,-66.6666666666667,4,2,1,95,0,1
72856,-66.6666666666667,4,2,1,5,0,1
72899,-66.6666666666667,4,2,1,95,0,1
72942,-66.6666666666667,4,2,1,5,0,1
72985,-66.6666666666667,4,2,1,95,0,1
73027,-66.6666666666667,4,2,1,5,0,1
73070,-66.6666666666667,4,2,1,95,0,1
73113,-66.6666666666667,4,2,1,5,0,1
73156,-66.6666666666667,4,2,1,95,0,1
76927,-50,4,2,1,95,0,1
77613,-133.333333333333,4,2,1,95,0,1
77956,-100,4,2,1,95,0,1
78641,-100,4,2,1,95,0,1
79327,-80,4,2,1,95,0,1
80698,-66.6666666666667,4,2,1,95,0,1
82070,-66.6666666666667,4,2,1,70,0,0
83441,-100,4,2,1,70,0,0
88584,-66.6666666666667,4,2,1,70,0,0
88927,-100,4,2,1,70,0,0
94070,-66.6666666666667,4,2,1,70,0,0
94413,-200,4,2,1,70,0,0
95270,-66.6666666666667,4,2,1,70,0,0
95613,-100,4,2,1,70,0,0
99556,-66.6666666666667,4,2,1,70,0,0
99898,-100,4,2,1,70,0,0
102641,-66.6666666666667,4,2,1,70,0,0
104870,-100,4,2,1,70,0,0
105384,-100,4,2,1,40,0,0
116356,-133.333333333333,4,2,1,30,0,0
121841,-133.333333333333,4,2,1,40,0,0
123213,-133.333333333333,4,2,1,50,0,0
124584,-133.333333333333,4,2,1,70,0,0
127327,-66.6666666666667,4,2,1,70,0,0
128527,-133.333333333333,4,2,1,70,0,0
130070,-66.6666666666667,4,2,1,70,0,0
131613,-133.333333333333,4,2,1,70,0,0
131956,-66.6666666666667,4,2,1,70,0,0
132470,-133.333333333333,4,2,1,70,0,0
132813,-66.6666666666667,4,2,1,70,0,0
134013,-133.333333333333,4,2,1,70,0,0
135556,-66.6666666666667,4,2,1,70,0,0
136756,-133.333333333333,4,2,1,70,0,0
138298,-100,4,2,1,70,0,0
140698,-200,4,2,1,70,0,0
141041,-100,4,2,1,70,0,0
143441,-200,4,2,1,70,0,0
143784,-100,4,2,1,70,0,0
147727,-133.333333333333,4,2,1,70,0,0
148584,-100,4,2,1,70,0,0
148927,-66.6666666666667,4,2,1,70,0,0
149270,-133.333333333333,4,2,1,70,0,0
152013,-100,4,2,1,70,0,0
159556,-66.6666666666667,4,2,1,70,0,0
165041,-200,4,2,1,70,0,0
165213,-66.6666666666667,4,2,1,70,0,0
171213,-50,4,2,1,95,0,1
172156,-58.8235294117647,4,2,1,95,0,1
172413,-71.4285714285714,4,2,1,95,0,1
172584,-50,4,2,1,95,0,1
173527,-58.8235294117647,4,2,1,95,0,1
173784,-71.4285714285714,4,2,1,95,0,1
173955,-50,4,2,1,95,0,1
174898,-58.8235294117647,4,2,1,95,0,1
175155,-71.4285714285714,4,2,1,95,0,1
175326,-50,4,2,1,95,0,1
177641,-58.8235294117647,4,2,1,95,0,1
177898,-71.4285714285714,4,2,1,95,0,1
178069,-50,4,2,1,95,0,1
179013,-58.8235294117647,4,2,1,95,0,1
179270,-71.4285714285714,4,2,1,95,0,1
179441,-50,4,2,1,95,0,1
183556,-100,4,2,1,70,0,0
184927,-50,4,2,1,95,0,1
186298,-100,4,2,1,70,0,0
186984,-50,4,2,1,70,0,0
187241,-100,4,2,1,70,0,0
187670,-66.6666666666667,4,2,1,95,0,1
190413,-50,4,2,1,95,0,1
193156,-66.6666666666667,4,2,1,70,0,0
195556,-133.333333333333,4,2,1,70,0,0
195898,-50,4,2,1,95,0,1
204127,-133.333333333333,4,2,1,70,0,0
206527,-200,4,2,1,70,0,0
206870,-50,4,2,1,95,0,1
212356,-33.3333333333333,4,2,1,95,0,1
212613,-50,4,2,1,95,0,1
213041,-33.3333333333333,4,2,1,95,0,1
213298,-50,4,2,1,95,0,1
213556,-133.333333333333,4,2,1,75,0,1
215098,-66.6666666666667,4,2,1,70,0,0
216470,-100,4,2,1,70,0,0
216641,-100,4,2,1,70,0,0
217841,-66.6666666666667,4,2,1,70,0,0
219384,-100,4,2,1,70,0,0
220241,-133.333333333333,4,2,1,70,0,0
220584,-66.6666666666667,4,2,1,70,0,0
226070,-50,4,2,1,70,0,0
226413,-50,4,2,1,95,0,1
231556,-66.6666666666667,4,2,1,95,0,1
233613,-100,4,2,1,95,0,1
234298,-66.6666666666667,4,2,1,70,0,0
236698,-133.333333333333,4,2,1,70,0,0
237041,-50,4,2,1,70,0,0
237384,-50,4,2,1,95,0,1
241841,-133.333333333333,4,2,1,70,0,0
242527,-50,4,2,1,70,0,0
242870,-66.6666666666667,4,2,1,70,0,0
243213,-50,4,2,1,70,0,0
243384,-66.6666666666667,4,2,1,70,0,0
247670,-50,4,2,1,70,0,0
248013,-133.333333333333,4,2,1,70,0,0
252127,-66.6666666666667,4,2,1,70,0,0
253498,-250,4,2,1,70,0,0
256241,-250,4,2,1,5,0,0

[Colours]
Combo1 : 255,255,170
Combo2 : 102,212,242
Combo3 : 255,204,255
Combo4 : 255,190,125

[HitObjects]
91,287,1156,6,0,L|31:273,2,56.25,2|0|0,0:2|0:2|0:2,0:2:0:0:
74,365,1841,2,0,L|14:351,2,56.25,2|0|0,0:2|0:2|0:2,0:2:0:0:
162,350,2527,6,0,P|175:302|180:286,2,56.25,2|0|0,0:2|0:2|0:2,0:2:0:0:
242,367,3213,2,0,P|255:319|260:303,2,56.25,2|0|0,0:2|0:2|0:2,0:2:0:0:
315,253,3898,6,0,P|274:232|250:228,2,56.25,2|0|0,0:2|0:2|0:2,0:2:0:0:
390,296,4584,2,0,P|416:287|440:272,2,56.25,2|0|0,0:2|0:2|0:2,0:2:0:0:
375,192,5270,6,0,P|388:143|390:123,2,56.25,2|0|0,0:2|0:2|0:2,0:2:0:0:
375,192,5956,1,2,0:2:0:0:
471,90,6213,1,2,0:2:0:0:
334,57,6470,1,2,0:2:0:0:
334,57,6641,6,0,L|271:67,2,56.25,2|0|0,0:2|0:2|0:2,0:2:0:0:
335,145,7327,2,0,L|390:136,2,56.25,2|0|0,0:2|0:2|0:2,0:2:0:0:
243,175,8013,6,0,P|234:216|231:235,2,56.25,2|0|0,0:2|0:2|0:2,0:2:0:0:
195,101,8698,2,0,P|186:60|183:41,2,56.25,2|0|0,0:2|0:2|0:2,0:2:0:0:
142,184,9384,6,0,P|102:192|78:197,2,56.25,2|0|0,0:2|0:2|0:2,0:2:0:0:
108,103,10070,2,0,P|68:95|44:90,2,56.25,2|0|0,0:2|0:2|0:2,0:2:0:0:
195,101,10756,5,2,0:2:0:0:
277,145,10927,1,2,0:2:0:0:
277,145,11012,1,2,0:2:0:0:
354,95,11184,1,2,0:2:0:0:
354,95,11270,1,2,0:2:0:0:
358,6,11441,6,0,B|460:19|398:88|517:97,1,168.750006437302,2|0,0:2|0:2,0:2:0:0:
512,96,11784,1,8,0:2:0:0:
502,331,12127,6,0,P|447:287|289:283,1,225.000008583069,6|0,3:2|0:2,0:2:0:0:
241,383,12641,2,0,P|259:313|295:144,1,225.000008583069,4|2,3:2|0:2,0:2:0:0:
291,163,13156,1,2,0:2:0:0:
86,304,13327,6,0,B|39:374|39:374|30:206|30:206|166:242,1,393.750015020371,6|2,3:2|0:2,0:2:0:0:
16,107,14870,6,0,L|252:74,1,225.000008583069,6|0,3:2|0:2,0:2:0:0:
335,0,15384,2,0,P|281:67|258:202,1,225.000008583069,6|2,3:2|0:2,0:2:0:0:
257,201,15898,1,2,0:2:0:0:
386,123,16070,6,0,P|467:97|509:92,1,112.500004291535,6|0,3:2|0:0,0:2:0:0:
493,93,16413,2,0,P|489:145|485:159,1,56.2500021457673,2|0,0:2|0:2,0:2:0:0:
479,273,16756,6,0,P|446:318|400:203,1,225.000008583069,6|2,3:2|1:2,0:2:0:0:
368,225,17184,1,2,1:2:0:0:
368,225,17270,1,2,1:2:0:0:
14,351,17613,6,0,P|100:329|249:305,1,225.000008583069,6|0,3:2|0:2,0:2:0:0:
300,381,18127,2,0,P|268:306|232:140,1,225.000008583069,6|2,3:2|0:2,0:2:0:0:
234,166,18641,1,2,0:2:0:0:
44,217,18813,6,0,B|178:161|136:-37|10:-32|-46:67|27:117,1,393.750015020371,6|2,3:2|0:2,0:2:0:0:
25,116,20356,6,0,L|253:86,1,225.000008583069,6|0,3:2|0:2,0:2:0:0:
438,161,20870,2,0,P|397:39|339:28,1,168.750006437302,6|0,3:2|0:2,0:2:0:0:
371,29,21213,2,0,L|362:124,1,56.2500021457673,2|0,3:2|0:2,0:2:0:0:
248,86,21384,2,0,L|257:181,1,56.2500021457673,2|0,3:2|0:2,0:2:0:0:
315,226,21556,6,0,P|330:291|436:311,1,168.750006437302,6|0,3:2|0:2,0:2:0:0:
288,307,22241,2,0,B|224:325|256:377|169:385,1,140.625005364418,2|0,0:2|0:0,0:2:0:0:
154,368,22756,1,8,0:2:0:0:
66,66,23098,6,0,P|109:49|179:35,2,112.5,8|8|8,3:2|3:2|3:2,0:2:0:0:
239,162,23784,2,0,P|196:145|126:131,2,112.5,8|8|8,3:2|3:2|3:2,0:2:0:0:
349,103,24470,6,0,P|358:59|365:15,1,75,8|0,3:2|0:2,0:2:0:0:
440,0,24727,2,0,P|446:36|453:73,1,75,8|0,3:2|0:2,0:2:0:0:
507,135,24984,1,8,3:2:0:0:
413,201,25156,6,0,L|307:184,1,75,8|0,3:2|0:2,0:2:0:0:
335,268,25413,2,0,L|409:279,1,75,8|0,3:2|0:2,0:2:0:0:
489,246,25670,1,8,3:2:0:0:
252,264,25841,6,0,P|265:350|274:381,2,112.5,8|8|8,3:2|3:2|3:2,0:2:0:0:
133,384,26527,2,0,P|146:329|152:273,2,112.5,8|8|8,3:2|3:2|3:2,0:2:0:0:
75,237,27213,6,0,P|113:196|162:189,1,75,8|0,3:2|0:2,0:2:0:0:
169,116,27470,2,0,P|133:104|97:111,1,75,8|0,3:2|0:2,0:2:0:0:
32,157,27727,1,8,3:2:0:0:
234,219,27898,6,0,P|251:161|248:135,1,75,8|0,3:2|0:2,0:2:0:0:
214,46,28156,2,0,P|272:63|298:60,1,75,8|0,3:2|0:2,0:2:0:0:
357,15,28413,1,8,3:2:0:0:
454,125,28584,6,0,L|489:119,4,18.75,12|0|0|0|0,3:2|1:2|1:2|1:2|1:2,1:2:0:0:
450,208,28841,1,0,1:2:0:0:
450,208,28927,2,0,L|401:198,1,37.5,8|0,1:2|1:2,1:2:0:0:
436,283,29098,2,0,L|399:275,1,37.5,0|0,1:2|1:2,1:2:0:0:
332,176,29270,5,8,1:2:0:0:
329,194,29356,1,0,1:2:0:0:
326,212,29441,1,0,1:2:0:0:
323,230,29527,1,0,1:2:0:0:
320,248,29613,1,8,1:2:0:0:
317,266,29698,1,0,1:2:0:0:
314,284,29784,1,0,1:2:0:0:
311,302,29870,1,0,1:2:0:0:
308,322,29956,6,0,L|302:360,4,23.4375,8|0|0|0|0,3:2|1:2|1:2|1:2|1:2,1:2:0:0:
229,291,30213,1,0,1:2:0:0:
229,291,30298,2,0,L|178:296,1,46.875,8|0,1:2|1:2,1:2:0:0:
182,378,30470,2,0,L|228:373,1,46.875,0|0,1:2|1:2,1:2:0:0:
253,210,30641,5,8,1:2:0:0:
224,194,30726,1,0,1:2:0:0:
192,188,30812,1,0,1:2:0:0:
159,192,30898,1,0,1:2:0:0:
130,206,30983,1,8,1:2:0:0:
101,221,31070,1,0,1:2:0:0:
69,227,31156,1,0,1:2:0:0:
36,223,31242,1,0,1:2:0:0:
7,209,31327,6,0,L|1:166,4,28.1250010728836,12|0|0|0|0,3:2|1:2|1:2|1:2|1:2,1:2:0:0:
83,141,31584,1,0,1:2:0:0:
83,141,31670,2,0,L|90:79,1,56.2500021457673,8|0,1:2|1:2,1:2:0:0:
0,44,31841,2,0,L|6:99,1,56.2500021457673,0|0,1:2|1:2,1:2:0:0:
16,294,32013,6,0,L|22:335,4,28.1250010728836,12|0|0|0|0,3:2|1:2|1:2|1:2|1:2,1:2:0:0:
93,232,32270,1,0,1:2:0:0:
93,232,32356,2,0,L|161:242,1,56.2500021457673,8|0,1:2|1:2,1:2:0:0:
230,247,32527,2,0,L|285:255,1,56.2500021457673,0|0,1:2|1:2,1:2:0:0:
376,266,32698,5,0,0:2:0:0:
475,56,32870,6,0,L|489:9,2,28.1250010728836,2|0|0,0:2|0:2|0:2,0:2:0:0:
391,24,33041,2,0,L|367:-19,2,28.1250010728836,2|0|0,0:2|0:2|0:2,0:2:0:0:
308,60,33213,2,0,L|261:45,2,28.1250010728836,2|0|0,0:2|0:2|0:2,0:2:0:0:
274,144,33384,6,0,L|230:167,6,28.1250010728836,2|0|0|0|0|0|0,0:2|0:2|0:2|0:2|0:2|0:0|0:0,0:2:0:0:
399,134,33727,5,0,1:2:0:0:
402,114,33813,1,0,3:2:0:0:
381,123,33898,1,0,1:2:0:0:
496,298,34070,6,0,B|444:300|419:352|419:352|339:345|291:242|291:242|204:257|226:363,1,393.750015020371,4|0,3:2|0:0,0:2:0:0:
124,380,34756,6,0,L|130:312,1,37.5,10|0,0:2|0:2,0:2:0:0:
40,206,34927,2,0,L|43:243,1,37.5,2|0,0:2|0:2,0:2:0:0:
137,366,35098,2,0,L|143:298,1,37.5,2|0,3:2|0:2,0:2:0:0:
53,192,35270,2,0,L|56:229,1,37.5,2|0,0:2|0:2,0:2:0:0:
221,321,35441,6,0,L|279:307,1,37.5,2|0,0:2|0:2,0:2:0:0:
174,186,35613,2,0,L|137:194,1,37.5,2|0,0:2|0:2,0:2:0:0:
218,306,35784,2,0,L|276:292,1,37.5,2|0,3:2|0:2,0:2:0:0:
171,171,35956,2,0,L|134:179,1,37.5,2|0,0:2|0:2,0:2:0:0:
9,378,36127,6,0,L|31:318,1,37.5,10|0,0:2|0:2,0:2:0:0:
28,232,36298,2,0,L|68:281,1,37.5,2|0,0:2|0:2,0:2:0:0:
144,321,36470,2,0,L|81:331,3,37.5,2|0|0|0,0:2|0:2|1:2|1:2,0:2:0:0:
232,358,36813,6,0,P|291:322|349:306,1,112.5,4|0,3:2|0:0,0:2:0:0:
512,210,37156,2,0,P|458:191|411:161,1,112.5,4|0,3:2|0:0,0:2:0:0:
436,330,37498,1,10,0:2:0:0:
436,330,37584,1,2,0:2:0:0:
436,330,37670,1,2,0:2:0:0:
350,235,37841,6,0,L|206:207,1,112.500004291535,4|0,3:2|0:0,0:2:0:0:
62,255,38184,1,2,0:2:0:0:
62,255,38270,1,2,0:2:0:0:
62,255,38356,1,2,0:2:0:0:
172,379,38527,2,0,L|151:241,1,112.500004291535,4|0,3:2|0:0,0:2:0:0:
8,3,38870,6,0,P|73:86|242:106,1,262.5,10|0,0:2|0:2,0:2:0:0:
442,133,39556,6,0,B|477:96|477:41|451:13|325:-28|321:69|316:155|358:214|439:266,1,393.750015020371,4|0,3:2|0:0,2:2:0:0:
480,345,40241,6,0,L|424:338,1,37.5,10|0,0:2|0:2,0:2:0:0:
316,308,40413,2,0,L|353:312,1,37.5,2|0,0:2|0:2,0:2:0:0:
497,361,40584,2,0,L|413:353,1,75,2|2,3:2|0:2,0:2:0:0:
238,275,40927,6,0,L|294:268,1,37.5,2|0,0:2|0:2,0:2:0:0:
402,238,41099,2,0,L|364:242,1,37.5,10|0,0:2|0:2,0:2:0:0:
221,291,41270,2,0,L|305:283,1,75,2|2,3:2|0:2,0:2:0:0:
460,60,41613,6,0,B|372:86|372:86|339:165|339:165|238:192,1,250,10|0,0:2|0:2,0:2:0:0:
170,224,42298,6,0,P|165:137|124:30,1,179.999994506836,6|8,3:2|0:2,0:2:0:0:
265,98,42813,2,0,P|301:72|359:37,1,89.9999972534181,2|0,0:2|0:0,0:2:0:0:
427,94,43156,1,2,3:2:0:0:
225,18,43327,1,10,0:2:0:0:
325,174,43498,2,0,P|397:194|429:196,1,89.9999972534181,2|2,0:2|3:2,0:0:0:0:
450,364,43841,5,2,0:2:0:0:
494,265,44013,1,10,0:2:0:0:
298,290,44184,1,2,0:2:0:0:
405,283,44356,1,2,0:2:0:0:
325,174,44527,1,2,3:2:0:0:
203,272,44698,2,0,P|189:325|174:401,1,112.5,8|0,0:2|0:2,0:2:0:0:
298,290,45041,6,0,B|192:293|241:213|96:222,1,168.750006437302,4|0,3:2|0:2,0:2:0:0:
57,206,45384,6,0,P|57:225|62:254,1,28.1250010728836,2|0,0:2|0:2,0:2:0:0:
32,226,45470,2,0,P|45:239|69:256,1,28.1250010728836,2|0,0:2|0:2,0:2:0:0:
28,257,45556,2,0,P|47:257|76:252,1,28.1250010728836,2|0,0:2|0:2,0:2:0:0:
47,281,45641,2,0,P|60:267|77:243,1,28.1250010728836,2|0,0:2|0:2,0:2:0:0:
78,283,45727,5,8,0:2:0:0:
289,203,45898,1,2,3:2:0:0:
193,352,46070,1,6,3:2:0:0:
164,162,46241,1,10,0:2:0:0:
285,297,46413,6,0,L|352:311,1,56.2500021457673,2|0,0:2|0:2,0:2:0:0:
393,371,46584,2,0,L|450:333,1,56.2500021457673,2|0,0:2|0:2,0:2:0:0:
289,203,46756,2,0,L|346:165,1,56.2500021457673,2|0,3:2|0:2,0:2:0:0:
417,178,46927,2,0,L|431:111,1,56.2500021457673,2|0,0:2|0:2,0:2:0:0:
208,159,47098,2,0,L|222:92,1,56.2500021457673,10|0,0:2|0:2,0:2:0:0:
280,50,47270,2,0,L|242:-7,1,56.2500021457673,2|0,0:2|0:2,0:2:0:0:
144,42,47441,5,2,0:2:0:0:
116,45,47527,1,2,0:2:0:0:
88,49,47613,1,2,0:2:0:0:
60,53,47698,1,2,0:2:0:0:
32,58,47784,6,0,L|201:87,1,168.750006437302,4|0,3:2|0:0,0:2:0:0:
289,203,48127,2,0,L|120:232,1,168.750006437302,4|0,3:2|0:0,0:2:0:0:
44,189,48470,5,8,0:2:0:0:
44,189,48556,1,2,0:2:0:0:
44,189,48641,1,2,0:2:0:0:
188,311,48813,2,0,L|199:377,2,56.2500021457673,0|0|8,3:2|0:2|0:2,0:2:0:0:
57,311,49156,5,0,0:2:0:0:
57,311,49241,1,2,0:2:0:0:
57,311,49327,1,2,0:2:0:0:
89,11,49498,6,0,P|127:49|129:76,1,56.2500021457673,2|0,3:2|0:2,0:2:0:0:
195,197,49670,2,0,P|167:199|141:188,1,56.2500021457673,2|0,0:2|0:2,0:2:0:0:
0,110,49841,2,0,P|21:91|48:85,1,56.2500021457673,10|0,0:2|0:2,0:2:0:0:
210,65,50013,2,0,P|203:92|185:113,1,56.2500021457673,2|0,0:2|0:2,0:2:0:0:
104,263,50184,2,0,P|46:197|48:169,1,112.5,2|0,3:2|0:2,0:2:0:0:
46,178,50527,6,0,B|156:166|88:229|241:225,1,168.750006437302,4|0,3:2|0:0,0:2:0:0:
251,293,50870,2,0,L|268:363,3,56.2500021457673,0|0|0|0,0:0|0:0|0:2|0:0,0:0:0:0:
311,226,51213,5,8,1:2:0:0:
338,222,51298,1,0,1:2:0:0:
365,218,51384,1,0,1:2:0:0:
392,214,51470,1,0,1:2:0:0:
419,210,51556,2,0,L|498:194,3,56.2500021457673,0|0|0|0,3:2|1:2|1:2|1:2,0:0:0:0:
376,135,51898,5,0,1:2:0:0:
349,131,51983,1,0,1:2:0:0:
322,127,52069,1,8,1:2:0:0:
295,123,52155,1,0,1:2:0:0:
268,119,52241,2,0,L|189:103,3,56.2500021457673,0|0|0|0,3:2|1:2|1:2|1:2,1:2:0:0:
345,38,52584,5,8,1:2:0:0:
372,34,52669,1,0,1:2:0:0:
399,30,52755,1,0,1:2:0:0:
426,26,52841,1,0,1:2:0:0:
453,22,52927,2,0,L|532:6,3,56.2500021457673,0|0|0|0,1:2|1:2|1:2|1:2,0:0:0:0:
376,124,53270,6,0,L|362:198,1,56.2500021457673,0|0,3:2|1:2,1:2:0:0:
351,258,53441,2,0,L|337:332,1,56.2500021457673,0|0,3:2|1:2,1:2:0:0:
243,116,53613,6,0,L|248:191,1,56.2500021457673,0|0,3:2|1:2,1:2:0:0:
253,251,53784,2,0,L|258:326,1,56.2500021457673,0|0,3:2|1:2,1:2:0:0:
118,143,53956,6,0,L|142:214,1,56.2500021457673,0|0,3:2|1:2,0:0:0:0:
162,270,54127,2,0,L|186:341,1,56.2500021457673,0|0,3:2|1:2,0:0:0:0:
0,204,54298,6,0,L|42:266,1,56.2500021457673,0|0,3:2|1:2,0:0:0:0:
75,315,54470,2,0,L|117:377,1,56.2500021457673,0|0,3:2|1:2,0:0:0:0:
162,270,54641,5,0,3:2:0:0:
162,270,54813,5,2,0:2:0:0:
237,245,54984,1,2,0:2:0:0:
237,166,55156,1,2,0:2:0:0:
162,142,55327,1,8,1:3:0:0:
116,206,55498,1,8,1:3:0:0:
237,166,55670,5,4,0:3:0:0:
255,161,55756,1,4,0:3:0:0:
272,156,55841,1,4,0:3:0:0:
290,151,55927,1,4,0:3:0:0:
308,146,56013,1,4,3:2:0:0:
256,192,56098,12,0,57298,0:2:0:0:
256,192,57384,12,0,58670,0:2:0:0:
188,293,58756,5,8,0:2:0:0:
144,167,58927,1,8,0:2:0:0:
184,306,59098,5,8,0:2:0:0:
228,187,59269,1,8,0:2:0:0:
181,319,59441,5,8,0:2:0:0:
297,250,59612,1,8,0:2:0:0:
180,330,59784,5,8,0:2:0:0:
334,340,59955,1,8,0:2:0:0:
86,367,60127,5,8,0:2:0:0:
55,342,60212,1,8,0:2:0:0:
39,307,60298,1,8,0:2:0:0:
39,268,60384,1,8,0:2:0:0:
56,232,60469,1,8,0:2:0:0:
73,196,60556,1,8,0:2:0:0:
73,157,60642,1,8,0:2:0:0:
57,122,60728,1,8,0:2:0:0:
27,97,60813,6,0,L|-10:101,6,28.1250010728836,0|0|0|0|0|0|0,1:2|1:2|1:2|1:2|1:2|1:2|1:2,1:2:0:0:
73,25,61156,1,0,3:2:0:0:
46,365,61498,6,0,L|177:313,1,112.5,4|0,3:2|0:2,0:2:0:0:
16,190,61841,6,0,B|76:224|76:224|100:203|100:203|195:254,1,168.750006437302,6|0,0:2|0:2,0:2:0:0:
373,332,62184,2,0,B|313:366|313:366|289:345|289:345|194:396,1,168.750006437302,14|0,0:2|0:2,0:2:0:0:
217,64,62527,2,0,L|260:246,1,168.750006437302,6|0,3:2|0:2,0:2:0:0:
373,332,62870,2,0,L|411:167,1,168.750006437302,6|0,0:2|0:2,0:2:0:0:
493,71,63213,6,0,P|451:74|423:99,1,56.2500021457673,6|0,3:2|0:2,0:2:0:0:
340,0,63384,2,0,P|343:42|368:70,1,56.2500021457673,2|0,0:2|0:2,0:2:0:0:
269,151,63556,2,0,P|311:148|339:123,1,56.2500021457673,14|0,0:2|0:2,0:2:0:0:
422,222,63727,2,0,P|418:180|394:152,1,56.2500021457673,2|0,0:2|0:2,0:2:0:0:
349,53,63898,6,0,B|260:16|276:113|153:29,1,168.750006437302,6|0,0:2|0:2,0:2:0:0:
32,158,64241,6,0,B|26:99|26:99|75:148,1,112.5,6|0,3:2|0:2,0:2:0:0:
34,249,64584,6,0,P|105:222|212:201,1,168.750006437302,6|0,0:2|0:2,0:2:0:0:
440,384,64927,2,0,P|369:357|262:336,1,168.750006437302,14|0,0:2|0:2,0:2:0:0:
139,361,65270,2,0,L|205:174,1,168.750006437302,6|0,3:2|0:2,0:2:0:0:
465,225,65613,2,0,L|275:247,1,168.750006437302,6|0,0:2|0:2,0:2:0:0:
136,62,65956,6,0,B|165:71|189:48|189:48|195:78|228:85,1,112.5,6|0,3:2|0:0,0:0:0:0:
195,201,66298,2,0,B|165:191|141:214|141:214|135:184|102:177,1,112.5,14|0,3:2|0:0,0:0:0:0:
49,249,66641,6,0,L|290:215,1,225,6|0,0:2|0:2,0:2:0:0:
407,376,66984,6,2,P|414:284|439:244,1,112.5,6|2,3:2|0:2,0:2:0:0:
499,155,67327,6,0,P|423:168|323:37,1,225,6|0,0:2|0:2,0:2:0:0:
221,11,67670,2,0,B|119:3|165:82|44:55,1,168.750006437302,14|0,0:2|0:2,0:2:0:0:
166,271,68013,2,0,P|194:189|210:84,1,168.750006437302,6|0,3:2|0:2,0:2:0:0:
81,341,68356,2,0,P|56:280|42:214,1,112.500004291535,6|8,3:2|0:2,0:2:0:0:
447,237,68698,6,0,L|369:220,1,56.2500021457673,4|0,3:2|0:0,0:0:0:0:
214,205,68870,2,0,L|268:216,1,56.2500021457673,2|0,0:2|0:2,0:2:0:0:
343,108,69041,2,0,L|332:163,1,56.2500021457673,14|0,0:2|0:2,0:2:0:0:
314,333,69213,2,0,L|331:255,1,56.2500021457673,2|0,0:2|0:2,0:2:0:0:
430,145,69384,6,0,P|467:129|496:120,2,50,4|0|0,3:2|0:0|0:0,0:2:0:0:
314,333,69727,6,0,B|233:343|254:280|145:286,1,150,6|0,3:2|0:2,0:2:0:0:
11,384,70241,2,0,P|74:360|92:331,1,75,2|8,0:2|0:2,0:0:0:0:
138,206,70584,1,2,0:2:0:0:
179,372,70756,1,2,3:2:0:0:
47,263,70927,6,0,P|41:212|34:109,1,150,2|0,0:2|0:2,0:2:0:0:
178,92,71441,5,2,3:2:0:0:
92,43,71613,1,2,0:2:0:0:
246,151,71784,5,10,0:2:0:0:
132,187,71956,1,2,0:2:0:0:
109,357,72127,6,0,P|177:355|206:338,1,84.3750032186509,2|0,0:2|0:2,0:2:0:0:
138,282,72470,6,0,B|256:267|201:373|359:348,1,225,6|0,3:2|0:2,0:2:0:0:
512,259,72813,6,0,L|503:305,1,28.1250010728836,2|0,0:2|0:2,0:2:0:0:
503,260,72898,2,0,L|494:306,1,28.1250010728836,2|0,0:2|0:2,0:2:0:0:
494,261,72984,2,0,L|485:307,1,28.1250010728836,2|0,0:2|0:2,0:2:0:0:
485,262,73070,2,0,L|476:308,1,28.1250010728836,2|0,0:2|0:2,0:2:0:0:
478,264,73156,6,0,L|423:246,1,56.2500021457673,10|0,0:2|0:2,0:2:0:0:
474,348,73327,2,0,L|419:330,1,56.2500021457673,2|0,0:2|0:2,0:2:0:0:
342,185,73498,6,0,P|369:117|391:-3,1,168.750006437302,6|0,3:2|0:2,0:2:0:0:
478,264,73841,2,0,P|386:259|295:325,1,168.750006437302,6|0,0:2|0:2,0:2:0:0:
257,227,74184,6,0,P|244:194|225:152,1,56.2500021457673,6|0,3:2|0:2,0:2:0:0:
234,332,74356,2,0,P|221:365|202:407,1,56.2500021457673,2|0,0:2|0:2,0:2:0:0:
165,225,74527,2,0,P|152:192|133:150,1,56.2500021457673,14|0,0:2|0:2,0:2:0:0:
142,330,74699,2,0,P|129:363|110:405,1,56.2500021457673,2|0,0:2|0:2,0:2:0:0:
22,244,74870,6,0,P|24:285|47:231,1,168.750006437302,6|0,0:2|0:2,0:2:0:0:
165,225,75213,6,0,B|277:217|210:148|334:153,1,168.750006437302,6|0,3:2|0:2,0:2:0:0:
397,73,75556,5,6,0:2:0:0:
397,73,75641,1,2,0:2:0:0:
397,73,75727,2,0,L|318:53,1,56.2500021457673,2|0,0:2|0:2,0:2:0:0:
381,217,75898,5,14,0:2:0:0:
381,217,75983,1,0,0:2:0:0:
381,217,76070,2,0,L|460:197,1,56.2500021457673,2|2,0:2|0:2,0:0:0:0:
507,353,76241,6,0,P|373:321|316:313,1,168.750006437302,6|0,3:2|0:2,0:2:0:0:
143,368,76584,2,0,P|227:341|213:259,1,168.750006437302,6|0,0:2|0:2,0:2:0:0:
130,274,76927,6,0,P|99:201|147:47,1,225,6|0,3:2|0:2,0:2:0:0:
154,47,77270,5,10,0:2:0:0:
68,82,77441,1,2,1:2:0:0:
190,162,77613,2,0,L|284:147,1,84.3750032186509,2|0,1:2|0:2,0:2:0:0:
236,120,77956,6,0,L|366:145,1,112.500004291535,8|0,1:2|1:2,1:2:0:0:
426,200,78298,5,0,1:2:0:0:
430,181,78384,1,0,1:2:0:0:
434,162,78470,1,0,1:2:0:0:
438,143,78556,1,0,1:2:0:0:
442,125,78641,2,0,L|428:66,3,37.5,0|0|0|0,1:2|1:2|1:2|1:2,1:2:0:0:
359,55,78984,2,0,L|345:-4,3,37.5,0|0|0|0,1:2|1:2|1:2|1:2,1:2:0:0:
277,97,79327,5,0,1:2:0:0:
258,101,79413,1,0,1:2:0:0:
239,105,79499,1,0,1:2:0:0:
220,109,79585,1,0,1:2:0:0:
202,113,79670,2,0,L|143:99,3,46.875,0|0|0|0,1:2|1:2|1:2|1:2,1:2:0:0:
133,23,80013,2,0,L|74:9,1,46.875,0|0,1:2|1:2,1:2:0:0:
143,183,80184,2,0,L|188:193,1,46.875,0|0,1:2|1:2,1:2:0:0:
68,117,80356,5,0,1:2:0:0:
65,140,80441,1,0,1:2:0:0:
62,163,80527,1,0,1:2:0:0:
59,186,80613,1,0,1:2:0:0:
56,213,80698,6,0,L|50:262,6,28.1250010728836,8|0|0|0|0|0|0,3:2|1:0|1:2|1:0|1:2|1:0|1:2,1:2:0:0:
131,355,81041,2,0,L|125:404,6,28.1250010728836,8|0|0|0|0|0|0,3:2|1:2|1:2|1:0|1:2|1:0|1:2,1:2:0:0:
141,264,81384,2,0,L|168:267,6,28.1250010728836,8|0|0|0|0|0|0,3:2|1:0|1:2|1:0|1:2|1:0|1:2,1:2:0:0:
36,339,81727,2,0,L|8:335,6,28.1250010728836,8|0|0|0|0|0|0,3:2|1:2|1:2|1:2|1:2|1:2|1:2,1:2:0:0:
52,240,82070,5,0,3:2:0:0:
238,335,82241,6,0,L|209:337,2,28.1250010728836,2|0|0,0:2|0:2|0:2,0:2:0:0:
328,361,82413,2,0,L|343:384,2,28.1250010728836,2|0|0,0:2|0:2|0:2,0:2:0:0:
305,269,82584,2,0,L|317:243,2,28.1250010728836,2|0|0,0:2|0:2|0:2,0:2:0:0:
399,299,82756,6,0,L|438:292,6,28.1250010728836,2|0|0|0|0|0|0,0:2|0:2|0:2|0:2|0:2|0:0|0:0,0:2:0:0:
512,285,83098,5,8,1:2:0:0:
512,285,83184,1,0,3:2:0:0:
512,285,83270,1,8,1:2:0:0:
486,109,83441,6,0,P|363:101|326:90,1,150,6|2,3:2|0:2,0:2:0:0:
228,100,83956,2,0,P|255:54|268:20,1,75,2|8,0:2|0:2,0:0:0:0:
351,16,84298,1,2,0:2:0:0:
162,43,84470,1,2,3:2:0:0:
277,176,84641,6,0,P|288:230|311:345,1,150,2|0,0:2|0:2,0:2:0:0:
393,384,85156,2,0,P|398:339|407:298,1,75,0|0,3:2|0:2,0:2:0:0:
264,273,85498,2,0,L|32:303,1,225,8|2,0:2|0:2,0:2:0:0:
129,384,86184,6,0,L|160:221,1,150,0|2,3:2|0:2,0:2:0:0:
109,163,86698,2,0,P|56:179|20:186,1,75,2|10,0:2|0:2,0:0:0:0:
5,110,87041,1,2,0:2:0:0:
72,263,87213,1,2,3:2:0:0:
193,151,87384,6,0,P|209:105|212:77,1,75,2|0,0:2|0:0,0:2:0:0:
119,73,87727,2,0,P|113:35|100:1,1,75,2|0,0:2|3:2,0:0:0:0:
193,151,88070,2,0,L|292:175,1,75,0|10,0:2|0:2,0:0:0:0:
365,83,88413,6,0,L|298:96,1,37.5,2|0,0:2|0:2,0:2:0:0:
237,271,88584,2,0,L|413:245,1,168.750006437302,2|0,0:2|0:2,0:2:0:0:
510,232,88927,6,0,P|454:267|416:356,1,150,2|2,3:2|0:2,0:2:0:0:
493,148,89441,2,0,P|426:140|388:131,1,75,2|10,0:2|0:2,0:0:0:0:
362,68,89784,1,2,0:2:0:0:
403,246,89956,1,2,3:2:0:0:
308,162,90127,6,0,L|139:130,1,150,2|0,0:2|0:2,0:2:0:0:
87,74,90641,2,0,P|130:38|156:15,1,75,0|0,3:2|0:2,0:2:0:0:
74,179,90984,2,0,L|186:384,1,225,8|2,0:2|0:2,0:2:0:0:
249,320,91670,5,0,3:2:0:0:
83,369,91841,1,0,0:0:0:0:
152,266,92013,1,2,0:2:0:0:
263,343,92184,2,0,P|310:357|346:364,1,75,2|10,0:2|0:2,0:0:0:0:
168,255,92527,1,2,0:2:0:0:
100,367,92698,1,2,3:2:0:0:
182,242,92870,6,0,P|194:208|202:155,1,75,2|0,0:2|0:0,0:2:0:0:
118,364,93213,2,0,P|111:327|99:291,1,75,2|0,0:2|3:2,0:0:0:0:
92,191,93556,2,0,L|17:208,1,75,0|8,0:2|0:2,0:0:0:0:
265,343,94070,6,0,P|340:338|438:243,1,168.750006437302,2|0,0:2|0:2,0:2:0:0:
397,203,94413,6,0,P|404:142|425:200,1,168.75,0|0,3:2|0:0,0:2:0:0:
397,203,95270,6,0,P|374:186|358:157,1,56.2500021457673,2|0,3:2|0:2,0:2:0:0:
293,114,95441,2,0,P|288:86|297:53,1,56.2500021457673,2|0,3:2|0:2,0:2:0:0:
299,239,95613,6,0,P|243:197|143:158,1,150,6|0,3:2|0:2,0:2:0:0:
128,78,96127,2,0,P|176:66|206:55,1,75,0|0,3:2|0:2,0:2:0:0:
47,367,96470,2,0,P|28:269|126:263,1,225,8|2,0:2|0:2,0:2:0:0:
126,263,97156,6,0,P|129:315|132:354,2,75,0|0|2,3:2|0:0|0:2,0:2:0:0:
197,204,97670,2,0,P|233:214|270:221,1,75,2|10,0:2|0:2,0:0:0:0:
331,273,98013,5,2,0:2:0:0:
228,323,98184,1,2,3:2:0:0:
343,382,98356,2,0,P|379:374|415:364,1,75,2|0,0:2|0:0,0:2:0:0:
512,266,98698,2,0,P|506:320|504:358,1,75,2|0,0:2|3:2,0:0:0:0:
358,190,99041,2,0,L|331:88,1,75,0|10,0:2|0:2,0:0:0:0:
481,187,99384,6,0,L|427:176,1,37.5,2|0,0:2|0:2,0:2:0:0:
253,86,99556,2,0,L|445:63,1,168.750006437302,2|0,0:2|0:2,0:2:0:0:
398,174,99898,5,0,3:2:0:0:
379,175,99984,1,0,1:2:0:0:
360,177,100070,1,0,1:2:0:0:
341,179,100156,1,0,1:2:0:0:
322,181,100241,1,0,1:2:0:0:
303,183,100327,1,0,1:2:0:0:
284,185,100413,1,0,1:2:0:0:
265,187,100498,1,0,1:2:0:0:
246,188,100584,2,0,L|234:240,3,37.5,8|0|0|0,1:2|1:2|1:2|1:2,1:2:0:0:
222,102,100927,5,0,3:2:0:0:
199,72,101012,1,0,1:2:0:0:
168,52,101098,1,0,1:2:0:0:
131,46,101184,1,0,1:2:0:0:
94,54,101269,1,0,1:2:0:0:
64,75,101355,1,0,1:2:0:0:
43,106,101441,1,0,1:2:0:0:
35,142,101527,1,0,1:2:0:0:
41,179,101613,2,0,L|54:233,3,37.5,0|0|0|0,3:2|1:2|1:2|1:2,1:2:0:0:
131,169,101956,2,0,L|139:132,7,37.5,8|0|0|0|0|0|0|0,1:2|1:2|1:2|1:2|1:2|1:2|1:2|1:2,1:2:0:0:
281,238,102641,5,8,3:2:0:0:
137,267,102813,1,0,3:2:0:0:
287,320,102984,5,8,3:2:0:0:
143,349,103156,1,0,3:2:0:0:
216,126,103327,5,8,3:2:0:0:
360,155,103499,1,0,3:2:0:0:
210,208,103670,5,8,3:2:0:0:
354,237,103842,1,4,3:2:0:0:
256,192,103927,12,2,104870,0:2:0:0:
208,225,105041,6,0,L|330:207,1,112.5,2|0,0:2|0:2,0:2:0:0:
407,195,105384,1,6,3:2:0:0:
512,318,116356,6,0,L|390:334,1,112.500004291535,2|2,1:2|1:2,0:2:0:0:
333,274,116870,2,0,P|345:236|352:199,2,56.2500021457673,2|0|2,0:2|1:2|0:2,0:2:0:0:
292,361,117384,1,2,1:2:0:0:
292,361,117556,6,0,L|158:326,1,112.500004291535,2|0,0:2|0:0,0:0:0:0:
83,319,118070,2,0,L|99:381,1,56.2500021457673,0|0,1:2|0:2,0:0:0:0:
126,204,118413,2,0,L|142:266,1,56.2500021457673,0|0,1:2|0:2,0:2:0:0:
14,192,118756,1,0,1:2:0:0:
14,192,118927,6,0,L|143:205,1,112.500004291535,2|2,0:2|0:2,0:2:0:0:
143,98,119441,1,0,0:2:0:0:
143,98,119613,2,0,L|75:109,1,56.2500021457673,2|0,0:2|1:2,0:2:0:0:
11,40,119956,1,2,0:2:0:0:
11,40,120128,2,0,L|79:29,1,56.2500021457673,2|0,1:2|0:0,0:2:0:0:
143,98,120470,5,2,1:2:0:0:
143,98,120641,2,0,P|161:53|170:31,1,56.2500021457673,2|0,0:2|1:2,0:0:0:0:
246,16,120984,2,0,P|264:61|273:83,2,56.2500021457673,2|0|0,0:2|1:2|0:2,0:2:0:0:
357,21,121498,6,0,L|398:29,3,28.1250010728836,2|2|2|2,1:2|0:2|0:2|0:2,0:0:0:0:
359,36,121841,6,0,L|375:111,1,56.2500021457673,2|0,1:2|0:0,0:2:0:0:
445,141,122184,1,2,1:2:0:0:
445,141,122356,2,0,L|429:216,1,56.2500021457673,2|0,0:2|1:2,0:2:0:0:
433,196,122613,1,0,0:0:0:0:
433,196,122699,1,2,0:2:0:0:
423,297,122870,1,2,1:2:0:0:
423,297,122956,1,0,0:0:0:0:
423,297,123041,1,2,0:2:0:0:
423,297,123127,1,2,0:2:0:0:
423,297,123213,6,0,L|458:300,3,28.1250010728836,2|0|0|2,1:2|1:0|1:2|1:2,1:2:0:0:
345,358,123556,2,0,L|373:360,3,28.1250010728836,2|0|0|2,1:2|1:0|1:2|1:2,1:2:0:0:
297,277,123898,2,0,L|332:280,3,28.1250010728836,2|0|0|2,1:2|1:0|1:2|1:2,1:2:0:0:
219,338,124241,2,0,L|247:340,3,28.1250010728836,2|0|0|0,1:2|1:2|1:2|1:2,1:2:0:0:
130,367,124584,5,8,1:2:0:0:
129,352,124670,1,0,1:2:0:0:
127,337,124756,1,0,1:2:0:0:
126,323,124841,1,0,1:2:0:0:
151,301,124927,1,8,1:2:0:0:
152,286,125013,1,0,1:2:0:0:
154,271,125099,1,0,1:2:0:0:
155,257,125184,1,0,1:2:0:0:
134,240,125270,6,0,L|93:229,1,28.1250010728836,8|0,1:2|1:2,1:2:0:0:
58,174,125441,2,0,L|17:163,1,28.1250010728836,0|0,1:2|1:2,0:0:0:0:
162,157,125613,2,0,L|121:146,1,28.1250010728836,8|0,1:2|1:2,1:2:0:0:
86,91,125784,2,0,L|45:80,1,28.1250010728836,0|0,1:2|1:2,0:0:0:0:
256,192,125956,12,8,126984,0:2:0:0:
501,289,127327,6,0,B|376:270|434:373|275:345,1,225.000008583069,6|0,3:2|0:2,0:2:0:0:
182,383,127841,2,0,P|244:369|254:206,1,225.000008583069,6|2,3:2|0:2,0:2:0:0:
275,228,128356,1,2,0:2:0:0:
31,272,128527,6,0,P|106:294|261:63,1,393.750015020371,6|2,3:2|0:2,0:2:0:0:
15,37,130070,6,0,B|63:68|77:130|77:130|79:72|155:14,1,225.000008583069,6|0,3:2|0:2,0:2:0:0:
349,81,130584,2,0,P|250:59|106:32,1,225.000008583069,6|2,3:2|0:2,0:2:0:0:
128,35,131098,1,2,0:2:0:0:
0,262,131270,6,0,P|66:229|142:212,1,112.500004291535,6|0,3:2|0:0,0:2:0:0:
102,218,131613,2,0,P|106:268|105:300,1,56.2500021457673,2|0,0:2|0:2,0:2:0:0:
191,360,131956,6,0,P|278:331|421:291,1,225.000008583069,6|2,3:2|1:2,0:2:0:0:
406,294,132384,1,2,1:2:0:0:
406,294,132470,1,2,1:2:0:0:
512,108,132813,6,0,B|370:100|457:8|316:5,1,225.000008583069,6|0,3:2|0:2,0:2:0:0:
279,168,133327,2,0,P|334:98|244:19,1,225.000008583069,6|2,3:2|0:2,0:2:0:0:
251,18,133841,1,2,0:2:0:0:
5,243,134013,6,0,B|163:211|163:211|137:311|137:311|332:262,1,450.000017166138,6|0,3:2|0:2,0:2:0:0:
476,364,135556,6,4,P|448:289|407:108,1,225.000008583069,6|2,3:2|0:2,0:2:0:0:
323,149,136070,2,0,B|420:140|358:73|477:80,1,168.750006437302,6|0,3:2|0:2,0:2:0:0:
467,79,136413,2,0,P|411:60|386:47,1,56.2500021457673,6|0,3:2|0:2,0:2:0:0:
302,67,136584,2,0,P|275:75|248:85,1,56.2500021457673,0|0,3:2|0:2,0:2:0:0:
19,122,136756,6,0,P|111:132|149:58,1,168.750006437302,6|0,3:2|0:2,0:2:0:0:
148,76,137441,2,0,P|129:118|88:254,1,168.750006437302,2|8,0:2|0:2,0:2:0:0:
0,352,138298,6,0,L|106:334,1,75,4|0,3:2|0:2,0:2:0:0:
148,377,138641,1,2,3:2:0:0:
272,339,138813,2,0,P|282:278|288:240,1,75,2|0,0:2|3:2,0:2:0:0:
234,204,139156,1,2,0:2:0:0:
362,300,139327,1,2,3:2:0:0:
195,280,139498,6,0,L|117:265,2,75,2|0|0,0:2|3:2|0:2,0:2:0:0:
363,286,140013,2,0,P|417:269|446:258,1,75,0|0,3:2|0:2,0:2:0:0:
486,384,140356,2,0,P|450:371|415:361,1,75,0|0,3:2|0:2,0:2:0:0:
416,209,140698,2,0,L|438:277,1,56.25,2|0,3:2|0:2,0:2:0:0:
433,262,141041,6,0,L|449:108,1,150,2|2,3:2|3:2,0:2:0:0:
478,12,141556,2,0,P|431:22|396:31,1,75,2|0,0:2|3:2,0:2:0:0:
256,28,141898,1,2,0:2:0:0:
342,81,142070,1,2,3:2:0:0:
313,184,142241,6,0,P|247:167|221:159,1,75,2|0,0:2|3:2,0:2:0:0:
109,110,142584,2,0,P|175:93|201:85,1,75,2|0,0:2|3:2,0:2:0:0:
135,260,142927,2,0,L|160:172,1,75,2|0,0:2|3:2,0:2:0:0:
108,20,143270,5,2,1:2:0:0:
128,204,143441,2,0,L|136:276,1,56.25,0|0,1:2|0:2,0:2:0:0:
83,329,143784,6,0,L|41:318,3,37.5,2|0|0|0,3:2|1:2|1:2|1:2,1:2:0:0:
183,375,144127,2,0,L|146:384,3,37.5,2|0|0|0,3:2|1:2|1:2|1:2,1:2:0:0:
199,284,144470,2,0,L|157:273,3,37.5,2|0|0|0,3:2|1:2|1:2|1:2,1:2:0:0:
299,330,144813,2,0,L|262:339,3,37.5,2|0|0|0,3:2|1:2|1:2|1:2,1:2:0:0:
391,365,145156,5,2,3:2:0:0:
395,346,145241,1,0,1:2:0:0:
399,327,145327,1,0,1:2:0:0:
403,308,145413,1,0,1:2:0:0:
407,289,145498,2,0,L|454:281,3,37.5,2|0|0|0,3:2|1:2|1:2|1:2,0:0:0:0:
307,245,145841,5,2,3:2:0:0:
303,226,145926,1,0,1:2:0:0:
299,207,146012,1,0,1:2:0:0:
295,188,146098,1,0,1:2:0:0:
291,169,146184,2,0,L|244:161,3,37.5,2|0|0|0,3:2|1:2|1:2|1:2,0:0:0:0:
403,178,146527,5,2,3:2:0:0:
426,166,146612,1,0,1:2:0:0:
445,148,146698,1,0,1:2:0:0:
458,125,146784,1,0,1:2:0:0:
464,99,146869,1,2,3:2:0:0:
462,73,146955,1,0,1:2:0:0:
453,49,147041,1,0,1:2:0:0:
437,28,147127,1,0,1:2:0:0:
416,12,147212,1,2,3:2:0:0:
391,4,147298,1,0,1:2:0:0:
365,2,147384,1,0,1:2:0:0:
340,8,147469,1,0,1:2:0:0:
317,22,147555,1,2,3:2:0:0:
300,41,147641,1,0,0:0:0:0:
286,67,147727,6,0,L|278:92,18,14.0625005364418,2|0|0|0|0|0|0|0|0|0|0|0|0|0|0|0|0|0|0,3:2|1:0|1:0|1:0|1:0|1:0|1:0|1:0|1:0|1:0|1:0|1:0|1:0|1:0|1:0|1:0|1:0|1:0|1:2,1:2:0:0:
203,50,148584,2,0,L|195:75,6,18.75,0|0|0|0|0|0|0,1:2|1:2|1:2|1:2|1:2|1:2|1:2,1:2:0:0:
117,80,148927,6,0,L|285:66,1,168.750006437302,8|0,3:2|0:0,0:2:0:0:
402,109,149270,6,0,L|270:87,1,112.500004291535,6|0,3:2|1:2,0:2:0:0:
249,167,149784,2,0,P|261:215|269:243,2,56.2500021457673,0|0|0,0:2|1:2|0:2,0:0:0:0:
161,165,150298,5,2,1:2:0:0:
346,207,150470,1,2,0:2:0:0:
175,258,150641,2,0,L|103:274,1,56.2500021457673,2|0,1:2|0:0,0:2:0:0:
34,289,150984,1,2,1:2:0:0:
34,289,151156,1,2,0:2:0:0:
239,376,151327,6,0,L|260:297,1,56.2500021457673,2|0,1:2|0:0,0:2:0:0:
175,258,151670,2,0,L|160:312,1,56.2500021457673,2|0,1:2|0:2,0:2:0:0:
85,362,152013,5,0,1:2:0:0:
253,321,152184,2,0,L|338:310,1,75,2|0,0:2|1:2,0:0:0:0:
336,224,152527,2,0,L|251:213,1,75,2|0,0:2|1:2,0:0:0:0:
345,333,152870,2,0,L|430:322,1,75,2|0,0:2|1:2,0:0:0:0:
352,148,153213,6,0,P|361:207|372:247,1,75,2|0,0:2|0:0,0:2:0:0:
420,307,153556,1,2,0:2:0:0:
471,202,153727,2,0,P|478:165|483:128,1,75,2|0,1:2|0:2,0:2:0:0:
415,63,154070,2,0,L|324:39,1,75,2|0,1:2|0:2,0:2:0:0:
264,161,154413,2,0,L|355:137,1,75,2|0,1:2|0:2,0:2:0:0:
260,30,154756,5,0,1:2:0:0:
161,40,154927,2,0,L|171:128,1,75,2|0,0:2|1:2,0:2:0:0:
98,168,155270,2,0,L|108:256,1,75,2|0,0:2|1:2,0:2:0:0:
194,240,155613,2,0,L|204:328,2,75,2|0|0,0:2|1:2|0:2,0:2:0:0:
117,359,156127,6,0,P|61:344|39:338,1,75,2|0,1:2|0:2,0:2:0:0:
194,240,156470,2,0,P|250:225|272:219,1,75,2|0,1:2|0:2,0:2:0:0:
471,370,156813,2,0,P|353:342|317:332,1,150,2|0,1:2|1:2,0:0:0:0:
244,372,157327,1,2,0:2:0:0:
407,246,157498,5,2,1:2:0:0:
407,246,157670,1,2,0:2:0:0:
300,166,157841,2,0,L|289:266,1,75,2|0,1:2|0:2,0:2:0:0:
413,147,158184,6,0,L|404:72,1,75,2|0,1:2|0:2,0:2:0:0:
235,74,158527,2,0,L|243:0,1,75,2|2,1:2|0:2,0:0:0:0:
226,179,158870,2,0,L|320:162,1,75,0|0,1:2|0:2,0:2:0:0:
478,85,159213,2,0,L|384:68,1,75,2|0,1:2|0:2,0:2:0:0:
370,353,159556,6,0,L|399:172,1,168.750006437302,10|0,1:2|0:0,0:2:0:0:
489,171,159898,2,0,L|462:337,1,168.750006437302,10|0,1:2|0:0,0:2:0:0:
370,353,160241,6,0,P|316:312|240:301,1,112.500004291535,14|0,3:2|0:2,0:2:0:0:
262,273,160498,2,0,P|208:289|165:325,1,112.500004291535,10|0,3:2|0:2,0:2:0:0:
166,352,160756,1,10,3:2:0:0:
0,209,160927,6,0,P|54:168|130:157,1,112.500004291535,10|0,3:2|0:2,0:2:0:0:
108,129,161184,2,0,P|161:145|204:181,1,112.500004291535,10|0,3:2|0:2,0:2:0:0:
204,208,161442,1,10,3:2:0:0:
355,126,161613,6,0,P|370:60|376:4,1,112.500004291535,10|0,3:2|0:2,0:2:0:0:
401,0,161870,2,0,P|408:55|421:110,1,112.500004291535,10|0,3:2|0:2,0:2:0:0:
450,113,162127,1,10,3:2:0:0:
452,331,162298,6,0,P|437:265|431:209,1,112.500004291535,10|0,3:2|0:2,0:2:0:0:
406,205,162555,2,0,P|398:260|385:315,1,112.500004291535,10|0,3:2|0:2,0:2:0:0:
357,318,162812,1,10,3:2:0:0:
232,355,162984,6,0,P|172:300|199:238,1,112.500004291535,10|0,3:2|0:2,0:2:0:0:
140,273,163241,2,0,P|150:219|198:193,1,112.500004291535,10|0,3:2|0:2,0:2:0:0:
223,201,163498,1,10,3:2:0:0:
322,128,163670,6,0,L|181:95,1,112.500004291535,10|0,3:2|0:2,0:2:0:0:
208,73,163927,2,0,L|67:40,1,112.500004291535,10|0,3:2|0:2,0:2:0:0:
73,64,164184,1,10,3:2:0:0:
140,273,164356,6,0,P|108:197|67:136,1,112.500004291535,10|0,3:2|0:2,0:2:0:0:
78,165,164613,2,0,P|50:214|30:266,1,112.500004291535,10|0,3:2|0:2,0:2:0:0:
26,288,164870,1,10,3:2:0:0:
95,360,165041,6,0,L|124:354,1,18.75,2|0,0:2|0:2,0:2:0:0:
195,282,165213,6,0,L|94:265,1,56.2500021457673,8|0,0:2|0:2,0:2:0:0:
209,384,165384,2,0,B|311:392|265:308|381:335,1,168.750006437302,8|0,0:2|0:2,0:2:0:0:
402,260,165727,6,8,L|437:277,4,28.1250010728836,8|8|8|8|8,3:2|3:2|3:2|3:2|3:2,3:2:0:0:
318,251,165984,1,8,3:2:0:0:
318,251,166070,6,0,L|323:179,1,56.2500021457673,8|8,3:2|3:2,0:0:0:0:
409,115,166241,2,0,L|404:171,1,56.2500021457673,8|8,3:2|3:2,0:0:0:0:
321,195,166413,2,0,L|326:123,1,56.2500021457673,8|8,3:2|3:2,0:0:0:0:
413,59,166584,2,0,L|408:115,1,56.2500021457673,8|8,3:2|3:2,0:0:0:0:
325,138,166756,2,8,L|330:66,1,56.2500021457673,8|8,3:2|3:2,3:2:0:0:
417,2,166927,2,8,L|412:58,1,56.2500021457673,8|8,3:2|3:2,3:2:0:0:
260,32,167098,6,8,L|225:17,4,28.1250010728836,8|8|8|8|8,3:2|3:2|3:2|3:2|3:2,3:2:0:0:
235,113,167356,1,8,3:2:0:0:
235,113,167441,6,0,L|167:118,1,56.2500021457673,8|8,3:2|3:2,0:0:0:0:
40,157,167613,2,0,L|109:163,1,56.2500021457673,8|8,3:2|3:2,0:0:0:0:
235,205,167784,2,0,L|167:210,1,56.2500021457673,8|8,3:2|3:2,0:0:0:0:
40,249,167956,2,0,L|109:255,1,56.2500021457673,8|8,3:2|3:2,0:0:0:0:
238,302,168127,2,8,L|170:307,1,56.2500021457673,8|8,3:2|3:2,3:2:0:0:
43,346,168299,2,8,L|112:352,1,56.2500021457673,8|8,3:2|3:2,3:2:0:0:
238,302,168470,6,8,L|242:329,6,28.1250010728836,8|8|8|8|8|8|8,3:2|0:2|0:2|0:2|0:2|0:2|0:2,0:2:0:0:
328,355,168813,5,8,3:2:0:0:
354,346,168898,1,8,3:2:0:0:
381,337,168984,1,8,3:2:0:0:
408,329,169070,1,8,3:2:0:0:
435,321,169156,2,8,L|470:358,2,28.1250010728836,8|8|8,3:2|3:2|3:2,3:2:0:0:
361,218,169327,5,8,3:2:0:0:
335,209,169412,1,8,3:2:0:0:
308,200,169498,1,8,3:2:0:0:
281,192,169584,1,8,3:2:0:0:
255,182,169670,1,8,3:2:0:0:
231,174,169756,1,8,3:2:0:0:
194,194,169841,5,8,3:2:0:0:
15,334,170013,6,0,L|2:383,2,28.1250010728836,2|0|0,0:2|0:2|0:2,0:2:0:0:
108,334,170184,2,0,L|95:383,2,28.1250010728836,2|0|0,0:2|0:2|0:2,0:2:0:0:
196,335,170356,2,0,L|183:384,2,28.1250010728836,2|0|0,0:2|0:2|0:2,0:2:0:0:
285,338,170527,6,0,L|272:387,4,28.1250010728836,2|0|0|0|0,0:2|0:2|0:2|0:2|0:2,0:2:0:0:
249,259,170870,5,8,1:2:0:0:
249,259,170956,1,0,3:2:0:0:
249,259,171041,1,8,1:2:0:0:
293,173,171213,6,0,L|460:140,1,150,6|0,3:2|0:2,0:2:0:0:
501,69,171470,2,0,L|381:51,1,75,2|8,0:2|3:2,0:2:0:0:
336,78,171641,1,0,0:2:0:0:
325,65,171727,2,0,P|311:31|305:-18,1,75,2|0,0:2|0:2,0:2:0:0:
229,95,171898,6,0,B|140:82|177:162|49:121,1,150,2|0,3:2|0:2,0:2:0:0:
42,36,172156,2,0,P|81:35|123:64,1,63.7500012159348,2|8,0:2|3:2,0:2:0:0:
161,144,172327,1,0,0:2:0:0:
172,162,172413,2,0,P|166:202|149:236,1,52.4999983978272,2|0,0:2|0:2,0:2:0:0:
24,369,172584,6,0,P|85:326|182:308,1,150,2|0,3:2|0:2,0:2:0:0:
223,378,172841,2,0,P|249:350|250:300,1,75,2|8,0:2|3:2,0:2:0:0:
254,212,173013,1,0,0:2:0:0:
269,227,173098,2,0,L|366:245,1,75,2|0,0:2|0:2,0:2:0:0:
414,306,173270,6,0,B|452:334|452:334|489:265|421:204,1,150,2|0,3:2|0:2,0:2:0:0:
391,157,173527,2,0,P|415:133|475:128,1,63.7500012159348,2|8,0:2|3:2,0:2:0:0:
482,30,173698,1,0,0:2:0:0:
464,36,173784,2,0,P|434:25|412:2,1,52.4999983978272,2|0,0:2|0:2,0:2:0:0:
351,73,173956,6,0,L|155:46,1,150,2|0,3:2|0:2,0:2:0:0:
107,14,174213,2,0,L|129:111,1,75,2|8,0:2|3:2,0:2:0:0:
153,178,174384,1,0,0:2:0:0:
130,179,174470,2,0,L|34:169,1,75,2|0,0:2|0:2,0:2:0:0:
217,297,174641,6,0,L|262:117,1,150,2|0,3:2|0:2,0:2:0:0:
330,247,174898,2,0,L|426:237,1,63.7500012159348,2|8,0:2|3:2,0:2:0:0:
431,149,175070,1,0,0:2:0:0:
444,141,175156,2,0,P|457:180|465:232,1,52.4999983978272,2|0,0:2|0:2,0:2:0:0:
512,322,175327,6,0,P|406:330|360:402,1,150,2|0,3:2|0:2,0:2:0:0:
283,384,175584,2,0,P|273:344|265:294,1,75,2|8,0:2|3:2,0:2:0:0:
336,244,175756,1,0,0:2:0:0:
321,227,175841,2,0,P|273:218|218:223,1,75,2|0,0:2|0:2,0:2:0:0:
121,338,176013,6,0,L|15:353,1,75,2|0,3:2|0:2,0:2:0:0:
51,236,176184,1,2,0:2:0:0:
63,249,176270,2,0,L|169:264,1,75,2|8,0:2|3:2,3:2:0:0:
146,166,176441,1,2,0:2:0:0:
143,143,176527,1,2,0:2:0:0:
140,120,176613,1,2,0:2:0:0:
138,97,176698,6,0,B|40:67|40:67|28:-3,1,150,2|0,3:2|0:2,0:2:0:0:
27,89,176956,2,0,L|11:174,1,75,2|8,0:2|3:2,0:2:0:0:
51,236,177127,1,0,0:2:0:0:
63,249,177213,2,0,L|47:334,1,75,2|0,0:2|0:2,0:2:0:0:
165,253,177384,6,0,B|234:233|231:317|335:276,1,150,2|0,3:2|0:2,0:2:0:0:
377,366,177641,2,0,P|402:308|418:282,1,63.7500012159348,2|8,0:2|3:2,0:2:0:0:
454,217,177813,1,0,0:2:0:0:
467,209,177898,2,0,P|489:279|489:303,1,52.4999983978272,2|0,0:2|0:2,0:2:0:0:
378,209,178070,6,0,P|278:159|196:127,1,150,2|0,3:2|0:2,0:2:0:0:
300,72,178327,2,0,L|396:50,1,75,2|8,0:2|3:2,0:2:0:0:
424,133,178498,1,0,0:2:0:0:
439,117,178584,2,0,L|512:133,1,75,2|0,0:2|0:2,0:2:0:0:
378,209,178756,6,0,B|285:192|336:263|185:246,1,150,2|0,3:2|0:2,0:2:0:0:
152,279,179013,2,0,P|139:319|129:353,1,63.7500012159348,2|8,0:2|3:2,0:2:0:0:
33,298,179184,1,0,0:2:0:0:
27,316,179270,2,0,P|36:346|46:376,1,52.4999983978272,2|0,0:2|0:2,0:2:0:0:
82,218,179441,6,0,B|14:193|14:193|2:87,1,150,2|0,3:2|0:2,0:2:0:0:
37,37,179698,2,0,L|139:58,1,75,2|8,0:2|3:2,0:2:0:0:
155,139,179870,1,0,0:2:0:0:
168,152,179956,2,0,L|241:136,1,75,2|0,0:2|0:2,0:2:0:0:
346,58,180127,6,0,B|308:35|308:35|185:52,1,150,2|0,3:2|0:2,0:2:0:0:
241,136,180384,2,0,P|260:238|263:265,1,75,2|8,0:2|3:2,0:2:0:0:
218,290,180556,1,2,0:2:0:0:
207,311,180641,2,0,P|176:320|105:336,1,75,2|0,0:2|0:2,0:2:0:0:
255,209,180813,6,0,B|330:198|302:268|415:247,1,150,2|0,3:2|0:2,0:2:0:0:
499,269,181070,1,2,0:2:0:0:
482,283,181156,2,0,P|455:333|439:375,1,75,8|2,3:2|0:2,0:0:0:0:
342,384,181327,2,0,P|326:349|307:317,1,75,2|0,0:2|0:2,0:2:0:0:
393,250,181498,5,2,3:2:0:0:
401,268,181584,1,2,3:2:0:0:
480,123,181756,1,2,3:2:0:0:
472,141,181842,1,2,3:2:0:0:
354,145,182013,1,2,3:2:0:0:
331,142,182098,1,2,3:2:0:0:
308,139,182184,6,0,L|135:165,1,150,6|0,3:2|0:2,0:2:0:0:
16,149,182441,1,2,0:2:0:0:
16,149,182527,2,0,P|99:115|141:86,1,75,10|0,3:2|0:2,0:2:0:0:
138,52,182698,2,0,P|55:18|13:-11,1,75,2|0,0:2|0:2,0:2:0:0:
159,161,182870,6,0,L|134:316,1,150,2|0,3:2|0:2,0:2:0:0:
66,360,183127,1,2,3:2:0:0:
66,360,183213,1,10,3:2:0:0:
52,157,183384,2,0,L|3:146,2,37.5,0|0|0,3:2|3:2|3:2,3:2:0:0:
159,161,183556,5,2,3:2:0:0:
242,175,183727,1,2,0:2:0:0:
157,182,183898,1,2,0:2:0:0:
240,196,184069,1,2,0:2:0:0:
154,203,184241,6,0,P|154:270|222:273,1,112.5,2|0,0:2|0:2,0:2:0:0:
204,281,184584,2,0,B|262:271|243:323|330:293,1,112.5,2|0,0:2|0:0,0:0:0:0:
496,181,184927,6,0,P|363:207|315:247,1,150,6|0,3:2|0:2,0:2:0:0:
263,193,185184,1,2,0:2:0:0:
263,193,185270,2,0,P|276:152|282:78,1,75,10|0,3:2|0:2,0:2:0:0:
355,58,185441,1,2,3:2:0:0:
355,58,185527,1,2,3:2:0:0:
355,58,185613,5,2,3:2:0:0:
191,128,185784,2,0,L|93:114,1,75,2|0,3:2|0:2,0:2:0:0:
2,44,185956,2,0,L|100:30,1,75,2|0,3:2|0:2,0:2:0:0:
28,146,186127,1,2,3:2:0:0:
28,146,186213,1,2,3:2:0:0:
28,146,186298,6,0,L|45:322,1,150,2|2,3:2|0:2,0:2:0:0:
42,295,186984,6,0,P|74:307|129:312,1,75,8|0,0:2|0:2,0:2:0:0:
206,362,187156,1,2,3:2:0:0:
194,338,187241,2,0,P|209:283|233:243,1,75,10|0,0:2|0:2,0:2:0:0:
303,287,187498,1,2,0:2:0:0:
303,287,187584,1,2,0:2:0:0:
303,287,187670,6,0,L|342:281,4,28.1250010728836,10|0|0|0|0,3:2|1:2|1:2|1:0|1:2,1:2:0:0:
216,267,187927,1,0,1:2:0:0:
216,267,188013,6,0,L|211:190,1,56.2500021457673,10|0,3:2|1:2,1:2:0:0:
306,141,188184,2,0,L|309:197,1,56.2500021457673,0|0,1:2|1:2,0:0:0:0:
129,167,188356,2,0,L|51:152,1,56.2500021457673,10|0,3:2|1:2,1:2:0:0:
172,90,188527,2,0,L|227:100,1,56.2500021457673,0|0,1:2|1:2,0:0:0:0:
118,258,188698,5,10,3:2:0:0:
101,262,188784,1,0,1:2:0:0:
84,266,188870,1,0,1:2:0:0:
67,270,188956,1,0,1:2:0:0:
50,274,189041,6,0,L|37:324,4,28.1250010728836,10|0|0|0|0,3:2|1:2|1:2|1:0|1:2,1:2:0:0:
142,344,189298,1,0,1:2:0:0:
142,344,189384,6,0,L|197:336,1,56.2500021457673,10|0,3:2|1:2,1:2:0:0:
323,257,189556,2,0,L|267:264,1,56.2500021457673,0|0,1:2|1:2,0:0:0:0:
286,374,189727,2,0,L|341:366,1,56.2500021457673,10|0,3:2|1:2,1:2:0:0:
173,250,189898,2,0,L|117:257,1,56.2500021457673,0|0,1:2|1:2,0:0:0:0:
323,257,190070,5,10,3:2:0:0:
325,240,190156,1,0,1:2:0:0:
327,223,190241,1,0,1:2:0:0:
330,206,190327,1,0,1:2:0:0:
333,188,190413,6,0,L|377:172,4,37.5,10|0|0|0|0,3:2|1:2|1:2|1:2|1:2,1:2:0:0:
285,107,190670,2,0,L|135:82,1,150,0|2,1:2|1:2,0:0:0:0:
45,132,190927,1,0,1:2:0:0:
45,132,191013,1,0,1:2:0:0:
45,132,191098,6,0,L|54:192,4,37.5,10|0|0|0|0,3:2|1:2|1:2|1:2|1:2,1:2:0:0:
137,82,191356,1,0,1:2:0:0:
137,82,191441,2,0,L|76:28,1,75,2|0,3:2|1:2,1:2:0:0:
148,170,191613,2,0,P|142:216|123:272,1,75,0|0,1:2|1:2,0:0:0:0:
83,316,191784,5,0,3:2:0:0:
362,328,191956,6,0,L|410:342,2,37.5,2|0|0,0:2|0:2|0:2,0:2:0:0:
219,354,192127,2,0,L|182:388,2,37.5,2|0|0,0:2|0:2|0:2,0:2:0:0:
268,218,192298,2,0,L|256:169,2,37.5,2|0|0,0:2|0:2|0:2,0:2:0:0:
280,305,192470,6,0,P|288:291|291:305,4,37.5,2|0|0|0|0,0:2|0:2|0:2|0:2|0:2,0:2:0:0:
367,217,192813,5,8,0:3:0:0:
388,211,192898,1,8,0:3:0:0:
410,206,192984,1,4,0:3:0:0:
432,201,193070,1,4,0:3:0:0:
455,198,193156,6,0,P|490:123|400:35,1,225.000008583069,6|0,3:2|0:2,0:2:0:0:
277,35,193670,2,0,B|412:-8|349:98|502:60,1,225.000008583069,6|2,3:2|0:2,0:2:0:0:
489,62,194184,1,2,0:2:0:0:
324,155,194356,6,0,P|232:155|166:68,1,168.750006437302,6|0,3:2|0:2,0:2:0:0:
206,0,194698,2,0,P|185:19|158:25,1,56.2500021457673,2|0,3:2|3:2,0:2:0:0:
45,41,194870,5,0,3:2:0:0:
61,48,194956,1,0,3:2:0:0:
79,61,195041,1,0,3:2:0:0:
103,88,195127,1,0,3:2:0:0:
114,128,195213,1,0,3:2:0:0:
111,177,195298,1,0,3:2:0:0:
92,232,195384,1,0,3:2:0:0:
52,274,195470,1,0,3:2:0:0:
8,298,195556,6,0,P|63:283|115:274,1,84.3750032186509,0|0,3:2|0:2,0:2:0:0:
143,353,195898,6,0,L|334:298,1,150,6|2,3:2|0:2,0:2:0:0:
302,353,196156,2,2,L|316:256,1,75,2|10,0:2|3:2,0:2:0:0:
423,201,196327,1,0,0:0:0:0:
423,201,196413,2,0,P|328:183|256:161,1,150,2|2,0:2|3:2,0:2:0:0:
44,46,196756,2,0,P|116:26|172:71,1,150,2|8,0:2|3:2,0:0:0:0:
166,91,197013,1,0,0:2:0:0:
160,112,197098,6,0,L|129:288,1,150,2|2,0:2|3:2,0:2:0:0:
29,384,197441,2,0,L|2:236,1,150,2|10,0:2|3:2,0:0:0:0:
2,236,197698,1,2,0:2:0:0:
2,237,197784,1,2,0:2:0:0:
209,311,197956,5,2,3:2:0:0:
51,140,198127,1,2,0:2:0:0:
35,107,198213,2,0,P|175:87|180:86,1,75,2|8,0:2|3:2,0:2:0:0:
186,57,198384,1,2,0:2:0:0:
222,33,198470,1,2,0:2:0:0:
265,25,198556,1,2,0:2:0:0:
310,34,198641,6,0,L|330:145,1,75,0|0,3:2|0:2,0:2:0:0:
218,199,198813,2,0,L|231:125,1,75,0|0,3:2|0:2,0:2:0:0:
395,27,198984,2,0,L|415:138,1,75,8|0,3:2|0:2,0:2:0:0:
338,196,199156,6,0,B|414:180|396:262|526:230,1,150,2|0,0:2|3:2,0:2:0:0:
337,364,199498,1,2,0:2:0:0:
337,364,199584,1,2,0:2:0:0:
337,364,199670,2,0,P|334:271|317:252,1,75,8|2,3:2|0:2,0:0:0:0:
246,317,199841,6,0,P|143:333|63:338,1,150,2|2,0:2|3:2,0:2:0:0:
28,211,200184,1,2,0:0:0:0:
28,211,200270,2,0,L|125:235,1,75,0|10,0:0|3:2,0:0:0:0:
193,125,200441,1,2,0:2:0:0:
193,125,200527,2,0,L|96:149,1,75,2|0,0:2|0:2,0:2:0:0:
54,81,200698,5,2,3:2:0:0:
203,213,200870,1,2,0:2:0:0:
203,213,200956,2,0,L|296:206,1,75,2|8,0:2|3:2,0:2:0:0:
352,122,201127,1,2,0:2:0:0:
352,122,201213,2,0,L|259:115,1,75,2|0,0:2|0:2,0:2:0:0:
203,213,201384,6,0,L|224:390,1,150,2|2,3:2|0:2,0:0:0:0:
199,378,201641,2,0,L|115:351,1,75,2|8,0:2|3:2,0:2:0:0:
0,319,201813,1,2,0:2:0:0:
0,319,201898,2,0,B|60:298|60:298|75:266|75:266|154:232,1,150,2|2,0:2|3:2,0:2:0:0:
227,59,202241,5,2,0:2:0:0:
227,59,202327,2,0,L|139:36,2,75,2|10|0,0:2|3:2|0:2,0:0:0:0:
321,37,202584,1,2,3:2:0:0:
323,59,202670,1,2,3:2:0:0:
325,81,202756,2,0,L|339:218,1,75,2|0,3:2|0:2,0:2:0:0:
421,116,202927,2,0,L|428:41,1,75,2|0,3:2|0:2,0:2:0:0:
385,232,203098,5,2,3:2:0:0:
385,232,203184,1,2,3:2:0:0:
385,232,203270,1,2,3:2:0:0:
281,358,203441,5,2,3:2:0:0:
441,335,203613,1,2,3:2:0:0:
266,232,203784,5,2,1:2:0:0:
243,228,203870,1,0,1:2:0:0:
220,225,203956,1,0,1:2:0:0:
197,222,204041,1,0,1:2:0:0:
171,220,204127,6,0,L|53:248,1,112.500004291535,6|2,3:2|0:2,0:2:0:0:
0,364,204641,2,0,L|109:338,1,112.500004291535,6|2,3:2|0:2,0:2:0:0:
109,338,205156,1,2,0:2:0:0:
43,155,205327,6,0,P|32:90|30:38,1,112.500004291535,6|0,3:2|3:2,0:2:0:0:
132,52,205841,5,2,3:2:0:0:
142,44,205927,1,2,3:2:0:0:
162,39,206013,1,2,3:2:0:0:
201,41,206098,1,2,3:2:0:0:
249,54,206184,1,2,3:2:0:0:
286,89,206270,1,2,3:2:0:0:
313,143,206356,1,2,3:2:0:0:
315,210,206441,1,2,3:2:0:0:
292,268,206527,6,0,P|249:256|232:237,1,56.25,2|0,3:2|0:2,0:2:0:0:
227,224,206870,6,0,B|323:195|281:265|411:212,1,150,6|0,3:2|0:2,0:2:0:0:
372,226,207127,1,2,0:2:0:0:
372,226,207213,1,10,3:2:0:0:
145,183,207384,2,0,P|123:257|134:346,1,150,2|0,0:2|3:2,0:2:0:0:
29,226,207727,1,2,0:2:0:0:
229,360,207898,1,8,3:2:0:0:
229,360,207984,1,0,0:2:0:0:
229,360,208070,6,0,L|382:342,1,150,2|0,0:2|3:2,0:2:0:0:
498,145,208413,2,0,L|345:127,1,150,2|8,0:2|3:2,0:2:0:0:
349,127,208670,1,2,0:2:0:0:
349,127,208756,1,2,0:2:0:0:
249,43,208927,1,2,3:2:0:0:
61,108,209098,1,2,3:2:0:0:
61,108,209184,6,0,P|130:150|202:104,1,150,2|0,3:2|0:2,0:2:0:0:
189,109,209441,1,0,3:2:0:0:
57,223,209613,6,0,L|43:293,4,37.5,8|0|0|0|0,3:2|1:2|1:2|1:0|1:2,1:2:0:0:
141,277,209870,1,0,1:2:0:0:
141,277,209956,6,0,L|229:262,1,75,8|0,3:2|1:2,1:2:0:0:
243,353,210127,2,0,L|169:365,1,75,0|0,1:2|1:2,0:0:0:0:
212,254,210298,6,0,L|300:239,1,75,8|0,3:2|1:2,1:2:0:0:
314,330,210470,2,0,L|240:342,1,75,0|0,1:2|1:2,0:0:0:0:
297,228,210641,6,0,L|385:213,1,75,8|0,3:2|1:2,1:2:0:0:
399,304,210812,2,0,L|325:316,1,75,0|0,1:2|1:2,0:0:0:0:
476,248,210984,6,0,L|492:298,4,37.5,8|0|0|0|0,3:2|1:2|1:2|1:2|1:2,1:2:0:0:
488,162,211241,1,0,1:2:0:0:
488,162,211327,6,0,L|504:66,1,75,8|0,3:2|1:2,1:2:0:0:
377,42,211498,2,0,L|389:115,1,75,0|0,1:2|1:2,1:2:0:0:
297,228,211670,5,8,3:2:0:0:
257,256,211756,1,0,1:2:0:0:
208,256,211841,1,0,1:2:0:0:
169,227,211927,1,0,1:2:0:0:
154,181,212013,2,0,L|148:137,1,37.5,8|0,3:2|1:2,1:2:0:0:
169,133,212098,2,0,L|175:89,1,37.5,0|0,1:2|1:0,0:0:0:0:
208,106,212184,1,0,3:2:0:0:
257,106,212270,1,0,3:2:0:0:
297,135,212356,6,0,L|356:122,4,56.2500021457673,8|0|0|0|0,3:2|1:2|1:2|1:2|1:2,1:2:0:0:
233,189,212613,2,0,L|81:170,1,150,0|0,3:2|1:2,1:2:0:0:
21,232,212870,1,0,3:2:0:0:
21,232,212956,1,0,1:2:0:0:
21,232,213041,6,0,L|32:312,6,56.2500021457673,8|0|0|0|0|0|0,3:2|1:2|1:2|1:2|1:2|1:0|1:2,1:2:0:0:
84,170,213384,5,0,1:0:0:0:
94,116,213470,1,0,1:2:0:0:
105,65,213556,1,6,3:2:0:0:
256,192,213641,12,2,214927,0:2:0:0:
311,247,215098,6,8,L|300:301,2,28.1250010728836,10|8|8,3:2|3:2|3:2,3:2:0:0:
379,198,215270,5,8,3:2:0:0:
379,198,215356,1,8,3:2:0:0:
379,198,215441,2,8,L|454:189,1,56.2500021457673,10|8,3:2|3:2,3:2:0:0:
369,107,215613,5,8,3:2:0:0:
369,107,215699,1,8,3:2:0:0:
369,107,215784,2,8,L|444:98,1,56.2500021457673,10|8,3:2|3:2,3:2:0:0:
355,19,215956,5,8,3:2:0:0:
355,19,216042,1,8,3:2:0:0:
355,19,216127,2,8,L|430:10,1,56.2500021457673,10|8,3:2|3:2,3:2:0:0:
278,75,216298,5,8,3:2:0:0:
278,75,216384,1,8,3:2:0:0:
278,75,216470,2,0,L|191:65,1,75,10|2,3:2|1:2,0:0:0:0:
101,25,216813,6,0,P|104:73|111:114,1,75,2|2,1:2|1:2,1:2:0:0:
108,99,217070,1,0,1:2:0:0:
108,99,217156,1,2,1:2:0:0:
234,169,217327,1,2,1:2:0:0:
152,258,217498,5,2,1:2:0:0:
141,255,217584,1,2,1:2:0:0:
130,252,217670,1,2,1:2:0:0:
119,249,217756,1,2,1:2:0:0:
108,247,217841,6,8,L|59:262,2,28.1250010728836,10|8|8,3:2|3:2|3:2,3:2:0:0:
130,343,218013,5,8,3:2:0:0:
130,343,218098,1,8,3:2:0:0:
130,343,218184,2,8,L|194:340,1,56.2500021457673,10|8,3:2|3:2,3:2:0:0:
289,338,218356,5,8,3:2:0:0:
289,338,218441,1,8,3:2:0:0:
289,338,218527,2,10,L|353:335,1,56.2500021457673,8|8,3:2|3:2,3:2:0:0:
235,239,218698,5,8,3:2:0:0:
235,239,218783,1,8,3:2:0:0:
235,239,218870,2,10,L|171:236,1,56.2500021457673,8|8,3:2|3:2,3:2:0:0:
76,234,219041,5,8,3:2:0:0:
76,234,219126,1,8,3:2:0:0:
76,234,219213,1,10,3:2:0:0:
177,141,219384,6,0,P|186:102|191:54,2,75,2|2|2,1:2|1:2|1:2,1:2:0:0:
163,151,219813,1,2,1:2:0:0:
149,154,219898,2,0,L|110:141,3,37.5,2|2|2|2,1:2|1:2|1:2|1:2,0:0:0:0:
41,86,220241,6,0,L|28:173,1,84.3750032186509,2|0,1:2|1:2,1:2:0:0:
103,251,220584,6,8,L|89:200,4,28.1250010728836,10|8|8|8|8,3:2|3:2|3:2|3:2|3:2,3:2:0:0:
131,347,220841,1,8,3:2:0:0:
131,347,220927,6,8,L|202:355,1,56.2500021457673,10|8,3:2|3:2,3:2:0:0:
264,322,221098,2,8,L|319:328,1,56.2500021457673,10|8,3:2|3:2,3:2:0:0:
199,232,221270,6,8,L|270:240,1,56.2500021457673,10|8,3:2|3:2,3:2:0:0:
332,207,221441,2,8,L|387:213,1,56.2500021457673,10|8,3:2|3:2,3:2:0:0:
244,123,221613,6,8,L|315:131,1,56.2500021457673,10|8,3:2|3:2,3:2:0:0:
377,98,221784,2,8,L|432:104,1,56.2500021457673,10|8,3:2|3:2,3:2:0:0:
483,179,221956,6,8,L|497:222,4,28.1250010728836,10|8|8|8|10,3:2|3:2|3:2|3:2|3:2,3:2:0:0:
432,104,222213,1,8,3:2:0:0:
432,104,222298,6,8,L|451:38,1,56.2500021457673,10|8,3:2|3:2,3:2:0:0:
387,213,222470,2,8,L|402:267,1,56.2500021457673,10|8,3:2|3:2,3:2:0:0:
329,81,222641,6,8,L|348:15,1,56.2500021457673,10|8,3:2|3:2,3:2:0:0:
284,190,222813,2,8,L|299:244,1,56.2500021457673,10|8,3:2|3:2,3:2:0:0:
234,63,222984,6,8,L|253:-3,1,56.2500021457673,10|8,3:2|3:2,3:2:0:0:
189,172,223156,2,8,L|204:226,1,56.2500021457673,10|8,3:2|3:2,3:2:0:0:
130,86,223327,6,8,L|93:78,6,28.1250010728836,10|8|8|8|8|8|8,3:2|3:2|3:2|3:2|3:2|3:2|3:2,3:2:0:0:
190,172,223670,5,10,3:2:0:0:
217,166,223756,1,10,3:2:0:0:
244,160,223841,1,10,3:2:0:0:
271,154,223927,1,10,3:2:0:0:
298,149,224013,6,8,L|335:141,6,28.1250010728836,10|8|8|8|8|8|8,3:2|3:2|3:2|3:2|3:2|3:2|3:2,3:2:0:0:
344,224,224356,5,10,3:2:0:0:
371,229,224441,1,10,3:2:0:0:
398,235,224527,1,10,3:2:0:0:
425,241,224612,1,10,3:2:0:0:
452,247,224698,5,2,3:2:0:0:
365,339,224870,6,0,L|375:391,2,28.1250010728836,2|0|0,0:2|0:2|0:2,0:2:0:0:
275,350,225041,2,0,L|285:402,2,28.1250010728836,2|0|0,0:2|0:2|0:2,0:2:0:0:
196,313,225213,2,0,L|201:285,2,28.1250010728836,2|0|0,0:2|0:2|0:2,0:2:0:0:
106,302,225384,6,0,L|111:274,4,28.1250010728836,2|0|0|0|0,0:2|0:2|0:2|0:2|0:2,0:2:0:0:
27,359,225727,5,0,1:2:0:0:
27,359,225813,1,0,3:2:0:0:
27,359,225898,1,0,1:2:0:0:
61,103,226070,6,0,L|144:85,1,75,2|0,3:2|0:2,0:2:0:0:
62,113,226241,2,0,L|145:95,1,75,2|0,3:2|0:2,0:2:0:0:
63,123,226413,6,0,B|193:92|193:92|216:115,1,150,14|0,3:2|0:2,0:2:0:0:
259,167,226670,1,0,0:2:0:0:
259,167,226756,2,0,L|386:181,1,75,2|0,3:2|0:2,0:2:0:0:
273,62,226927,2,0,L|198:53,1,75,2|0,0:2|0:2,0:2:0:0:
386,14,227098,2,0,P|375:50|361:84,1,75,10|0,0:2|0:2,0:2:0:0:
426,158,227270,2,0,P|441:192|452:228,1,75,2|0,0:2|0:2,0:2:0:0:
355,259,227441,1,0,3:2:0:0:
112,198,227613,6,0,L|288:160,1,150,2|8,0:2|0:2,0:2:0:0:
98,298,227956,2,0,L|1:273,1,75,2|0,0:2|0:2,0:2:0:0:
203,356,228127,2,0,L|130:374,1,75,2|0,3:2|0:2,0:2:0:0:
262,279,228298,2,0,L|165:254,1,75,2|0,0:2|0:2,0:2:0:0:
367,337,228470,2,0,L|294:355,1,75,10|0,0:2|0:0,0:2:0:0:
353,249,228641,1,0,0:2:0:0:
353,249,228727,1,0,0:2:0:0:
353,249,228813,6,0,P|437:210|534:193,1,150,2|0,3:2|0:0,0:2:0:0:
139,158,229156,2,0,P|55:119|-42:102,1,150,10|0,3:2|0:0,0:2:0:0:
186,72,229498,2,0,P|201:-8|202:-23,1,75,2|2,3:2|0:2,0:0:0:0:
286,45,229670,2,0,P|291:82|300:118,1,75,2|0,0:2|0:0,0:0:0:0:
386,70,229841,6,0,L|472:50,1,75,10|0,3:2|0:2,0:2:0:0:
320,135,230013,2,0,L|246:151,1,75,2|0,0:2|0:2,0:2:0:0:
424,174,230184,1,2,3:2:0:0:
424,174,230270,1,2,0:2:0:0:
424,174,230356,1,2,0:2:0:0:
424,174,230441,1,2,3:2:0:0:
424,174,230527,2,0,L|453:337,1,150,10|2,3:2|3:2,0:2:0:0:
337,358,230870,5,2,3:2:0:0:
337,358,230956,1,10,3:2:0:0:
267,295,231127,1,10,0:2:0:0:
9,207,231384,5,2,3:2:0:0:
9,207,231470,1,2,3:2:0:0:
9,207,231556,2,0,B|86:184|161:266|57:334|156:392|278:384,1,337.500012874604,6|0,3:2|0:0,0:2:0:0:
279,273,232241,6,0,P|249:281|212:292,1,56.2500021457673,10|0,0:2|0:2,0:2:0:0:
161,187,232413,2,0,P|190:195|228:206,1,56.2500021457673,2|0,0:2|0:2,0:2:0:0:
300,187,232584,2,0,L|316:110,1,56.2500021457673,2|0,3:2|0:2,0:2:0:0:
224,99,232756,2,0,L|85:109,1,112.500004291535,2|2,0:2|0:2,0:2:0:0:
364,243,233098,2,0,L|399:172,1,56.2500021457673,10|0,0:2|0:2,0:2:0:0:
430,114,233270,1,2,3:2:0:0:
430,114,233441,1,2,0:2:0:0:
501,271,233613,6,0,P|451:230|263:190,1,250,10|0,0:2|0:2,0:2:0:0:
262,340,234298,6,0,P|155:343|31:359,1,225.000008583069,6|8,3:2|0:2,0:2:0:0:
0,232,234813,2,0,P|71:242|125:257,1,112.500004291535,2|0,0:2|0:0,0:2:0:0:
215,227,235156,1,2,3:2:0:0:
38,357,235327,1,10,0:2:0:0:
135,160,235498,6,0,P|213:131|317:247,1,225.000008583069,2|2,0:2|3:2,0:2:0:0:
251,367,236013,1,10,0:2:0:0:
215,227,236184,1,2,0:2:0:0:
464,258,236356,1,2,0:2:0:0:
379,382,236527,1,2,3:2:0:0:
337,203,236698,2,0,L|358:97,1,84.3750032186509,10|0,0:2|0:2,0:2:0:0:
353,120,237041,6,0,L|446:107,1,75,2|0,3:2|0:2,0:2:0:0:
361,100,237213,2,0,L|453:86,1,75,2|0,3:2|0:2,0:2:0:0:
371,87,237384,6,0,B|486:70|486:70|457:17,1,150,14|0,3:2|0:2,0:2:0:0:
469,40,237641,1,0,0:2:0:0:
469,40,237727,2,0,L|453:149,1,75,0|0,3:2|0:2,0:2:0:0:
315,168,237898,2,0,L|326:242,1,75,2|0,0:2|0:2,0:2:0:0:
421,262,238070,2,0,P|464:244|501:218,1,75,10|0,3:2|0:2,0:2:0:0:
430,368,238241,2,0,P|387:350|350:324,1,75,2|0,0:2|0:2,0:2:0:0:
406,181,238413,1,0,3:2:0:0:
222,311,238584,6,0,B|139:363|152:282|61:329,1,150,2|8,0:2|3:2,0:2:0:0:
20,78,238927,2,0,P|52:158|53:166,1,75,2|0,0:2|0:2,0:2:0:0:
125,191,239098,2,0,P|157:111|158:103,1,75,2|2,3:2|0:2,0:2:0:0:
179,30,239270,2,0,L|89:43,1,75,2|0,0:2|0:2,0:2:0:0:
253,110,239441,2,0,B|307:121|307:121|333:143|333:143|422:156,1,150,10|0,3:2|0:2,0:2:0:0:
350,369,239784,6,0,B|386:246|386:246|446:344,1,225,2|0,3:2|0:2,0:2:0:0:
331,294,240127,2,0,B|184:259|184:259|281:232,1,225,10|0,3:2|0:2,0:2:0:0:
255,239,240470,2,0,L|231:333,1,75,2|0,3:2|0:2,0:2:0:0:
133,369,240641,2,0,L|114:296,1,75,2|0,0:2|0:2,0:2:0:0:
171,179,240813,2,0,B|111:198|111:198|28:162,1,150,10|2,3:2|0:2,0:2:0:0:
255,239,241156,5,0,3:2:0:0:
277,133,241327,1,2,3:2:0:0:
280,118,241413,1,2,3:2:0:0:
283,103,241498,1,2,3:2:0:0:
287,88,241584,1,2,3:2:0:0:
270,350,241756,1,2,3:2:0:0:
270,350,241841,6,0,B|382:357|312:258|435:253,1,196.875007510186,8|0,0:2|0:2,0:2:0:0:
429,345,242527,6,0,P|361:298|198:273,1,225,6|0,3:2|0:2,0:2:0:0:
104,296,242870,2,0,P|187:227|134:186,1,168.750006437302,2|0,0:2|0:2,0:2:0:0:
103,141,243213,2,0,L|8:162,1,75,10|0,0:2|0:2,0:2:0:0:
255,176,243384,2,0,L|350:155,1,56.2500021457673,2|0,0:2|0:2,0:2:0:0:
186,101,243556,1,2,3:2:0:0:
186,101,243641,1,0,0:0:0:0:
186,101,243727,2,0,P|152:23|131:-20,1,112.500004291535,0|2,0:0|0:2,0:0:0:0:
101,273,244070,5,10,0:2:0:0:
297,276,244241,1,2,0:2:0:0:
297,276,244327,1,0,0:2:0:0:
297,276,244413,2,0,L|389:293,1,56.2500021457673,2|0,0:2|0:2,0:2:0:0:
206,363,244584,5,10,0:2:0:0:
203,334,244670,1,2,0:2:0:0:
200,305,244756,1,2,0:2:0:0:
197,277,244841,1,2,0:2:0:0:
195,248,244927,1,2,0:2:0:0:
192,219,245013,1,2,0:2:0:0:
189,191,245098,1,2,0:2:0:0:
186,162,245184,1,2,0:2:0:0:
182,133,245270,6,8,L|101:116,1,56.2500021457673,8|8,0:2|0:2,0:2:0:0:
249,70,245441,2,8,L|168:53,1,56.2500021457673,8|8,0:2|0:2,0:2:0:0:
322,167,245613,2,8,L|241:150,1,56.2500021457673,8|8,0:2|0:2,0:2:0:0:
389,104,245784,2,8,L|308:87,1,56.2500021457673,8|8,0:2|0:2,0:2:0:0:
414,193,245956,6,8,L|428:246,2,28.1250010728836,8|8|8,0:2|0:2|0:2,0:2:0:0:
341,262,246127,1,8,0:2:0:0:
341,262,246213,1,8,0:2:0:0:
341,262,246298,6,8,L|327:315,2,28.1250010728836,8|8|8,0:2|0:2|0:2,0:2:0:0:
411,333,246470,1,8,0:2:0:0:
411,333,246556,1,8,0:2:0:0:
411,333,246641,1,0,3:2:0:0:
209,333,246813,6,0,L|201:288,2,28.1250010728836,2|0|0,0:2|0:2|0:2,0:2:0:0:
291,367,246984,2,0,L|299:322,2,28.1250010728836,2|0|0,0:2|0:2|0:2,0:2:0:0:
124,346,247156,2,0,L|116:301,2,28.1250010728836,2|0|0,0:2|0:2|0:2,0:2:0:0:
271,260,247327,6,0,L|279:215,4,28.1250010728836,2|0|0|0|0,0:2|0:2|0:2|0:2|0:2,0:2:0:0:
209,333,247670,6,0,L|171:77,1,225,14|0,0:2|0:2,0:2:0:0:
163,136,248013,6,0,L|41:117,1,112.500004291535,4|0,3:2|0:2,0:2:0:0:
0,266,248527,2,0,L|175:237,1,168.750006437302,2|2,0:2|0:2,0:2:0:0:
390,191,249213,2,0,B|245:266|419:344|292:430|211:396|208:329,1,337.500012874604,2|2,0:2|0:2,0:2:0:0:
208,332,250756,6,0,L|215:305,3,28.1250010728836,2|2|2|2,1:2|1:2|1:2|1:2,0:0:0:0:
129,275,251098,2,0,L|122:248,3,28.1250010728836,2|2|2|2,1:2|1:2|1:2|1:2,0:0:0:0:
285,255,251441,2,0,L|292:228,3,28.1250010728836,2|2|2|2,1:2|1:2|1:2|1:2,0:0:0:0:
204,187,251784,5,2,1:2:0:0:
205,167,251870,1,2,1:2:0:0:
207,147,251956,1,2,1:2:0:0:
209,127,252041,1,2,1:2:0:0:
249,103,252127,6,2,L|286:93,14,28.1250010728836,2|2|2|2|2|2|2|2|2|2|2|2|2|2|2,1:2|1:2|1:2|1:2|1:2|1:2|1:2|1:2|1:2|1:2|1:2|1:2|1:2|1:2|1:2,1:2:0:0:
144,44,252813,2,2,L|107:34,14,28.1250010728836,2|2|2|2|2|2|2|2|2|2|2|2|2|2|2,1:2|1:2|1:2|1:2|1:2|1:2|1:2|1:2|1:2|1:2|1:2|1:2|1:2|1:2|1:2,1:2:0:0:
252,2,253498,5,4,3:2:0:0:
256,192,253584,12,0,256241,0:2:0:0:
