osu file format v14

[General]
AudioFilename: audio.mp3
AudioLeadIn: 0
PreviewTime: 65005
Countdown: 0
SampleSet: Soft
StackLeniency: 0.7
Mode: 3
LetterboxInBreaks: 0
SpecialStyle: 0
WidescreenStoryboard: 0

[Editor]
DistanceSpacing: 1
BeatDivisor: 4
GridSize: 32
TimelineZoom: 2.5

[Metadata]
Title:Mathematics MA+MA = Magic!
TitleUnicode:ませまてぃっく♥ま+ま=まじっく!
Artist:Camellia feat. Nanahira
ArtistUnicode:かめりあ feat. ななひら
Creator:keksikosu
Version:MA+MA
Source:SOUND VOLTEX II -infinite infection-
Tags:japanese electronic video game かめるかめりあ cametek kamelcamellia 大箭将也 masaya oya ヒラタナナミ nanami hirata confetto sdvx production confirmation commemorative original song contest 制作決定記念 オリジナル楽曲コンテスト pop'n music sunny park ばーさす!Versus! VS! V.S. KCCD-001 コミックマーケット コミケ コミケット comiket comike comic market c86 KONAMI BEMANI
BeatmapID:3265959
BeatmapSetID:1599124

[Difficulty]
HPDrainRate:8.5
CircleSize:4
OverallDifficulty:8
ApproachRate:5
SliderMultiplier:1.4
SliderTickRate:1

[Events]
//Background and Video events
0,0,"BG.jpg",0,0
//Break Periods
//Storyboard Layer 0 (Background)
//Storyboard Layer 1 (Fail)
//Storyboard Layer 2 (Pass)
//Storyboard Layer 3 (Foreground)
//Storyboard Layer 4 (Overlay)
//Storyboard Sound Samples

[TimingPoints]
5,312.5,4,2,1,50,1,0
12817,-100,4,2,1,50,0,1
22505,-100,4,2,1,50,0,0
65005,-100,4,2,1,50,0,1
73598,-100,4,2,1,50,0,0
75317,-100,4,2,1,50,0,1
85005,-100,4,2,1,50,0,0

[HitObjects]
192,192,161,128,0,1411:0:0:0:70:twinkling.wav
448,192,1411,1,0,0:0:0:0:
64,192,1489,1,0,0:0:0:0:
320,192,1567,1,0,0:0:0:0:
448,192,1723,1,0,0:0:0:0:
64,192,1880,1,0,0:0:0:0:
192,192,2036,1,0,0:0:0:0:
448,192,2192,1,0,0:0:0:0:
320,192,2270,1,0,0:0:0:0:
64,192,2348,1,0,0:0:0:0:
192,192,2426,1,0,0:0:0:0:
64,192,2505,1,2,0:0:0:0:
320,192,2505,1,4,0:0:0:0:
448,192,2505,128,0,3755:0:0:0:0:
192,192,3755,128,0,4380:0:0:0:0:
64,192,4380,128,0,5005:0:0:0:0:
448,192,4536,1,0,0:0:0:0:
448,192,4692,128,0,5005:0:0:0:0:
320,192,5005,128,0,6255:0:0:0:0:
192,192,6255,128,0,6880:0:0:0:0:
448,192,6880,128,0,7505:0:0:0:0:
64,192,7036,1,0,0:0:0:0:
64,192,7192,128,0,7505:0:0:0:0:
192,192,7505,128,0,8755:0:0:0:0:
320,192,7505,1,0,0:0:0:0:
64,192,7817,1,0,0:0:0:0:
448,192,7973,1,0,0:0:0:0:
320,192,8130,1,0,0:0:0:0:
64,192,8286,1,0,0:0:0:0:
448,192,8442,1,0,0:0:0:0:
64,192,8520,1,0,0:0:0:0:
320,192,8598,1,0,0:0:0:0:
64,192,8755,128,0,9380:0:0:0:0:
448,192,8755,1,0,0:0:0:0:
320,192,8911,1,0,0:0:0:0:
192,192,9067,1,0,0:0:0:0:
320,192,9223,1,0,0:0:0:0:
448,192,9380,128,0,10005:0:0:0:0:
192,192,9380,1,0,0:0:0:0:
320,192,9536,1,0,0:0:0:0:
192,192,9692,1,0,0:0:0:0:
64,192,9770,1,0,0:0:0:0:
320,192,9848,1,0,0:0:0:0:
64,192,10005,1,0,0:0:0:0:
192,192,10083,1,0,0:0:0:0:
320,192,10161,1,0,0:0:0:0:
448,192,10239,1,0,0:0:0:0:
64,192,10317,1,0,0:0:0:0:
192,192,10395,1,0,0:0:0:0:
448,192,10473,1,0,0:0:0:0:
320,192,10551,1,0,0:0:0:0:
192,192,10630,1,0,0:0:0:0:
64,192,10708,1,0,0:0:0:0:
448,192,10786,1,0,0:0:0:0:
320,192,10864,1,0,0:0:0:0:
64,192,10942,1,2,0:0:0:0:
192,192,10942,1,0,0:0:0:0:
320,192,11098,1,2,0:0:0:0:
448,192,11098,1,0,0:0:0:0:
192,192,11411,1,2,0:0:0:0:
320,192,11411,1,0,0:0:0:0:
448,192,11567,128,2,11801:0:0:0:0:
64,192,11567,128,0,11801:0:0:0:0:
64,192,12036,1,2,0:0:0:0:
448,192,12036,1,0,0:0:0:0:
192,192,12192,1,2,0:0:0:0:
320,192,12192,1,0,0:0:0:0:
64,192,12348,128,2,12661:0:0:0:0:
448,192,12348,1,0,0:0:0:0:
448,192,12661,1,2,0:0:0:0:
320,192,12713,1,2,0:0:0:0:
192,192,12765,1,2,0:0:0:0:
64,192,12817,1,8,0:0:0:0:
320,192,12817,1,4,0:0:0:0:
448,192,12817,128,0,12973:0:0:0:0:
192,192,12973,1,0,0:0:0:0:
64,192,13130,128,2,13286:0:0:0:0:
320,192,13130,1,0,0:0:0:0:
448,192,13286,128,0,13442:0:0:0:0:
64,192,13442,1,8,0:0:0:0:
192,192,13442,1,0,0:0:0:0:
320,192,13442,1,0,0:0:0:0:
192,192,13598,128,0,13755:0:0:0:0:
320,192,13755,1,2,0:0:0:0:
448,192,13755,1,0,0:0:0:0:
64,192,13911,128,0,14067:0:0:0:0:
192,192,14067,1,8,0:0:0:0:
320,192,14067,1,0,0:0:0:0:
448,192,14067,1,0,0:0:0:0:
448,192,14223,128,0,14692:0:0:0:0:
192,192,14380,1,2,0:0:0:0:
320,192,14380,1,0,0:0:0:0:
64,192,14536,128,0,14614:0:0:0:0:
64,192,14692,128,8,14848:0:0:0:0:
192,192,14692,1,0,0:0:0:0:
320,192,14692,1,0,0:0:0:0:
448,192,14848,1,0,0:0:0:0:
192,192,15005,128,2,15161:0:0:0:0:
64,192,15005,1,0,0:0:0:0:
320,192,15161,1,2,0:0:0:0:
448,192,15161,1,0,0:0:0:0:
192,192,15239,1,2,0:0:0:0:
64,192,15317,1,8,0:0:0:0:
320,192,15317,1,4,0:0:0:0:
448,192,15317,128,0,15473:0:0:0:0:
192,192,15473,1,0,0:0:0:0:
64,192,15630,128,2,15786:0:0:0:0:
320,192,15630,1,0,0:0:0:0:
448,192,15786,128,0,15942:0:0:0:0:
64,192,15942,1,8,0:0:0:0:
192,192,15942,1,0,0:0:0:0:
320,192,15942,1,0,0:0:0:0:
192,192,16098,128,0,16255:0:0:0:0:
64,192,16255,1,2,0:0:0:0:
320,192,16255,1,0,0:0:0:0:
448,192,16411,1,2,0:0:0:0:
320,192,16450,1,2,0:0:0:0:
192,192,16489,1,2,0:0:0:0:
64,192,16528,1,2,0:0:0:0:
320,192,16567,1,8,0:0:0:0:
448,192,16567,1,0,0:0:0:0:
64,192,16723,1,2,0:0:0:0:
192,192,16762,1,2,0:0:0:0:
320,192,16801,1,2,0:0:0:0:
448,192,16840,1,2,0:0:0:0:
64,192,16880,1,2,0:0:0:0:
192,192,16880,1,0,0:0:0:0:
320,192,17036,128,2,17114:0:0:0:0:
448,192,17036,1,0,0:0:0:0:
320,192,17192,128,0,17348:0:0:0:0:
64,192,17348,1,4,0:0:0:0:
192,192,17348,1,2,0:0:0:0:
448,192,17348,128,0,17661:0:0:0:0:
192,192,17661,1,2,0:0:0:0:
320,192,17661,1,0,0:0:0:0:
64,192,17817,1,8,0:0:0:0:
192,192,17817,128,0,17973:0:0:0:0:
448,192,17817,1,0,0:0:0:0:
320,192,17973,1,0,0:0:0:0:
64,192,18130,128,2,18286:0:0:0:0:
448,192,18130,1,0,0:0:0:0:
192,192,18286,1,0,0:0:0:0:
64,192,18442,1,8,0:0:0:0:
320,192,18442,128,0,18598:0:0:0:0:
448,192,18442,1,0,0:0:0:0:
192,192,18598,1,0,0:0:0:0:
64,192,18755,1,2,0:0:0:0:
448,192,18755,128,0,18911:0:0:0:0:
192,192,18911,128,0,19067:0:0:0:0:
64,192,19067,1,8,0:0:0:0:
320,192,19067,1,0,0:0:0:0:
448,192,19067,1,0,0:0:0:0:
64,192,19223,128,0,19380:0:0:0:0:
192,192,19380,1,2,0:0:0:0:
320,192,19380,1,0,0:0:0:0:
448,192,19536,128,0,19692:0:0:0:0:
64,192,19692,1,8,0:0:0:0:
192,192,19692,1,0,0:0:0:0:
320,192,19692,1,0,0:0:0:0:
192,192,19848,128,0,20317:0:0:0:0:
320,192,20005,1,2,0:0:0:0:
448,192,20005,1,0,0:0:0:0:
64,192,20161,128,0,20317:0:0:0:0:
448,192,20317,1,0,0:0:0:0:
320,192,20317,128,8,20473:0:0:0:0:
192,192,20473,128,0,20630:0:0:0:0:
64,192,20630,1,2,0:0:0:0:
448,192,20630,128,0,20942:0:0:0:0:
192,192,20786,1,0,0:0:0:0:
64,192,20942,1,8,0:0:0:0:
192,192,20942,1,0,0:0:0:0:
320,192,20942,1,0,0:0:0:0:
448,192,21098,1,0,0:0:0:0:
64,192,21255,1,2,0:0:0:0:
320,192,21255,1,0,0:0:0:0:
192,192,21411,1,2,0:0:0:0:
448,192,21411,1,0,0:0:0:0:
320,192,21489,1,0,0:0:0:0:
64,192,21567,1,8,0:0:0:0:
192,192,21567,1,0,0:0:0:0:
448,192,21567,1,0,0:0:0:0:
320,192,21723,1,2,0:0:0:0:
448,192,21723,1,0,0:0:0:0:
64,192,21880,1,2,0:0:0:0:
192,192,21880,1,0,0:0:0:0:
320,192,21958,1,2,0:0:0:0:
448,192,21958,1,0,0:0:0:0:
64,192,22036,1,2,0:0:0:0:
192,192,22036,1,0,0:0:0:0:
320,192,22114,1,2,0:0:0:0:
448,192,22114,1,0,0:0:0:0:
64,192,22192,1,2,0:0:0:0:
192,192,22192,1,8,0:0:0:0:
320,192,22270,1,2,0:0:0:0:
448,192,22270,1,0,0:0:0:0:
64,192,22348,1,2,0:0:0:0:
192,192,22348,1,0,0:0:0:0:
320,192,22426,1,2,0:0:0:0:
448,192,22426,1,0,0:0:0:0:
64,192,22505,128,4,22661:0:0:0:0:
192,192,22505,1,2,0:0:0:0:
320,192,22661,1,0,0:0:0:0:
64,192,22817,1,8,0:0:0:0:
320,192,22817,128,0,22973:0:0:0:0:
448,192,22817,1,0,0:0:0:0:
192,192,22973,1,0,0:0:0:0:
64,192,23130,1,2,0:0:0:0:
448,192,23130,128,0,23286:0:0:0:0:
192,192,23286,1,2,0:0:0:0:
320,192,23286,1,0,0:0:0:0:
64,192,23442,128,8,23598:0:0:0:0:
192,192,23442,1,0,0:0:0:0:
448,192,23442,1,0,0:0:0:0:
320,192,23598,1,2,0:0:0:0:
448,192,23598,1,0,0:0:0:0:
64,192,23676,1,2,0:0:0:0:
192,192,23676,1,0,0:0:0:0:
320,192,23755,1,2,0:0:0:0:
448,192,23755,128,0,24223:0:0:0:0:
192,192,24223,1,2,0:0:0:0:
320,192,24223,1,0,0:0:0:0:
64,192,24380,128,8,24692:0:0:0:0:
192,192,24380,1,0,0:0:0:0:
448,192,24380,1,0,0:0:0:0:
320,192,24692,128,0,24770:0:0:0:0:
320,192,24848,128,0,24926:0:0:0:0:
64,192,25005,1,2,0:0:0:0:
192,192,25005,1,4,0:0:0:0:
448,192,25005,1,0,0:0:0:0:
192,192,25161,128,0,25317:0:0:0:0:
448,192,25317,1,8,0:0:0:0:
320,192,25317,1,0,0:0:0:0:
64,192,25317,128,0,25473:0:0:0:0:
320,192,25473,1,0,0:0:0:0:
64,192,25630,1,2,0:0:0:0:
448,192,25630,128,0,25786:0:0:0:0:
192,192,25786,1,2,0:0:0:0:
320,192,25786,128,0,25942:0:0:0:0:
64,192,25942,1,8,0:0:0:0:
448,192,25942,1,0,0:0:0:0:
192,192,25942,128,0,26098:0:0:0:0:
320,192,26098,1,2,0:0:0:0:
448,192,26098,1,0,0:0:0:0:
64,192,26176,1,2,0:0:0:0:
192,192,26176,1,0,0:0:0:0:
320,192,26255,1,2,0:0:0:0:
448,192,26255,128,0,26333:0:0:0:0:
64,192,26411,1,2,0:0:0:0:
448,192,26411,128,0,26567:0:0:0:0:
192,192,26723,1,2,0:0:0:0:
320,192,26723,128,0,26880:0:0:0:0:
192,192,27036,1,2,0:0:0:0:
320,192,27036,128,0,27348:0:0:0:0:
64,192,27348,1,2,0:0:0:0:
192,192,27348,1,0,0:0:0:0:
320,192,27426,1,2,0:0:0:0:
448,192,27426,1,0,0:0:0:0:
64,192,27505,1,2,0:0:0:0:
192,192,27505,128,4,27661:0:0:0:0:
448,192,27661,1,0,0:0:0:0:
64,192,27817,128,8,27973:0:0:0:0:
320,192,27817,1,0,0:0:0:0:
448,192,27817,1,0,0:0:0:0:
192,192,27973,1,0,0:0:0:0:
320,192,28130,1,2,0:0:0:0:
448,192,28130,128,0,28286:0:0:0:0:
64,192,28286,1,2,0:0:0:0:
192,192,28286,1,0,0:0:0:0:
64,192,28442,128,8,28598:0:0:0:0:
192,192,28442,1,0,0:0:0:0:
320,192,28442,1,0,0:0:0:0:
320,192,28598,1,2,0:0:0:0:
448,192,28598,1,0,0:0:0:0:
64,192,28676,1,2,0:0:0:0:
192,192,28676,1,0,0:0:0:0:
320,192,28755,128,2,28989:0:0:0:0:
448,192,28755,1,0,0:0:0:0:
320,192,29067,128,0,29301:0:0:0:0:
64,192,29223,1,2,0:0:0:0:
192,192,29223,1,0,0:0:0:0:
192,192,29380,128,8,29536:0:0:0:0:
320,192,29380,1,0,0:0:0:0:
448,192,29380,1,0,0:0:0:0:
448,192,29536,128,0,29692:0:0:0:0:
192,192,29692,128,0,29848:0:0:0:0:
448,192,29848,128,0,30005:0:0:0:0:
64,192,30005,1,2,0:0:0:0:
192,192,30005,1,4,0:0:0:0:
320,192,30083,1,0,0:0:0:0:
448,192,30161,1,0,0:0:0:0:
64,192,30239,1,0,0:0:0:0:
192,192,30317,1,0,0:0:0:0:
448,192,30395,1,0,0:0:0:0:
320,192,30473,1,0,0:0:0:0:
192,192,30551,1,0,0:0:0:0:
64,192,30630,1,2,0:0:0:0:
448,192,30630,1,4,0:0:0:0:
320,192,30708,1,0,0:0:0:0:
448,192,30786,1,0,0:0:0:0:
192,192,30864,1,0,0:0:0:0:
64,192,30942,1,0,0:0:0:0:
320,192,31020,1,0,0:0:0:0:
448,192,31098,1,0,0:0:0:0:
64,192,31176,1,0,0:0:0:0:
192,192,31255,1,0,0:0:0:0:
64,192,31333,1,0,0:0:0:0:
320,192,31411,1,2,0:0:0:0:
448,192,31411,1,0,0:0:0:0:
192,192,31567,1,2,0:0:0:0:
320,192,31567,1,0,0:0:0:0:
64,192,31723,1,2,0:0:0:0:
448,192,31723,1,0,0:0:0:0:
192,192,31880,1,2,0:0:0:0:
320,192,31880,1,0,0:0:0:0:
64,192,31880,128,4,32192:0:0:0:0:
448,192,32192,1,0,0:0:0:0:
192,192,32505,1,2,0:0:0:0:
320,192,32505,1,4,0:0:0:0:
64,192,32505,1,0,0:0:0:0:
448,192,32583,1,0,0:0:0:0:
64,192,32661,1,0,0:0:0:0:
192,192,32739,1,0,0:0:0:0:
64,192,32817,1,8,0:0:0:0:
320,192,32817,1,0,0:0:0:0:
448,192,32817,128,0,32973:0:0:0:0:
192,192,32973,1,0,0:0:0:0:
320,192,33130,1,2,0:0:0:0:
448,192,33130,1,0,0:0:0:0:
320,192,33286,1,0,0:0:0:0:
448,192,33442,1,8,0:0:0:0:
192,192,33442,1,0,0:0:0:0:
64,192,33442,128,0,33598:0:0:0:0:
320,192,33598,1,0,0:0:0:0:
64,192,33755,1,2,0:0:0:0:
448,192,33755,1,0,0:0:0:0:
192,192,33911,1,0,0:0:0:0:
448,192,33989,1,0,0:0:0:0:
64,192,34067,1,8,0:0:0:0:
192,192,34067,128,0,34223:0:0:0:0:
320,192,34067,1,0,0:0:0:0:
448,192,34145,1,0,0:0:0:0:
320,192,34223,1,0,0:0:0:0:
64,192,34301,1,0,0:0:0:0:
192,192,34380,1,2,0:0:0:0:
448,192,34380,128,0,34536:0:0:0:0:
64,192,34536,128,0,34692:0:0:0:0:
192,192,34692,1,8,0:0:0:0:
320,192,34692,1,0,0:0:0:0:
448,192,34692,128,0,34848:0:0:0:0:
64,192,34848,128,0,35005:0:0:0:0:
192,192,35005,1,2,0:0:0:0:
320,192,35005,1,0,0:0:0:0:
448,192,35083,1,0,0:0:0:0:
64,192,35161,1,0,0:0:0:0:
192,192,35239,1,0,0:0:0:0:
64,192,35317,1,8,0:0:0:0:
320,192,35317,1,0,0:0:0:0:
448,192,35317,128,0,35473:0:0:0:0:
192,192,35473,1,0,0:0:0:0:
64,192,35630,1,2,0:0:0:0:
448,192,35630,1,0,0:0:0:0:
320,192,35786,1,0,0:0:0:0:
64,192,35942,128,8,36098:0:0:0:0:
192,192,35942,1,0,0:0:0:0:
448,192,35942,1,0,0:0:0:0:
320,192,36098,1,0,0:0:0:0:
64,192,36255,1,2,0:0:0:0:
448,192,36255,1,0,0:0:0:0:
320,192,36411,1,0,0:0:0:0:
64,192,36489,1,0,0:0:0:0:
192,192,36567,1,0,0:0:0:0:
320,192,36567,128,8,36723:0:0:0:0:
448,192,36567,1,0,0:0:0:0:
64,192,36645,1,0,0:0:0:0:
192,192,36723,1,0,0:0:0:0:
448,192,36801,1,0,0:0:0:0:
320,192,36880,1,2,0:0:0:0:
64,192,36880,128,0,37036:0:0:0:0:
448,192,37036,128,0,37192:0:0:0:0:
192,192,37192,1,8,0:0:0:0:
320,192,37192,1,0,0:0:0:0:
64,192,37192,128,0,37348:0:0:0:0:
448,192,37348,128,0,37505:0:0:0:0:
192,192,37505,1,2,0:0:0:0:
64,192,37505,1,0,0:0:0:0:
320,192,37583,1,2,0:0:0:0:
448,192,37583,1,0,0:0:0:0:
64,192,37661,1,2,0:0:0:0:
192,192,37661,1,0,0:0:0:0:
320,192,37739,1,2,0:0:0:0:
64,192,37817,128,0,37973:0:0:0:0:
448,192,37817,1,8,0:0:0:0:
192,192,37817,1,4,0:0:0:0:
320,192,37973,1,0,0:0:0:0:
64,192,38130,1,2,0:0:0:0:
448,192,38130,1,0,0:0:0:0:
320,192,38286,1,0,0:0:0:0:
448,192,38442,128,8,38598:0:0:0:0:
192,192,38442,1,0,0:0:0:0:
64,192,38442,1,0,0:0:0:0:
320,192,38598,1,0,0:0:0:0:
64,192,38755,1,2,0:0:0:0:
448,192,38755,1,0,0:0:0:0:
192,192,38911,1,0,0:0:0:0:
448,192,38989,1,0,0:0:0:0:
64,192,39067,1,8,0:0:0:0:
192,192,39067,128,0,39223:0:0:0:0:
320,192,39067,1,0,0:0:0:0:
448,192,39145,1,0,0:0:0:0:
320,192,39223,1,0,0:0:0:0:
64,192,39301,1,0,0:0:0:0:
448,192,39380,128,2,39536:0:0:0:0:
192,192,39380,1,0,0:0:0:0:
64,192,39536,128,0,39692:0:0:0:0:
320,192,39692,1,8,0:0:0:0:
192,192,39692,1,0,0:0:0:0:
448,192,39692,128,0,39848:0:0:0:0:
64,192,39848,128,0,40005:0:0:0:0:
192,192,40005,1,2,0:0:0:0:
320,192,40005,1,0,0:0:0:0:
448,192,40083,1,0,0:0:0:0:
320,192,40161,1,0,0:0:0:0:
192,192,40239,1,0,0:0:0:0:
64,192,40317,128,8,40473:0:0:0:0:
320,192,40317,1,0,0:0:0:0:
448,192,40317,1,0,0:0:0:0:
192,192,40473,1,2,0:0:0:0:
448,192,40473,128,0,40630:0:0:0:0:
320,192,40630,1,0,0:0:0:0:
64,192,40786,128,2,40942:0:0:0:0:
192,192,40786,1,0,0:0:0:0:
192,192,40942,128,8,41098:0:0:0:0:
320,192,40942,1,0,0:0:0:0:
448,192,40942,1,0,0:0:0:0:
320,192,41098,128,2,41255:0:0:0:0:
448,192,41098,1,0,0:0:0:0:
64,192,41255,128,0,41333:0:0:0:0:
192,192,41411,128,0,41489:0:0:0:0:
320,192,41489,1,0,0:0:0:0:
448,192,41567,128,0,41645:0:0:0:0:
192,192,41645,1,0,0:0:0:0:
320,192,41723,128,0,41801:0:0:0:0:
64,192,41801,1,0,0:0:0:0:
192,192,41880,128,0,41958:0:0:0:0:
448,192,41880,1,0,0:0:0:0:
64,192,42036,128,0,42114:0:0:0:0:
320,192,42036,1,0,0:0:0:0:
320,192,42192,128,0,42348:0:0:0:0:
192,192,42192,1,0,0:0:0:0:
192,192,42348,128,0,42505:0:0:0:0:
64,192,42505,1,4,0:0:0:0:
320,192,42505,1,2,0:0:0:0:
448,192,42505,128,0,42817:0:0:0:0:
192,192,42661,1,0,0:0:0:0:
64,192,42817,1,8,0:0:0:0:
192,192,42817,1,0,0:0:0:0:
320,192,42817,1,0,0:0:0:0:
64,192,42973,1,0,0:0:0:0:
192,192,43130,1,2,0:0:0:0:
320,192,43130,1,0,0:0:0:0:
448,192,43286,1,0,0:0:0:0:
192,192,43442,1,8,0:0:0:0:
64,192,43442,1,0,0:0:0:0:
448,192,43442,1,0,0:0:0:0:
192,192,43598,1,0,0:0:0:0:
64,192,43755,1,2,0:0:0:0:
320,192,43755,1,0,0:0:0:0:
320,192,43911,1,0,0:0:0:0:
64,192,44067,1,8,0:0:0:0:
448,192,44067,1,0,0:0:0:0:
192,192,44067,1,0,0:0:0:0:
448,192,44223,1,0,0:0:0:0:
192,192,44380,1,2,0:0:0:0:
320,192,44380,1,0,0:0:0:0:
64,192,44536,1,0,0:0:0:0:
64,192,44692,1,8,0:0:0:0:
320,192,44692,1,0,0:0:0:0:
448,192,44692,1,0,0:0:0:0:
192,192,44848,1,0,0:0:0:0:
64,192,45005,128,2,45317:0:0:0:0:
448,192,45005,1,0,0:0:0:0:
320,192,45161,1,0,0:0:0:0:
192,192,45317,1,8,0:0:0:0:
320,192,45317,1,0,0:0:0:0:
448,192,45317,1,0,0:0:0:0:
192,192,45473,1,0,0:0:0:0:
64,192,45630,1,2,0:0:0:0:
448,192,45630,1,0,0:0:0:0:
320,192,45786,1,0,0:0:0:0:
64,192,45942,1,8,0:0:0:0:
192,192,45942,1,0,0:0:0:0:
448,192,45942,1,0,0:0:0:0:
448,192,46098,1,0,0:0:0:0:
192,192,46255,1,2,0:0:0:0:
320,192,46255,1,0,0:0:0:0:
64,192,46411,1,0,0:0:0:0:
64,192,46567,1,8,0:0:0:0:
448,192,46567,1,0,0:0:0:0:
320,192,46567,1,0,0:0:0:0:
192,192,46723,1,0,0:0:0:0:
448,192,46880,1,2,0:0:0:0:
320,192,46880,1,0,0:0:0:0:
64,192,47036,1,0,0:0:0:0:
192,192,47192,1,8,0:0:0:0:
448,192,47192,1,0,0:0:0:0:
64,192,47192,1,0,0:0:0:0:
320,192,47348,1,0,0:0:0:0:
64,192,47505,1,2,0:0:0:0:
448,192,47505,128,0,47817:0:0:0:0:
320,192,47661,1,0,0:0:0:0:
64,192,47817,1,8,0:0:0:0:
192,192,47817,1,0,0:0:0:0:
320,192,47817,1,0,0:0:0:0:
192,192,47973,1,0,0:0:0:0:
64,192,48130,1,2,0:0:0:0:
448,192,48130,1,0,0:0:0:0:
320,192,48286,1,0,0:0:0:0:
64,192,48442,1,8,0:0:0:0:
192,192,48442,1,0,0:0:0:0:
448,192,48442,1,0,0:0:0:0:
192,192,48598,1,0,0:0:0:0:
64,192,48755,1,2,0:0:0:0:
320,192,48755,1,0,0:0:0:0:
448,192,48911,1,0,0:0:0:0:
64,192,49067,1,8,0:0:0:0:
192,192,49067,1,0,0:0:0:0:
448,192,49067,1,0,0:0:0:0:
64,192,49223,1,0,0:0:0:0:
320,192,49380,1,2,0:0:0:0:
448,192,49380,1,0,0:0:0:0:
192,192,49536,1,0,0:0:0:0:
64,192,49692,1,8,0:0:0:0:
192,192,49692,1,0,0:0:0:0:
448,192,49692,1,0,0:0:0:0:
320,192,49848,1,0,0:0:0:0:
64,192,50005,128,2,50317:0:0:0:0:
448,192,50005,1,0,0:0:0:0:
192,192,50161,1,0,0:0:0:0:
192,192,50317,1,8,0:0:0:0:
320,192,50317,1,0,0:0:0:0:
448,192,50317,1,0,0:0:0:0:
320,192,50473,1,0,0:0:0:0:
64,192,50630,1,2,0:0:0:0:
192,192,50630,1,0,0:0:0:0:
64,192,50786,1,0,0:0:0:0:
320,192,50942,1,8,0:0:0:0:
192,192,50942,1,0,0:0:0:0:
448,192,50942,1,0,0:0:0:0:
320,192,51098,1,0,0:0:0:0:
64,192,51255,1,2,0:0:0:0:
448,192,51255,1,0,0:0:0:0:
192,192,51411,1,0,0:0:0:0:
192,192,51567,1,8,0:0:0:0:
320,192,51567,1,0,0:0:0:0:
448,192,51567,128,0,51880:0:0:0:0:
64,192,51723,1,0,0:0:0:0:
192,192,51880,1,2,0:0:0:0:
320,192,51880,128,0,52192:0:0:0:0:
64,192,52036,1,0,0:0:0:0:
64,192,52192,1,8,0:0:0:0:
192,192,52192,128,0,52505:0:0:0:0:
448,192,52192,1,0,0:0:0:0:
320,192,52348,1,0,0:0:0:0:
64,192,52505,1,2,0:0:0:0:
320,192,52505,1,4,0:0:0:0:
448,192,52505,128,0,52973:0:0:0:0:
192,192,52973,1,2,0:0:0:0:
320,192,52973,1,0,0:0:0:0:
64,192,53130,128,2,53598:0:0:0:0:
448,192,53130,1,0,0:0:0:0:
192,192,53442,1,8,0:0:0:0:
320,192,53442,1,0,0:0:0:0:
448,192,53442,1,0,0:0:0:0:
192,192,53755,1,2,0:0:0:0:
448,192,53755,128,0,53911:0:0:0:0:
320,192,53911,128,0,54223:0:0:0:0:
64,192,54067,1,0,0:0:0:0:
192,192,54223,128,2,54380:0:0:0:0:
448,192,54223,1,0,0:0:0:0:
64,192,54380,1,2,0:0:0:0:
320,192,54380,1,0,0:0:0:0:
448,192,54536,1,0,0:0:0:0:
64,192,54692,1,8,0:0:0:0:
192,192,54692,1,0,0:0:0:0:
320,192,54692,128,0,55005:0:0:0:0:
448,192,54848,128,0,55005:0:0:0:0:
64,192,55005,128,2,55473:0:0:0:0:
192,192,55005,1,0,0:0:0:0:
192,192,55473,1,2,0:0:0:0:
320,192,55473,1,0,0:0:0:0:
64,192,55630,1,2,0:0:0:0:
448,192,55630,128,0,56098:0:0:0:0:
64,192,55942,1,8,0:0:0:0:
192,192,55942,1,0,0:0:0:0:
320,192,55942,1,0,0:0:0:0:
64,192,56255,128,2,56411:0:0:0:0:
320,192,56255,1,0,0:0:0:0:
192,192,56411,128,0,56723:0:0:0:0:
448,192,56567,1,0,0:0:0:0:
64,192,56723,1,2,0:0:0:0:
320,192,56723,128,0,56880:0:0:0:0:
192,192,56880,1,2,0:0:0:0:
448,192,56880,1,0,0:0:0:0:
64,192,57036,1,0,0:0:0:0:
192,192,57192,1,8,0:0:0:0:
320,192,57192,1,0,0:0:0:0:
448,192,57192,1,0,0:0:0:0:
192,192,57348,1,0,0:0:0:0:
64,192,57505,1,2,0:0:0:0:
448,192,57505,1,0,0:0:0:0:
192,192,57661,1,2,0:0:0:0:
320,192,57661,1,0,0:0:0:0:
64,192,57817,1,2,0:0:0:0:
448,192,57817,1,0,0:0:0:0:
192,192,57973,1,2,0:0:0:0:
320,192,57973,1,0,0:0:0:0:
64,192,58130,1,2,0:0:0:0:
448,192,58130,1,4,0:0:0:0:
320,192,58130,128,0,58286:0:0:0:0:
192,192,58286,128,0,58442:0:0:0:0:
448,192,58364,1,0,0:0:0:0:
320,192,58442,1,0,0:0:0:0:
64,192,58442,128,0,58755:0:0:0:0:
448,192,58598,1,0,0:0:0:0:
192,192,58755,1,2,0:0:0:0:
320,192,58755,1,0,0:0:0:0:
64,192,58911,1,2,0:0:0:0:
448,192,58911,1,0,0:0:0:0:
320,192,59067,1,2,0:0:0:0:
192,192,59067,1,0,0:0:0:0:
64,192,59223,1,4,0:0:0:0:
448,192,59223,1,0,0:0:0:0:
192,192,59223,128,2,59536:0:0:0:0:
320,192,59536,128,0,59692:0:0:0:0:
448,192,59692,128,0,60005:0:0:0:0:
64,192,60005,1,2,0:0:0:0:
192,192,60005,1,4,0:0:0:0:
320,192,60005,1,0,0:0:0:0:
192,192,60161,1,2,0:0:0:0:
320,192,60161,1,0,0:0:0:0:
64,192,60317,1,2,0:0:0:0:
448,192,60317,1,0,0:0:0:0:
192,192,60473,1,2,0:0:0:0:
320,192,60473,1,0,0:0:0:0:
320,192,60630,1,2,0:0:0:0:
448,192,60630,1,0,0:0:0:0:
64,192,60786,1,2,0:0:0:0:
192,192,60786,1,0,0:0:0:0:
320,192,60942,1,2,0:0:0:0:
448,192,60942,1,0,0:0:0:0:
64,192,61098,1,2,0:0:0:0:
192,192,61098,1,0,0:0:0:0:
320,192,61255,1,2,0:0:0:0:
448,192,61255,1,0,0:0:0:0:
192,192,61333,1,2,0:0:0:0:
64,192,61411,1,2,0:0:0:0:
320,192,61411,1,0,0:0:0:0:
448,192,61489,1,2,0:0:0:0:
64,192,61567,1,2,0:0:0:0:
192,192,61567,1,0,0:0:0:0:
320,192,61645,1,2,0:0:0:0:
192,192,61723,1,2,0:0:0:0:
448,192,61723,1,0,0:0:0:0:
64,192,61801,1,2,0:0:0:0:
320,192,61880,1,2,0:0:0:0:
448,192,61880,1,0,0:0:0:0:
192,192,61958,1,2,0:0:0:0:
64,192,62036,1,2,0:0:0:0:
320,192,62036,1,0,0:0:0:0:
448,192,62114,1,2,0:0:0:0:
64,192,62192,1,2,0:0:0:0:
192,192,62192,1,0,0:0:0:0:
320,192,62270,1,2,0:0:0:0:
192,192,62348,1,2,0:0:0:0:
448,192,62348,1,0,0:0:0:0:
64,192,62426,1,2,0:0:0:0:
320,192,62505,1,2,0:0:0:0:
448,192,62505,128,0,62661:0:0:0:0:
192,192,62661,128,0,62739:0:0:0:0:
64,192,62817,128,0,62895:0:0:0:0:
64,192,62973,128,0,63286:0:0:0:0:
192,192,63286,128,0,63442:0:0:0:0:
320,192,63442,128,0,63520:0:0:0:0:
448,192,63598,128,0,63676:0:0:0:0:
64,192,63755,128,2,63911:0:0:0:0:
192,192,63755,1,0,0:0:0:0:
320,192,63755,1,0,0:0:0:0:
192,192,64067,1,2,0:0:0:0:
320,192,64067,1,0,0:0:0:0:
448,192,64067,128,0,64223:0:0:0:0:
64,192,64380,1,2,0:0:0:0:
192,192,64380,128,0,64536:0:0:0:0:
320,192,64380,1,0,0:0:0:0:
448,192,64536,128,0,64614:0:0:0:0:
64,192,64692,1,0,0:0:0:0:
448,192,64692,128,0,65005:0:0:0:0:
64,192,65005,1,2,0:0:0:0:
192,192,65005,128,4,65317:0:0:0:0:
320,192,65005,1,0,0:0:0:0:
320,192,65161,1,0,0:0:0:0:
64,192,65317,1,8,0:0:0:0:
320,192,65317,128,0,65630:0:0:0:0:
448,192,65317,1,0,0:0:0:0:
192,192,65473,1,0,0:0:0:0:
64,192,65630,128,2,65786:0:0:0:0:
448,192,65630,1,0,0:0:0:0:
192,192,65786,128,0,65942:0:0:0:0:
64,192,65942,1,8,0:0:0:0:
320,192,65942,1,0,0:0:0:0:
448,192,65942,1,0,0:0:0:0:
320,192,66098,128,0,66255:0:0:0:0:
192,192,66255,1,2,0:0:0:0:
448,192,66255,1,0,0:0:0:0:
64,192,66411,128,0,66567:0:0:0:0:
192,192,66567,1,8,0:0:0:0:
320,192,66567,1,0,0:0:0:0:
448,192,66567,1,0,0:0:0:0:
448,192,66723,128,0,67192:0:0:0:0:
192,192,66880,1,2,0:0:0:0:
320,192,66880,1,0,0:0:0:0:
64,192,67036,128,0,67114:0:0:0:0:
64,192,67192,128,8,67348:0:0:0:0:
192,192,67192,1,0,0:0:0:0:
320,192,67192,1,0,0:0:0:0:
320,192,67348,1,0,0:0:0:0:
192,192,67505,128,2,67817:0:0:0:0:
448,192,67505,1,0,0:0:0:0:
64,192,67661,1,0,0:0:0:0:
64,192,67817,1,8,0:0:0:0:
320,192,67817,1,0,0:0:0:0:
448,192,67817,128,0,68130:0:0:0:0:
192,192,67973,1,0,0:0:0:0:
64,192,68130,128,2,68286:0:0:0:0:
320,192,68130,1,0,0:0:0:0:
192,192,68286,128,0,68442:0:0:0:0:
64,192,68442,1,8,0:0:0:0:
320,192,68442,1,0,0:0:0:0:
448,192,68442,1,0,0:0:0:0:
320,192,68598,128,0,68755:0:0:0:0:
448,192,68755,1,2,0:0:0:0:
192,192,68755,1,0,0:0:0:0:
64,192,68911,1,2,0:0:0:0:
192,192,68950,1,2,0:0:0:0:
320,192,68989,1,2,0:0:0:0:
448,192,69028,1,2,0:0:0:0:
192,192,69067,1,8,0:0:0:0:
64,192,69067,1,0,0:0:0:0:
448,192,69223,1,2,0:0:0:0:
320,192,69262,1,2,0:0:0:0:
192,192,69301,1,2,0:0:0:0:
64,192,69340,1,2,0:0:0:0:
320,192,69380,1,2,0:0:0:0:
448,192,69380,1,0,0:0:0:0:
64,192,69536,1,0,0:0:0:0:
192,192,69536,128,2,69614:0:0:0:0:
192,192,69692,128,0,69848:0:0:0:0:
320,192,69848,1,2,0:0:0:0:
448,192,69848,1,4,0:0:0:0:
64,192,69848,128,0,70161:0:0:0:0:
192,192,70161,1,2,0:0:0:0:
320,192,70161,1,0,0:0:0:0:
64,192,70317,1,0,0:0:0:0:
320,192,70317,128,8,70473:0:0:0:0:
448,192,70317,1,0,0:0:0:0:
192,192,70473,1,0,0:0:0:0:
64,192,70630,1,2,0:0:0:0:
448,192,70630,128,0,70786:0:0:0:0:
320,192,70786,1,0,0:0:0:0:
192,192,70942,128,8,71098:0:0:0:0:
64,192,70942,1,0,0:0:0:0:
448,192,70942,1,0,0:0:0:0:
320,192,71098,1,0,0:0:0:0:
448,192,71255,1,2,0:0:0:0:
64,192,71255,128,0,71411:0:0:0:0:
320,192,71411,128,0,71567:0:0:0:0:
64,192,71567,1,8,0:0:0:0:
192,192,71567,1,0,0:0:0:0:
448,192,71567,1,0,0:0:0:0:
448,192,71723,128,0,71880:0:0:0:0:
192,192,71880,1,2,0:0:0:0:
320,192,71880,1,0,0:0:0:0:
64,192,72036,128,0,72192:0:0:0:0:
320,192,72192,1,8,0:0:0:0:
192,192,72192,1,0,0:0:0:0:
448,192,72192,1,0,0:0:0:0:
320,192,72348,128,0,72817:0:0:0:0:
64,192,72505,1,2,0:0:0:0:
192,192,72505,1,0,0:0:0:0:
448,192,72661,128,0,72817:0:0:0:0:
64,192,72817,1,8,0:0:0:0:
192,192,72817,128,0,72973:0:0:0:0:
448,192,72973,1,0,0:0:0:0:
64,192,73130,128,2,73286:0:0:0:0:
320,192,73130,1,0,0:0:0:0:
192,192,73286,1,2,0:0:0:0:
320,192,73338,1,2,0:0:0:0:
448,192,73390,1,2,0:0:0:0:
64,192,73442,1,8,0:0:0:0:
192,192,73442,1,0,0:0:0:0:
320,192,73598,128,2,73911:0:0:0:0:
448,192,73598,1,0,0:0:0:0:
64,192,73911,128,2,74067:0:0:0:0:
192,192,73911,1,0,0:0:0:0:
320,192,74067,1,2,0:0:0:0:
448,192,74067,128,0,74380:0:0:0:0:
320,192,74380,128,0,74536:0:0:0:0:
64,192,74536,1,2,0:0:0:0:
192,192,74536,1,0,0:0:0:0:
320,192,74692,1,2,0:0:0:0:
448,192,74692,1,0,0:0:0:0:
64,192,74848,128,2,75161:0:0:0:0:
192,192,74848,1,0,0:0:0:0:
448,192,75161,1,2,0:0:0:0:
320,192,75213,1,2,0:0:0:0:
192,192,75265,1,2,0:0:0:0:
64,192,75317,1,8,0:0:0:0:
320,192,75317,1,4,0:0:0:0:
448,192,75317,128,0,75630:0:0:0:0:
192,192,75473,1,0,0:0:0:0:
320,192,75630,1,2,0:0:0:0:
64,192,75630,128,0,75786:0:0:0:0:
192,192,75786,128,0,75942:0:0:0:0:
64,192,75942,1,8,0:0:0:0:
320,192,75942,1,0,0:0:0:0:
448,192,75942,1,0,0:0:0:0:
320,192,76098,128,0,76255:0:0:0:0:
64,192,76255,1,2,0:0:0:0:
448,192,76255,1,0,0:0:0:0:
192,192,76411,128,0,76567:0:0:0:0:
64,192,76567,1,8,0:0:0:0:
320,192,76567,1,0,0:0:0:0:
448,192,76567,1,0,0:0:0:0:
448,192,76723,128,0,77192:0:0:0:0:
192,192,76880,1,2,0:0:0:0:
320,192,76880,1,0,0:0:0:0:
64,192,77036,128,2,77114:0:0:0:0:
192,192,77192,1,8,0:0:0:0:
64,192,77192,128,0,77348:0:0:0:0:
320,192,77192,1,0,0:0:0:0:
448,192,77348,1,0,0:0:0:0:
192,192,77505,128,0,77661:0:0:0:0:
64,192,77505,1,2,0:0:0:0:
320,192,77661,1,2,0:0:0:0:
448,192,77661,1,0,0:0:0:0:
192,192,77739,1,2,0:0:0:0:
64,192,77817,1,8,0:0:0:0:
320,192,77817,1,4,0:0:0:0:
448,192,77817,128,0,77973:0:0:0:0:
192,192,77973,1,0,0:0:0:0:
64,192,78130,128,2,78286:0:0:0:0:
320,192,78130,1,0,0:0:0:0:
448,192,78286,128,0,78442:0:0:0:0:
192,192,78442,1,8,0:0:0:0:
320,192,78442,1,0,0:0:0:0:
64,192,78442,1,0,0:0:0:0:
192,192,78598,128,0,78755:0:0:0:0:
64,192,78755,1,2,0:0:0:0:
320,192,78755,1,0,0:0:0:0:
448,192,78911,1,2,0:0:0:0:
320,192,78950,1,2,0:0:0:0:
192,192,78989,1,2,0:0:0:0:
64,192,79028,1,2,0:0:0:0:
448,192,79067,1,8,0:0:0:0:
320,192,79067,1,0,0:0:0:0:
64,192,79223,1,2,0:0:0:0:
192,192,79262,1,2,0:0:0:0:
320,192,79301,1,2,0:0:0:0:
448,192,79340,1,2,0:0:0:0:
64,192,79380,1,2,0:0:0:0:
192,192,79380,1,0,0:0:0:0:
448,192,79536,1,2,0:0:0:0:
320,192,79536,128,0,79614:0:0:0:0:
320,192,79692,128,0,79848:0:0:0:0:
64,192,79848,1,0,0:0:0:0:
448,192,79848,128,2,80161:0:0:0:0:
192,192,79848,1,4,0:0:0:0:
192,192,80161,1,2,0:0:0:0:
320,192,80161,1,0,0:0:0:0:
64,192,80317,1,8,0:0:0:0:
192,192,80317,128,0,80473:0:0:0:0:
448,192,80317,1,0,0:0:0:0:
320,192,80473,1,0,0:0:0:0:
64,192,80630,128,2,80786:0:0:0:0:
448,192,80630,1,0,0:0:0:0:
192,192,80786,1,0,0:0:0:0:
320,192,80942,128,8,81098:0:0:0:0:
64,192,80942,1,0,0:0:0:0:
448,192,80942,1,0,0:0:0:0:
192,192,81098,1,0,0:0:0:0:
448,192,81255,128,2,81411:0:0:0:0:
64,192,81255,1,0,0:0:0:0:
192,192,81411,128,0,81567:0:0:0:0:
64,192,81567,1,8,0:0:0:0:
320,192,81567,1,0,0:0:0:0:
448,192,81567,1,0,0:0:0:0:
64,192,81723,128,0,81880:0:0:0:0:
320,192,81880,1,2,0:0:0:0:
192,192,81880,1,0,0:0:0:0:
448,192,82036,128,0,82192:0:0:0:0:
64,192,82192,1,8,0:0:0:0:
192,192,82192,1,0,0:0:0:0:
320,192,82192,1,0,0:0:0:0:
192,192,82348,128,0,82817:0:0:0:0:
320,192,82505,1,2,0:0:0:0:
448,192,82505,1,0,0:0:0:0:
64,192,82661,128,0,82817:0:0:0:0:
448,192,82817,1,8,0:0:0:0:
320,192,82817,128,0,82973:0:0:0:0:
192,192,82973,128,0,83130:0:0:0:0:
448,192,83130,128,2,83442:0:0:0:0:
64,192,83130,1,0,0:0:0:0:
192,192,83286,1,0,0:0:0:0:
192,192,83442,1,8,0:0:0:0:
320,192,83442,1,0,0:0:0:0:
64,192,83442,1,0,0:0:0:0:
320,192,83598,1,0,0:0:0:0:
192,192,83755,1,2,0:0:0:0:
448,192,83755,1,0,0:0:0:0:
64,192,83911,1,2,0:0:0:0:
320,192,83911,1,0,0:0:0:0:
192,192,83989,1,0,0:0:0:0:
64,192,84067,1,8,0:0:0:0:
320,192,84067,1,0,0:0:0:0:
448,192,84067,1,0,0:0:0:0:
64,192,84223,1,2,0:0:0:0:
192,192,84223,1,0,0:0:0:0:
320,192,84380,1,2,0:0:0:0:
448,192,84380,1,0,0:0:0:0:
64,192,84458,1,2,0:0:0:0:
192,192,84458,1,0,0:0:0:0:
320,192,84536,1,2,0:0:0:0:
448,192,84536,1,0,0:0:0:0:
64,192,84614,1,2,0:0:0:0:
192,192,84614,1,0,0:0:0:0:
320,192,84692,1,2,0:0:0:0:
448,192,84692,1,8,0:0:0:0:
64,192,84770,1,2,0:0:0:0:
192,192,84770,1,0,0:0:0:0:
320,192,84848,1,2,0:0:0:0:
448,192,84848,1,0,0:0:0:0:
64,192,84926,1,2,0:0:0:0:
192,192,84926,1,0,0:0:0:0:
320,192,85005,128,2,85551:0:0:0:0:
448,192,85005,1,4,0:0:0:0:
64,192,85630,128,0,85786:0:0:0:0:
192,192,85942,128,0,86098:0:0:0:0:
64,192,86255,1,2,0:0:0:0:
448,192,86255,1,0,0:0:0:0:
192,192,86411,1,2,0:0:0:0:
320,192,86411,1,0,0:0:0:0:
64,192,86567,1,2,0:0:0:0:
448,192,86567,1,0,0:0:0:0:
320,192,86723,1,2,0:0:0:0:
64,192,86723,128,4,87036:0:0:0:0:
192,192,86723,1,0,0:0:0:0:
448,192,87036,128,0,87114:0:0:0:0:
448,192,87192,128,0,87348:0:0:0:0:
64,192,87505,128,4,87661:0:0:0:0:
192,192,87505,1,2,0:0:0:0:
448,192,87505,1,0,0:0:0:0:
320,192,87661,1,0,0:0:0:0:
64,192,87817,1,0,0:0:0:0:
320,192,87817,128,8,87973:0:0:0:0:
448,192,87817,1,0,0:0:0:0:
192,192,87973,1,0,0:0:0:0:
64,192,88130,1,0,0:0:0:0:
448,192,88130,128,2,88286:0:0:0:0:
192,192,88286,1,2,0:0:0:0:
320,192,88286,1,0,0:0:0:0:
64,192,88442,128,0,88598:0:0:0:0:
192,192,88442,1,8,0:0:0:0:
448,192,88442,1,0,0:0:0:0:
320,192,88598,1,2,0:0:0:0:
448,192,88598,1,0,0:0:0:0:
64,192,88676,1,2,0:0:0:0:
192,192,88676,1,0,0:0:0:0:
448,192,88755,128,2,89223:0:0:0:0:
320,192,88755,1,0,0:0:0:0:
192,192,89223,1,2,0:0:0:0:
320,192,89223,1,0,0:0:0:0:
448,192,89380,1,8,0:0:0:0:
192,192,89380,1,0,0:0:0:0:
64,192,89380,128,0,89692:0:0:0:0:
320,192,89692,128,0,89770:0:0:0:0:
320,192,89848,128,0,89926:0:0:0:0:
64,192,90005,1,2,0:0:0:0:
192,192,90005,1,4,0:0:0:0:
448,192,90005,1,0,0:0:0:0:
192,192,90161,128,0,90317:0:0:0:0:
320,192,90317,1,8,0:0:0:0:
448,192,90317,1,0,0:0:0:0:
64,192,90317,128,0,90473:0:0:0:0:
320,192,90473,1,0,0:0:0:0:
64,192,90630,1,2,0:0:0:0:
448,192,90630,128,0,90786:0:0:0:0:
192,192,90786,1,2,0:0:0:0:
320,192,90786,128,0,90942:0:0:0:0:
64,192,90942,1,8,0:0:0:0:
448,192,90942,1,0,0:0:0:0:
192,192,90942,128,0,91098:0:0:0:0:
448,192,91098,1,2,0:0:0:0:
320,192,91098,1,0,0:0:0:0:
64,192,91176,1,2,0:0:0:0:
192,192,91176,1,0,0:0:0:0:
320,192,91255,1,2,0:0:0:0:
448,192,91255,128,0,91333:0:0:0:0:
448,192,91411,128,2,91567:0:0:0:0:
64,192,91411,1,0,0:0:0:0:
320,192,91723,128,2,91880:0:0:0:0:
192,192,91723,1,0,0:0:0:0:
320,192,92036,128,2,92348:0:0:0:0:
192,192,92036,1,0,0:0:0:0:
64,192,92348,1,2,0:0:0:0:
192,192,92348,1,0,0:0:0:0:
320,192,92426,1,2,0:0:0:0:
448,192,92426,1,0,0:0:0:0:
64,192,92505,1,4,0:0:0:0:
192,192,92505,128,2,92661:0:0:0:0:
448,192,92661,1,0,0:0:0:0:
64,192,92817,128,8,92973:0:0:0:0:
320,192,92817,1,0,0:0:0:0:
448,192,92817,1,0,0:0:0:0:
192,192,92973,1,0,0:0:0:0:
320,192,93130,1,0,0:0:0:0:
448,192,93130,128,2,93286:0:0:0:0:
64,192,93286,1,2,0:0:0:0:
192,192,93286,1,0,0:0:0:0:
64,192,93442,128,0,93598:0:0:0:0:
192,192,93442,1,8,0:0:0:0:
320,192,93442,1,0,0:0:0:0:
448,192,93598,1,2,0:0:0:0:
320,192,93598,1,0,0:0:0:0:
64,192,93676,1,2,0:0:0:0:
192,192,93676,1,0,0:0:0:0:
448,192,93755,1,2,0:0:0:0:
320,192,93755,128,0,93989:0:0:0:0:
320,192,94067,128,0,94301:0:0:0:0:
192,192,94223,1,2,0:0:0:0:
64,192,94223,1,0,0:0:0:0:
192,192,94380,128,8,94536:0:0:0:0:
320,192,94380,1,0,0:0:0:0:
448,192,94380,1,0,0:0:0:0:
448,192,94536,128,0,94692:0:0:0:0:
192,192,94692,128,0,94848:0:0:0:0:
448,192,94848,128,0,95005:0:0:0:0:
64,192,95005,1,2,0:0:0:0:
192,192,95005,1,4,0:0:0:0:
320,192,95083,1,0,0:0:0:0:
448,192,95161,1,0,0:0:0:0:
64,192,95239,1,0,0:0:0:0:
192,192,95317,1,0,0:0:0:0:
448,192,95395,1,0,0:0:0:0:
320,192,95473,1,0,0:0:0:0:
192,192,95551,1,0,0:0:0:0:
64,192,95630,1,2,0:0:0:0:
448,192,95630,1,4,0:0:0:0:
320,192,95708,1,0,0:0:0:0:
448,192,95786,1,0,0:0:0:0:
192,192,95864,1,0,0:0:0:0:
64,192,95942,1,0,0:0:0:0:
320,192,96020,1,0,0:0:0:0:
448,192,96098,1,0,0:0:0:0:
64,192,96176,1,0,0:0:0:0:
192,192,96255,1,0,0:0:0:0:
64,192,96333,1,0,0:0:0:0:
320,192,96411,1,2,0:0:0:0:
448,192,96411,1,0,0:0:0:0:
192,192,96567,1,2,0:0:0:0:
448,192,96567,1,0,0:0:0:0:
320,192,96723,1,0,0:0:0:0:
64,192,96880,128,2,97192:0:0:0:0:
448,192,96880,1,4,0:0:0:0:
192,192,96880,1,0,0:0:0:0:
320,192,97192,128,0,97348:0:0:0:0:
64,192,97505,128,4,97661:0:0:0:0:
192,192,97505,1,2,0:0:0:0:
448,192,97505,1,0,0:0:0:0:
320,192,97661,1,0,0:0:0:0:
64,192,97817,1,0,0:0:0:0:
320,192,97817,128,8,97973:0:0:0:0:
448,192,97817,1,0,0:0:0:0:
192,192,97973,1,0,0:0:0:0:
64,192,98130,1,0,0:0:0:0:
448,192,98130,128,2,98286:0:0:0:0:
192,192,98286,1,2,0:0:0:0:
320,192,98286,1,0,0:0:0:0:
64,192,98442,128,0,98598:0:0:0:0:
192,192,98442,1,8,0:0:0:0:
448,192,98442,1,0,0:0:0:0:
320,192,98598,1,2,0:0:0:0:
448,192,98598,1,0,0:0:0:0:
64,192,98676,1,2,0:0:0:0:
192,192,98676,1,0,0:0:0:0:
448,192,98755,1,2,0:0:0:0:
320,192,98755,128,0,98911:0:0:0:0:
192,192,98989,1,2,0:0:0:0:
320,192,98989,128,0,99145:0:0:0:0:
320,192,99223,128,0,99380:0:0:0:0:
64,192,99223,1,2,0:0:0:0:
64,192,99380,128,8,99484:0:0:0:0:
192,192,99380,1,0,0:0:0:0:
448,192,99380,1,0,0:0:0:0:
320,192,99484,128,0,99588:0:0:0:0:
192,192,99588,128,0,99692:0:0:0:0:
448,192,99692,128,0,100005:0:0:0:0:
64,192,100005,1,2,0:0:0:0:
192,192,100005,1,4,0:0:0:0:
320,192,100005,1,0,0:0:0:0:
192,192,100161,128,0,100317:0:0:0:0:
320,192,100317,1,8,0:0:0:0:
448,192,100317,1,0,0:0:0:0:
64,192,100317,128,0,100473:0:0:0:0:
320,192,100473,1,0,0:0:0:0:
64,192,100630,1,2,0:0:0:0:
448,192,100630,128,0,100786:0:0:0:0:
192,192,100786,1,2,0:0:0:0:
320,192,100786,128,0,100942:0:0:0:0:
64,192,100942,1,8,0:0:0:0:
448,192,100942,1,0,0:0:0:0:
192,192,100942,128,0,101098:0:0:0:0:
320,192,101098,1,2,0:0:0:0:
448,192,101098,1,0,0:0:0:0:
64,192,101176,1,2,0:0:0:0:
192,192,101176,1,0,0:0:0:0:
320,192,101255,1,2,0:0:0:0:
448,192,101255,1,0,0:0:0:0:
64,192,101411,1,2,0:0:0:0:
192,192,101411,1,0,0:0:0:0:
320,192,101489,1,2,0:0:0:0:
448,192,101489,1,0,0:0:0:0:
192,192,101567,1,2,0:0:0:0:
64,192,101567,1,0,0:0:0:0:
448,192,101723,1,2,0:0:0:0:
320,192,101723,1,0,0:0:0:0:
320,192,101880,1,2,0:0:0:0:
192,192,101880,1,0,0:0:0:0:
64,192,102036,1,2,0:0:0:0:
192,192,102036,1,0,0:0:0:0:
448,192,102192,128,2,102348:0:0:0:0:
320,192,102192,1,0,0:0:0:0:
192,192,102348,1,2,0:0:0:0:
64,192,102348,1,0,0:0:0:0:
320,192,102426,1,2,0:0:0:0:
448,192,102426,1,0,0:0:0:0:
192,192,102505,128,2,102661:0:0:0:0:
64,192,102505,1,4,0:0:0:0:
448,192,102661,1,0,0:0:0:0:
64,192,102817,128,0,102973:0:0:0:0:
448,192,102817,1,8,0:0:0:0:
320,192,102817,1,0,0:0:0:0:
192,192,102973,1,0,0:0:0:0:
448,192,103130,128,2,103286:0:0:0:0:
320,192,103130,1,0,0:0:0:0:
64,192,103286,1,2,0:0:0:0:
192,192,103286,1,0,0:0:0:0:
64,192,103442,128,8,103598:0:0:0:0:
192,192,103442,1,0,0:0:0:0:
320,192,103442,1,0,0:0:0:0:
320,192,103598,1,2,0:0:0:0:
448,192,103598,1,0,0:0:0:0:
64,192,103676,1,2,0:0:0:0:
192,192,103676,1,0,0:0:0:0:
320,192,103755,1,2,0:0:0:0:
448,192,103755,1,0,0:0:0:0:
320,192,103911,128,0,103989:0:0:0:0:
64,192,103989,128,0,104067:0:0:0:0:
192,192,104067,1,0,0:0:0:0:
320,192,104145,128,0,104223:0:0:0:0:
448,192,104223,1,2,0:0:0:0:
64,192,104223,128,0,104301:0:0:0:0:
64,192,104380,1,0,0:0:0:0:
320,192,104380,1,2,0:0:0:0:
192,192,104380,128,0,104536:0:0:0:0:
448,192,104536,128,0,104692:0:0:0:0:
192,192,104692,128,0,104848:0:0:0:0:
448,192,104848,128,0,105005:0:0:0:0:
64,192,105005,1,2,0:0:0:0:
192,192,105005,1,4,0:0:0:0:
320,192,105083,1,0,0:0:0:0:
448,192,105161,1,0,0:0:0:0:
64,192,105239,1,0,0:0:0:0:
192,192,105317,1,0,0:0:0:0:
448,192,105395,1,0,0:0:0:0:
320,192,105473,1,0,0:0:0:0:
192,192,105551,1,0,0:0:0:0:
64,192,105630,1,2,0:0:0:0:
448,192,105630,1,4,0:0:0:0:
320,192,105708,1,0,0:0:0:0:
448,192,105786,1,0,0:0:0:0:
192,192,105864,1,0,0:0:0:0:
64,192,105942,1,0,0:0:0:0:
320,192,106020,1,0,0:0:0:0:
448,192,106098,1,0,0:0:0:0:
64,192,106176,1,0,0:0:0:0:
192,192,106255,1,0,0:0:0:0:
64,192,106333,1,0,0:0:0:0:
320,192,106411,1,2,0:0:0:0:
448,192,106411,1,0,0:0:0:0:
192,192,106567,1,2,0:0:0:0:
320,192,106567,1,0,0:0:0:0:
64,192,106723,128,0,107192:0:0:0:0:
320,192,106880,128,2,107192:0:0:0:0:
448,192,106880,128,0,107192:0:0:0:0:
192,192,106880,128,4,107192:0:0:0:0:
