osu file format v14

[General]
AudioFilename: 09 Looking For A New Adventure.mp3
AudioLeadIn: 0
PreviewTime: 54625
Countdown: 1
SampleSet: Normal
StackLeniency: 0.7
Mode: 1
LetterboxInBreaks: 1
WidescreenStoryboard: 0

[Editor]
Bookmarks: 33882,44853
DistanceSpacing: 0.6
BeatDivisor: 4
GridSize: 32
TimelineZoom: 3.899998

[Metadata]
Title:Looking For A New Adventure
TitleUnicode:Looking For A New Adventure
Artist:Camellia feat. Nanahira
ArtistUnicode:かめりあ feat. ななひら
Creator:KinomiCandy
Version:Kinobles & Yuni's Oni
Source:osu!
Tags:KitajimaYN KTYN future bass featured artist fa すりーぷ! Masaya Oya 大箭将也 kamelcamellia cametek かめるかめりあ Confetto KCCD-004 Japanese electronic jcore j-core C90 Comiket90 コミケット90 コミックマーケット90
BeatmapID:1077226
BeatmapSetID:506410

[Difficulty]
HPDrainRate:6
CircleSize:4
OverallDifficulty:5
ApproachRate:5
SliderMultiplier:1.5
SliderTickRate:1

[Events]
//Background and Video events
0,0,"bg.jpg",0,0
//Break Periods
//Storyboard Layer 0 (Background)
//Storyboard Layer 1 (Fail)
//Storyboard Layer 2 (Pass)
//Storyboard Layer 3 (Foreground)
//Storyboard Layer 4 (Overlay)
//Storyboard Sound Samples

[TimingPoints]
976,342.857142857143,4,1,0,80,1,0
53090,-99.009900990099,4,1,0,80,0,0
53176,-98.0392156862745,4,1,0,80,0,0
53261,-97.0873786407767,4,1,0,80,0,0
53347,-96.1538461538461,4,1,0,80,0,0
53433,-95.2380952380952,4,1,0,80,0,0
53518,-94.3396226415094,4,1,0,80,0,0
53604,-93.4579439252336,4,1,0,80,0,0
53690,-92.5925925925926,4,1,0,80,0,0
53776,-91.743119266055,4,1,0,80,0,0
53861,-90.9090909090909,4,1,0,80,0,0
53947,-90.0900900900901,4,1,0,80,0,0
54033,-89.2857142857143,4,1,0,80,0,0
54118,-88.4955752212389,4,1,0,80,0,0
54204,-87.719298245614,4,1,0,80,0,0
54290,-86.9565217391304,4,1,0,80,0,0
54376,-86.2068965517241,4,1,0,80,0,0
54461,-84.7457627118644,4,1,0,80,0,0
55833,-83.3333333333333,4,1,0,80,0,1
99718,-100,4,1,0,80,0,0
154576,-111.111111111111,4,1,0,100,0,0
165547,-100,4,1,0,100,0,0
182004,-83.3333333333333,4,1,0,100,0,1
225890,-133.333333333333,4,1,0,100,0,0
239604,-142.857142857143,4,1,0,100,0,0
242347,-153.846153846154,4,1,0,100,0,0
245090,-166.666666666667,4,1,0,100,0,0
247833,-142.857142857143,4,1,0,100,0,0
250576,-149.253731343284,4,1,0,100,0,0

[HitObjects]
256,192,975,5,0,0:0:0:0:
256,192,1147,1,8,0:0:0:0:
256,192,1318,1,8,0:0:0:0:
256,192,1490,1,0,0:0:0:0:
256,192,1661,1,8,0:0:0:0:
256,192,1833,1,0,0:0:0:0:
256,192,2176,1,8,0:0:0:0:
256,192,2518,1,0,0:0:0:0:
256,192,2690,1,8,0:0:0:0:
256,192,2861,1,8,0:0:0:0:
256,192,3033,1,0,0:0:0:0:
256,192,3204,1,8,0:0:0:0:
256,192,3376,1,0,0:0:0:0:
256,192,3547,1,8,0:0:0:0:
256,192,3633,1,8,0:0:0:0:
256,192,3718,1,0,0:0:0:0:
256,192,4061,1,0,0:0:0:0:
256,192,4233,1,0,0:0:0:0:
256,192,4404,1,8,0:0:0:0:
256,192,4576,1,0,0:0:0:0:
256,192,4918,1,8,0:0:0:0:
256,192,5261,1,0,0:0:0:0:
256,192,5433,1,0,0:0:0:0:
256,192,5604,1,8,0:0:0:0:
256,192,5776,1,8,0:0:0:0:
256,192,5947,1,0,0:0:0:0:
256,192,6118,1,0,0:0:0:0:
256,192,6290,1,0,0:0:0:0:
256,192,6461,1,8,0:0:0:0:
256,192,6804,1,0,0:0:0:0:
256,192,7147,1,8,0:0:0:0:
256,192,7318,1,8,0:0:0:0:
256,192,7490,1,0,0:0:0:0:
256,192,7661,1,8,0:0:0:0:
256,192,8004,1,0,0:0:0:0:
256,192,8176,1,8,0:0:0:0:
256,192,8347,1,0,0:0:0:0:
256,192,8518,1,8,0:0:0:0:
256,192,8690,1,8,0:0:0:0:
256,192,8861,1,0,0:0:0:0:
256,192,9033,1,8,0:0:0:0:
256,192,9118,1,8,0:0:0:0:
256,192,9204,1,0,0:0:0:0:
256,192,9547,1,0,0:0:0:0:
256,192,9890,1,8,0:0:0:0:
256,192,10061,1,8,0:0:0:0:
256,192,10233,1,0,0:0:0:0:
256,192,10404,1,8,0:0:0:0:
256,192,10747,1,0,0:0:0:0:
256,192,10918,1,8,0:0:0:0:
256,192,11090,1,0,0:0:0:0:
256,192,11261,1,8,0:0:0:0:
256,192,11433,1,8,0:0:0:0:
256,192,11604,1,0,0:0:0:0:
256,192,11776,1,0,0:0:0:0:
256,192,11947,1,12,0:0:0:0:
256,192,12290,1,0,0:0:0:0:
256,192,12461,1,8,0:0:0:0:
256,192,12633,1,0,0:0:0:0:
256,192,12804,1,8,0:0:0:0:
256,192,12976,1,8,0:0:0:0:
256,192,13147,1,0,0:0:0:0:
256,192,13318,1,0,0:0:0:0:
256,192,13490,1,8,0:0:0:0:
256,192,13661,1,8,0:0:0:0:
256,192,13833,1,8,0:0:0:0:
256,192,14004,1,0,0:0:0:0:
256,192,14176,1,8,0:0:0:0:
256,192,14261,1,8,0:0:0:0:
256,192,14347,1,0,0:0:0:0:
256,192,14433,1,0,0:0:0:0:
256,192,14518,1,0,0:0:0:0:
256,192,14604,1,0,0:0:0:0:
256,192,14690,1,8,0:0:0:0:
256,192,14861,1,0,0:0:0:0:
256,192,15033,1,8,0:0:0:0:
256,192,15204,1,8,0:0:0:0:
256,192,15376,1,8,0:0:0:0:
256,192,15547,1,0,0:0:0:0:
256,192,15718,1,0,0:0:0:0:
256,192,15890,1,8,0:0:0:0:
256,192,16061,1,0,0:0:0:0:
256,192,16233,1,8,0:0:0:0:
256,192,16576,1,8,0:0:0:0:
256,192,16747,1,0,0:0:0:0:
256,192,16918,1,8,0:0:0:0:
256,192,17090,1,8,0:0:0:0:
256,192,17261,1,0,0:0:0:0:
256,192,17433,1,8,0:0:0:0:
256,192,17604,1,0,0:0:0:0:
256,192,17776,1,0,0:0:0:0:
256,192,17947,1,8,0:0:0:0:
256,192,18118,1,8,0:0:0:0:
256,192,18461,1,0,0:0:0:0:
256,192,18633,1,8,0:0:0:0:
256,192,18804,1,0,0:0:0:0:
256,192,18976,1,0,0:0:0:0:
256,192,19147,1,8,0:0:0:0:
256,192,19318,1,0,0:0:0:0:
256,192,19490,1,8,0:0:0:0:
256,192,19661,1,0,0:0:0:0:
256,192,19747,1,0,0:0:0:0:
256,192,19833,1,8,0:0:0:0:
256,192,19918,1,8,0:0:0:0:
256,192,20004,1,8,0:0:0:0:
256,192,20090,1,8,0:0:0:0:
256,192,20176,1,0,0:0:0:0:
256,192,20518,1,0,0:0:0:0:
256,192,20690,1,0,0:0:0:0:
256,192,20861,1,8,0:0:0:0:
256,192,21033,1,0,0:0:0:0:
256,192,21376,1,8,0:0:0:0:
256,192,21718,1,0,0:0:0:0:
256,192,21890,1,8,0:0:0:0:
256,192,22061,1,0,0:0:0:0:
256,192,22233,1,8,0:0:0:0:
256,192,22404,1,8,0:0:0:0:
256,192,22576,1,0,0:0:0:0:
256,192,22747,1,8,0:0:0:0:
256,192,22833,1,8,0:0:0:0:
256,192,22918,1,0,0:0:0:0:
256,192,23261,1,0,0:0:0:0:
256,192,23432,1,8,0:0:0:0:
256,192,23604,1,0,0:0:0:0:
256,192,23775,1,8,0:0:0:0:
256,192,23947,1,8,0:0:0:0:
256,192,24118,1,0,0:0:0:0:
256,192,24289,1,0,0:0:0:0:
256,192,24461,1,8,0:0:0:0:
256,192,24632,1,8,0:0:0:0:
256,192,24804,1,8,0:0:0:0:
256,192,24975,1,0,0:0:0:0:
256,192,25147,1,8,0:0:0:0:
256,192,25232,1,8,0:0:0:0:
256,192,25318,1,0,0:0:0:0:
256,192,25404,1,0,0:0:0:0:
256,192,25489,1,0,0:0:0:0:
256,192,25575,1,0,0:0:0:0:
256,192,25661,1,8,0:0:0:0:
256,192,25832,1,0,0:0:0:0:
256,192,26004,1,8,0:0:0:0:
256,192,26175,1,8,0:0:0:0:
256,192,26347,1,8,0:0:0:0:
256,192,26518,1,0,0:0:0:0:
256,192,26689,1,0,0:0:0:0:
256,192,26861,1,8,0:0:0:0:
256,192,27032,1,0,0:0:0:0:
256,192,27204,1,8,0:0:0:0:
256,192,27547,1,8,0:0:0:0:
256,192,27718,1,0,0:0:0:0:
256,192,27889,1,8,0:0:0:0:
256,192,28061,1,8,0:0:0:0:
256,192,28232,1,0,0:0:0:0:
256,192,28404,1,8,0:0:0:0:
256,192,28575,1,0,0:0:0:0:
256,192,28747,1,0,0:0:0:0:
256,192,28918,1,8,0:0:0:0:
256,192,29089,1,8,0:0:0:0:
256,192,29432,1,0,0:0:0:0:
256,192,29604,1,8,0:0:0:0:
256,192,29775,1,0,0:0:0:0:
256,192,29947,1,0,0:0:0:0:
256,192,30118,1,8,0:0:0:0:
256,192,30289,1,0,0:0:0:0:
256,192,30461,1,8,0:0:0:0:
256,192,30632,1,0,0:0:0:0:
256,192,30718,1,0,0:0:0:0:
256,192,30804,1,8,0:0:0:0:
256,192,30889,1,8,0:0:0:0:
256,192,30975,1,8,0:0:0:0:
256,192,31061,1,8,0:0:0:0:
256,192,31147,1,0,0:0:0:0:
256,192,31318,1,8,0:0:0:0:
256,192,31490,1,0,0:0:0:0:
256,192,31661,1,8,0:0:0:0:
256,192,31833,1,8,0:0:0:0:
256,192,32004,1,0,0:0:0:0:
256,192,32347,1,8,0:0:0:0:
256,192,32518,1,8,0:0:0:0:
256,192,32690,1,0,0:0:0:0:
256,192,32861,1,8,0:0:0:0:
256,192,33033,1,0,0:0:0:0:
256,192,33376,1,8,0:0:0:0:
256,192,33547,1,8,0:0:0:0:
256,192,33718,1,8,0:0:0:0:
256,192,33890,1,4,0:0:0:0:
256,192,34233,1,0,0:0:0:0:
256,192,34576,1,0,0:0:0:0:
256,192,34918,1,0,0:0:0:0:
256,192,35090,1,8,0:0:0:0:
256,192,35261,1,0,0:0:0:0:
256,192,35604,1,0,0:0:0:0:
256,192,35947,1,0,0:0:0:0:
256,192,36118,1,8,0:0:0:0:
256,192,36290,1,0,0:0:0:0:
256,192,36461,1,8,0:0:0:0:
256,192,36633,1,0,0:0:0:0:
256,192,36976,1,0,0:0:0:0:
256,192,37318,1,0,0:0:0:0:
256,192,37661,1,0,0:0:0:0:
256,192,37833,1,8,0:0:0:0:
256,192,38004,1,0,0:0:0:0:
256,192,38347,1,0,0:0:0:0:
256,192,38690,1,0,0:0:0:0:
256,192,38861,1,8,0:0:0:0:
256,192,39033,1,0,0:0:0:0:
256,192,39204,1,8,0:0:0:0:
256,192,39376,1,0,0:0:0:0:
256,192,39718,1,0,0:0:0:0:
256,192,40061,1,0,0:0:0:0:
256,192,40233,1,8,0:0:0:0:
256,192,40404,1,0,0:0:0:0:
256,192,40747,1,0,0:0:0:0:
256,192,41090,1,0,0:0:0:0:
256,192,41433,1,0,0:0:0:0:
256,192,41604,1,8,0:0:0:0:
256,192,41776,1,0,0:0:0:0:
256,192,42118,1,0,0:0:0:0:
256,192,42461,1,0,0:0:0:0:
256,192,42804,1,0,0:0:0:0:
256,192,42976,1,8,0:0:0:0:
256,192,43147,1,0,0:0:0:0:
256,192,43490,1,0,0:0:0:0:
256,192,43833,1,0,0:0:0:0:
256,192,44176,1,0,0:0:0:0:
256,192,44347,1,8,0:0:0:0:
256,192,44518,1,0,0:0:0:0:
256,192,44690,1,8,0:0:0:0:
256,192,44861,1,4,0:0:0:0:
256,192,45033,1,8,0:0:0:0:
256,192,45118,1,8,0:0:0:0:
256,192,45204,1,8,0:0:0:0:
256,192,45376,1,0,0:0:0:0:
256,192,45433,1,0,0:0:0:0:
256,192,45490,1,0,0:0:0:0:
256,192,45547,1,8,0:0:0:0:
256,192,45718,1,0,0:0:0:0:
256,192,45804,1,0,0:0:0:0:
256,192,45890,1,8,0:0:0:0:
256,192,45947,1,8,0:0:0:0:
256,192,46004,1,8,0:0:0:0:
256,192,46061,1,8,0:0:0:0:
256,192,46233,1,0,0:0:0:0:
256,192,46290,1,0,0:0:0:0:
256,192,46347,1,0,0:0:0:0:
256,192,46404,1,8,0:0:0:0:
256,192,46576,1,0,0:0:0:0:
256,192,46747,1,8,0:0:0:0:
256,192,46804,1,8,0:0:0:0:
256,192,46861,1,8,0:0:0:0:
256,192,46918,1,0,0:0:0:0:
256,192,47004,1,0,0:0:0:0:
256,192,47090,1,8,0:0:0:0:
256,192,47261,1,0,0:0:0:0:
256,192,47347,1,8,0:0:0:0:
256,192,47433,1,8,0:0:0:0:
256,192,47518,1,8,0:0:0:0:
256,192,47604,1,0,0:0:0:0:
256,192,47776,1,8,0:0:0:0:
256,192,47861,1,8,0:0:0:0:
256,192,47947,1,0,0:0:0:0:
256,192,48118,1,8,0:0:0:0:
256,192,48176,1,8,0:0:0:0:
256,192,48233,1,8,0:0:0:0:
256,192,48290,1,0,0:0:0:0:
256,192,48376,1,0,0:0:0:0:
256,192,48461,1,8,0:0:0:0:
256,192,48633,1,0,0:0:0:0:
256,192,48718,1,8,0:0:0:0:
256,192,48804,1,0,0:0:0:0:
256,192,48890,1,0,0:0:0:0:
256,192,48976,1,8,0:0:0:0:
256,192,49033,1,8,0:0:0:0:
256,192,49090,1,8,0:0:0:0:
256,192,49147,1,0,0:0:0:0:
256,192,49318,1,8,0:0:0:0:
256,192,49490,1,0,0:0:0:0:
256,192,49547,1,0,0:0:0:0:
256,192,49604,1,0,0:0:0:0:
256,192,49661,1,0,0:0:0:0:
256,192,49833,1,8,0:0:0:0:
256,192,50004,1,8,0:0:0:0:
256,192,50176,1,0,0:0:0:0:
256,192,50347,1,4,0:0:0:0:
256,192,50518,1,8,0:0:0:0:
256,192,50604,1,8,0:0:0:0:
256,192,50690,1,8,0:0:0:0:
256,192,50861,1,0,0:0:0:0:
256,192,51033,1,8,0:0:0:0:
256,192,51118,1,8,0:0:0:0:
256,192,51204,1,8,0:0:0:0:
256,192,51290,1,8,0:0:0:0:
256,192,51376,1,0,0:0:0:0:
256,192,51547,1,0,0:0:0:0:
256,192,51718,1,8,0:0:0:0:
256,192,51890,1,0,0:0:0:0:
256,192,51976,1,8,0:0:0:0:
256,192,52061,1,0,0:0:0:0:
256,192,52233,1,8,0:0:0:0:
256,192,52404,1,8,0:0:0:0:
256,192,52490,1,8,0:0:0:0:
256,192,52576,1,0,0:0:0:0:
256,192,52747,1,8,0:0:0:0:
256,192,52918,1,0,0:0:0:0:
256,192,53090,1,8,0:0:0:0:
256,192,53176,1,8,0:0:0:0:
256,192,53261,1,0,0:0:0:0:
256,192,53347,1,8,0:0:0:0:
256,192,53433,1,0,0:0:0:0:
256,192,53518,1,0,0:0:0:0:
256,192,53604,1,8,0:0:0:0:
256,192,53690,1,8,0:0:0:0:
256,192,53776,1,0,0:0:0:0:
256,192,53861,1,8,0:0:0:0:
256,192,53947,1,0,0:0:0:0:
256,192,54033,1,0,0:0:0:0:
256,192,54118,1,8,0:0:0:0:
256,192,54204,1,8,0:0:0:0:
256,192,54290,1,8,0:0:0:0:
256,192,54376,1,8,0:0:0:0:
256,192,54461,1,0,0:0:0:0:
256,192,54633,1,8,0:0:0:0:
256,192,54718,1,8,0:0:0:0:
256,192,54804,1,0,0:0:0:0:
256,192,54976,1,8,0:0:0:0:
256,192,55147,1,0,0:0:0:0:
256,192,55318,1,8,0:0:0:0:
256,192,55376,1,8,0:0:0:0:
256,192,55433,1,8,0:0:0:0:
256,192,55490,1,8,0:0:0:0:
256,192,55661,1,8,0:0:0:0:
256,192,55833,1,4,0:0:0:0:
256,192,56176,1,0,0:0:0:0:
256,192,56347,1,8,0:0:0:0:
256,192,56518,1,0,0:0:0:0:
256,192,56604,1,8,0:0:0:0:
256,192,56690,1,0,0:0:0:0:
256,192,56776,1,0,0:0:0:0:
256,192,56861,1,8,0:0:0:0:
256,192,56947,1,8,0:0:0:0:
256,192,57033,1,0,0:0:0:0:
256,192,57204,1,8,0:0:0:0:
256,192,57376,1,0,0:0:0:0:
256,192,57461,1,0,0:0:0:0:
256,192,57547,1,8,0:0:0:0:
256,192,57633,1,8,0:0:0:0:
256,192,57718,1,0,0:0:0:0:
256,192,57804,1,8,0:0:0:0:
256,192,57890,1,0,0:0:0:0:
256,192,58061,1,8,0:0:0:0:
256,192,58233,1,0,0:0:0:0:
256,192,58290,1,0,0:0:0:0:
256,192,58347,1,8,0:0:0:0:
256,192,58404,1,8,0:0:0:0:
256,192,58461,1,8,0:0:0:0:
256,192,58518,1,8,0:0:0:0:
256,192,58576,1,0,0:0:0:0:
256,192,58747,1,8,0:0:0:0:
256,192,58833,1,8,0:0:0:0:
256,192,58918,1,0,0:0:0:0:
256,192,59090,1,8,0:0:0:0:
256,192,59261,1,0,0:0:0:0:
256,192,59347,1,8,0:0:0:0:
256,192,59433,1,8,0:0:0:0:
256,192,59518,1,8,0:0:0:0:
256,192,59604,1,0,0:0:0:0:
256,192,59776,1,8,0:0:0:0:
256,192,59947,1,0,0:0:0:0:
256,192,60033,1,8,0:0:0:0:
256,192,60118,1,0,0:0:0:0:
256,192,60204,1,0,0:0:0:0:
256,192,60290,1,8,0:0:0:0:
256,192,60376,1,8,0:0:0:0:
256,192,60461,1,0,0:0:0:0:
256,192,60547,1,8,0:0:0:0:
256,192,60633,1,0,0:0:0:0:
256,192,60804,1,8,0:0:0:0:
256,192,60976,1,0,0:0:0:0:
256,192,61061,1,0,0:0:0:0:
256,192,61147,1,8,0:0:0:0:
256,192,61233,1,8,0:0:0:0:
256,192,61318,1,0,0:0:0:0:
256,192,61576,1,8,0:0:0:0:
256,192,61661,1,0,0:0:0:0:
256,192,61833,1,8,0:0:0:0:
256,192,62004,1,0,0:0:0:0:
256,192,62090,1,0,0:0:0:0:
256,192,62176,1,8,0:0:0:0:
256,192,62261,1,8,0:0:0:0:
256,192,62347,1,0,0:0:0:0:
256,192,62518,1,8,0:0:0:0:
256,192,62690,1,0,0:0:0:0:
256,192,62861,1,8,0:0:0:0:
256,192,62947,1,8,0:0:0:0:
256,192,63033,1,0,0:0:0:0:
256,192,63118,1,8,0:0:0:0:
256,192,63204,1,0,0:0:0:0:
256,192,63261,1,0,0:0:0:0:
256,192,63318,1,0,0:0:0:0:
256,192,63376,1,8,0:0:0:0:
256,192,63547,1,8,0:0:0:0:
256,192,63633,1,8,0:0:0:0:
256,192,63718,1,0,0:0:0:0:
256,192,63804,1,8,0:0:0:0:
256,192,63890,1,0,0:0:0:0:
256,192,63976,1,0,0:0:0:0:
256,192,64061,1,8,0:0:0:0:
256,192,64233,1,0,0:0:0:0:
256,192,64404,1,8,0:0:0:0:
256,192,64461,1,8,0:0:0:0:
256,192,64518,1,8,0:0:0:0:
256,192,64576,1,0,0:0:0:0:
256,192,64747,1,8,0:0:0:0:
256,192,64833,1,8,0:0:0:0:
256,192,64918,1,0,0:0:0:0:
256,192,65004,1,0,0:0:0:0:
256,192,65090,1,8,0:0:0:0:
256,192,65261,1,8,0:0:0:0:
256,192,65433,1,0,0:0:0:0:
256,192,65518,1,8,0:0:0:0:
256,192,65604,1,8,0:0:0:0:
256,192,65690,1,0,0:0:0:0:
256,192,65776,1,8,0:0:0:0:
256,192,65861,1,8,0:0:0:0:
256,192,65947,1,0,0:0:0:0:
256,192,66033,1,0,0:0:0:0:
256,192,66118,1,8,0:0:0:0:
256,192,66204,1,8,0:0:0:0:
256,192,66290,1,0,0:0:0:0:
256,192,66376,1,8,0:0:0:0:
256,192,66461,1,0,0:0:0:0:
256,192,66547,1,0,0:0:0:0:
256,192,66633,1,8,0:0:0:0:
256,192,66718,1,8,0:0:0:0:
256,192,66804,1,0,0:0:0:0:
256,192,66890,1,0,0:0:0:0:
256,192,66976,1,0,0:0:0:0:
256,192,67061,1,0,0:0:0:0:
256,192,67147,1,8,0:0:0:0:
256,192,67233,1,8,0:0:0:0:
256,192,67318,1,8,0:0:0:0:
256,192,67404,1,8,0:0:0:0:
256,192,67490,1,0,0:0:0:0:
256,192,67576,1,0,0:0:0:0:
256,192,67661,1,8,0:0:0:0:
256,192,68004,1,4,0:0:0:0:
256,192,68347,1,0,0:0:0:0:
256,192,68518,1,8,0:0:0:0:
256,192,68604,1,8,0:0:0:0:
256,192,68690,1,0,0:0:0:0:
256,192,68776,1,0,0:0:0:0:
256,192,68861,1,8,0:0:0:0:
256,192,69033,1,0,0:0:0:0:
256,192,69118,1,8,0:0:0:0:
256,192,69204,1,0,0:0:0:0:
256,192,69290,1,0,0:0:0:0:
256,192,69376,1,8,0:0:0:0:
256,192,69461,1,8,0:0:0:0:
256,192,69547,1,0,0:0:0:0:
256,192,69718,1,8,0:0:0:0:
256,192,69890,1,8,0:0:0:0:
256,192,69947,1,8,0:0:0:0:
256,192,70004,1,8,0:0:0:0:
256,192,70061,1,0,0:0:0:0:
256,192,70147,1,0,0:0:0:0:
256,192,70233,1,8,0:0:0:0:
256,192,70404,1,0,0:0:0:0:
256,192,70576,1,8,0:0:0:0:
256,192,70661,1,0,0:0:0:0:
256,192,70747,1,0,0:0:0:0:
256,192,70833,1,0,0:0:0:0:
256,192,70918,1,8,0:0:0:0:
256,192,71090,1,0,0:0:0:0:
256,192,71176,1,8,0:0:0:0:
256,192,71261,1,8,0:0:0:0:
256,192,71433,1,0,0:0:0:0:
256,192,71604,1,8,0:0:0:0:
256,192,71690,1,8,0:0:0:0:
256,192,71776,1,0,0:0:0:0:
256,192,71861,1,8,0:0:0:0:
256,192,71947,1,0,0:0:0:0:
256,192,72033,1,0,0:0:0:0:
256,192,72118,1,8,0:0:0:0:
256,192,72204,1,8,0:0:0:0:
256,192,72290,1,0,0:0:0:0:
256,192,72633,1,0,0:0:0:0:
256,192,72804,1,8,0:0:0:0:
256,192,72976,1,0,0:0:0:0:
256,192,73147,1,8,0:0:0:0:
256,192,73318,1,0,0:0:0:0:
256,192,73490,1,8,0:0:0:0:
256,192,73661,1,0,0:0:0:0:
256,192,73833,1,8,0:0:0:0:
256,192,74004,1,0,0:0:0:0:
256,192,74176,1,8,0:0:0:0:
256,192,74347,1,0,0:0:0:0:
256,192,74518,1,8,0:0:0:0:
256,192,74690,1,0,0:0:0:0:
256,192,74776,1,8,0:0:0:0:
256,192,74861,1,8,0:0:0:0:
256,192,74947,1,8,0:0:0:0:
256,192,75033,1,0,0:0:0:0:
256,192,75204,1,8,0:0:0:0:
256,192,75376,1,0,0:0:0:0:
256,192,75547,1,8,0:0:0:0:
256,192,75718,1,8,0:0:0:0:
256,192,75804,1,8,0:0:0:0:
256,192,75890,1,0,0:0:0:0:
256,192,75976,1,8,0:0:0:0:
256,192,76061,1,0,0:0:0:0:
256,192,76147,1,0,0:0:0:0:
256,192,76233,1,0,0:0:0:0:
256,192,76318,1,0,0:0:0:0:
256,192,76404,1,8,0:0:0:0:
256,192,76461,1,8,0:0:0:0:
256,192,76518,1,8,0:0:0:0:
256,192,76576,1,8,0:0:0:0:
256,192,76633,1,8,0:0:0:0:
256,192,76690,1,8,0:0:0:0:
256,192,76747,1,0,0:0:0:0:
256,192,77433,1,0,0:0:0:0:
256,192,77604,1,8,0:0:0:0:
256,192,77776,1,4,0:0:0:0:
256,192,78118,1,0,0:0:0:0:
256,192,78290,1,8,0:0:0:0:
256,192,78461,1,8,0:0:0:0:
256,192,78633,1,0,0:0:0:0:
256,192,78718,1,0,0:0:0:0:
256,192,78804,1,8,0:0:0:0:
256,192,78890,1,8,0:0:0:0:
256,192,78976,1,0,0:0:0:0:
256,192,79061,1,8,0:0:0:0:
256,192,79147,1,0,0:0:0:0:
256,192,79318,1,8,0:0:0:0:
256,192,79376,1,8,0:0:0:0:
256,192,79433,1,8,0:0:0:0:
256,192,79490,1,0,0:0:0:0:
256,192,79661,1,8,0:0:0:0:
256,192,79833,1,0,0:0:0:0:
256,192,80004,1,8,0:0:0:0:
256,192,80090,1,8,0:0:0:0:
256,192,80261,1,0,0:0:0:0:
256,192,80347,1,8,0:0:0:0:
256,192,80518,1,0,0:0:0:0:
256,192,80861,1,8,0:0:0:0:
256,192,81033,1,8,0:0:0:0:
256,192,81204,1,0,0:0:0:0:
256,192,81376,1,8,0:0:0:0:
256,192,81547,1,0,0:0:0:0:
256,192,81633,1,0,0:0:0:0:
256,192,81718,1,8,0:0:0:0:
256,192,81804,1,8,0:0:0:0:
256,192,81890,1,0,0:0:0:0:
256,192,82061,1,8,0:0:0:0:
256,192,82147,1,8,0:0:0:0:
256,192,82233,1,8,0:0:0:0:
256,192,82404,1,8,0:0:0:0:
256,192,82576,1,0,0:0:0:0:
256,192,82747,1,8,0:0:0:0:
256,192,82833,1,8,0:0:0:0:
256,192,82918,1,0,0:0:0:0:
256,192,83090,1,8,0:0:0:0:
256,192,83261,1,8,0:0:0:0:
256,192,83433,1,0,0:0:0:0:
256,192,83490,1,0,0:0:0:0:
256,192,83547,1,0,0:0:0:0:
256,192,83604,1,8,0:0:0:0:
256,192,83947,1,4,0:0:0:0:
256,192,84118,1,8,0:0:0:0:
256,192,84290,1,8,0:0:0:0:
256,192,84461,1,0,0:0:0:0:
256,192,84633,1,8,0:0:0:0:
256,192,84804,1,0,0:0:0:0:
256,192,84890,1,0,0:0:0:0:
256,192,84976,1,8,0:0:0:0:
256,192,85147,1,8,0:0:0:0:
256,192,85318,1,8,0:0:0:0:
256,192,85490,1,0,0:0:0:0:
256,192,85576,1,8,0:0:0:0:
256,192,85661,1,8,0:0:0:0:
256,192,85747,1,0,0:0:0:0:
256,192,85833,1,8,0:0:0:0:
256,192,85918,1,8,0:0:0:0:
256,192,86004,1,0,0:0:0:0:
256,192,86347,1,0,0:0:0:0:
256,192,86690,1,8,0:0:0:0:
256,192,86776,1,8,0:0:0:0:
256,192,86861,1,8,0:0:0:0:
256,192,86947,1,8,0:0:0:0:
256,192,87033,1,0,0:0:0:0:
256,192,87118,1,0,0:0:0:0:
256,192,87204,1,8,0:0:0:0:
256,192,87290,1,8,0:0:0:0:
256,192,87376,1,0,0:0:0:0:
256,192,87461,1,8,0:0:0:0:
256,192,87547,1,8,0:0:0:0:
256,192,87633,1,0,0:0:0:0:
256,192,87719,1,8,0:0:0:0:
256,192,87804,1,8,0:0:0:0:
256,192,87890,1,0,0:0:0:0:
256,192,87976,1,0,0:0:0:0:
256,192,88061,1,8,0:0:0:0:
256,192,88147,1,8,0:0:0:0:
256,192,88233,1,0,0:0:0:0:
256,192,88319,1,8,0:0:0:0:
256,192,88404,1,0,0:0:0:0:
256,192,88490,1,0,0:0:0:0:
256,192,88576,1,8,0:0:0:0:
256,192,88661,1,8,0:0:0:0:
256,192,88747,1,0,0:0:0:0:
256,192,88833,1,0,0:0:0:0:
256,192,88919,1,0,0:0:0:0:
256,192,89004,1,0,0:0:0:0:
256,192,89090,1,8,0:0:0:0:
256,192,89176,1,8,0:0:0:0:
256,192,89261,1,8,0:0:0:0:
256,192,89347,1,8,0:0:0:0:
256,192,89433,1,0,0:0:0:0:
256,192,89519,1,0,0:0:0:0:
256,192,89604,1,8,0:0:0:0:
256,192,89947,1,4,0:0:0:0:
256,192,90290,1,0,0:0:0:0:
256,192,90461,1,0,0:0:0:0:
256,192,90633,1,8,0:0:0:0:
256,192,90804,1,8,0:0:0:0:
256,192,90976,1,0,0:0:0:0:
256,192,91061,1,8,0:0:0:0:
256,192,91147,1,8,0:0:0:0:
256,192,91233,1,0,0:0:0:0:
256,192,91318,1,8,0:0:0:0:
256,192,91404,1,0,0:0:0:0:
256,192,91490,1,0,0:0:0:0:
256,192,91661,1,8,0:0:0:0:
256,192,91747,1,8,0:0:0:0:
256,192,91833,1,0,0:0:0:0:
256,192,92004,1,8,0:0:0:0:
256,192,92176,1,0,0:0:0:0:
256,192,92433,1,8,0:0:0:0:
256,192,92518,1,0,0:0:0:0:
256,192,92690,1,8,0:0:0:0:
256,192,92861,1,0,0:0:0:0:
256,192,93033,1,8,0:0:0:0:
256,192,93118,1,8,0:0:0:0:
256,192,93204,1,8,0:0:0:0:
256,192,93376,1,8,0:0:0:0:
256,192,93547,1,0,0:0:0:0:
256,192,93718,1,8,0:0:0:0:
256,192,93776,1,8,0:0:0:0:
256,192,93833,1,8,0:0:0:0:
256,192,93890,1,0,0:0:0:0:
256,192,94061,1,8,0:0:0:0:
256,192,94233,1,4,0:0:0:0:
256,192,94833,1,8,0:0:0:0:
256,192,94918,1,0,0:0:0:0:
256,192,95090,1,8,0:0:0:0:
256,192,95261,1,0,0:0:0:0:
256,192,95347,1,0,0:0:0:0:
256,192,95433,1,8,0:0:0:0:
256,192,95518,1,8,0:0:0:0:
256,192,95604,1,8,0:0:0:0:
256,192,95776,1,8,0:0:0:0:
256,192,95861,1,8,0:0:0:0:
256,192,95947,1,0,0:0:0:0:
256,192,96118,1,8,0:0:0:0:
256,192,96290,1,0,0:0:0:0:
256,192,96461,1,8,0:0:0:0:
256,192,96547,1,8,0:0:0:0:
256,192,96632,1,0,0:0:0:0:
256,192,96718,1,8,0:0:0:0:
256,192,96889,1,8,0:0:0:0:
256,192,96975,1,0,0:0:0:0:
256,192,97147,1,8,0:0:0:0:
256,192,97318,1,0,0:0:0:0:
256,192,97576,1,8,0:0:0:0:
256,192,97661,1,0,0:0:0:0:
256,192,97833,1,8,0:0:0:0:
256,192,98176,1,4,0:0:0:0:
256,192,98518,1,8,0:0:0:0:
256,192,98604,1,8,0:0:0:0:
256,192,98690,1,0,0:0:0:0:
256,192,99376,1,8,0:0:0:0:
256,192,99718,1,12,0:0:0:0:
256,192,100404,1,8,0:0:0:0:
256,192,100576,1,0,0:0:0:0:
256,192,100918,1,0,0:0:0:0:
256,192,101261,1,8,0:0:0:0:
256,192,101433,1,8,0:0:0:0:
256,192,101604,1,0,0:0:0:0:
256,192,101775,1,8,0:0:0:0:
256,192,101947,1,0,0:0:0:0:
256,192,102033,1,0,0:0:0:0:
256,192,102118,1,8,0:0:0:0:
256,192,102204,1,8,0:0:0:0:
256,192,102290,1,8,0:0:0:0:
256,192,102376,1,8,0:0:0:0:
256,192,102461,1,0,0:0:0:0:
256,192,102976,1,0,0:0:0:0:
256,192,103147,1,8,0:0:0:0:
256,192,103318,1,0,0:0:0:0:
256,192,103661,1,0,0:0:0:0:
256,192,104004,1,8,0:0:0:0:
256,192,104176,1,0,0:0:0:0:
256,192,104347,1,0,0:0:0:0:
256,192,104518,1,8,0:0:0:0:
256,192,104690,1,0,0:0:0:0:
256,192,104776,1,8,0:0:0:0:
256,192,104947,1,8,0:0:0:0:
256,192,105033,1,0,0:0:0:0:
256,192,105204,1,8,0:0:0:0:
256,192,105376,1,0,0:0:0:0:
256,192,105547,1,0,0:0:0:0:
256,192,105718,1,8,0:0:0:0:
256,192,105890,1,8,0:0:0:0:
256,192,106061,1,0,0:0:0:0:
256,192,106404,1,0,0:0:0:0:
256,192,106747,1,8,0:0:0:0:
256,192,106918,1,8,0:0:0:0:
256,192,107090,1,0,0:0:0:0:
256,192,107261,1,8,0:0:0:0:
256,192,107433,1,0,0:0:0:0:
256,192,107518,1,0,0:0:0:0:
256,192,107604,1,8,0:0:0:0:
256,192,107690,1,8,0:0:0:0:
256,192,107776,1,8,0:0:0:0:
256,192,107861,1,8,0:0:0:0:
256,192,107947,1,0,0:0:0:0:
256,192,108290,1,0,0:0:0:0:
256,192,108461,1,0,0:0:0:0:
256,192,108633,1,8,0:0:0:0:
256,192,108804,1,0,0:0:0:0:
256,192,109147,1,0,0:0:0:0:
256,192,109490,1,0,0:0:0:0:
256,192,109661,1,0,0:0:0:0:
256,192,109833,1,8,0:0:0:0:
256,192,110004,1,8,0:0:0:0:
256,192,110261,1,0,0:0:0:0:
256,192,110518,1,8,0:0:0:0:
256,192,110690,1,4,0:0:0:0:
256,192,111033,1,0,0:0:0:0:
256,192,111204,1,8,0:0:0:0:
256,192,111376,1,0,0:0:0:0:
256,192,111547,1,8,0:0:0:0:
256,192,111719,1,8,0:0:0:0:
256,192,111890,1,0,0:0:0:0:
256,192,112061,1,0,0:0:0:0:
256,192,112233,1,8,0:0:0:0:
256,192,112404,1,8,0:0:0:0:
256,192,112576,1,8,0:0:0:0:
256,192,112747,1,0,0:0:0:0:
256,192,112919,1,8,0:0:0:0:
256,192,113004,1,8,0:0:0:0:
256,192,113090,1,0,0:0:0:0:
256,192,113176,1,0,0:0:0:0:
256,192,113261,1,0,0:0:0:0:
256,192,113347,1,0,0:0:0:0:
256,192,113433,1,8,0:0:0:0:
256,192,113604,1,0,0:0:0:0:
256,192,113776,1,8,0:0:0:0:
256,192,113947,1,8,0:0:0:0:
256,192,114119,1,8,0:0:0:0:
256,192,114290,1,0,0:0:0:0:
256,192,114461,1,0,0:0:0:0:
256,192,114633,1,8,0:0:0:0:
256,192,114804,1,0,0:0:0:0:
256,192,114976,1,8,0:0:0:0:
256,192,115147,1,0,0:0:0:0:
256,192,115318,1,0,0:0:0:0:
256,192,115490,1,8,0:0:0:0:
256,192,115661,1,0,0:0:0:0:
256,192,115747,1,8,0:0:0:0:
256,192,115918,1,8,0:0:0:0:
256,192,116004,1,0,0:0:0:0:
256,192,116176,1,8,0:0:0:0:
256,192,116347,1,0,0:0:0:0:
256,192,116519,1,0,0:0:0:0:
256,192,116690,1,8,0:0:0:0:
256,192,116861,1,8,0:0:0:0:
256,192,117033,1,0,0:0:0:0:
256,192,117376,1,8,0:0:0:0:
256,192,117547,1,0,0:0:0:0:
256,192,117719,1,0,0:0:0:0:
256,192,117890,1,8,0:0:0:0:
256,192,118061,1,0,0:0:0:0:
256,192,118233,1,8,0:0:0:0:
256,192,118404,1,0,0:0:0:0:
256,192,118490,1,0,0:0:0:0:
256,192,118576,1,8,0:0:0:0:
256,192,118661,1,8,0:0:0:0:
256,192,118747,1,8,0:0:0:0:
256,192,118833,1,8,0:0:0:0:
256,192,118919,1,0,0:0:0:0:
256,192,119261,1,0,0:0:0:0:
256,192,119433,1,0,0:0:0:0:
256,192,119604,1,8,0:0:0:0:
256,192,119776,1,0,0:0:0:0:
256,192,120119,1,8,0:0:0:0:
256,192,120461,1,0,0:0:0:0:
256,192,120633,1,8,0:0:0:0:
256,192,120804,1,0,0:0:0:0:
256,192,120976,1,8,0:0:0:0:
256,192,121147,1,0,0:0:0:0:
256,192,121233,1,8,0:0:0:0:
256,192,121319,1,0,0:0:0:0:
256,192,121404,1,0,0:0:0:0:
256,192,121490,1,8,0:0:0:0:
256,192,121576,1,8,0:0:0:0:
256,192,121661,1,0,0:0:0:0:
256,192,122004,1,0,0:0:0:0:
256,192,122175,1,8,0:0:0:0:
256,192,122347,1,0,0:0:0:0:
256,192,122518,1,8,0:0:0:0:
256,192,122690,1,8,0:0:0:0:
256,192,122861,1,0,0:0:0:0:
256,192,123032,1,0,0:0:0:0:
256,192,123204,1,8,0:0:0:0:
256,192,123375,1,8,0:0:0:0:
256,192,123547,1,8,0:0:0:0:
256,192,123718,1,0,0:0:0:0:
256,192,123890,1,8,0:0:0:0:
256,192,123975,1,8,0:0:0:0:
256,192,124061,1,0,0:0:0:0:
256,192,124147,1,0,0:0:0:0:
256,192,124232,1,0,0:0:0:0:
256,192,124318,1,0,0:0:0:0:
256,192,124404,1,8,0:0:0:0:
256,192,124575,1,0,0:0:0:0:
256,192,124747,1,8,0:0:0:0:
256,192,124918,1,8,0:0:0:0:
256,192,125090,1,8,0:0:0:0:
256,192,125261,1,0,0:0:0:0:
256,192,125432,1,0,0:0:0:0:
256,192,125604,1,8,0:0:0:0:
256,192,125775,1,0,0:0:0:0:
256,192,125947,1,8,0:0:0:0:
256,192,126118,1,0,0:0:0:0:
256,192,126290,1,0,0:0:0:0:
256,192,126461,1,8,0:0:0:0:
256,192,126632,1,0,0:0:0:0:
256,192,126718,1,8,0:0:0:0:
256,192,126890,1,8,0:0:0:0:
256,192,126975,1,0,0:0:0:0:
256,192,127147,1,8,0:0:0:0:
256,192,127318,1,0,0:0:0:0:
256,192,127490,1,0,0:0:0:0:
256,192,127661,1,8,0:0:0:0:
256,192,127832,1,8,0:0:0:0:
256,192,128004,1,0,0:0:0:0:
256,192,128347,1,8,0:0:0:0:
256,192,128518,1,0,0:0:0:0:
256,192,128690,1,0,0:0:0:0:
256,192,128861,1,8,0:0:0:0:
256,192,129032,1,0,0:0:0:0:
256,192,129204,1,8,0:0:0:0:
256,192,129375,1,0,0:0:0:0:
256,192,129461,1,0,0:0:0:0:
256,192,129547,1,8,0:0:0:0:
256,192,129632,1,8,0:0:0:0:
256,192,129718,1,8,0:0:0:0:
256,192,129804,1,8,0:0:0:0:
256,192,129890,1,0,0:0:0:0:
256,192,130061,1,8,0:0:0:0:
256,192,130233,1,0,0:0:0:0:
256,192,130404,1,8,0:0:0:0:
256,192,130576,1,8,0:0:0:0:
256,192,130747,1,0,0:0:0:0:
256,192,131090,1,8,0:0:0:0:
256,192,131261,1,0,0:0:0:0:
256,192,131433,1,8,0:0:0:0:
256,192,131604,1,0,0:0:0:0:
256,192,131776,1,0,0:0:0:0:
256,192,131947,1,8,0:0:0:0:
256,192,132119,1,0,0:0:0:0:
256,192,132204,1,8,0:0:0:0:
256,192,132376,1,8,0:0:0:0:
256,192,132461,1,0,0:0:0:0:
256,192,132633,1,4,0:0:0:0:
256,192,132976,5,8,0:0:0:0:
192,256,133318,1,2,0:0:0:0:
192,256,133661,1,2,0:0:0:0:
192,256,134004,1,2,0:0:0:0:
192,256,134347,1,2,0:0:0:0:
192,256,134690,1,2,0:0:0:0:
192,256,135033,1,2,0:0:0:0:
256,192,135376,1,0,0:0:0:0:
256,192,135718,1,2,0:0:0:0:
256,192,136061,1,2,0:0:0:0:
256,128,136404,1,2,0:0:0:0:
256,128,136747,1,2,0:0:0:0:
256,128,137090,1,2,0:0:0:0:
256,128,137433,1,2,0:0:0:0:
256,128,137776,1,2,0:0:0:0:
256,192,138118,1,0,0:0:0:0:
256,192,138461,1,2,0:0:0:0:
256,192,138804,1,2,0:0:0:0:
256,192,139147,1,2,0:0:0:0:
256,192,139490,1,2,0:0:0:0:
256,192,139833,1,2,0:0:0:0:
256,192,140176,1,0,0:0:0:0:
256,192,140518,1,2,0:0:0:0:
256,192,140861,1,0,0:0:0:0:
256,192,141204,1,0,0:0:0:0:
256,192,141376,1,0,0:0:0:0:
256,192,141461,1,0,0:0:0:0:
256,192,141547,1,2,0:0:0:0:
256,192,141890,1,0,0:0:0:0:
256,192,142061,1,2,0:0:0:0:
256,192,142233,1,0,0:0:0:0:
256,192,142404,1,0,0:0:0:0:
256,192,142576,1,2,0:0:0:0:
256,192,142747,1,2,0:0:0:0:
256,192,142833,1,2,0:0:0:0:
256,192,142918,1,0,0:0:0:0:
256,192,143090,1,2,0:0:0:0:
256,192,143261,1,2,0:0:0:0:
256,192,143433,1,0,0:0:0:0:
256,192,143518,1,0,0:0:0:0:
256,192,143604,1,2,0:0:0:0:
256,192,143776,1,0,0:0:0:0:
256,192,143947,1,2,0:0:0:0:
256,192,144118,1,2,0:0:0:0:
256,192,144204,1,0,0:0:0:0:
256,192,144290,1,2,0:0:0:0:
256,192,144461,1,0,0:0:0:0:
256,192,144633,1,2,0:0:0:0:
256,192,144718,1,2,0:0:0:0:
256,192,144804,1,2,0:0:0:0:
256,192,144890,1,2,0:0:0:0:
256,192,144976,1,0,0:0:0:0:
256,192,145061,1,0,0:0:0:0:
256,192,145147,1,0,0:0:0:0:
256,192,145233,1,0,0:0:0:0:
256,192,145318,1,2,0:0:0:0:
256,192,145490,1,0,0:0:0:0:
256,192,145576,1,0,0:0:0:0:
256,192,145661,1,2,0:0:0:0:
256,192,145747,1,0,0:0:0:0:
256,192,145833,1,0,0:0:0:0:
256,192,146004,1,2,0:0:0:0:
256,192,146090,1,0,0:0:0:0:
256,192,146176,1,0,0:0:0:0:
256,192,146261,1,0,0:0:0:0:
256,192,146347,1,2,0:0:0:0:
256,192,146433,1,0,0:0:0:0:
256,192,146518,1,0,0:0:0:0:
256,192,146604,1,0,0:0:0:0:
256,192,146690,1,2,0:0:0:0:
256,192,146861,1,0,0:0:0:0:
256,192,146947,1,0,0:0:0:0:
256,192,147033,1,2,0:0:0:0:
256,192,147118,1,0,0:0:0:0:
256,192,147204,1,0,0:0:0:0:
256,192,147376,1,2,0:0:0:0:
256,192,147461,1,0,0:0:0:0:
256,192,147547,1,0,0:0:0:0:
256,192,147633,1,0,0:0:0:0:
256,192,147718,1,2,0:0:0:0:
256,192,147804,1,0,0:0:0:0:
256,192,147890,1,0,0:0:0:0:
256,192,147976,1,0,0:0:0:0:
256,192,148061,1,2,0:0:0:0:
256,192,148233,1,0,0:0:0:0:
256,192,148318,1,0,0:0:0:0:
256,192,148404,1,2,0:0:0:0:
256,192,148490,1,0,0:0:0:0:
256,192,148576,1,0,0:0:0:0:
256,192,148747,1,2,0:0:0:0:
256,160,148833,1,0,0:0:0:0:
256,160,148918,1,0,0:0:0:0:
256,160,149004,1,0,0:0:0:0:
256,192,149090,1,2,0:0:0:0:
256,192,149176,1,0,0:0:0:0:
256,192,149261,1,0,0:0:0:0:
256,192,149347,1,0,0:0:0:0:
256,192,149433,1,0,0:0:0:0:
256,192,149518,1,0,0:0:0:0:
256,192,149604,1,2,0:0:0:0:
256,192,149690,1,0,0:0:0:0:
256,192,149776,1,2,0:0:0:0:
256,192,149861,1,2,0:0:0:0:
256,192,149947,1,0,0:0:0:0:
256,192,150033,1,0,0:0:0:0:
256,192,150118,1,2,0:0:0:0:
256,192,150204,1,0,0:0:0:0:
256,192,150290,1,0,0:0:0:0:
256,192,150376,1,0,0:0:0:0:
256,192,150461,1,2,0:0:0:0:
256,192,150547,1,2,0:0:0:0:
256,192,150633,1,0,0:0:0:0:
256,192,150718,1,0,0:0:0:0:
256,192,150804,1,2,0:0:0:0:
256,192,150890,1,0,0:0:0:0:
256,192,150976,1,0,0:0:0:0:
256,192,151061,1,0,0:0:0:0:
256,192,151147,1,2,0:0:0:0:
192,256,151233,1,2,0:0:0:0:
192,256,151318,1,0,0:0:0:0:
192,256,151404,1,0,0:0:0:0:
192,256,151490,1,2,0:0:0:0:
192,256,151576,1,2,0:0:0:0:
192,256,151661,1,2,0:0:0:0:
192,256,151747,1,2,0:0:0:0:
256,192,151833,12,0,153204,0:0:0:0:
160,160,154576,5,0,0:0:0:0:
160,160,154747,1,0,0:0:0:0:
160,160,154918,1,2,0:0:0:0:
160,160,155090,1,2,0:0:0:0:
160,160,155261,1,0,0:0:0:0:
160,160,155433,1,2,0:0:0:0:
160,160,155604,1,2,0:0:0:0:
192,192,155776,1,0,0:0:0:0:
192,192,155947,1,2,0:0:0:0:
192,192,156118,1,2,0:0:0:0:
192,128,156290,1,0,0:0:0:0:
192,128,156461,1,2,0:0:0:0:
192,128,156633,1,2,0:0:0:0:
192,160,156804,1,0,0:0:0:0:
192,160,156976,1,2,0:0:0:0:
192,160,157147,1,0,0:0:0:0:
192,160,157318,1,2,0:0:0:0:
192,160,157490,1,0,0:0:0:0:
192,160,157661,1,2,0:0:0:0:
192,128,157833,1,2,0:0:0:0:
160,160,158004,1,0,0:0:0:0:
160,160,158176,1,2,0:0:0:0:
160,160,158347,1,2,0:0:0:0:
160,160,158518,1,0,0:0:0:0:
160,160,158690,1,2,0:0:0:0:
192,128,158861,1,2,0:0:0:0:
160,160,159033,1,0,0:0:0:0:
192,160,159204,1,2,0:0:0:0:
224,160,159376,1,2,0:0:0:0:
224,160,159547,1,0,0:0:0:0:
224,160,159718,1,2,0:0:0:0:
224,160,159890,1,0,0:0:0:0:
224,160,159976,1,0,0:0:0:0:
224,160,160061,1,2,0:0:0:0:
224,160,160233,1,0,0:0:0:0:
224,160,160404,1,2,0:0:0:0:
224,160,160576,1,2,0:0:0:0:
224,160,160747,1,0,0:0:0:0:
224,160,160918,1,2,0:0:0:0:
224,160,161090,1,2,0:0:0:0:
224,160,161261,1,0,0:0:0:0:
224,160,161433,1,2,0:0:0:0:
224,160,161604,1,2,0:0:0:0:
224,160,161776,1,0,0:0:0:0:
224,160,161947,1,0,0:0:0:0:
224,160,162118,1,2,0:0:0:0:
224,160,162290,1,0,0:0:0:0:
224,160,162461,1,2,0:0:0:0:
224,160,162547,1,0,0:0:0:0:
224,160,162718,1,0,0:0:0:0:
224,160,162804,1,2,0:0:0:0:
224,160,162976,1,0,0:0:0:0:
224,160,163147,1,2,0:0:0:0:
224,160,163318,1,2,0:0:0:0:
192,128,163490,1,0,0:0:0:0:
192,128,163661,1,2,0:0:0:0:
192,128,163833,1,2,0:0:0:0:
192,128,164004,1,0,0:0:0:0:
192,128,164176,1,2,0:0:0:0:
192,160,164347,1,2,0:0:0:0:
192,160,164518,1,0,0:0:0:0:
192,160,164690,1,0,0:0:0:0:
192,160,164861,1,2,0:0:0:0:
192,160,165033,1,2,0:0:0:0:
192,160,165118,1,0,0:0:0:0:
192,160,165204,1,2,0:0:0:0:
192,160,165290,1,0,0:0:0:0:
192,160,165376,1,0,0:0:0:0:
192,160,165547,1,2,0:0:0:0:
224,160,166061,1,0,0:0:0:0:
224,160,166147,1,0,0:0:0:0:
224,160,166233,1,2,0:0:0:0:
224,160,166318,1,2,0:0:0:0:
224,160,166404,1,0,0:0:0:0:
224,160,166490,1,0,0:0:0:0:
224,160,166576,1,2,0:0:0:0:
224,160,166747,1,2,0:0:0:0:
224,160,167261,1,0,0:0:0:0:
224,160,167433,1,0,0:0:0:0:
224,160,167518,1,0,0:0:0:0:
224,160,167604,1,2,0:0:0:0:
224,160,167776,1,2,0:0:0:0:
224,160,168118,1,0,0:0:0:0:
224,160,168204,1,0,0:0:0:0:
224,160,168290,1,0,0:0:0:0:
192,128,168804,1,0,0:0:0:0:
192,128,168976,1,2,0:0:0:0:
192,128,169147,1,0,0:0:0:0:
192,128,169490,1,2,0:0:0:0:
192,128,169661,1,0,0:0:0:0:
192,128,169833,1,0,0:0:0:0:
192,128,170004,1,2,0:0:0:0:
192,128,170176,1,0,0:0:0:0:
192,128,170347,1,0,0:0:0:0:
192,128,170518,1,2,0:0:0:0:
192,128,170690,1,0,0:0:0:0:
192,128,170861,1,2,0:0:0:0:
192,128,171033,1,12,0:0:0:0:
192,128,171376,1,2,0:0:0:0:
192,128,171461,1,0,0:0:0:0:
192,128,171547,1,0,0:0:0:0:
192,128,171633,1,0,0:0:0:0:
192,128,171718,1,2,0:0:0:0:
192,128,171804,1,2,0:0:0:0:
192,128,171890,1,0,0:0:0:0:
192,128,172061,1,2,0:0:0:0:
192,128,172147,1,2,0:0:0:0:
192,128,172233,1,0,0:0:0:0:
192,128,172318,1,0,0:0:0:0:
192,128,172404,1,2,0:0:0:0:
192,128,172490,1,2,0:0:0:0:
192,128,172576,1,0,0:0:0:0:
192,128,172747,1,2,0:0:0:0:
192,128,172918,1,2,0:0:0:0:
192,128,173090,1,2,0:0:0:0:
192,128,173261,1,0,0:0:0:0:
192,128,173433,1,2,0:0:0:0:
192,128,173604,1,0,0:0:0:0:
192,128,173776,1,0,0:0:0:0:
192,128,173861,1,0,0:0:0:0:
192,128,173947,1,0,0:0:0:0:
192,128,174033,1,0,0:0:0:0:
192,128,174118,1,2,0:0:0:0:
192,128,174290,1,0,0:0:0:0:
224,128,174376,1,0,0:0:0:0:
224,128,174461,1,2,0:0:0:0:
224,128,174547,1,0,0:0:0:0:
224,128,174633,1,0,0:0:0:0:
224,128,174718,1,0,0:0:0:0:
224,128,174804,1,2,0:0:0:0:
224,128,174890,1,2,0:0:0:0:
224,128,174976,1,2,0:0:0:0:
224,128,175147,1,2,0:0:0:0:
224,128,175233,1,2,0:0:0:0:
224,128,175318,1,0,0:0:0:0:
224,128,175404,1,0,0:0:0:0:
224,128,175490,1,0,0:0:0:0:
224,128,175661,1,2,0:0:0:0:
224,128,175833,1,0,0:0:0:0:
224,128,175918,1,0,0:0:0:0:
224,128,176004,1,0,0:0:0:0:
224,128,176176,1,2,0:0:0:0:
160,96,176347,1,0,0:0:0:0:
160,96,176433,1,0,0:0:0:0:
160,96,176518,1,0,0:0:0:0:
192,96,176690,1,0,0:0:0:0:
192,128,176861,1,0,0:0:0:0:
192,128,177033,1,2,0:0:0:0:
192,128,177204,1,0,0:0:0:0:
192,128,177290,1,0,0:0:0:0:
192,128,177376,1,2,0:0:0:0:
192,128,177547,1,0,0:0:0:0:
192,128,177633,1,2,0:0:0:0:
192,128,177718,1,2,0:0:0:0:
192,128,177890,1,0,0:0:0:0:
192,128,177976,1,0,0:0:0:0:
192,128,178061,1,2,0:0:0:0:
192,128,178147,1,2,0:0:0:0:
192,128,178233,1,0,0:0:0:0:
192,128,178318,1,0,0:0:0:0:
192,128,178404,1,2,0:0:0:0:
192,128,178490,1,0,0:0:0:0:
192,128,178576,1,2,0:0:0:0:
192,128,178661,1,2,0:0:0:0:
192,128,178747,1,0,0:0:0:0:
192,128,178833,1,0,0:0:0:0:
192,128,178918,1,2,0:0:0:0:
192,128,179004,1,0,0:0:0:0:
192,128,179090,1,0,0:0:0:0:
192,128,179176,1,0,0:0:0:0:
192,128,179261,1,2,0:0:0:0:
192,128,179347,1,0,0:0:0:0:
192,128,179433,1,0,0:0:0:0:
192,128,179518,1,0,0:0:0:0:
192,128,179604,1,0,0:0:0:0:
192,128,179690,1,0,0:0:0:0:
192,128,179776,1,0,0:0:0:0:
192,128,179861,1,0,0:0:0:0:
192,128,179947,1,0,0:0:0:0:
192,128,180033,1,0,0:0:0:0:
192,128,180118,1,2,0:0:0:0:
192,128,180204,1,2,0:0:0:0:
192,128,180290,1,2,0:0:0:0:
192,128,180376,1,2,0:0:0:0:
192,128,180461,1,2,0:0:0:0:
192,128,180547,1,2,0:0:0:0:
256,192,180633,12,0,181147,0:0:0:0:
128,160,181318,5,0,0:0:0:0:
160,160,181490,1,0,0:0:0:0:
160,160,181576,1,0,0:0:0:0:
160,160,181661,1,2,0:0:0:0:
160,160,181833,1,0,0:0:0:0:
160,160,182004,1,4,0:0:0:0:
160,96,182347,1,2,0:0:0:0:
160,128,182518,1,0,0:0:0:0:
160,128,182604,1,0,0:0:0:0:
160,128,182690,1,2,0:0:0:0:
160,128,182861,1,2,0:0:0:0:
160,128,183033,1,2,0:0:0:0:
160,128,183118,1,0,0:0:0:0:
160,128,183204,1,0,0:0:0:0:
160,128,183547,1,0,0:0:0:0:
160,128,183633,1,0,0:0:0:0:
160,128,183718,1,2,0:0:0:0:
160,128,183804,1,2,0:0:0:0:
160,128,183890,1,2,0:0:0:0:
160,160,183976,1,0,0:0:0:0:
160,160,184061,1,2,0:0:0:0:
192,128,184233,1,0,0:0:0:0:
192,128,184404,1,0,0:0:0:0:
192,128,184490,1,2,0:0:0:0:
192,128,184576,1,0,0:0:0:0:
192,128,184747,1,0,0:0:0:0:
192,128,184918,1,0,0:0:0:0:
192,128,185090,1,2,0:0:0:0:
256,128,185147,1,2,0:0:0:0:
256,128,185204,1,2,0:0:0:0:
256,128,185261,1,0,0:0:0:0:
224,128,185347,1,0,0:0:0:0:
224,128,185433,1,2,0:0:0:0:
224,128,185604,1,0,0:0:0:0:
224,128,185776,1,2,0:0:0:0:
224,128,185861,1,2,0:0:0:0:
224,128,185947,1,0,0:0:0:0:
224,128,186118,1,0,0:0:0:0:
224,128,186290,1,0,0:0:0:0:
224,128,186461,1,2,0:0:0:0:
224,128,186633,1,0,0:0:0:0:
224,128,186804,1,0,0:0:0:0:
224,128,186890,1,0,0:0:0:0:
224,128,186976,1,2,0:0:0:0:
224,128,187061,1,2,0:0:0:0:
224,128,187147,1,2,0:0:0:0:
224,128,187233,1,2,0:0:0:0:
224,128,187318,1,0,0:0:0:0:
224,128,187490,1,4,0:0:0:0:
224,128,187833,1,2,0:0:0:0:
224,128,187918,1,0,0:0:0:0:
224,128,188004,1,0,0:0:0:0:
224,128,188090,1,0,0:0:0:0:
224,128,188176,1,2,0:0:0:0:
224,128,188261,1,0,0:0:0:0:
224,128,188347,1,2,0:0:0:0:
224,128,188433,1,2,0:0:0:0:
256,128,188518,1,2,0:0:0:0:
256,128,188690,1,0,0:0:0:0:
224,128,189033,1,2,0:0:0:0:
224,128,189090,1,2,0:0:0:0:
224,128,189147,1,2,0:0:0:0:
192,128,189204,1,0,0:0:0:0:
288,96,189290,1,0,0:0:0:0:
288,96,189376,1,2,0:0:0:0:
288,96,189461,1,0,0:0:0:0:
288,96,189547,1,2,0:0:0:0:
288,96,189718,1,2,0:0:0:0:
288,96,189804,1,0,0:0:0:0:
288,96,189890,1,2,0:0:0:0:
288,96,189976,1,0,0:0:0:0:
288,96,190061,1,2,0:0:0:0:
288,96,190147,1,2,0:0:0:0:
288,96,190233,1,2,0:0:0:0:
288,128,190576,1,0,0:0:0:0:
288,128,190633,1,0,0:0:0:0:
288,128,190690,1,0,0:0:0:0:
288,128,190747,1,0,0:0:0:0:
288,128,190804,1,0,0:0:0:0:
288,128,190861,1,0,0:0:0:0:
288,128,190918,1,2,0:0:0:0:
256,160,191004,1,0,0:0:0:0:
288,96,191090,1,0,0:0:0:0:
288,96,191176,1,0,0:0:0:0:
256,160,191261,1,0,0:0:0:0:
288,96,191347,1,0,0:0:0:0:
288,96,191433,1,0,0:0:0:0:
288,96,191518,1,0,0:0:0:0:
256,160,191604,1,2,0:0:0:0:
192,64,191690,1,0,0:0:0:0:
288,96,191776,1,0,0:0:0:0:
288,96,191861,1,2,0:0:0:0:
192,64,191947,1,0,0:0:0:0:
288,96,192033,1,0,0:0:0:0:
288,96,192118,1,2,0:0:0:0:
192,64,192204,1,0,0:0:0:0:
288,96,192290,1,0,0:0:0:0:
288,96,192376,1,2,0:0:0:0:
192,64,192461,1,0,0:0:0:0:
288,96,192547,1,0,0:0:0:0:
288,96,192633,1,2,0:0:0:0:
288,96,192804,1,2,0:0:0:0:
288,96,192976,1,0,0:0:0:0:
288,96,193061,1,0,0:0:0:0:
288,96,193147,1,2,0:0:0:0:
288,96,193233,1,2,0:0:0:0:
288,96,193318,1,0,0:0:0:0:
288,96,193404,1,0,0:0:0:0:
288,96,193490,1,2,0:0:0:0:
288,96,193576,1,2,0:0:0:0:
288,96,193661,1,0,0:0:0:0:
288,96,193833,1,2,0:0:0:0:
288,96,194176,1,0,0:0:0:0:
288,96,194518,1,0,0:0:0:0:
288,96,194690,1,2,0:0:0:0:
288,96,194776,1,2,0:0:0:0:
288,96,194861,1,2,0:0:0:0:
288,96,194947,1,2,0:0:0:0:
288,96,195033,1,0,0:0:0:0:
288,96,195204,1,0,0:0:0:0:
288,96,195376,1,2,0:0:0:0:
288,96,195461,1,0,0:0:0:0:
288,96,195547,1,2,0:0:0:0:
288,96,195633,1,0,0:0:0:0:
288,96,195718,1,2,0:0:0:0:
288,96,195890,1,0,0:0:0:0:
320,128,196061,1,2,0:0:0:0:
288,128,196118,1,2,0:0:0:0:
288,128,196176,1,2,0:0:0:0:
288,128,196233,1,0,0:0:0:0:
256,96,196318,1,0,0:0:0:0:
256,96,196404,1,2,0:0:0:0:
256,96,196576,1,0,0:0:0:0:
256,96,196747,1,2,0:0:0:0:
256,96,196918,1,0,0:0:0:0:
256,96,197090,1,2,0:0:0:0:
256,128,197261,1,2,0:0:0:0:
256,128,197347,1,0,0:0:0:0:
288,128,197433,1,2,0:0:0:0:
288,128,197518,1,2,0:0:0:0:
288,128,197604,1,0,0:0:0:0:
288,128,197776,1,0,0:0:0:0:
288,128,197861,1,2,0:0:0:0:
288,128,197947,1,2,0:0:0:0:
288,128,198033,1,2,0:0:0:0:
288,128,198118,1,0,0:0:0:0:
288,128,198204,1,2,0:0:0:0:
288,128,198290,1,2,0:0:0:0:
288,128,198376,1,2,0:0:0:0:
288,128,198461,1,0,0:0:0:0:
256,96,198804,1,2,0:0:0:0:
256,96,198976,1,0,0:0:0:0:
256,96,199147,1,0,0:0:0:0:
256,96,199233,1,0,0:0:0:0:
256,96,199318,1,2,0:0:0:0:
256,96,199490,1,2,0:0:0:0:
256,128,199661,1,2,0:0:0:0:
256,128,199747,1,2,0:0:0:0:
256,128,199833,1,0,0:0:0:0:
256,128,200004,1,0,0:0:0:0:
256,128,200176,1,2,0:0:0:0:
256,128,200347,1,2,0:0:0:0:
256,128,200518,1,0,0:0:0:0:
256,128,200604,1,0,0:0:0:0:
256,128,200690,1,2,0:0:0:0:
256,128,200776,1,2,0:0:0:0:
256,128,200861,1,0,0:0:0:0:
256,128,200947,1,0,0:0:0:0:
256,128,201033,1,2,0:0:0:0:
256,128,201118,1,2,0:0:0:0:
256,128,201204,1,0,0:0:0:0:
192,128,201376,1,0,0:0:0:0:
192,128,201547,1,2,0:0:0:0:
192,128,201718,1,0,0:0:0:0:
192,128,201890,1,2,0:0:0:0:
192,128,201976,1,0,0:0:0:0:
192,128,202061,1,2,0:0:0:0:
192,128,202147,1,2,0:0:0:0:
192,128,202233,1,0,0:0:0:0:
192,128,202318,1,2,0:0:0:0:
192,128,202404,1,2,0:0:0:0:
192,128,202490,1,0,0:0:0:0:
192,128,202576,1,2,0:0:0:0:
192,128,202661,1,0,0:0:0:0:
192,128,202747,1,0,0:0:0:0:
192,128,202833,1,0,0:0:0:0:
256,192,202918,12,2,203604,0:0:0:0:
224,160,203947,5,4,0:0:0:0:
224,160,204290,1,2,0:0:0:0:
224,160,204461,1,0,0:0:0:0:
128,160,204547,1,0,0:0:0:0:
224,160,204633,1,2,0:0:0:0:
128,160,204718,1,0,0:0:0:0:
224,160,204804,1,0,0:0:0:0:
192,128,204890,1,2,0:0:0:0:
128,160,204976,1,0,0:0:0:0:
192,128,205147,1,0,0:0:0:0:
128,160,205233,1,2,0:0:0:0:
128,160,205318,1,2,0:0:0:0:
192,128,205490,1,0,0:0:0:0:
128,160,205576,1,0,0:0:0:0:
192,128,205661,1,2,0:0:0:0:
128,160,205747,1,2,0:0:0:0:
192,128,205833,1,0,0:0:0:0:
192,128,206004,1,2,0:0:0:0:
160,128,206176,1,0,0:0:0:0:
128,160,206261,1,0,0:0:0:0:
160,128,206347,1,2,0:0:0:0:
160,128,206433,1,0,0:0:0:0:
128,160,206518,1,0,0:0:0:0:
128,160,206604,1,2,0:0:0:0:
160,128,206690,1,0,0:0:0:0:
128,160,206861,1,0,0:0:0:0:
128,160,207033,1,2,0:0:0:0:
160,128,207204,1,0,0:0:0:0:
160,128,207376,1,2,0:0:0:0:
160,128,207547,1,0,0:0:0:0:
160,128,207633,1,0,0:0:0:0:
160,128,207718,1,2,0:0:0:0:
128,160,207804,1,0,0:0:0:0:
160,128,207890,1,0,0:0:0:0:
160,128,208233,1,0,0:0:0:0:
160,128,208404,1,2,0:0:0:0:
160,128,208576,1,0,0:0:0:0:
160,96,208747,1,2,0:0:0:0:
160,96,208918,1,0,0:0:0:0:
160,96,209090,1,2,0:0:0:0:
160,96,209261,1,0,0:0:0:0:
160,96,209433,1,0,0:0:0:0:
160,128,209776,1,12,0:0:0:0:
160,128,210118,1,2,0:0:0:0:
160,128,210290,1,0,0:0:0:0:
128,160,210376,1,0,0:0:0:0:
128,160,210461,1,2,0:0:0:0:
128,160,210633,1,0,0:0:0:0:
128,160,210976,1,0,0:0:0:0:
128,160,211061,1,0,0:0:0:0:
128,160,211147,1,2,0:0:0:0:
128,160,211318,1,0,0:0:0:0:
128,160,211490,1,2,0:0:0:0:
128,160,211661,1,2,0:0:0:0:
128,160,211747,1,0,0:0:0:0:
128,160,211833,1,0,0:0:0:0:
128,160,211918,1,2,0:0:0:0:
128,160,212004,1,0,0:0:0:0:
128,160,212176,1,2,0:0:0:0:
128,160,212347,1,0,0:0:0:0:
128,160,212433,1,0,0:0:0:0:
128,160,212518,1,2,0:0:0:0:
128,160,212690,1,2,0:0:0:0:
128,128,212861,1,0,0:0:0:0:
128,128,212947,1,0,0:0:0:0:
128,128,213033,1,2,0:0:0:0:
128,128,213118,1,2,0:0:0:0:
128,128,213204,1,0,0:0:0:0:
128,128,213290,1,0,0:0:0:0:
128,128,213376,1,0,0:0:0:0:
128,128,213461,1,0,0:0:0:0:
128,128,213547,1,2,0:0:0:0:
128,128,213718,1,0,0:0:0:0:
128,128,213804,1,2,0:0:0:0:
128,128,213976,1,0,0:0:0:0:
128,128,214061,1,2,0:0:0:0:
128,96,214233,1,0,0:0:0:0:
128,96,214318,1,2,0:0:0:0:
128,96,214490,1,0,0:0:0:0:
128,96,214576,1,2,0:0:0:0:
128,128,214747,1,0,0:0:0:0:
160,128,214918,1,4,0:0:0:0:
128,128,215090,1,0,0:0:0:0:
128,128,215176,1,0,0:0:0:0:
128,128,215261,1,2,0:0:0:0:
128,128,215347,1,0,0:0:0:0:
128,128,215433,1,2,0:0:0:0:
128,128,215518,1,0,0:0:0:0:
128,128,215604,1,0,0:0:0:0:
128,128,215776,1,2,0:0:0:0:
128,128,215861,1,0,0:0:0:0:
128,128,215947,1,2,0:0:0:0:
128,128,216118,1,4,0:0:0:0:
128,128,216461,1,0,0:0:0:0:
128,128,216547,1,0,0:0:0:0:
128,128,216633,1,2,0:0:0:0:
128,128,216718,1,0,0:0:0:0:
128,128,216804,1,2,0:0:0:0:
160,128,216890,1,2,0:0:0:0:
160,128,216976,1,2,0:0:0:0:
160,128,217147,1,0,0:0:0:0:
160,128,217233,1,0,0:0:0:0:
160,128,217318,1,2,0:0:0:0:
160,128,217404,1,0,0:0:0:0:
160,128,217490,1,0,0:0:0:0:
160,128,217576,1,2,0:0:0:0:
160,128,217661,1,0,0:0:0:0:
160,128,217833,1,0,0:0:0:0:
160,128,217918,1,0,0:0:0:0:
160,128,218004,1,2,0:0:0:0:
160,128,218176,1,2,0:0:0:0:
160,128,218261,1,0,0:0:0:0:
160,128,218347,1,2,0:0:0:0:
160,128,218518,1,2,0:0:0:0:
160,128,218604,1,2,0:0:0:0:
160,128,218690,1,0,0:0:0:0:
160,128,218776,1,0,0:0:0:0:
160,128,218861,1,2,0:0:0:0:
160,128,219033,1,0,0:0:0:0:
160,128,219204,1,0,0:0:0:0:
160,128,219290,1,0,0:0:0:0:
160,128,219376,1,2,0:0:0:0:
160,128,219547,1,2,0:0:0:0:
160,128,219718,1,2,0:0:0:0:
160,128,219890,1,0,0:0:0:0:
192,192,220061,1,2,0:0:0:0:
192,192,220147,1,0,0:0:0:0:
192,160,220233,1,0,0:0:0:0:
192,192,220404,1,2,0:0:0:0:
224,192,220747,1,2,0:0:0:0:
224,192,220918,1,0,0:0:0:0:
224,192,221004,1,0,0:0:0:0:
224,192,221090,1,2,0:0:0:0:
192,192,221261,1,0,0:0:0:0:
192,160,221347,1,2,0:0:0:0:
192,160,221433,1,0,0:0:0:0:
192,160,221518,1,0,0:0:0:0:
192,160,221604,1,2,0:0:0:0:
224,128,221947,1,0,0:0:0:0:
224,128,222004,1,0,0:0:0:0:
224,128,222061,1,0,0:0:0:0:
224,160,222118,1,2,0:0:0:0:
256,224,222204,1,0,0:0:0:0:
256,224,222290,1,2,0:0:0:0:
224,160,222461,1,2,0:0:0:0:
256,224,222633,1,0,0:0:0:0:
224,160,222804,1,2,0:0:0:0:
224,160,222861,1,2,0:0:0:0:
224,160,222918,1,2,0:0:0:0:
224,160,222976,1,2,0:0:0:0:
224,160,223147,1,4,0:0:0:0:
192,160,223318,1,0,0:0:0:0:
192,160,223404,1,0,0:0:0:0:
160,160,223490,1,2,0:0:0:0:
160,160,223547,1,2,0:0:0:0:
160,160,223604,1,2,0:0:0:0:
160,160,223661,1,0,0:0:0:0:
192,160,223747,1,0,0:0:0:0:
192,160,223833,1,2,0:0:0:0:
192,160,223918,1,0,0:0:0:0:
192,160,224004,1,0,0:0:0:0:
160,160,224176,1,2,0:0:0:0:
160,160,224233,1,2,0:0:0:0:
160,192,224290,1,2,0:0:0:0:
160,192,224347,1,0,0:0:0:0:
192,160,224518,1,0,0:0:0:0:
160,192,224690,1,0,0:0:0:0:
192,160,224776,1,0,0:0:0:0:
256,192,224861,12,0,225718,0:0:0:0:
192,128,225890,5,4,0:0:0:0:
192,128,226576,1,2,0:0:0:0:
192,128,226747,1,0,0:0:0:0:
192,128,227090,1,0,0:0:0:0:
224,160,227433,1,0,0:0:0:0:
224,160,227604,1,2,0:0:0:0:
192,160,227776,1,0,0:0:0:0:
224,160,227947,1,2,0:0:0:0:
192,160,228118,1,2,0:0:0:0:
192,160,228290,1,2,0:0:0:0:
192,160,228461,1,0,0:0:0:0:
192,160,228633,1,4,0:0:0:0:
192,160,228976,1,0,0:0:0:0:
192,160,229147,1,0,0:0:0:0:
192,160,229318,1,2,0:0:0:0:
192,160,229490,1,0,0:0:0:0:
256,192,229833,1,0,0:0:0:0:
256,192,230176,1,2,0:0:0:0:
256,192,230347,1,0,0:0:0:0:
256,192,230518,1,0,0:0:0:0:
256,192,230690,1,2,0:0:0:0:
256,192,230861,1,0,0:0:0:0:
256,192,230947,1,2,0:0:0:0:
256,192,231204,1,2,0:0:0:0:
256,192,231376,1,0,0:0:0:0:
224,192,231890,1,0,0:0:0:0:
224,192,232061,1,2,0:0:0:0:
224,192,232233,1,0,0:0:0:0:
224,192,232576,1,0,0:0:0:0:
192,192,232918,1,2,0:0:0:0:
192,192,233090,1,0,0:0:0:0:
192,192,233261,1,0,0:0:0:0:
192,192,233433,1,2,0:0:0:0:
192,192,233604,1,0,0:0:0:0:
192,192,233776,1,0,0:0:0:0:
192,192,233947,1,2,0:0:0:0:
192,192,234118,1,0,0:0:0:0:
192,192,234633,1,0,0:0:0:0:
192,192,234804,1,2,0:0:0:0:
192,192,234976,1,0,0:0:0:0:
192,160,235318,1,0,0:0:0:0:
160,128,235661,1,2,0:0:0:0:
192,160,235747,1,0,0:0:0:0:
192,160,235833,1,0,0:0:0:0:
192,160,236004,1,0,0:0:0:0:
192,160,236176,1,2,0:0:0:0:
192,160,236433,1,2,0:0:0:0:
192,160,236690,1,2,0:0:0:0:
160,128,236861,1,4,0:0:0:0:
256,192,237718,1,0,0:0:0:0:
256,192,238061,1,0,0:0:0:0:
288,192,238404,1,0,0:0:0:0:
256,160,238576,1,2,0:0:0:0:
256,160,238747,1,2,0:0:0:0:
256,192,239604,1,0,0:0:0:0:
256,192,240461,1,0,0:0:0:0:
256,192,240804,1,0,0:0:0:0:
256,160,241147,1,2,0:0:0:0:
256,160,241490,1,0,0:0:0:0:
256,160,241833,1,0,0:0:0:0:
256,160,242176,1,2,0:0:0:0:
256,192,242347,1,0,0:0:0:0:
256,192,243204,1,0,0:0:0:0:
256,192,243547,1,0,0:0:0:0:
256,160,243890,1,0,0:0:0:0:
256,160,244061,1,2,0:0:0:0:
256,160,244233,1,2,0:0:0:0:
256,192,245090,1,0,0:0:0:0:
256,192,245947,1,2,0:0:0:0:
256,192,246290,1,2,0:0:0:0:
224,128,246633,1,2,0:0:0:0:
224,128,246804,1,0,0:0:0:0:
224,128,246976,1,2,0:0:0:0:
224,128,247147,1,2,0:0:0:0:
224,128,247318,1,0,0:0:0:0:
192,128,247490,1,2,0:0:0:0:
192,128,247661,1,0,0:0:0:0:
256,192,247833,5,2,0:0:0:0:
256,192,248690,1,2,0:0:0:0:
256,192,249033,1,2,0:0:0:0:
256,192,250576,1,0,0:0:0:0:
256,192,251433,1,0,0:0:0:0:
256,192,251776,1,0,0:0:0:0:
