osu file format v14

[General]
AudioFilename: audio.mp3
AudioLeadIn: 0
PreviewTime: 83277
Countdown: 0
SampleSet: Soft
StackLeniency: 0.7
Mode: 3
LetterboxInBreaks: 0
SpecialStyle: 0
WidescreenStoryboard: 0

[Editor]
DistanceSpacing: 1.6
BeatDivisor: 4
GridSize: 8
TimelineZoom: 2.52

[Metadata]
Title:Konran Shoujo Soflan-chan!!
TitleUnicode:混乱少女♥そふらんちゃん!!
Artist:Camellia feat. Nanahira
ArtistUnicode:かめりあ feat. ななひら
Creator:Jakads
Version:GRAVITY
Source:SOUND VOLTEX III GRAVITY WARS
Tags:SOFT LANDING ON THE BODY sdvx 3 The 4th KAC オリジナル楽曲コンテスト pop'n music éclale Wonki Lude FAMoss
BeatmapID:1812562
BeatmapSetID:867026

[Difficulty]
HPDrainRate:8.5
CircleSize:4
OverallDifficulty:8.2
ApproachRate:5
SliderMultiplier:1.4
SliderTickRate:1

[Events]
//Background and Video events
0,0,"87.jpg",0,0
//Break Periods
//Storyboard Layer 0 (Background)
//Storyboard Layer 1 (Fail)
//Storyboard Layer 2 (Pass)
//Storyboard Layer 3 (Foreground)
//Storyboard Layer 4 (Overlay)
//Storyboard Sound Samples

[TimingPoints]
684,260.869565217391,5,2,1,40,1,0
684,-200,5,2,1,40,0,0
1336,260.869565217391,5,2,1,40,1,0
1336,-200,5,2,1,40,0,0
1988,279.06976744186,7,2,1,40,1,0
1988,-10,7,2,1,40,0,0
2057,-10000,7,2,1,40,0,0
2546,-500,7,2,1,40,0,0
2615,-333.333333333333,7,2,1,40,0,0
2685,-250,7,2,1,40,0,0
2755,-200,7,2,1,40,0,0
2825,-188.679245283019,7,2,1,40,0,0
2964,279.06976744186,7,2,1,40,1,0
2964,-188.679245283019,7,2,1,40,0,0
3940,260.869565217391,5,2,1,40,1,0
3940,-200,5,2,1,40,0,0
4592,260.869565217391,5,2,1,40,1,0
4592,-200,5,2,1,40,0,0
5244,307.692307692308,5,2,1,40,1,0
5244,-10,5,2,1,40,0,0
5320,-10000,5,2,1,40,0,0
6013,307.692307692308,5,2,1,40,1,0
6013,-500,5,2,1,40,0,0
6089,-333.333333333333,5,2,1,40,0,0
6166,-250,5,2,1,40,0,0
6243,-200,5,2,1,40,0,0
6320,-169.491525423729,5,2,1,40,0,0
6782,307.692307692308,5,2,1,40,1,0
6782,-169.491525423729,5,2,1,40,0,0
7553,392.156862745098,4,2,1,40,1,0
7553,-133.333333333333,4,2,1,40,0,0
8435,392.156862745098,4,2,1,40,1,0
8435,-133.333333333333,4,2,1,40,0,0
9317,392.156862745098,4,2,1,40,1,0
9317,-133.333333333333,4,2,1,40,0,0
10199,392.156862745098,4,2,1,40,1,0
10199,-133.333333333333,4,2,1,40,0,0
10885,392.156862745098,4,2,1,40,1,0
10885,-133.333333333333,4,2,1,40,0,0
11767,392.156862745098,4,2,1,40,1,0
11767,-133.333333333333,4,2,1,40,0,0
12649,392.156862745098,4,2,1,40,1,0
12649,-133.333333333333,4,2,1,40,0,0
13629,402.684563758389,5,2,1,40,1,0
13629,-129.87012987013,5,2,1,40,0,0
15541,392.156862745098,2,2,1,40,1,0
15541,-133.333333333333,2,2,1,40,0,0
17011,-133.333333333333,2,2,1,40,0,1
17109,392.156862745098,3,2,1,40,1,1
17109,-133.333333333333,3,2,1,40,0,1
17991,392.156862745098,3,2,1,40,1,1
17991,-133.333333333333,3,2,1,40,0,1
20049,392.156862745098,3,2,1,40,1,1
20049,-133.333333333333,3,2,1,40,0,1
21617,-133.333333333333,3,2,1,40,0,0
21911,392.156862745098,3,2,1,40,1,0
21911,-133.333333333333,3,2,1,40,0,0
22303,-133.333333333333,3,2,1,40,0,1
22793,392.156862745098,3,2,1,40,1,1
22793,-133.333333333333,3,2,1,40,0,1
24851,392.156862745098,3,2,1,40,1,1
24851,-133.333333333333,3,2,1,40,0,1
26027,392.156862745098,4,2,1,40,1,0
26027,-133.333333333333,4,2,1,40,0,0
27399,392.156862745098,5,2,1,40,1,0
27399,-133.333333333333,5,2,1,40,0,0
29261,392.156862745098,4,2,1,40,1,0
29261,-133.333333333333,4,2,1,40,0,0
30639,392.156862745098,4,2,1,40,1,0
30639,-133.333333333333,4,2,1,40,0,0
31031,-133.333333333333,4,2,1,40,0,1
31423,521.739130434783,3,2,1,40,1,1
32988,-100,3,2,1,40,0,0
34553,521.739130434783,4,2,1,40,1,0
36639,521.739130434783,3,2,1,40,1,0
38205,521.739130434783,4,2,1,40,1,0
40291,521.739130434783,3,2,1,40,1,0
41857,521.739130434783,4,2,1,40,1,0
44857,521.739130434783,4,2,1,40,1,0
45770,521.739130434783,3,2,1,40,1,0
47335,359.281437125748,4,2,1,40,1,1
47335,-144.927536231884,4,2,1,40,0,1
50209,368.098159509202,4,2,1,40,1,0
50209,-140.845070422535,4,2,1,40,0,0
53153,377.358490566038,3,2,1,40,1,1
53153,-138.888888888889,3,2,1,40,0,1
53719,377.358490566038,3,2,1,40,1,1
53719,-138.888888888889,3,2,1,40,0,1
54285,521.739130434783,4,2,1,40,1,0
55198,521.739130434783,4,2,1,40,1,0
56111,521.739130434783,4,2,1,40,1,0
58067,521.739130434783,4,2,1,40,1,0
58980,521.739130434783,4,2,1,40,1,0
59893,521.739130434783,4,2,1,40,1,0
61327,800,1,2,1,40,1,0
61327,-65.359477124183,1,2,1,40,0,0
61927,1016.94915254237,2,2,1,40,1,0
61927,-55.5555555555556,2,2,1,40,0,0
62943,-58.8235294117647,2,2,1,40,0,0
63960,-62.5,2,2,1,40,0,0
64977,-66.6666666666667,2,2,1,40,0,0
65994,-71.4285714285714,2,2,1,40,0,0
67011,-76.9230769230769,2,2,1,40,0,0
68028,1333.33333333333,1,2,1,40,1,0
68028,-62.5,1,2,1,40,0,0
68472,-76.9230769230769,1,2,1,40,0,0
68916,-100,1,2,1,40,0,0
69361,1875,1,2,1,40,1,0
69361,-10000,1,2,1,40,0,0
69986,-100,1,2,1,40,0,0
70064,-50,1,2,1,40,0,0
70142,-40,1,2,1,40,0,0
70220,-33.3333333333333,1,2,1,40,0,0
70298,-32.258064516129,1,2,1,40,0,0
70376,-31.25,1,2,1,40,0,0
70454,-30.3030303030303,1,2,1,40,0,0
70532,-29.4117647058824,1,2,1,40,0,0
70611,-27.8260869565217,1,2,1,40,0,0
71236,285.714285714286,5,2,1,40,1,0
71236,-181.818181818182,5,2,1,40,0,0
72664,279.06976744186,5,2,1,40,1,0
72664,-188.679245283019,5,2,1,40,0,0
74059,272.727272727273,5,2,1,40,1,0
74059,-192.307692307692,5,2,1,40,0,0
75422,266.666666666667,5,2,1,40,1,0
75422,-196.078431372549,5,2,1,40,0,0
77155,266.666666666667,5,2,1,40,1,0
77155,-196.078431372549,5,2,1,40,0,0
77555,301.507537688442,5,2,1,40,1,0
77555,-172.413793103448,5,2,1,40,0,0
78308,301.507537688442,5,2,1,40,1,0
78308,-172.413793103448,5,2,1,40,0,0
79062,256.410256410256,5,2,1,40,1,0
79062,-204.081632653061,5,2,1,40,0,0
80344,247.933884297521,3,2,1,40,1,1
80344,-208.333333333333,3,2,1,40,0,1
83319,234.375,4,2,1,40,1,0
83319,-222.222222222222,4,2,1,40,0,0
85194,231.660231660232,4,2,1,40,1,1
85194,-227.272727272727,4,2,1,40,0,1
88784,-227.272727272727,4,2,1,40,0,0
89132,-227.272727272727,4,2,1,40,0,1
96197,-227.272727272727,4,2,1,40,0,0
96545,-227.272727272727,4,2,1,40,0,1
99035,-227.272727272727,4,2,1,40,0,0
99093,-227.272727272727,4,2,1,40,0,1
99441,-227.272727272727,4,2,1,40,0,0
99672,231.660231660232,5,2,1,40,1,1
99672,-227.272727272727,5,2,1,40,0,1
100019,-227.272727272727,5,2,1,40,0,0
100251,231.660231660232,5,2,1,40,1,1
100251,-227.272727272727,5,2,1,40,0,1
100598,-227.272727272727,5,2,1,40,0,0
100830,231.660231660232,5,2,1,40,1,1
100830,-227.272727272727,5,2,1,40,0,1
102799,231.660231660232,5,2,1,40,1,1
102799,-227.272727272727,5,2,1,40,0,1
103957,250,4,2,1,40,1,1
103957,-208.333333333333,4,2,1,40,0,1
104332,340.909090909091,4,2,1,40,1,1
104332,-153.846153846154,4,2,1,40,0,1
104672,377.358490566038,4,2,1,40,1,1
104672,-138.888888888889,4,2,1,40,0,1
105332,377.358490566038,4,2,1,40,1,0
105332,-138.888888888889,4,2,1,40,0,0
106181,377.358490566038,4,2,1,40,1,0
106181,-138.888888888889,4,2,1,40,0,0
107030,377.358490566038,4,2,1,40,1,0
107030,-138.888888888889,4,2,1,40,0,0
107879,377.358490566038,4,2,1,40,1,0
107879,-138.888888888889,4,2,1,40,0,0
108539,377.358490566038,4,2,1,40,1,0
108539,-138.888888888889,4,2,1,40,0,0
109388,377.358490566038,4,2,1,40,1,0
109388,-138.888888888889,4,2,1,40,0,0
110237,377.358490566038,4,2,1,40,1,0
110237,-138.888888888889,4,2,1,40,0,0
111180,402.684563758389,5,2,1,40,1,0
111180,-129.87012987013,5,2,1,40,0,0
113092,384.615384615385,2,2,1,40,1,0
113092,-135.135135135135,2,2,1,40,0,0
114630,392.156862745098,4,2,1,40,1,0
114630,-133.333333333333,4,2,1,40,0,0
115610,416.666666666667,4,2,1,40,1,0
115610,-125,4,2,1,40,0,0
116026,594.059405940594,7,2,1,40,1,0
116026,-87.719298245614,7,2,1,40,0,0
116620,-87.719298245614,7,2,1,40,0,1
118030,-87.719298245614,7,2,1,40,0,0
118105,594.059405940594,7,2,1,40,1,1
118105,-87.719298245614,7,2,1,40,0,1
118996,-87.719298245614,7,2,1,40,0,0

[HitObjects]
192,192,684,5,2,0:0:0:0:
64,192,684,1,0,0:0:0:0:
64,192,814,128,8,1075:0:0:0:0:
320,192,814,1,4,0:0:0:0:
448,192,814,128,0,1075:0:0:0:0:
192,192,1075,1,2,0:0:0:0:
64,192,1205,1,8,0:0:0:0:
448,192,1205,128,4,1270:0:0:0:0:
192,192,1205,128,0,1270:0:0:0:0:
448,192,1336,128,8,1466:0:0:0:0:
64,192,1336,1,4,0:0:0:0:
192,192,1336,128,0,1466:0:0:0:0:
320,192,1596,128,2,1727:0:0:0:0:
64,192,1596,128,4,1727:0:0:0:0:
448,192,1596,1,0,0:0:0:0:
192,192,1857,1,8,0:0:0:0:
320,192,1857,1,0,0:0:0:0:
64,192,1988,128,8,3940:0:0:0:0:
448,192,1988,1,4,0:0:0:0:
320,192,1988,1,0,0:0:0:0:
192,192,1988,128,0,3103:0:0:0:0:
448,192,3103,1,8,0:0:0:0:
320,192,3103,1,0,0:0:0:0:
448,192,3243,1,8,0:0:0:0:
320,192,3243,1,0,0:0:0:0:
192,192,3382,1,0,0:0:0:70:tom1.wav
448,192,3382,1,0,0:0:0:0:
448,192,3475,1,0,0:0:0:70:tom1.wav
320,192,3568,1,0,0:0:0:70:tom2.wav
192,192,3661,1,0,0:0:0:70:tom2.wav
448,192,3661,1,0,0:0:0:0:
192,192,3754,1,0,0:0:0:70:tom3.wav
320,192,3847,1,0,0:0:0:70:tom3.wav
192,192,3940,1,0,0:0:0:70:tom4.wav
448,192,3940,1,0,0:0:0:0:
64,192,4070,128,8,4331:0:0:0:0:
448,192,4070,1,4,0:0:0:0:
320,192,4070,128,0,4331:0:0:0:0:
192,192,4331,1,2,0:0:0:0:
448,192,4461,1,8,0:0:0:0:
192,192,4461,128,4,4526:0:0:0:0:
64,192,4461,128,0,4526:0:0:0:0:
448,192,4592,1,8,0:0:0:0:
192,192,4592,128,4,4722:0:0:0:0:
64,192,4592,128,0,4722:0:0:0:0:
192,192,4852,128,2,4983:0:0:0:0:
320,192,4852,128,4,4983:0:0:0:0:
64,192,4852,1,0,0:0:0:0:
192,192,5113,1,2,0:0:0:0:
448,192,5113,1,0,0:0:0:0:
448,192,5244,128,8,7551:0:0:0:0:
64,192,5244,1,4,0:0:0:0:
192,192,5244,1,0,0:0:0:0:
320,192,5244,128,0,6628:0:0:0:0:
192,192,6628,1,8,0:0:0:0:
64,192,6628,1,0,0:0:0:0:
64,192,6730,1,8,0:0:0:0:
192,192,6833,1,8,0:0:0:0:
320,192,6935,1,8,0:0:0:0:
64,192,6935,1,0,0:0:0:0:
320,192,7038,1,0,0:0:0:70:tom1.wav
64,192,7140,1,0,0:0:0:70:tom1.wav
192,192,7243,1,0,0:0:0:70:tom2.wav
320,192,7243,1,0,0:0:0:0:
192,192,7346,1,0,0:0:0:70:tom3.wav
64,192,7448,1,0,0:0:0:70:tom4.wav
320,192,7551,1,2,0:0:0:0:
192,192,7551,1,4,0:0:0:0:
64,192,7551,1,0,0:0:0:0:
448,192,7651,1,0,0:0:0:0:
320,192,7749,1,0,0:0:0:0:
64,192,7749,1,0,0:0:0:0:
192,192,7847,1,0,0:0:0:0:
448,192,7945,1,0,0:0:0:0:
320,192,7945,1,0,0:0:0:0:
192,192,8043,128,0,8141:0:0:0:0:
64,192,8043,1,0,0:0:0:0:
448,192,8141,1,0,0:0:0:0:
64,192,8239,128,0,8435:0:0:0:0:
192,192,8239,1,0,0:0:0:0:
192,192,8435,1,2,0:0:0:0:
320,192,8435,1,4,0:0:0:0:
448,192,8435,1,0,0:0:0:0:
64,192,8533,1,0,0:0:0:0:
320,192,8631,1,0,0:0:0:0:
448,192,8631,1,0,0:0:0:0:
192,192,8729,1,0,0:0:0:0:
320,192,8827,1,0,0:0:0:0:
448,192,8827,1,0,0:0:0:0:
64,192,8925,1,0,0:0:0:0:
192,192,8925,128,0,9023:0:0:0:0:
448,192,9023,1,0,0:0:0:0:
64,192,9121,128,0,9317:0:0:0:0:
192,192,9121,1,0,0:0:0:0:
192,192,9317,1,2,0:0:0:0:
320,192,9317,1,4,0:0:0:0:
448,192,9317,1,0,0:0:0:0:
64,192,9415,1,0,0:0:0:0:
320,192,9513,1,0,0:0:0:0:
448,192,9513,1,0,0:0:0:0:
192,192,9611,1,0,0:0:0:0:
64,192,9709,1,0,0:0:0:0:
448,192,9709,1,0,0:0:0:0:
448,192,9807,1,8,0:0:0:0:
192,192,9807,128,0,9905:0:0:0:0:
320,192,9905,1,0,0:0:0:70:tom1.wav
192,192,10003,1,0,0:0:0:70:tom2.wav
64,192,10003,128,0,10199:0:0:0:0:
320,192,10101,1,0,0:0:0:70:tom3.wav
448,192,10101,1,0,0:0:0:0:
320,192,10199,128,4,10248:0:0:0:0:
448,192,10199,128,8,10272:0:0:0:0:
192,192,10199,1,0,0:0:0:0:
448,192,10395,128,8,10525:0:0:0:0:
320,192,10395,128,4,10493:0:0:0:0:
64,192,10395,1,0,0:0:0:0:
192,192,10395,128,0,10460:0:0:0:0:
192,192,10591,128,8,10787:0:0:0:0:
320,192,10591,128,4,10836:0:0:0:0:
448,192,10591,128,0,10885:0:0:0:0:
64,192,10591,128,0,10738:0:0:0:0:
192,192,10885,1,2,0:0:0:0:
64,192,10885,1,4,0:0:0:0:
320,192,10983,1,0,0:0:0:0:
64,192,11081,1,8,0:0:0:0:
192,192,11081,1,0,0:0:0:0:
64,192,11179,1,8,0:0:0:0:
192,192,11179,1,0,0:0:0:0:
320,192,11277,1,8,0:0:0:0:
448,192,11277,1,0,0:0:0:0:
320,192,11375,1,8,0:0:0:0:
448,192,11375,1,0,0:0:0:0:
64,192,11473,1,8,0:0:0:0:
192,192,11571,1,8,0:0:0:0:
320,192,11571,1,0,0:0:0:0:
448,192,11669,1,8,0:0:0:0:
320,192,11767,1,8,0:0:0:0:
192,192,11767,1,0,0:0:0:0:
64,192,11865,1,8,0:0:0:0:
320,192,11963,1,8,0:0:0:0:
448,192,11963,1,0,0:0:0:0:
320,192,12061,1,0,0:0:0:70:tom1.wav
448,192,12061,1,0,0:0:0:0:
192,192,12159,1,0,0:0:0:70:tom2.wav
64,192,12159,1,0,0:0:0:0:
64,192,12257,1,0,0:0:0:70:tom2.wav
192,192,12257,1,0,0:0:0:0:
320,192,12355,1,0,0:0:0:70:tom3.wav
192,192,12453,1,0,0:0:0:70:tom3.wav
448,192,12453,1,0,0:0:0:0:
64,192,12551,1,0,0:0:0:70:tom4.wav
448,192,12649,1,4,0:0:0:0:
320,192,12649,1,2,0:0:0:0:
64,192,12649,1,0,0:0:0:0:
192,192,12747,1,2,0:0:0:0:
64,192,12845,1,8,0:0:0:0:
320,192,12845,1,0,0:0:0:0:
448,192,12943,1,8,0:0:0:0:
64,192,13041,1,8,0:0:0:0:
192,192,13041,1,0,0:0:0:0:
448,192,13139,1,0,0:0:0:0:
320,192,13139,1,0,0:0:0:0:
64,192,13237,1,0,0:0:0:70:tom1.wav
192,192,13237,1,0,0:0:0:0:
320,192,13286,1,0,0:0:0:70:tom1.wav
64,192,13335,1,0,0:0:0:70:tom2.wav
320,192,13433,1,0,0:0:0:70:tom3.wav
448,192,13433,1,0,0:0:0:0:
192,192,13482,1,0,0:0:0:70:tom3.wav
448,192,13531,1,0,0:0:0:70:tom4.wav
192,192,13629,1,2,0:0:0:0:
64,192,13629,1,4,0:0:0:0:
320,192,13729,1,2,0:0:0:0:
448,192,13729,1,0,0:0:0:0:
320,192,13830,128,8,14031:0:0:0:0:
64,192,13830,1,4,0:0:0:0:
448,192,13830,1,0,0:0:0:0:
192,192,14031,1,8,0:0:0:0:
64,192,14031,1,4,0:0:0:0:
448,192,14031,1,0,0:0:0:0:
192,192,14165,1,4,0:0:0:0:
320,192,14165,1,2,0:0:0:0:
320,192,14300,1,2,0:0:0:0:
448,192,14300,1,4,0:0:0:0:
64,192,14434,1,2,0:0:0:0:
192,192,14434,1,4,0:0:0:0:
320,192,14568,1,4,0:0:0:0:
64,192,14568,1,8,0:0:0:0:
448,192,14568,128,0,15441:0:0:0:0:
320,192,14837,1,8,0:0:0:0:
192,192,14837,1,4,0:0:0:0:
64,192,14837,128,0,15835:0:0:0:0:
448,192,15541,128,0,16129:0:0:0:0:
64,192,15933,128,0,16129:0:0:0:0:
192,192,16325,128,8,16717:0:0:0:0:
64,192,16325,1,4,0:0:0:0:
448,192,16325,1,0,0:0:0:0:
448,192,16423,1,8,0:0:0:0:
320,192,16423,1,0,0:0:0:0:
320,192,16717,128,8,17011:0:0:0:0:
448,192,16717,1,4,0:0:0:0:
64,192,16717,1,0,0:0:0:0:
64,192,16815,1,8,0:0:0:0:
192,192,16815,1,0,0:0:0:0:
448,192,17011,128,2,18383:0:0:0:0:
192,192,17011,1,4,0:0:0:0:
64,192,17011,1,0,0:0:0:0:
320,192,17207,1,8,0:0:0:0:
192,192,17305,1,2,0:0:0:0:
64,192,17305,1,0,0:0:0:0:
64,192,17501,1,2,0:0:0:0:
192,192,17501,1,0,0:0:0:0:
64,192,17599,128,8,17697:0:0:0:0:
320,192,17599,1,0,0:0:0:0:
64,192,17795,128,2,17991:0:0:0:0:
320,192,17795,1,0,0:0:0:0:
320,192,17991,1,2,0:0:0:0:
192,192,18089,1,8,0:0:0:0:
64,192,18089,1,0,0:0:0:0:
320,192,18187,1,2,0:0:0:0:
192,192,18187,1,0,0:0:0:0:
64,192,18285,1,2,0:0:0:0:
192,192,18383,1,0,0:0:0:70:tom1.wav
320,192,18383,1,0,0:0:0:0:
64,192,18481,1,2,0:0:0:0:
448,192,18481,1,0,0:0:0:0:
320,192,18579,1,0,0:0:0:70:tom1.wav
64,192,18677,1,8,0:0:0:0:
192,192,18677,128,4,18726:0:0:0:0:
448,192,18677,1,0,0:0:0:0:
320,192,18775,128,0,18824:0:0:0:70:tom2.wav
192,192,18873,128,0,18922:0:0:0:70:tom3.wav
448,192,18971,1,8,0:0:0:0:
320,192,18971,128,4,19020:0:0:0:0:
64,192,18971,1,0,0:0:0:0:
192,192,19069,128,0,19118:0:0:0:0:
320,192,19167,1,2,0:0:0:0:
64,192,19167,1,4,0:0:0:0:
448,192,19167,1,0,0:0:0:0:
192,192,19265,1,2,0:0:0:0:
448,192,19265,1,0,0:0:0:0:
64,192,19363,1,2,0:0:0:0:
320,192,19363,1,4,0:0:0:0:
192,192,19363,1,0,0:0:0:0:
192,192,19559,1,8,0:0:0:0:
64,192,19559,1,0,0:0:0:0:
320,192,19559,1,0,0:0:0:0:
448,192,19657,128,2,19755:0:0:0:0:
192,192,19657,1,0,0:0:0:0:
320,192,19755,1,0,0:0:0:0:
448,192,19853,128,2,20049:0:0:0:0:
192,192,19853,1,0,0:0:0:0:
320,192,20049,1,2,0:0:0:0:
64,192,20049,1,0,0:0:0:0:
192,192,20147,1,8,0:0:0:0:
448,192,20147,1,4,0:0:0:0:
64,192,20147,1,0,0:0:0:0:
320,192,20245,1,2,0:0:0:0:
448,192,20245,1,0,0:0:0:0:
192,192,20343,1,2,0:0:0:0:
64,192,20343,1,0,0:0:0:0:
448,192,20441,1,0,0:0:0:0:
192,192,20539,1,2,0:0:0:0:
320,192,20539,1,0,0:0:0:0:
448,192,20637,128,0,20702:0:0:0:0:
320,192,20702,128,0,20767:0:0:0:0:
64,192,20735,1,8,0:0:0:0:
192,192,20767,128,0,20833:0:0:0:0:
448,192,20833,1,0,0:0:0:70:tom1.wav
320,192,20833,128,0,20898:0:0:0:0:
192,192,20898,128,0,20964:0:0:0:0:
64,192,20964,128,0,21029:0:0:0:0:
192,192,21029,128,0,21094:0:0:0:70:tom3.wav
320,192,21029,1,0,0:0:0:0:
448,192,21094,128,0,21160:0:0:0:70:tom4.wav
320,192,21160,128,0,21225:0:0:0:70:tom4.wav
64,192,21225,128,8,21299:0:0:0:0:
192,192,21225,128,4,21274:0:0:0:0:
448,192,21225,1,0,0:0:0:0:
448,192,21421,1,0,0:0:0:0:
64,192,21421,128,8,21552:0:0:0:0:
320,192,21421,128,0,21486:0:0:0:0:
192,192,21421,128,4,21519:0:0:0:0:
448,192,21617,128,0,21813:0:0:0:0:
64,192,21617,128,0,21960:0:0:0:0:
320,192,21617,128,8,21862:0:0:0:0:
192,192,21617,128,4,21911:0:0:0:0:
448,192,21911,128,2,22009:0:0:0:0:
320,192,21960,128,2,22058:0:0:0:0:
192,192,22009,128,2,22107:0:0:0:0:
64,192,22058,128,0,22156:0:0:0:0:
448,192,22107,128,2,22156:0:0:0:0:
320,192,22156,128,0,22205:0:0:0:0:
192,192,22205,128,0,22254:0:0:0:0:
64,192,22254,128,0,22303:0:0:0:0:
320,192,22303,1,8,0:0:0:0:
448,192,22303,1,4,0:0:0:0:
320,192,22401,128,2,22499:0:0:0:0:
192,192,22401,1,0,0:0:0:0:
320,192,22597,128,2,22793:0:0:0:0:
192,192,22597,1,0,0:0:0:0:
192,192,22793,1,2,0:0:0:0:
64,192,22793,1,0,0:0:0:0:
320,192,22891,1,8,0:0:0:0:
448,192,22891,1,0,0:0:0:0:
64,192,22891,1,0,0:0:0:0:
448,192,22989,1,2,0:0:0:0:
192,192,22989,1,0,0:0:0:0:
64,192,23087,1,2,0:0:0:0:
320,192,23087,1,0,0:0:0:0:
192,192,23185,1,0,0:0:0:70:tom1.wav
320,192,23283,1,2,0:0:0:0:
448,192,23283,1,0,0:0:0:0:
192,192,23381,1,0,0:0:0:70:tom1.wav
320,192,23479,128,8,23528:0:0:0:0:
448,192,23479,1,4,0:0:0:0:
64,192,23479,1,0,0:0:0:0:
192,192,23577,128,0,23626:0:0:0:70:tom2.wav
320,192,23675,128,0,23724:0:0:0:70:tom3.wav
448,192,23773,1,8,0:0:0:0:
192,192,23773,128,4,23822:0:0:0:0:
64,192,23773,1,0,0:0:0:0:
320,192,23871,128,0,23920:0:0:0:0:
192,192,23969,1,2,0:0:0:0:
448,192,23969,1,4,0:0:0:0:
64,192,23969,1,0,0:0:0:0:
320,192,24067,1,2,0:0:0:0:
192,192,24067,1,0,0:0:0:0:
448,192,24165,1,2,0:0:0:0:
64,192,24165,1,4,0:0:0:0:
320,192,24165,1,0,0:0:0:0:
448,192,24361,1,8,0:0:0:0:
64,192,24361,1,0,0:0:0:0:
320,192,24361,1,0,0:0:0:0:
192,192,24459,128,2,24557:0:0:0:0:
320,192,24459,1,0,0:0:0:0:
64,192,24557,1,0,0:0:0:0:
192,192,24655,128,2,24851:0:0:0:0:
320,192,24655,1,0,0:0:0:0:
448,192,24851,1,2,0:0:0:0:
320,192,24851,1,0,0:0:0:0:
192,192,24949,1,8,0:0:0:0:
64,192,24949,1,0,0:0:0:0:
448,192,24949,1,0,0:0:0:0:
64,192,25047,1,2,0:0:0:0:
320,192,25047,1,0,0:0:0:0:
448,192,25145,128,2,25341:0:0:0:0:
192,192,25145,1,0,0:0:0:0:
320,192,25341,1,2,0:0:0:0:
64,192,25341,1,0,0:0:0:0:
192,192,25439,1,2,0:0:0:0:
64,192,25537,1,8,0:0:0:0:
448,192,25537,1,0,0:0:0:0:
192,192,25635,1,8,0:0:0:0:
320,192,25635,1,0,0:0:0:0:
64,192,25700,1,0,0:0:0:0:
448,192,25733,1,8,0:0:0:0:
192,192,25766,1,0,0:0:0:0:
320,192,25831,1,2,0:0:0:0:
448,192,25831,1,0,0:0:0:0:
64,192,25929,1,8,0:0:0:0:
192,192,25929,1,0,0:0:0:0:
448,192,26027,1,0,0:0:0:70:tom1.wav
320,192,26076,1,0,0:0:0:70:tom1.wav
192,192,26125,1,2,0:0:0:0:
64,192,26125,1,0,0:0:0:0:
320,192,26174,1,2,0:0:0:0:
448,192,26223,1,0,0:0:0:70:tom2.wav
192,192,26321,1,2,0:0:0:0:
64,192,26321,1,0,0:0:0:0:
448,192,26419,128,8,26615:0:0:0:0:
192,192,26419,128,4,26615:0:0:0:0:
320,192,26419,1,0,0:0:0:0:
64,192,26615,1,2,0:0:0:0:
320,192,26615,1,0,0:0:0:0:
320,192,26713,128,8,27399:0:0:0:0:
448,192,26713,128,4,27399:0:0:0:0:
64,192,26713,1,0,0:0:0:0:
64,192,27399,1,8,0:0:0:0:
192,192,27399,1,0,0:0:0:0:
320,192,27464,1,8,0:0:0:0:
448,192,27464,1,0,0:0:0:0:
64,192,27529,1,8,0:0:0:0:
192,192,27529,1,0,0:0:0:0:
320,192,27595,1,8,0:0:0:0:
448,192,27595,1,0,0:0:0:0:
64,192,27693,1,8,0:0:0:0:
448,192,27693,1,0,0:0:0:0:
320,192,27791,1,8,0:0:0:0:
192,192,27791,128,4,27987:0:0:0:0:
64,192,27791,128,0,27987:0:0:0:0:
320,192,28085,128,8,28673:0:0:0:0:
64,192,28085,128,4,28673:0:0:0:0:
448,192,28085,1,0,0:0:0:0:
448,192,28673,1,0,0:0:0:70:tom1.wav
448,192,28771,1,0,0:0:0:70:tom2.wav
320,192,28869,1,0,0:0:0:70:tom2.wav
320,192,28967,1,0,0:0:0:70:tom3.wav
192,192,29065,1,0,0:0:0:70:tom3.wav
192,192,29163,1,0,0:0:0:70:tom4.wav
64,192,29261,1,8,0:0:0:0:
320,192,29261,1,0,0:0:0:0:
448,192,29261,1,0,0:0:0:0:
320,192,29359,128,2,29432:0:0:0:0:
192,192,29359,128,0,29457:0:0:0:0:
64,192,29359,128,0,29481:0:0:0:0:
192,192,29555,128,2,29628:0:0:0:0:
64,192,29555,128,0,29653:0:0:0:0:
448,192,29555,128,0,29653:0:0:0:0:
64,192,29751,128,2,29849:0:0:0:0:
320,192,29751,128,0,29824:0:0:0:0:
448,192,29751,128,0,29849:0:0:0:0:
448,192,29947,128,0,30069:0:0:0:0:
192,192,29947,128,2,30020:0:0:0:0:
320,192,29947,128,0,30045:0:0:0:0:
64,192,30143,128,2,30241:0:0:0:0:
320,192,30143,128,0,30216:0:0:0:0:
448,192,30143,128,0,30241:0:0:0:0:
192,192,30339,128,2,30412:0:0:0:0:
448,192,30339,128,0,30437:0:0:0:0:
64,192,30339,128,0,30437:0:0:0:0:
320,192,30535,128,8,30609:0:0:0:0:
192,192,30535,128,0,30633:0:0:0:0:
64,192,30535,128,0,30663:0:0:0:0:
448,192,30737,1,0,0:0:0:70:tom1.wav
320,192,30737,1,0,0:0:0:0:
192,192,30786,1,0,0:0:0:70:tom3.wav
64,192,30786,1,0,0:0:0:0:
320,192,30835,1,2,0:0:0:0:
448,192,30835,1,0,0:0:0:0:
192,192,31031,128,2,32857:0:0:0:0:
64,192,31031,1,4,0:0:0:0:
448,192,31031,1,0,0:0:0:0:
320,192,31031,128,0,32857:0:0:0:0:
448,192,31292,1,8,0:0:0:0:
448,192,31553,1,8,0:0:0:0:
64,192,31683,1,0,0:0:0:70:tom2.wav
448,192,31814,1,8,0:0:0:0:
448,192,31944,1,8,0:0:0:0:
64,192,32075,1,0,0:0:0:70:tom3.wav
448,192,32205,1,8,0:0:0:0:
448,192,32336,128,8,32857:0:0:0:0:
64,192,32466,128,0,32857:0:0:0:70:tom4.wav
64,192,32988,1,4,0:0:0:0:
192,192,32988,1,2,0:0:0:0:
320,192,32988,1,0,0:0:0:0:
448,192,32988,1,0,0:0:0:0:
192,192,33118,1,0,0:0:0:0:
64,192,33249,1,2,0:0:0:0:
320,192,33249,1,0,0:0:0:0:
448,192,33379,1,0,0:0:0:0:
192,192,33509,1,8,0:0:0:0:
64,192,33509,1,0,0:0:0:0:
320,192,33509,1,0,0:0:0:0:
320,192,33640,1,2,0:0:0:0:
448,192,33640,1,0,0:0:0:0:
64,192,33770,1,0,0:0:0:0:
448,192,33901,1,8,0:0:0:0:
192,192,33901,1,0,0:0:0:0:
320,192,33901,1,0,0:0:0:0:
64,192,34031,1,2,0:0:0:0:
192,192,34031,1,0,0:0:0:0:
320,192,34118,1,2,0:0:0:0:
64,192,34162,1,0,0:0:0:0:
320,192,34205,1,2,0:0:0:0:
448,192,34292,1,8,0:0:0:0:
192,192,34292,1,0,0:0:0:0:
64,192,34292,1,0,0:0:0:0:
320,192,34423,1,0,0:0:0:0:
192,192,34553,1,0,0:0:0:0:
320,192,34683,1,0,0:0:0:0:
192,192,34813,1,2,0:0:0:0:
64,192,34813,1,0,0:0:0:0:
448,192,34944,1,2,0:0:0:0:
320,192,34944,1,0,0:0:0:0:
64,192,35074,1,2,0:0:0:0:
320,192,35074,1,0,0:0:0:0:
192,192,35205,1,2,0:0:0:0:
448,192,35205,1,0,0:0:0:0:
64,192,35335,1,8,0:0:0:0:
320,192,35335,1,4,0:0:0:0:
448,192,35335,1,0,0:0:0:0:
192,192,35466,1,0,0:0:0:0:
64,192,35596,1,0,0:0:0:0:
448,192,35726,1,8,0:0:0:0:
320,192,35726,1,0,0:0:0:0:
64,192,35857,1,2,0:0:0:0:
192,192,35857,1,0,0:0:0:0:
320,192,35944,1,2,0:0:0:0:
448,192,36031,1,2,0:0:0:0:
192,192,36118,1,8,0:0:0:0:
64,192,36118,1,0,0:0:0:0:
192,192,36205,1,8,0:0:0:0:
320,192,36205,1,0,0:0:0:0:
448,192,36292,1,8,0:0:0:0:
320,192,36292,1,0,0:0:0:0:
64,192,36379,1,0,0:0:0:70:tom1.wav
192,192,36466,1,0,0:0:0:70:tom1.wav
320,192,36553,1,0,0:0:0:70:tom3.wav
64,192,36639,1,2,0:0:0:0:
192,192,36639,1,4,0:0:0:0:
448,192,36639,1,0,0:0:0:0:
320,192,36704,1,0,0:0:0:0:
192,192,36769,1,0,0:0:0:0:
64,192,36834,1,0,0:0:0:0:
320,192,36899,1,2,0:0:0:0:
448,192,36899,1,0,0:0:0:0:
192,192,36965,1,0,0:0:0:0:
448,192,37030,1,0,0:0:0:0:
192,192,37160,1,8,0:0:0:0:
64,192,37160,1,0,0:0:0:0:
320,192,37160,1,0,0:0:0:0:
448,192,37291,1,2,0:0:0:0:
64,192,37291,1,0,0:0:0:0:
448,192,37421,1,0,0:0:0:0:
64,192,37552,1,8,0:0:0:0:
192,192,37552,1,0,0:0:0:0:
320,192,37552,1,0,0:0:0:0:
448,192,37682,1,2,0:0:0:0:
64,192,37682,1,0,0:0:0:0:
320,192,37747,1,0,0:0:0:0:
192,192,37769,1,2,0:0:0:0:
448,192,37812,1,0,0:0:0:0:
192,192,37856,1,2,0:0:0:0:
448,192,37943,1,8,0:0:0:0:
64,192,37943,1,0,0:0:0:0:
320,192,37943,1,0,0:0:0:0:
64,192,38205,1,8,0:0:0:0:
320,192,38205,1,0,0:0:0:0:
448,192,38205,1,0,0:0:0:0:
192,192,38270,1,0,0:0:0:0:
320,192,38335,1,0,0:0:0:0:
448,192,38400,1,0,0:0:0:0:
192,192,38465,1,2,0:0:0:0:
64,192,38465,1,0,0:0:0:0:
320,192,38552,1,0,0:0:0:0:
192,192,38596,1,0,0:0:0:0:
64,192,38639,1,0,0:0:0:0:
192,192,38726,1,8,0:0:0:0:
448,192,38726,1,0,0:0:0:0:
320,192,38726,1,0,0:0:0:0:
320,192,38857,1,2,0:0:0:0:
64,192,38857,1,0,0:0:0:0:
64,192,38987,1,2,0:0:0:0:
448,192,38987,1,0,0:0:0:0:
192,192,39052,1,0,0:0:0:0:
320,192,39118,1,0,0:0:0:0:
448,192,39183,1,0,0:0:0:0:
320,192,39248,1,4,0:0:0:0:
192,192,39248,128,0,39291:0:0:0:0:
64,192,39248,128,8,39313:0:0:0:0:
192,192,39378,1,2,0:0:0:0:
320,192,39378,128,0,39422:0:0:0:0:
448,192,39378,128,4,39444:0:0:0:0:
64,192,39444,1,0,0:0:0:0:
192,192,39509,1,0,0:0:0:0:
320,192,39596,1,0,0:0:0:0:
192,192,39639,128,2,39683:0:0:0:0:
64,192,39639,128,4,39705:0:0:0:0:
448,192,39683,1,0,0:0:0:0:
64,192,39770,128,0,40031:0:0:0:0:
192,192,39900,1,0,0:0:0:0:
320,192,39900,128,2,39944:0:0:0:0:
448,192,39900,128,4,39965:0:0:0:0:
448,192,40031,128,0,40226:0:0:0:0:
320,192,40074,128,0,40226:0:0:0:0:
192,192,40118,128,0,40226:0:0:0:0:
64,192,40161,128,0,40226:0:0:0:0:
320,192,40291,1,4,0:0:0:0:
448,192,40291,1,2,0:0:0:0:
192,192,40291,1,0,0:0:0:0:
64,192,40291,1,0,0:0:0:0:
192,192,40421,1,0,0:0:0:0:
64,192,40551,1,2,0:0:0:0:
320,192,40551,1,0,0:0:0:0:
448,192,40682,1,0,0:0:0:0:
320,192,40812,1,8,0:0:0:0:
192,192,40812,1,0,0:0:0:0:
64,192,40812,1,0,0:0:0:0:
192,192,40943,1,2,0:0:0:0:
448,192,40943,1,0,0:0:0:0:
64,192,41073,1,0,0:0:0:0:
64,192,41204,1,8,0:0:0:0:
192,192,41204,1,0,0:0:0:0:
320,192,41204,1,0,0:0:0:0:
448,192,41334,1,2,0:0:0:0:
320,192,41334,1,0,0:0:0:0:
192,192,41421,1,2,0:0:0:0:
448,192,41464,1,0,0:0:0:0:
192,192,41508,1,2,0:0:0:0:
320,192,41595,1,0,0:0:0:0:
64,192,41595,1,8,0:0:0:0:
448,192,41595,1,0,0:0:0:0:
192,192,41725,1,0,0:0:0:0:
448,192,41857,1,0,0:0:0:0:
192,192,41987,1,0,0:0:0:0:
320,192,42117,1,2,0:0:0:0:
64,192,42117,1,0,0:0:0:0:
192,192,42248,1,2,0:0:0:0:
448,192,42248,1,0,0:0:0:0:
64,192,42378,1,2,0:0:0:0:
448,192,42378,1,0,0:0:0:0:
192,192,42509,1,2,0:0:0:0:
320,192,42509,1,0,0:0:0:0:
64,192,42639,1,8,0:0:0:0:
192,192,42639,1,4,0:0:0:0:
448,192,42639,1,0,0:0:0:0:
320,192,42770,1,0,0:0:0:0:
192,192,42900,1,8,0:0:0:0:
448,192,42900,1,0,0:0:0:0:
64,192,42933,1,8,0:0:0:0:
320,192,42987,1,0,0:0:0:0:
192,192,43074,1,0,0:0:0:70:tom2.wav
64,192,43074,1,0,0:0:0:0:
320,192,43161,1,2,0:0:0:0:
448,192,43161,1,0,0:0:0:0:
320,192,43248,1,0,0:0:0:70:tom4.wav
192,192,43248,1,0,0:0:0:0:
192,192,43335,1,2,0:0:0:0:
64,192,43335,1,0,0:0:0:0:
320,192,43422,1,8,0:0:0:0:
64,192,43422,1,0,0:0:0:0:
448,192,43454,1,8,0:0:0:0:
192,192,43509,1,2,0:0:0:0:
320,192,43552,1,0,0:0:0:0:
64,192,43596,1,0,0:0:0:70:tom1.wav
192,192,43683,1,2,0:0:0:0:
448,192,43683,1,0,0:0:0:0:
320,192,43770,1,0,0:0:0:70:tom3.wav
64,192,43813,1,0,0:0:0:0:
192,192,43857,1,2,0:0:0:0:
64,192,43943,128,2,44009:0:0:0:0:
320,192,43943,128,4,44009:0:0:0:0:
448,192,43943,1,0,0:0:0:0:
320,192,44074,128,0,44139:0:0:0:0:
64,192,44074,128,0,44139:0:0:0:0:
192,192,44204,1,8,0:0:0:0:
448,192,44204,1,0,0:0:0:0:
320,192,44204,1,0,0:0:0:0:
192,192,44335,128,2,44759:0:0:0:0:
64,192,44335,128,4,44791:0:0:0:0:
448,192,44335,1,0,0:0:0:0:
320,192,44335,128,0,44726:0:0:0:0:
320,192,44857,128,2,45052:0:0:0:0:
448,192,44857,128,4,45052:0:0:0:0:
192,192,44857,1,0,0:0:0:0:
192,192,44987,1,0,0:0:0:0:
448,192,45117,1,8,0:0:0:0:
64,192,45117,1,0,0:0:0:0:
320,192,45117,1,0,0:0:0:0:
192,192,45248,128,2,45639:0:0:0:0:
448,192,45248,128,4,45704:0:0:0:0:
64,192,45248,1,0,0:0:0:0:
320,192,45248,128,0,45672:0:0:0:0:
448,192,45770,128,2,46161:0:0:0:0:
192,192,45770,1,4,0:0:0:0:
320,192,45770,1,0,0:0:0:0:
320,192,46161,128,2,46552:0:0:0:0:
192,192,46161,1,4,0:0:0:0:
64,192,46161,1,0,0:0:0:0:
192,192,46552,128,2,46943:0:0:0:0:
64,192,46552,1,4,0:0:0:0:
448,192,46552,1,0,0:0:0:0:
64,192,46943,128,2,47335:0:0:0:0:
320,192,46943,1,4,0:0:0:0:
448,192,46943,1,0,0:0:0:0:
192,192,47074,1,8,0:0:0:0:
448,192,47074,1,0,0:0:0:0:
320,192,47204,1,2,0:0:0:0:
448,192,47335,128,2,47574:0:0:0:0:
320,192,47335,1,4,0:0:0:0:
192,192,47335,1,0,0:0:0:0:
192,192,47454,1,2,0:0:0:0:
320,192,47574,128,2,47694:0:0:0:0:
64,192,47574,1,0,0:0:0:0:
64,192,47694,128,8,48053:0:0:0:0:
192,192,47694,1,0,0:0:0:0:
448,192,47694,1,0,0:0:0:0:
448,192,47814,1,0,0:0:0:0:
320,192,47873,1,0,0:0:0:0:
192,192,47933,1,0,0:0:0:0:
448,192,48053,128,2,48293:0:0:0:0:
320,192,48053,1,0,0:0:0:0:
64,192,48173,1,2,0:0:0:0:
192,192,48233,1,0,0:0:0:0:
320,192,48293,128,2,48412:0:0:0:0:
64,192,48293,1,0,0:0:0:0:
64,192,48412,128,8,48772:0:0:0:0:
448,192,48412,1,0,0:0:0:0:
192,192,48412,1,0,0:0:0:0:
320,192,48532,1,0,0:0:0:0:
192,192,48652,1,2,0:0:0:0:
448,192,48652,1,0,0:0:0:0:
448,192,48772,128,2,49011:0:0:0:0:
320,192,48772,1,0,0:0:0:0:
192,192,48772,1,0,0:0:0:0:
64,192,48891,1,2,0:0:0:0:
192,192,49011,1,8,0:0:0:0:
320,192,49011,128,0,49131:0:0:0:0:
64,192,49011,1,0,0:0:0:0:
64,192,49131,128,2,49490:0:0:0:0:
448,192,49131,1,0,0:0:0:0:
192,192,49251,1,2,0:0:0:0:
320,192,49311,1,0,0:0:0:0:
448,192,49370,1,2,0:0:0:0:
320,192,49490,1,8,0:0:0:0:
192,192,49490,1,0,0:0:0:0:
448,192,49490,128,0,49849:0:0:0:0:
320,192,49610,1,0,0:0:0:0:
192,192,49670,1,0,0:0:0:0:
64,192,49730,1,2,0:0:0:0:
64,192,49849,1,2,0:0:0:0:
192,192,49849,1,0,0:0:0:0:
320,192,49969,1,8,0:0:0:0:
192,192,49969,1,0,0:0:0:0:
320,192,50089,1,2,0:0:0:0:
448,192,50089,1,0,0:0:0:0:
192,192,50209,128,2,50515:0:0:0:0:
320,192,50209,128,4,50454:0:0:0:0:
64,192,50209,128,0,50577:0:0:0:0:
448,192,50209,128,0,50393:0:0:0:0:
320,192,50577,1,0,0:0:0:70:tom1.wav
448,192,50577,1,0,0:0:0:0:
448,192,50699,1,0,0:0:0:70:tom1.wav
320,192,50699,1,0,0:0:0:0:
320,192,50822,1,0,0:0:0:70:tom1.wav
448,192,50822,1,0,0:0:0:0:
320,192,50945,128,0,51313:0:0:0:70:tom1.wav
448,192,50945,128,0,51190:0:0:0:0:
192,192,51313,1,2,0:0:0:0:
64,192,51313,1,4,0:0:0:0:
448,192,51313,1,0,0:0:0:0:
192,192,51435,1,0,0:0:0:0:
320,192,51435,1,0,0:0:0:0:
320,192,51558,1,0,0:0:0:0:
448,192,51558,1,0,0:0:0:0:
64,192,51681,128,2,51865:0:0:0:0:
320,192,51681,128,4,51988:0:0:0:0:
192,192,51681,128,0,51926:0:0:0:0:
448,192,51681,128,0,52049:0:0:0:0:
64,192,52049,1,0,0:0:0:70:tom2.wav
192,192,52049,1,0,0:0:0:0:
192,192,52172,1,0,0:0:0:70:tom1.wav
64,192,52172,1,0,0:0:0:0:
64,192,52294,1,0,0:0:0:70:tom2.wav
192,192,52294,1,0,0:0:0:0:
64,192,52417,128,0,52662:0:0:0:70:tom3.wav
192,192,52417,128,0,52785:0:0:0:0:
448,192,52785,1,2,0:0:0:0:
320,192,52785,1,4,0:0:0:0:
64,192,52785,1,0,0:0:0:0:
320,192,52908,1,0,0:0:0:0:
192,192,52908,1,0,0:0:0:0:
192,192,53031,1,0,0:0:0:0:
64,192,53031,1,0,0:0:0:0:
320,192,53153,128,2,53247:0:0:0:0:
64,192,53153,128,0,53577:0:0:0:0:
448,192,53153,128,0,53200:0:0:0:0:
192,192,53153,128,4,53294:0:0:0:0:
320,192,53436,128,0,53577:0:0:0:0:
448,192,53436,128,0,53577:0:0:0:0:
192,192,53719,128,2,53813:0:0:0:0:
64,192,53719,128,0,53766:0:0:0:0:
320,192,53719,128,4,53860:0:0:0:0:
448,192,53719,128,0,54143:0:0:0:0:
192,192,53860,1,0,0:0:0:0:
64,192,53860,1,8,0:0:0:0:
192,192,54002,128,0,54143:0:0:0:0:
64,192,54002,128,8,54143:0:0:0:0:
64,192,54285,128,2,54806:0:0:0:0:
448,192,54285,128,0,54350:0:0:0:0:
320,192,54285,128,0,54415:0:0:0:0:
192,192,54285,128,4,54480:0:0:0:0:
320,192,54545,128,0,54806:0:0:0:0:
448,192,54545,1,0,0:0:0:0:
192,192,54806,1,8,0:0:0:0:
448,192,54806,1,0,0:0:0:0:
192,192,54937,1,8,0:0:0:0:
448,192,54937,1,0,0:0:0:0:
64,192,55067,1,2,0:0:0:0:
320,192,55198,1,2,0:0:0:0:
64,192,55198,128,0,55719:0:0:0:0:
448,192,55198,1,0,0:0:0:0:
192,192,55458,128,0,55719:0:0:0:0:
448,192,55458,1,0,0:0:0:0:
320,192,55719,1,8,0:0:0:0:
448,192,55719,1,0,0:0:0:0:
448,192,55850,1,8,0:0:0:0:
320,192,55850,1,0,0:0:0:0:
192,192,55980,1,2,0:0:0:0:
64,192,56111,1,2,0:0:0:0:
192,192,56111,128,0,56632:0:0:0:0:
448,192,56111,1,0,0:0:0:0:
448,192,56371,128,0,56632:0:0:0:0:
320,192,56371,1,0,0:0:0:0:
64,192,56632,1,8,0:0:0:0:
320,192,56632,1,0,0:0:0:0:
320,192,56763,1,8,0:0:0:0:
64,192,56763,1,0,0:0:0:0:
192,192,56893,1,2,0:0:0:0:
192,192,57024,128,2,57545:0:0:0:0:
448,192,57024,1,0,0:0:0:0:
64,192,57024,1,0,0:0:0:0:
448,192,57284,128,0,57545:0:0:0:0:
320,192,57284,1,0,0:0:0:0:
320,192,57545,128,2,57937:0:0:0:0:
64,192,57545,1,0,0:0:0:0:
192,192,57676,1,0,0:0:0:0:
64,192,57806,128,8,57937:0:0:0:0:
192,192,57806,1,0,0:0:0:0:
448,192,57806,1,0,0:0:0:0:
64,192,58067,1,2,0:0:0:0:
192,192,58067,1,4,0:0:0:0:
448,192,58067,128,0,58588:0:0:0:0:
320,192,58067,1,0,0:0:0:0:
192,192,58327,128,2,58588:0:0:0:0:
64,192,58327,1,0,0:0:0:0:
64,192,58588,1,8,0:0:0:0:
320,192,58588,1,0,0:0:0:0:
320,192,58719,1,8,0:0:0:0:
64,192,58719,1,0,0:0:0:0:
448,192,58849,1,2,0:0:0:0:
448,192,58980,128,2,59501:0:0:0:0:
192,192,58980,1,0,0:0:0:0:
64,192,58980,1,0,0:0:0:0:
320,192,59240,128,0,59501:0:0:0:0:
192,192,59240,1,0,0:0:0:0:
192,192,59501,1,8,0:0:0:0:
64,192,59501,1,0,0:0:0:0:
64,192,59632,1,8,0:0:0:0:
192,192,59632,1,0,0:0:0:0:
320,192,59762,1,2,0:0:0:0:
64,192,59893,128,2,59979:0:0:0:0:
320,192,59893,1,0,0:0:0:0:
192,192,59936,128,0,60023:0:0:0:0:
448,192,59979,128,0,60066:0:0:0:0:
320,192,60023,128,0,60110:0:0:0:0:
64,192,60066,128,0,60153:0:0:0:0:
192,192,60110,128,0,60197:0:0:0:0:
448,192,60153,128,0,60240:0:0:0:0:
64,192,60240,128,0,60327:0:0:0:0:
320,192,60327,128,0,60414:0:0:0:0:
192,192,60414,1,8,0:0:0:0:
64,192,60414,1,0,0:0:0:0:
448,192,60414,1,0,0:0:0:0:
192,192,60545,1,8,0:0:0:0:
64,192,60545,1,0,0:0:0:0:
320,192,60675,1,2,0:0:0:0:
448,192,60675,1,0,0:0:0:0:
320,192,60806,1,2,0:0:0:0:
64,192,60936,1,4,0:0:0:0:
448,192,60936,1,0,0:0:0:0:
192,192,61066,1,0,0:0:0:0:
64,192,61197,1,0,0:0:0:0:
448,192,61327,128,8,61527:0:0:0:0:
192,192,61327,1,0,0:0:0:0:
320,192,61327,128,0,61427:0:0:0:0:
320,192,61527,128,8,61727:0:0:0:0:
64,192,61527,1,0,0:0:0:0:
192,192,61527,128,0,61627:0:0:0:0:
192,192,61727,128,8,61927:0:0:0:0:
448,192,61727,1,0,0:0:0:0:
64,192,61727,128,0,61827:0:0:0:0:
64,192,61927,1,4,0:0:0:0:
320,192,61927,1,2,0:0:0:0:
448,192,61927,1,0,0:0:0:0:
448,192,62265,128,8,62378:0:0:0:0:
64,192,62265,1,0,0:0:0:0:
320,192,62378,128,0,62491:0:0:0:0:
192,192,62491,128,0,62604:0:0:0:0:
64,192,62604,128,8,62830:0:0:0:0:
448,192,62604,1,0,0:0:0:0:
192,192,62830,128,0,62943:0:0:0:0:
448,192,62943,128,2,63282:0:0:0:0:
320,192,62943,1,0,0:0:0:0:
64,192,63282,128,8,63395:0:0:0:0:
320,192,63282,1,0,0:0:0:0:
192,192,63395,128,0,63508:0:0:0:0:
448,192,63452,1,8,0:0:0:0:
320,192,63508,128,0,63621:0:0:0:0:
448,192,63621,128,8,63847:0:0:0:0:
64,192,63621,1,0,0:0:0:0:
320,192,63847,128,0,63960:0:0:0:0:
64,192,63960,128,2,64299:0:0:0:0:
192,192,63960,1,0,0:0:0:0:
448,192,64299,128,8,64412:0:0:0:0:
192,192,64299,1,0,0:0:0:0:
320,192,64412,128,0,64525:0:0:0:0:
192,192,64525,128,0,64638:0:0:0:0:
64,192,64638,128,8,64751:0:0:0:0:
320,192,64638,1,0,0:0:0:0:
192,192,64751,128,0,64864:0:0:0:0:
448,192,64808,1,0,0:0:0:0:
320,192,64864,128,0,64977:0:0:0:0:
448,192,64977,128,2,65316:0:0:0:0:
64,192,64977,1,0,0:0:0:0:
64,192,65316,128,8,65429:0:0:0:0:
320,192,65316,1,0,0:0:0:0:
192,192,65429,128,0,65542:0:0:0:0:
448,192,65486,1,8,0:0:0:0:
320,192,65542,128,0,65655:0:0:0:0:
448,192,65655,128,8,65768:0:0:0:0:
192,192,65655,1,0,0:0:0:0:
320,192,65768,128,0,65881:0:0:0:0:
64,192,65825,1,0,0:0:0:0:
192,192,65881,128,0,65994:0:0:0:0:
64,192,65994,128,2,66333:0:0:0:0:
448,192,65994,1,0,0:0:0:0:
192,192,66333,1,8,0:0:0:0:
448,192,66333,128,0,66503:0:0:0:0:
320,192,66503,128,0,66672:0:0:0:0:
192,192,66672,128,8,66842:0:0:0:0:
448,192,66672,1,0,0:0:0:0:
64,192,66842,128,0,67011:0:0:0:0:
320,192,67011,128,2,67350:0:0:0:0:
448,192,67011,1,0,0:0:0:0:
448,192,67350,128,8,67689:0:0:0:0:
64,192,67350,1,0,0:0:0:0:
64,192,67520,1,8,0:0:0:0:
192,192,67520,1,0,0:0:0:0:
320,192,67689,128,8,68361:0:0:0:0:
192,192,67689,1,0,0:0:0:0:
64,192,68028,128,4,68805:0:0:0:0:
192,192,68028,128,2,68361:0:0:0:0:
448,192,68028,128,0,68361:0:0:0:0:
448,192,68472,128,8,69250:0:0:0:0:
192,192,68472,128,4,68805:0:0:0:0:
320,192,68472,128,0,68805:0:0:0:0:
320,192,68916,128,8,69250:0:0:0:0:
192,192,68916,128,4,69250:0:0:0:0:
64,192,68916,128,0,69250:0:0:0:0:
64,192,69361,128,2,70611:0:0:0:0:
320,192,69361,128,4,70454:0:0:0:0:
448,192,69361,128,0,70454:0:0:0:0:
192,192,69361,128,0,71236:0:0:0:0:
320,192,70611,1,8,0:0:0:0:
448,192,70611,1,0,0:0:0:0:
64,192,70767,1,2,0:0:0:0:
64,192,70845,1,2,0:0:0:0:
448,192,70923,1,0,0:0:0:0:
320,192,70923,1,8,0:0:0:0:
64,192,71236,1,4,0:0:0:0:
320,192,71236,1,8,0:0:0:0:
448,192,71236,1,0,0:0:0:0:
192,192,71378,1,2,0:0:0:0:
320,192,71378,1,0,0:0:0:0:
192,192,71521,1,8,0:0:0:0:
64,192,71521,1,0,0:0:0:0:
448,192,71521,1,0,0:0:0:0:
320,192,71664,1,2,0:0:0:0:
448,192,71664,1,0,0:0:0:0:
192,192,71807,1,8,0:0:0:0:
320,192,71807,1,0,0:0:0:0:
64,192,71807,1,0,0:0:0:0:
192,192,71950,1,2,0:0:0:0:
448,192,71950,1,0,0:0:0:0:
320,192,72093,1,2,0:0:0:0:
64,192,72093,1,0,0:0:0:0:
192,192,72236,1,8,0:0:0:0:
320,192,72236,1,0,0:0:0:0:
448,192,72236,1,0,0:0:0:0:
320,192,72378,1,2,0:0:0:0:
64,192,72378,1,0,0:0:0:0:
192,192,72521,1,2,0:0:0:0:
448,192,72521,1,0,0:0:0:0:
320,192,72664,1,8,0:0:0:0:
192,192,72664,1,0,0:0:0:0:
64,192,72664,1,0,0:0:0:0:
192,192,72803,1,2,0:0:0:0:
448,192,72803,1,0,0:0:0:0:
320,192,72873,1,2,0:0:0:0:
192,192,72943,1,8,0:0:0:0:
64,192,72943,1,0,0:0:0:0:
448,192,72943,1,0,0:0:0:0:
64,192,73082,1,2,0:0:0:0:
320,192,73082,1,0,0:0:0:0:
192,192,73152,1,2,0:0:0:0:
64,192,73222,1,8,0:0:0:0:
320,192,73222,1,0,0:0:0:0:
448,192,73222,1,0,0:0:0:0:
448,192,73361,1,2,0:0:0:0:
192,192,73361,1,0,0:0:0:0:
320,192,73501,1,2,0:0:0:0:
64,192,73501,1,0,0:0:0:0:
448,192,73640,1,8,0:0:0:0:
192,192,73640,1,0,0:0:0:0:
64,192,73640,1,0,0:0:0:0:
320,192,73780,1,2,0:0:0:0:
64,192,73780,1,0,0:0:0:0:
448,192,73919,1,2,0:0:0:0:
192,192,73919,1,0,0:0:0:0:
64,192,74059,128,8,74127:0:0:0:0:
320,192,74059,1,0,0:0:0:0:
448,192,74059,1,0,0:0:0:0:
192,192,74195,1,2,0:0:0:0:
64,192,74195,1,0,0:0:0:0:
320,192,74263,1,2,0:0:0:0:
448,192,74331,128,8,74399:0:0:0:0:
192,192,74331,1,0,0:0:0:0:
64,192,74331,1,0,0:0:0:0:
448,192,74468,1,2,0:0:0:0:
320,192,74468,1,0,0:0:0:0:
192,192,74536,1,2,0:0:0:0:
448,192,74604,128,8,74672:0:0:0:0:
64,192,74604,1,0,0:0:0:0:
320,192,74604,1,0,0:0:0:0:
192,192,74740,1,2,0:0:0:0:
64,192,74740,1,0,0:0:0:0:
448,192,74877,128,2,74945:0:0:0:0:
192,192,74877,1,0,0:0:0:0:
64,192,75013,1,8,0:0:0:0:
320,192,75013,1,0,0:0:0:0:
448,192,75013,1,0,0:0:0:0:
448,192,75149,128,0,75218:0:0:0:70:tom1.wav
192,192,75149,1,0,0:0:0:0:
64,192,75218,1,0,0:0:0:70:tom2.wav
320,192,75286,1,0,0:0:0:70:tom3.wav
448,192,75286,1,0,0:0:0:0:
192,192,75354,1,0,0:0:0:70:tom4.wav
64,192,75422,128,8,75488:0:0:0:0:
320,192,75422,1,4,0:0:0:0:
448,192,75422,1,0,0:0:0:0:
192,192,75555,128,0,75622:0:0:0:0:
448,192,75688,128,0,75755:0:0:0:0:
320,192,75688,128,0,75955:0:0:0:0:
192,192,75788,128,0,75955:0:0:0:0:
64,192,75888,128,0,75955:0:0:0:0:
448,192,75955,128,0,76022:0:0:0:0:
192,192,76088,128,8,76222:0:0:0:0:
64,192,76088,128,4,76222:0:0:0:0:
320,192,76088,128,0,76222:0:0:0:0:
448,192,76222,128,0,76288:0:0:0:0:
448,192,76488,128,8,76555:0:0:0:0:
64,192,76488,1,0,0:0:0:0:
192,192,76577,1,0,0:0:0:70:tom1.wav
320,192,76666,1,0,0:0:0:70:tom2.wav
192,192,76755,1,8,0:0:0:0:
64,192,76755,1,0,0:0:0:0:
448,192,76755,1,0,0:0:0:0:
448,192,76844,1,8,0:0:0:0:
320,192,76844,1,0,0:0:0:0:
192,192,76933,1,8,0:0:0:0:
64,192,76933,1,0,0:0:0:0:
320,192,77022,1,8,0:0:0:0:
448,192,77022,1,0,0:0:0:0:
64,192,77022,1,0,0:0:0:0:
320,192,77110,1,8,0:0:0:0:
192,192,77110,1,0,0:0:0:0:
64,192,77199,1,8,0:0:0:0:
192,192,77199,1,0,0:0:0:0:
320,192,77288,1,8,0:0:0:0:
448,192,77288,1,0,0:0:0:0:
64,192,77288,1,0,0:0:0:0:
448,192,77488,128,2,79061:0:0:0:0:
192,192,77488,1,4,0:0:0:0:
64,192,77488,1,0,0:0:0:0:
320,192,77555,128,0,77630:0:0:0:0:
64,192,77705,128,0,77781:0:0:0:0:
64,192,77856,128,0,77931:0:0:0:0:
64,192,78007,128,0,78082:0:0:0:0:
64,192,78158,128,0,78233:0:0:0:0:
320,192,78308,128,0,78383:0:0:0:0:
64,192,78458,128,0,78534:0:0:0:0:
64,192,78609,128,0,78684:0:0:0:0:
64,192,78760,128,0,78835:0:0:0:0:
64,192,78911,128,0,78986:0:0:0:0:
192,192,79061,1,4,0:0:0:0:
64,192,79061,1,8,0:0:0:0:
320,192,79061,1,0,0:0:0:0:
320,192,79147,1,2,0:0:0:0:
448,192,79147,1,0,0:0:0:0:
192,192,79232,1,8,0:0:0:0:
64,192,79232,1,0,0:0:0:0:
320,192,79318,1,8,0:0:0:0:
448,192,79318,1,0,0:0:0:0:
320,192,79403,1,8,0:0:0:0:
192,192,79403,1,0,0:0:0:0:
192,192,79489,1,8,0:0:0:0:
64,192,79489,1,0,0:0:0:0:
320,192,79574,1,0,0:0:0:70:tom2.wav
448,192,79574,1,0,0:0:0:0:
192,192,79660,1,0,0:0:0:70:tom3.wav
64,192,79660,1,0,0:0:0:0:
320,192,79745,1,0,0:0:0:70:tom4.wav
448,192,79745,1,0,0:0:0:0:
448,192,79831,1,0,0:0:0:70:tom3.wav
64,192,79831,1,0,0:0:0:0:
192,192,79916,1,0,0:0:0:70:tom2.wav
64,192,79916,1,0,0:0:0:0:
320,192,80002,1,0,0:0:0:70:tom1.wav
448,192,80002,1,0,0:0:0:0:
192,192,80087,1,8,0:0:0:0:
64,192,80087,1,0,0:0:0:0:
448,192,80087,1,0,0:0:0:0:
64,192,80344,128,2,81087:0:0:0:0:
192,192,80344,1,4,0:0:0:0:
448,192,80344,1,8,0:0:0:0:
192,192,80467,1,0,0:0:0:0:
320,192,80591,1,8,0:0:0:0:
448,192,80591,1,2,0:0:0:0:
320,192,80715,1,0,0:0:0:0:
192,192,80839,1,2,0:0:0:0:
448,192,80839,1,8,0:0:0:0:
320,192,80963,1,0,0:0:0:0:
192,192,81087,128,8,81831:0:0:0:0:
320,192,81087,1,2,0:0:0:0:
448,192,81087,1,0,0:0:0:0:
448,192,81211,1,0,0:0:0:0:
64,192,81335,1,2,0:0:0:0:
320,192,81335,1,8,0:0:0:0:
320,192,81459,1,0,0:0:0:0:
64,192,81583,1,8,0:0:0:0:
448,192,81583,1,2,0:0:0:0:
320,192,81707,1,0,0:0:0:0:
320,192,81831,128,2,82575:0:0:0:0:
64,192,81831,1,8,0:0:0:0:
448,192,81831,1,0,0:0:0:0:
64,192,81955,1,0,0:0:0:0:
192,192,82079,1,8,0:0:0:0:
448,192,82079,1,2,0:0:0:0:
448,192,82203,1,0,0:0:0:0:
192,192,82327,1,2,0:0:0:0:
64,192,82327,1,8,0:0:0:0:
448,192,82451,1,0,0:0:0:0:
448,192,82575,128,8,83319:0:0:0:0:
192,192,82575,1,2,0:0:0:0:
64,192,82575,1,0,0:0:0:0:
320,192,82658,1,8,0:0:0:0:
64,192,82740,1,8,0:0:0:0:
320,192,82823,1,2,0:0:0:0:
192,192,82823,1,0,0:0:0:70:tom1.wav
64,192,82905,1,0,0:0:0:70:tom1.wav
320,192,82988,1,0,0:0:0:70:tom1.wav
192,192,83071,1,2,0:0:0:0:
64,192,83071,1,0,0:0:0:70:tom2.wav
320,192,83153,1,0,0:0:0:70:tom2.wav
64,192,83236,1,0,0:0:0:70:tom2.wav
192,192,83319,128,4,83553:0:0:0:0:
64,192,83319,128,8,83670:0:0:0:0:
320,192,83319,128,0,83436:0:0:0:0:
448,192,83670,128,0,83787:0:0:0:0:
320,192,83787,128,0,83904:0:0:0:0:
192,192,83904,128,0,84022:0:0:0:0:
64,192,84022,128,0,84139:0:0:0:0:
320,192,84139,128,8,84197:0:0:0:0:
192,192,84139,128,4,84197:0:0:0:0:
448,192,84139,128,0,84197:0:0:0:0:
448,192,84373,128,8,84432:0:0:0:0:
192,192,84373,128,4,84432:0:0:0:0:
320,192,84373,128,0,84432:0:0:0:0:
320,192,84490,128,4,84549:0:0:0:0:
192,192,84490,128,8,84549:0:0:0:0:
448,192,84490,128,0,84549:0:0:0:0:
192,192,84725,128,8,84842:0:0:0:0:
320,192,84725,128,4,84842:0:0:0:0:
64,192,84725,128,0,84842:0:0:0:0:
64,192,84959,128,0,85135:0:0:0:0:
448,192,84959,128,0,85135:0:0:0:0:
192,192,85194,1,2,0:0:0:0:
320,192,85194,1,4,0:0:0:0:
448,192,85194,1,0,0:0:0:0:
64,192,85194,1,0,0:0:0:0:
320,192,85309,1,0,0:0:0:0:
192,192,85425,1,8,0:0:0:0:
64,192,85425,1,0,0:0:0:0:
448,192,85425,1,0,0:0:0:0:
64,192,85541,1,0,0:0:0:0:
192,192,85657,1,2,0:0:0:0:
448,192,85657,1,0,0:0:0:0:
448,192,85773,1,0,0:0:0:0:
320,192,85888,1,8,0:0:0:0:
192,192,85888,1,0,0:0:0:0:
64,192,85888,1,0,0:0:0:0:
192,192,86004,1,0,0:0:0:0:
64,192,86120,1,2,0:0:0:0:
320,192,86120,1,0,0:0:0:0:
320,192,86236,1,0,0:0:0:0:
448,192,86352,1,8,0:0:0:0:
192,192,86352,1,0,0:0:0:0:
64,192,86352,1,0,0:0:0:0:
192,192,86468,1,2,0:0:0:0:
320,192,86468,1,0,0:0:0:0:
448,192,86583,1,0,0:0:0:0:
192,192,86699,1,2,0:0:0:0:
64,192,86699,1,0,0:0:0:0:
448,192,86815,1,8,0:0:0:0:
64,192,86815,1,0,0:0:0:0:
320,192,86815,1,0,0:0:0:0:
192,192,86931,1,0,0:0:0:0:
64,192,87047,128,2,87626:0:0:0:0:
448,192,87047,1,0,0:0:0:0:
320,192,87163,1,0,0:0:0:0:
192,192,87278,1,8,0:0:0:0:
448,192,87278,128,0,87394:0:0:0:0:
320,192,87394,1,0,0:0:0:0:
448,192,87510,128,2,87742:0:0:0:0:
192,192,87510,1,0,0:0:0:0:
320,192,87626,128,0,87742:0:0:0:0:
192,192,87742,1,8,0:0:0:0:
64,192,87742,1,0,0:0:0:0:
448,192,87858,128,0,87973:0:0:0:70:tom1.wav
320,192,87973,1,2,0:0:0:0:
64,192,87973,1,0,0:0:0:0:
448,192,88089,128,0,88321:0:0:0:70:tom2.wav
320,192,88205,128,8,88321:0:0:0:0:
64,192,88205,128,0,88321:0:0:0:0:
192,192,88205,1,0,0:0:0:0:
64,192,88437,128,0,88668:0:0:0:70:tom3.wav
192,192,88553,128,8,88668:0:0:0:0:
448,192,88553,128,0,88668:0:0:0:0:
320,192,88553,1,0,0:0:0:0:
64,192,88784,128,8,88900:0:0:0:0:
192,192,88784,128,0,88900:0:0:0:0:
320,192,88784,128,0,88900:0:0:0:0:
448,192,88784,128,0,88900:0:0:0:0:
320,192,89016,1,2,0:0:0:0:
448,192,89016,1,0,0:0:0:0:
192,192,89074,1,2,0:0:0:0:
320,192,89132,1,8,0:0:0:0:
64,192,89132,1,4,0:0:0:0:
448,192,89132,1,0,0:0:0:0:
192,192,89248,1,0,0:0:0:0:
192,192,89363,1,0,0:0:0:70:tom1.wav
448,192,89363,1,8,0:0:0:0:
64,192,89363,1,0,0:0:0:0:
320,192,89421,1,0,0:0:0:70:tom1.wav
64,192,89479,1,0,0:0:0:70:tom2.wav
448,192,89537,1,0,0:0:0:70:tom2.wav
192,192,89595,1,0,0:0:0:70:tom3.wav
320,192,89595,1,8,0:0:0:0:
64,192,89595,1,0,0:0:0:0:
448,192,89653,1,0,0:0:0:70:tom3.wav
192,192,89711,1,0,0:0:0:70:tom4.wav
320,192,89769,1,0,0:0:0:70:tom4.wav
64,192,89827,1,4,0:0:0:0:
192,192,89827,1,8,0:0:0:0:
448,192,89827,128,0,89885:0:0:0:0:
448,192,89943,128,0,90058:0:0:0:0:
192,192,90058,1,2,0:0:0:0:
64,192,90058,1,0,0:0:0:0:
192,192,90174,128,8,90290:0:0:0:0:
320,192,90174,1,4,0:0:0:0:
448,192,90174,1,0,0:0:0:0:
192,192,90406,128,2,90522:0:0:0:0:
448,192,90406,1,0,0:0:0:0:
64,192,90522,1,8,0:0:0:0:
320,192,90522,1,4,0:0:0:0:
448,192,90522,1,0,0:0:0:0:
192,192,90638,128,0,90753:0:0:0:0:
448,192,90753,1,8,0:0:0:0:
320,192,90753,1,4,0:0:0:0:
64,192,90753,128,0,90811:0:0:0:0:
192,192,90811,128,0,90869:0:0:0:0:
448,192,90869,128,0,90927:0:0:0:0:
320,192,90927,128,0,90985:0:0:0:0:
192,192,90985,1,8,0:0:0:0:
64,192,90985,1,0,0:0:0:0:
448,192,90985,128,0,91043:0:0:0:0:
320,192,91043,128,0,91101:0:0:0:0:
192,192,91101,128,0,91159:0:0:0:0:
64,192,91159,128,0,91217:0:0:0:0:
320,192,91217,1,8,0:0:0:0:
448,192,91217,1,0,0:0:0:0:
192,192,91217,128,0,91275:0:0:0:0:
64,192,91275,128,0,91332:0:0:0:0:
320,192,91332,128,0,91390:0:0:0:0:
448,192,91390,128,0,91448:0:0:0:0:
192,192,91448,1,8,0:0:0:0:
64,192,91448,1,0,0:0:0:0:
320,192,91448,128,0,91506:0:0:0:0:
448,192,91506,128,0,91564:0:0:0:0:
192,192,91564,128,0,91622:0:0:0:0:
320,192,91622,128,0,91680:0:0:0:0:
192,192,91680,128,8,91738:0:0:0:0:
64,192,91680,128,4,91738:0:0:0:0:
448,192,91680,128,0,91738:0:0:0:0:
64,192,91796,128,8,91854:0:0:0:0:
192,192,91796,128,0,91854:0:0:0:0:
448,192,91796,128,0,91854:0:0:0:0:
192,192,91912,1,0,0:0:0:0:
320,192,91912,1,0,0:0:0:0:
64,192,92027,128,8,92143:0:0:0:0:
320,192,92027,128,4,92143:0:0:0:0:
448,192,92027,128,0,92143:0:0:0:0:
448,192,92259,1,8,0:0:0:0:
192,192,92259,1,0,0:0:0:0:
64,192,92259,1,0,0:0:0:0:
64,192,92375,1,8,0:0:0:0:
192,192,92375,1,0,0:0:0:0:
320,192,92375,1,0,0:0:0:0:
320,192,92491,1,0,0:0:0:0:
448,192,92491,1,0,0:0:0:0:
320,192,92607,128,8,92838:0:0:0:0:
448,192,92607,128,4,93070:0:0:0:0:
64,192,92607,1,2,0:0:0:0:
192,192,92607,1,0,0:0:0:0:
192,192,92722,1,8,0:0:0:0:
64,192,92722,1,0,0:0:0:0:
192,192,93070,1,8,0:0:0:0:
64,192,93070,1,0,0:0:0:0:
320,192,93128,1,8,0:0:0:0:
448,192,93128,1,0,0:0:0:0:
192,192,93186,1,8,0:0:0:0:
64,192,93186,1,0,0:0:0:0:
320,192,93244,1,8,0:0:0:0:
448,192,93244,1,0,0:0:0:0:
64,192,93302,1,0,0:0:0:70:tom1.wav
448,192,93360,1,0,0:0:0:70:tom1.wav
192,192,93417,1,0,0:0:0:70:tom3.wav
320,192,93475,1,0,0:0:0:70:tom3.wav
192,192,93533,128,4,93678:0:0:0:0:
64,192,93533,128,2,93707:0:0:0:0:
448,192,93533,128,0,93649:0:0:0:0:
448,192,93765,1,0,0:0:0:70:tom2.wav
320,192,93765,1,0,0:0:0:0:
192,192,93823,1,0,0:0:0:70:tom2.wav
448,192,93881,1,0,0:0:0:70:tom2.wav
320,192,93881,1,0,0:0:0:0:
192,192,93939,1,0,0:0:0:70:tom2.wav
64,192,93997,128,2,94112:0:0:0:0:
320,192,93997,128,4,94141:0:0:0:0:
448,192,93997,128,0,94170:0:0:0:0:
64,192,94228,1,0,0:0:0:70:tom4.wav
192,192,94228,1,0,0:0:0:0:
320,192,94286,1,0,0:0:0:70:tom4.wav
64,192,94344,1,0,0:0:0:70:tom4.wav
192,192,94344,1,0,0:0:0:0:
320,192,94402,1,0,0:0:0:70:tom4.wav
448,192,94460,128,2,95039:0:0:0:0:
64,192,94460,1,0,0:0:0:0:
192,192,94576,1,0,0:0:0:0:
320,192,94692,1,8,0:0:0:0:
64,192,94692,128,0,94807:0:0:0:0:
192,192,94807,1,0,0:0:0:0:
64,192,94923,128,2,95155:0:0:0:0:
320,192,94923,1,0,0:0:0:0:
192,192,95039,128,0,95155:0:0:0:0:
320,192,95155,1,8,0:0:0:0:
448,192,95155,1,0,0:0:0:0:
64,192,95271,128,0,95387:0:0:0:70:tom1.wav
192,192,95387,1,2,0:0:0:0:
448,192,95387,1,0,0:0:0:0:
64,192,95502,128,0,95734:0:0:0:70:tom2.wav
192,192,95618,128,8,95734:0:0:0:0:
448,192,95618,128,0,95734:0:0:0:0:
320,192,95618,1,0,0:0:0:0:
448,192,95850,128,0,96082:0:0:0:70:tom3.wav
320,192,95966,128,8,96082:0:0:0:0:
64,192,95966,128,0,96082:0:0:0:0:
192,192,95966,1,0,0:0:0:0:
448,192,96197,128,8,96313:0:0:0:0:
320,192,96197,128,0,96313:0:0:0:0:
192,192,96197,128,0,96313:0:0:0:0:
64,192,96197,128,0,96313:0:0:0:0:
192,192,96429,1,2,0:0:0:0:
64,192,96429,1,0,0:0:0:0:
320,192,96487,1,2,0:0:0:0:
192,192,96545,1,8,0:0:0:0:
64,192,96545,1,4,0:0:0:0:
448,192,96545,1,0,0:0:0:0:
320,192,96661,1,2,0:0:0:0:
448,192,96661,1,0,0:0:0:0:
192,192,96719,1,2,0:0:0:0:
320,192,96777,1,8,0:0:0:0:
448,192,96777,1,0,0:0:0:0:
64,192,96777,1,0,0:0:0:0:
192,192,96892,1,2,0:0:0:0:
448,192,96892,1,0,0:0:0:0:
320,192,96950,1,2,0:0:0:0:
64,192,97008,1,8,0:0:0:0:
448,192,97008,1,0,0:0:0:0:
192,192,97008,1,0,0:0:0:0:
64,192,97124,1,2,0:0:0:0:
320,192,97124,1,0,0:0:0:0:
192,192,97182,1,2,0:0:0:0:
64,192,97240,1,4,0:0:0:0:
320,192,97240,1,8,0:0:0:0:
448,192,97240,128,0,97471:0:0:0:0:
192,192,97471,1,2,0:0:0:0:
64,192,97471,1,0,0:0:0:0:
192,192,97587,128,8,97703:0:0:0:0:
320,192,97587,1,4,0:0:0:0:
448,192,97587,1,0,0:0:0:0:
192,192,97819,128,2,97935:0:0:0:0:
448,192,97935,1,8,0:0:0:0:
320,192,97935,1,4,0:0:0:0:
64,192,97935,1,0,0:0:0:0:
448,192,98051,128,0,98166:0:0:0:0:
192,192,98166,1,8,0:0:0:0:
64,192,98166,1,4,0:0:0:0:
320,192,98166,1,0,0:0:0:0:
448,192,98224,1,0,0:0:0:0:
192,192,98282,1,0,0:0:0:0:
320,192,98340,1,0,0:0:0:0:
192,192,98398,1,8,0:0:0:0:
64,192,98398,1,0,0:0:0:0:
448,192,98456,1,2,0:0:0:0:
320,192,98514,1,8,0:0:0:0:
64,192,98514,1,0,0:0:0:0:
192,192,98572,1,2,0:0:0:0:
64,192,98630,1,8,0:0:0:0:
448,192,98630,1,0,0:0:0:0:
320,192,98688,1,2,0:0:0:0:
192,192,98746,1,8,0:0:0:0:
448,192,98746,1,0,0:0:0:0:
64,192,98804,1,2,0:0:0:0:
448,192,98861,1,8,0:0:0:0:
320,192,98861,1,0,0:0:0:0:
192,192,98919,1,2,0:0:0:0:
64,192,98977,1,8,0:0:0:0:
320,192,98977,1,0,0:0:0:0:
192,192,99035,1,2,0:0:0:0:
64,192,99093,128,8,99151:0:0:0:0:
320,192,99093,128,4,99151:0:0:0:0:
448,192,99093,128,0,99151:0:0:0:0:
320,192,99209,128,0,99267:0:0:0:0:
64,192,99209,128,8,99267:0:0:0:0:
448,192,99209,128,0,99267:0:0:0:0:
192,192,99267,128,0,99325:0:0:0:0:
320,192,99325,128,0,99383:0:0:0:0:
192,192,99441,128,8,99556:0:0:0:0:
448,192,99441,128,4,99614:0:0:0:0:
320,192,99441,128,0,99585:0:0:0:0:
64,192,99441,128,0,99527:0:0:0:0:
192,192,99672,128,8,99729:0:0:0:0:
448,192,99672,128,4,99729:0:0:0:0:
64,192,99672,128,0,99729:0:0:0:0:
192,192,99787,128,0,99845:0:0:0:0:
64,192,99787,128,8,99845:0:0:0:0:
448,192,99787,128,0,99845:0:0:0:0:
320,192,99845,128,0,99903:0:0:0:0:
192,192,99903,128,0,99961:0:0:0:0:
320,192,100019,128,8,100135:0:0:0:0:
448,192,100019,128,4,100106:0:0:0:0:
192,192,100077,128,8,100164:0:0:0:0:
64,192,100077,128,0,100193:0:0:0:0:
448,192,100251,128,8,100308:0:0:0:0:
64,192,100251,128,4,100308:0:0:0:0:
320,192,100251,128,0,100308:0:0:0:0:
192,192,100366,128,0,100424:0:0:0:0:
64,192,100366,128,8,100424:0:0:0:0:
448,192,100366,128,0,100424:0:0:0:0:
320,192,100424,128,0,100482:0:0:0:0:
192,192,100482,128,0,100540:0:0:0:70:tom1.wav
64,192,100482,128,0,100540:0:0:0:0:
320,192,100598,128,8,100656:0:0:0:0:
448,192,100598,128,4,100656:0:0:0:0:
192,192,100656,128,8,100714:0:0:0:0:
64,192,100656,128,0,100714:0:0:0:0:
320,192,100714,128,8,100772:0:0:0:0:
448,192,100714,128,0,100772:0:0:0:0:
192,192,100772,128,8,100830:0:0:0:0:
64,192,100772,128,0,100830:0:0:0:0:
320,192,100830,1,2,0:0:0:0:
448,192,100830,1,4,0:0:0:0:
448,192,100945,1,8,0:0:0:0:
192,192,100945,1,0,0:0:0:0:
192,192,101061,1,2,0:0:0:0:
320,192,101061,1,0,0:0:0:0:
64,192,101061,1,0,0:0:0:0:
448,192,101177,1,8,0:0:0:0:
320,192,101177,1,0,0:0:0:0:
192,192,101293,1,2,0:0:0:0:
64,192,101293,1,0,0:0:0:0:
448,192,101293,1,0,0:0:0:0:
64,192,101409,1,8,0:0:0:0:
320,192,101409,1,0,0:0:0:0:
192,192,101524,1,2,0:0:0:0:
448,192,101524,1,0,0:0:0:0:
320,192,101524,1,0,0:0:0:0:
192,192,101640,1,8,0:0:0:0:
64,192,101640,1,0,0:0:0:0:
64,192,101756,1,2,0:0:0:0:
320,192,101756,1,0,0:0:0:0:
448,192,101756,1,0,0:0:0:0:
192,192,101814,1,0,0:0:0:0:
320,192,101872,1,8,0:0:0:0:
192,192,101930,1,8,0:0:0:0:
64,192,101930,1,0,0:0:0:0:
320,192,101988,1,2,0:0:0:0:
448,192,101988,1,0,0:0:0:0:
448,192,102104,1,8,0:0:0:0:
64,192,102104,1,0,0:0:0:0:
320,192,102219,1,2,0:0:0:0:
192,192,102219,1,0,0:0:0:0:
64,192,102219,1,0,0:0:0:0:
192,192,102335,1,8,0:0:0:0:
448,192,102335,1,0,0:0:0:0:
320,192,102451,1,8,0:0:0:0:
64,192,102451,1,0,0:0:0:0:
448,192,102451,1,0,0:0:0:0:
192,192,102567,1,0,0:0:0:70:tom1.wav
64,192,102567,1,0,0:0:0:0:
320,192,102625,1,0,0:0:0:70:tom2.wav
448,192,102625,1,0,0:0:0:0:
192,192,102683,1,0,0:0:0:70:tom3.wav
64,192,102683,1,0,0:0:0:0:
320,192,102741,1,0,0:0:0:70:tom4.wav
448,192,102799,1,2,0:0:0:0:
192,192,102799,1,4,0:0:0:0:
64,192,102799,1,0,0:0:0:0:
320,192,102914,1,0,0:0:0:0:
192,192,102914,1,0,0:0:0:0:
64,192,103030,1,2,0:0:0:0:
192,192,103030,1,0,0:0:0:0:
448,192,103030,1,0,0:0:0:0:
448,192,103146,1,8,0:0:0:0:
320,192,103146,1,0,0:0:0:0:
64,192,103146,1,0,0:0:0:0:
192,192,103262,1,2,0:0:0:0:
320,192,103262,1,0,0:0:0:0:
448,192,103320,1,2,0:0:0:0:
64,192,103378,1,2,0:0:0:0:
192,192,103378,1,0,0:0:0:0:
64,192,103493,1,8,0:0:0:0:
320,192,103493,1,0,0:0:0:0:
448,192,103493,1,0,0:0:0:0:
192,192,103609,1,0,0:0:0:70:tom1.wav
64,192,103609,1,0,0:0:0:0:
448,192,103609,1,0,0:0:0:0:
192,192,103725,1,0,0:0:0:70:tom2.wav
320,192,103725,1,0,0:0:0:0:
64,192,103783,1,0,0:0:0:70:tom2.wav
448,192,103841,1,0,0:0:0:70:tom3.wav
320,192,103841,1,0,0:0:0:0:
448,192,103957,128,8,104332:0:0:0:0:
192,192,103957,1,4,0:0:0:0:
64,192,103957,1,0,0:0:0:0:
192,192,104082,1,2,0:0:0:0:
64,192,104082,1,0,0:0:0:0:
320,192,104082,1,0,0:0:0:0:
192,192,104332,1,2,0:0:0:0:
320,192,104332,1,4,0:0:0:0:
64,192,104332,128,0,104672:0:0:0:0:
448,192,104445,1,0,0:0:0:0:
320,192,104445,1,8,0:0:0:0:
320,192,104559,1,8,0:0:0:0:
448,192,104559,1,0,0:0:0:0:
448,192,104672,128,2,105332:0:0:0:0:
320,192,104672,1,4,0:0:0:0:
192,192,104672,1,0,0:0:0:0:
192,192,104766,1,8,0:0:0:0:
64,192,104766,1,0,0:0:0:0:
320,192,104860,1,8,0:0:0:0:
320,192,104955,1,0,0:0:0:70:tom1.wav
192,192,105049,1,0,0:0:0:70:tom1.wav
192,192,105143,1,0,0:0:0:70:tom3.wav
64,192,105238,1,0,0:0:0:70:tom3.wav
320,192,105332,1,2,0:0:0:0:
192,192,105332,1,4,0:0:0:0:
64,192,105332,1,0,0:0:0:0:
448,192,105426,1,0,0:0:0:0:
192,192,105520,1,0,0:0:0:0:
64,192,105520,1,0,0:0:0:0:
320,192,105615,1,0,0:0:0:0:
64,192,105709,1,0,0:0:0:0:
192,192,105709,1,0,0:0:0:0:
320,192,105803,128,0,105898:0:0:0:0:
448,192,105803,1,0,0:0:0:0:
64,192,105898,1,0,0:0:0:0:
320,192,105992,1,0,0:0:0:0:
448,192,105992,128,0,106181:0:0:0:0:
320,192,106181,1,2,0:0:0:0:
192,192,106181,1,4,0:0:0:0:
64,192,106181,1,0,0:0:0:0:
448,192,106275,1,0,0:0:0:0:
192,192,106369,1,0,0:0:0:0:
64,192,106369,1,0,0:0:0:0:
320,192,106464,1,0,0:0:0:0:
192,192,106558,1,0,0:0:0:0:
64,192,106558,1,0,0:0:0:0:
448,192,106652,1,2,0:0:0:0:
320,192,106652,128,0,106747:0:0:0:0:
192,192,106747,1,0,0:0:0:0:
320,192,106841,1,2,0:0:0:0:
448,192,106841,128,0,107030:0:0:0:0:
320,192,107030,1,2,0:0:0:0:
192,192,107030,1,4,0:0:0:0:
64,192,107030,1,0,0:0:0:0:
448,192,107124,1,0,0:0:0:0:
192,192,107218,1,8,0:0:0:0:
64,192,107218,1,0,0:0:0:0:
64,192,107313,1,0,0:0:0:70:tom1.wav
320,192,107407,1,8,0:0:0:0:
448,192,107407,1,0,0:0:0:0:
320,192,107501,128,8,107596:0:0:0:0:
64,192,107501,1,0,0:0:0:0:
192,192,107596,1,2,0:0:0:0:
448,192,107690,128,2,107879:0:0:0:0:
320,192,107690,1,0,0:0:0:0:
192,192,107784,1,2,0:0:0:0:
64,192,107784,1,0,0:0:0:0:
192,192,107879,128,4,107926:0:0:0:0:
64,192,107879,128,8,107949:0:0:0:0:
320,192,107879,1,0,0:0:0:0:
64,192,108067,128,8,108193:0:0:0:0:
192,192,108067,128,4,108162:0:0:0:0:
320,192,108067,128,0,108130:0:0:0:0:
448,192,108067,1,0,0:0:0:0:
320,192,108256,128,8,108445:0:0:0:0:
192,192,108256,128,4,108492:0:0:0:0:
64,192,108256,128,0,108539:0:0:0:0:
448,192,108256,128,0,108397:0:0:0:0:
320,192,108539,1,2,0:0:0:0:
448,192,108539,1,4,0:0:0:0:
192,192,108633,1,0,0:0:0:0:
448,192,108727,1,8,0:0:0:0:
320,192,108727,1,0,0:0:0:0:
448,192,108822,1,8,0:0:0:0:
320,192,108822,1,0,0:0:0:0:
192,192,108916,1,8,0:0:0:0:
64,192,108916,1,0,0:0:0:0:
192,192,109010,1,8,0:0:0:0:
64,192,109010,1,0,0:0:0:0:
448,192,109105,1,8,0:0:0:0:
320,192,109199,1,8,0:0:0:0:
192,192,109199,1,0,0:0:0:0:
64,192,109293,1,8,0:0:0:0:
192,192,109388,1,8,0:0:0:0:
320,192,109388,1,0,0:0:0:0:
448,192,109482,1,8,0:0:0:0:
192,192,109576,1,8,0:0:0:0:
64,192,109576,1,0,0:0:0:0:
192,192,109671,1,0,0:0:0:70:tom1.wav
64,192,109671,1,0,0:0:0:0:
320,192,109765,1,0,0:0:0:70:tom2.wav
448,192,109765,1,0,0:0:0:0:
448,192,109859,1,0,0:0:0:70:tom2.wav
320,192,109859,1,0,0:0:0:0:
192,192,109954,1,0,0:0:0:70:tom3.wav
320,192,110048,1,0,0:0:0:70:tom3.wav
64,192,110048,1,0,0:0:0:0:
448,192,110142,1,0,0:0:0:70:tom4.wav
64,192,110237,1,4,0:0:0:0:
192,192,110237,1,2,0:0:0:0:
448,192,110237,1,0,0:0:0:0:
320,192,110331,1,8,0:0:0:0:
448,192,110425,1,8,0:0:0:0:
192,192,110425,1,0,0:0:0:0:
64,192,110520,1,8,0:0:0:0:
448,192,110614,1,2,0:0:0:0:
320,192,110614,1,0,0:0:0:0:
192,192,110708,1,0,0:0:0:0:
64,192,110708,1,0,0:0:0:0:
320,192,110803,1,0,0:0:0:70:tom1.wav
448,192,110803,1,0,0:0:0:0:
192,192,110850,1,0,0:0:0:70:tom1.wav
448,192,110897,1,0,0:0:0:70:tom2.wav
192,192,110991,1,0,0:0:0:70:tom3.wav
64,192,110991,1,0,0:0:0:0:
320,192,111038,1,0,0:0:0:70:tom3.wav
64,192,111086,1,0,0:0:0:70:tom4.wav
320,192,111180,1,4,0:0:0:0:
448,192,111180,1,2,0:0:0:0:
192,192,111280,1,0,0:0:0:0:
64,192,111280,1,2,0:0:0:0:
192,192,111381,128,8,111582:0:0:0:0:
448,192,111381,1,4,0:0:0:0:
64,192,111381,1,0,0:0:0:0:
320,192,111582,1,8,0:0:0:0:
448,192,111582,1,4,0:0:0:0:
64,192,111582,1,0,0:0:0:0:
320,192,111716,1,4,0:0:0:0:
192,192,111716,1,2,0:0:0:0:
192,192,111851,1,4,0:0:0:0:
64,192,111851,1,2,0:0:0:0:
448,192,111985,1,2,0:0:0:0:
320,192,111985,1,4,0:0:0:0:
192,192,112119,1,4,0:0:0:0:
448,192,112119,1,8,0:0:0:0:
64,192,112119,128,0,112992:0:0:0:0:
192,192,112388,1,4,0:0:0:0:
320,192,112388,1,8,0:0:0:0:
448,192,112388,128,0,113380:0:0:0:0:
64,192,113092,128,0,113668:0:0:0:0:
448,192,113476,128,0,113668:0:0:0:0:
192,192,113861,128,8,114245:0:0:0:0:
64,192,113861,1,4,0:0:0:0:
448,192,113861,1,0,0:0:0:0:
320,192,113957,1,8,0:0:0:0:
448,192,113957,1,0,0:0:0:0:
448,192,114245,1,8,0:0:0:0:
320,192,114245,128,4,114534:0:0:0:0:
64,192,114245,1,0,0:0:0:0:
64,192,114342,1,2,0:0:0:0:
192,192,114342,1,0,0:0:0:0:
448,192,114534,128,2,116026:0:0:0:0:
64,192,114534,1,4,0:0:0:0:
192,192,114534,1,0,0:0:0:0:
192,192,114728,128,2,114826:0:0:0:0:
64,192,114728,128,0,114793:0:0:0:0:
64,192,114924,128,2,115022:0:0:0:0:
320,192,114924,128,0,114989:0:0:0:0:
192,192,115120,128,2,115185:0:0:0:0:
320,192,115120,128,0,115218:0:0:0:0:
192,192,115316,128,2,115381:0:0:0:0:
64,192,115316,128,0,115414:0:0:0:0:
320,192,115512,128,2,115610:0:0:0:0:
64,192,115512,128,0,115577:0:0:0:0:
320,192,115714,128,2,115783:0:0:0:0:
192,192,115714,128,0,115818:0:0:0:0:
192,192,115922,128,8,115991:0:0:0:0:
64,192,115922,128,4,116026:0:0:0:0:
320,192,115922,1,0,0:0:0:0:
448,192,116174,1,0,0:0:0:70:tom1.wav
320,192,116174,1,0,0:0:0:0:
192,192,116248,1,0,0:0:0:70:tom2.wav
64,192,116248,1,0,0:0:0:0:
320,192,116323,1,0,0:0:0:70:tom3.wav
448,192,116323,1,0,0:0:0:0:
320,192,116471,1,2,0:0:0:0:
192,192,116471,1,0,0:0:0:0:
448,192,116620,128,2,116818:0:0:0:0:
320,192,116620,128,4,116917:0:0:0:0:
192,192,116620,128,0,117016:0:0:0:0:
64,192,116620,128,0,117115:0:0:0:0:
448,192,116917,128,8,117412:0:0:0:0:
320,192,117016,128,8,117313:0:0:0:0:
192,192,117115,128,8,117214:0:0:0:0:
64,192,117214,128,0,117709:0:0:0:70:tom1.wav
192,192,117313,128,0,117610:0:0:0:70:tom1.wav
320,192,117412,128,0,117511:0:0:0:70:tom2.wav
448,192,117511,128,0,117882:0:0:0:70:tom2.wav
320,192,117610,128,0,117882:0:0:0:70:tom3.wav
192,192,117709,128,0,117808:0:0:0:70:tom3.wav
64,192,117808,128,0,117956:0:0:0:70:tom4.wav
192,192,117882,128,0,117956:0:0:0:70:tom4.wav
320,192,117956,128,2,118030:0:0:0:0:
448,192,117956,128,0,118030:0:0:0:0:
192,192,118030,1,2,0:0:0:0:
64,192,118030,1,0,0:0:0:0:
192,192,118105,128,8,118847:0:0:0:0:
64,192,118105,128,4,118884:0:0:0:0:
320,192,118105,128,0,118810:0:0:0:0:
448,192,118105,128,0,118773:0:0:0:0:
448,192,118847,128,0,118921:0:0:0:0:
320,192,118884,128,0,118958:0:0:0:0:
192,192,118921,128,0,118996:0:0:0:0:
64,192,118958,128,0,119033:0:0:0:0:
