osu file format v14

[General]
AudioFilename: audio.mp3
AudioLeadIn: 0
PreviewTime: 83875
Countdown: 0
SampleSet: Soft
StackLeniency: 0.7
Mode: 0
LetterboxInBreaks: 0
WidescreenStoryboard: 0

[Editor]
Bookmarks: 22118,23993,25868,27743,29618,31493,33368,35594,49891,50829,60204,63954,65829,70868,71454,77079,80829,82000,82704,83875,245829,247704,249579,250516,257079
DistanceSpacing: 1.1
BeatDivisor: 4
GridSize: 32
TimelineZoom: 2.1

[Metadata]
Title:Kizuitara Shunkashuutou
TitleUnicode:Kizuitara Shunkashuutou
Artist:Camellia feat. Nanahira
ArtistUnicode:Camellia feat. Nanahira
Creator:pro_mapper77
Version:Trick or Treax
Source:
Tags:
BeatmapID:1694905
BeatmapSetID:807619

[Difficulty]
HPDrainRate:4
CircleSize:4.2
OverallDifficulty:10
ApproachRate:9.8
SliderMultiplier:1.8
SliderTickRate:1

[Events]
//Background and Video events
0,0,"f353c2c01bd633da37f2398d9292a90f855e39f1_s2_n2.jpg",0,0
//Break Periods
//Storyboard Layer 0 (Background)
//Storyboard Layer 1 (Fail)
//Storyboard Layer 2 (Pass)
//Storyboard Layer 3 (Foreground)
//Storyboard Sound Samples

[TimingPoints]
2079,234.375,4,2,0,40,1,0
2079,-178.571428571429,4,2,0,40,0,0
8641,-142.857142857143,4,3,0,60,0,0
9579,-125,4,2,0,40,0,0
13329,-125,4,3,0,50,0,0
20594,-84.7457627118644,4,2,0,40,0,0
20829,-100,4,3,0,40,0,1
33954,-142.857142857143,4,2,0,40,0,0
34422,-111.111111111111,4,2,0,40,0,0
34657,-111.111111111111,4,3,0,40,0,1
35594,-142.857142857143,4,2,0,40,0,0
49891,-142.857142857143,4,3,0,40,0,0
50829,-142.857142857143,4,2,0,40,0,0
61141,-142.857142857143,4,3,0,30,0,0
61844,-142.857142857143,4,2,0,40,0,0
63602,-142.857142857143,4,3,0,45,0,0
63954,-142.857142857143,4,3,0,50,0,0
65829,-117.647058823529,4,2,0,40,0,0
68758,-117.647058823529,4,3,0,40,0,0
69579,-117.647058823529,4,2,0,40,0,0
70594,-117.647058823529,4,2,0,30,0,0
70985,-117.647058823529,4,2,0,40,0,0
71454,-117.647058823529,4,2,0,40,0,0
77079,-117.647058823529,4,3,0,40,0,0
80360,-117.647058823529,4,2,0,40,0,0
80594,-117.647058823529,4,2,0,40,0,0
83172,-117.647058823529,4,2,0,20,0,0
83875,-83.3333333333333,4,2,0,40,0,0
84110,-83.3333333333333,4,2,0,50,0,0
84344,-83.3333333333333,4,2,0,50,0,0
84579,-83.3333333333333,4,2,0,70,0,1
98641,-100,4,2,0,40,0,0
99579,-100,4,2,0,40,0,1
117391,-100,4,2,0,40,0,0
118329,-100,4,2,0,40,0,1
131454,-100,4,2,0,40,0,0
132157,-100,4,2,0,40,0,1
133329,-100,4,2,0,40,0,0
182079,-100,4,2,0,40,0,1
196141,-100,4,2,0,40,0,0
197079,-100,4,2,0,40,0,1
215829,-100,4,2,0,40,0,0
250516,-100,4,2,0,40,0,1
268329,-100,4,2,0,40,0,0
269266,-100,4,2,0,40,0,1
282391,-100,4,2,0,40,0,0
283094,-100,4,2,0,40,0,1
288016,-100,4,2,0,40,0,0

[Colours]
Combo1 : 245,210,137
Combo2 : 209,188,243
Combo3 : 245,148,182
Combo4 : 247,125,119

[HitObjects]
209,112,2079,6,0,B|257:80|305:112|305:112|353:144|401:112,1,201.600002460938,2|0,0:0|0:0,0:0:0:0:
451,38,2782,1,0,0:0:0:0:
353,37,2899,1,0,0:0:0:0:
441,191,3016,6,0,P|401:213|329:215,1,100.800001230469,2|0,0:0|0:0,0:0:0:0:
159,217,3368,2,0,P|199:195|271:193,1,100.800001230469
235,304,3836,5,0,0:0:0:0:
235,304,3954,2,0,B|195:335|143:318|143:318|88:302|38:341,1,201.600002460938,2|0,0:0|0:0,0:0:0:0:
0,208,4657,5,0,0:0:0:0:
159,218,4774,1,0,0:0:0:0:
89,76,4891,6,0,P|49:53|-5:51,1,100.800001230469,2|0,0:0|0:0,0:0:0:0:
159,218,5243,2,0,P|204:239|254:241,1,100.800001230469
229,128,5711,5,0,0:0:0:0:
229,128,5829,2,0,B|185:106|136:130|136:130|81:162|28:119,1,201.600002460938,2|0,0:0|0:0,0:0:0:0:
135,218,6532,5,0,0:0:0:0:
8,242,6766,1,2,0:0:0:0:
139,199,7000,1,0,0:0:0:0:
4,69,7235,1,2,0:0:0:0:
160,200,7469,5,0,0:0:0:0:
160,200,7586,1,0,0:0:0:0:
160,200,7704,2,0,P|98:204|58:239,2,100.800001230469,2|0|0,0:0|0:0|0:0,0:0:0:0:
254,240,8407,1,2,0:0:0:0:
147,338,8641,6,0,P|177:356|187:357,2,31.4999990386963
139,330,8817,1,0,0:0:0:0:
130,324,8875,2,0,P|100:305|54:305,1,62.9999980773926,8|0,0:0|0:0,0:0:0:0:
76,378,9110,1,0,0:0:0:0:
181,259,9227,1,0,0:0:0:0:
0,280,9344,2,0,P|-5:311|6:341,1,62.9999980773926,8|0,0:0|0:0,0:0:0:0:
70,204,9579,5,6,0:0:0:0:
70,204,9813,1,0,0:0:0:0:
70,204,10047,1,0,0:0:0:0:
70,204,10282,1,2,0:0:0:0:
356,292,11454,5,2,0:0:0:0:
356,292,11688,1,0,0:0:0:0:
356,292,11922,1,0,0:0:0:0:
356,292,12157,1,2,0:0:0:0:
213,152,13329,5,4,0:0:0:0:
213,152,13563,5,0,0:0:0:0:
277,219,13680,1,0,0:0:0:0:
295,132,13797,1,0,0:0:0:0:
195,234,13914,1,0,0:0:0:0:
233,75,14032,1,0,0:0:0:0:
357,187,14149,1,0,0:0:0:0:
137,173,14266,1,8,0:0:0:0:
315,52,14383,1,0,0:0:0:0:
154,89,14500,5,0,0:0:0:0:
375,109,14618,1,0,0:0:0:0:
250,295,14735,1,0,0:0:0:0:
255,0,14852,1,0,0:0:0:0:
436,165,14969,1,0,0:0:0:0:
195,234,15086,1,0,0:0:0:0:
178,17,15204,5,4,0:0:0:0:
357,187,15321,1,0,0:0:0:0:
137,173,15438,1,0,0:0:0:0:
393,30,15555,1,0,0:0:0:0:
277,219,15672,1,0,0:0:0:0:
100,30,15789,1,0,0:0:0:0:
119,249,15907,1,0,0:0:0:0:
233,75,16024,5,2,0:0:0:0:
233,75,16082,1,0,0:0:0:0:
233,75,16141,1,4,0:0:0:0:
172,308,16258,1,0,0:0:0:0:
77,118,16375,1,0,0:0:0:0:
277,219,16493,1,0,0:0:0:0:
119,249,16610,2,0,L|28:249,1,72,8|0,0:0|0:0,0:0:0:0:
213,152,16844,1,0,0:0:0:0:
222,372,16961,5,2,0:0:0:0:
222,372,17020,1,0,0:0:0:0:
222,372,17079,2,0,B|157:348|157:348|72:348,1,144,4|0,0:0|0:0,0:0:0:0:
119,248,17547,2,0,B|193:248|193:248|258:272,1,144
478,379,18016,6,0,B|403:379|403:379|338:355,1,144
365,246,18485,2,0,B|430:270|430:270|504:270,1,144
282,133,18954,6,0,B|282:207|282:207|258:272,1,144,4|0,0:0|0:0,0:0:0:0:
118,248,19422,2,0,B|192:248|192:248|257:272,1,144
82,348,19774,5,2,0:0:0:0:
82,348,19832,1,0,0:0:0:0:
82,348,19891,1,0,0:0:0:0:
46,171,20008,1,0,0:0:0:0:
190,325,20125,1,8,0:0:0:0:
8,273,20243,1,0,0:0:0:0:
143,152,20360,5,2,0:0:0:0:
143,152,20418,1,0,0:0:0:0:
143,152,20477,1,0,0:0:0:0:
82,348,20594,2,0,L|126:230,1,106.199996272888,8|0,0:0|0:0,0:0:0:0:
228,80,20829,5,4,0:0:0:0:
221,229,20946,1,0,0:0:0:0:
143,152,21063,1,0,0:0:0:0:
329,214,21180,1,0,0:0:0:0:
190,325,21297,1,0,0:0:0:0:
270,148,21414,1,0,0:0:0:0:
292,305,21532,1,0,0:0:0:0:
119,248,21649,1,0,0:0:0:0:
357,137,21766,5,8,0:0:0:0:
190,325,21883,1,0,0:0:0:0:
309,74,22000,1,0,0:0:0:0:
292,305,22118,1,2,0:0:0:0:
292,305,22176,1,0,0:0:0:0:
292,305,22235,1,0,0:0:0:0:
228,80,22352,1,0,0:0:0:0:
190,325,22469,1,0,0:0:0:0:
84,97,22586,1,0,0:0:0:0:
329,214,22704,5,4,0:0:0:0:
52,181,22821,1,0,0:0:0:0:
357,137,22938,1,0,0:0:0:0:
119,248,23055,1,0,0:0:0:0:
309,74,23172,1,0,0:0:0:0:
29,260,23289,1,0,0:0:0:0:
292,305,23407,1,0,0:0:0:0:
52,181,23524,1,0,0:0:0:0:
190,325,23641,5,8,0:0:0:0:
138,162,23758,1,0,0:0:0:0:
85,329,23875,1,0,0:0:0:0:
229,146,23993,1,2,0:0:0:0:
229,146,24051,1,0,0:0:0:0:
229,146,24110,1,0,0:0:0:0:
292,305,24227,1,0,0:0:0:0:
171,79,24344,1,0,0:0:0:0:
136,250,24461,1,0,0:0:0:0:
309,74,24579,5,4,0:0:0:0:
396,286,24696,1,0,0:0:0:0:
388,66,24813,1,0,0:0:0:0:
292,305,24930,1,0,0:0:0:0:
229,146,25047,1,0,0:0:0:0:
406,195,25164,1,0,0:0:0:0:
204,218,25282,1,0,0:0:0:0:
309,74,25399,1,0,0:0:0:0:
190,325,25516,5,8,0:0:0:0:
154,158,25633,1,0,0:0:0:0:
396,286,25750,1,0,0:0:0:0:
127,232,25868,1,2,0:0:0:0:
127,232,25926,1,0,0:0:0:0:
127,232,25985,1,0,0:0:0:0:
367,159,26102,1,0,0:0:0:0:
78,169,26219,1,0,0:0:0:0:
190,325,26336,1,0,0:0:0:0:
180,88,26454,5,4,0:0:0:0:
127,232,26571,1,0,0:0:0:0:
367,159,26688,1,0,0:0:0:0:
78,169,26805,1,0,0:0:0:0:
263,11,26922,1,0,0:0:0:0:
204,218,27039,1,0,0:0:0:0:
125,20,27157,1,0,0:0:0:0:
50,241,27274,1,0,0:0:0:0:
273,127,27391,5,8,0:0:0:0:
78,169,27508,1,0,0:0:0:0:
323,226,27625,1,0,0:0:0:0:
104,95,27743,1,2,0:0:0:0:
104,95,27801,1,0,0:0:0:0:
104,95,27860,1,0,0:0:0:0:
175,294,27977,1,0,0:0:0:0:
27,106,28094,1,0,0:0:0:0:
94,299,28211,1,0,0:0:0:0:
273,127,28329,5,4,0:0:0:0:
127,232,28446,1,0,0:0:0:0:
183,83,28563,1,0,0:0:0:0:
224,353,28680,1,0,0:0:0:0:
203,220,28797,1,0,0:0:0:0:
59,364,28914,1,0,0:0:0:0:
78,169,29032,1,0,0:0:0:0:
141,359,29149,1,0,0:0:0:0:
273,127,29266,5,8,0:0:0:0:
127,232,29383,1,0,0:0:0:0:
280,209,29500,1,0,0:0:0:0:
104,95,29618,1,2,0:0:0:0:
104,95,29676,1,0,0:0:0:0:
104,95,29735,1,0,0:0:0:0:
175,294,29852,1,0,0:0:0:0:
183,83,29969,1,0,0:0:0:0:
94,299,30086,1,0,0:0:0:0:
27,106,30204,5,4,0:0:0:0:
273,127,30321,1,0,0:0:0:0:
127,232,30438,1,0,0:0:0:0:
269,30,30555,1,0,0:0:0:0:
254,279,30672,1,0,0:0:0:0:
183,83,30789,1,0,0:0:0:0:
339,262,30907,1,0,0:0:0:0:
343,78,31024,1,0,0:0:0:0:
311,348,31141,5,8,0:0:0:0:
501,227,31258,1,0,0:0:0:0:
401,334,31375,1,0,0:0:0:0:
347,160,31493,1,2,0:0:0:0:
347,160,31551,1,0,0:0:0:0:
347,160,31610,1,0,0:0:0:0:
254,279,31727,1,0,0:0:0:0:
421,116,31844,1,0,0:0:0:0:
495,315,31961,1,0,0:0:0:0:
273,127,32079,5,4,0:0:0:0:
339,262,32196,1,0,0:0:0:0:
343,78,32313,1,0,0:0:0:0:
422,289,32430,1,0,0:0:0:0:
493,67,32547,1,0,0:0:0:0:
280,209,32664,1,0,0:0:0:0:
485,237,32782,1,0,0:0:0:0:
273,127,32899,1,0,0:0:0:0:
227,358,33016,5,8,0:0:0:0:
203,220,33133,1,0,0:0:0:0:
94,299,33250,1,0,0:0:0:0:
339,262,33368,1,2,0:0:0:0:
339,262,33426,1,0,0:0:0:0:
339,262,33485,6,0,P|363:202|348:166,1,90,4|0,0:0|0:0,0:0:0:0:
290,45,33719,2,0,P|266:105|281:141,1,90
280,209,33954,6,0,B|233:227|194:208|194:208|150:187|97:213,1,188.999994232178,6|0,0:0|0:0,0:0:0:0:
180,288,34422,2,0,P|221:298|270:286,1,80.9999975280763,2|0,0:0|0:0,0:0:0:0:
339,262,34657,5,4,0:0:0:0:
280,209,34774,1,0,0:0:0:0:
330,350,34891,1,8,0:0:0:0:
356,180,35008,1,0,0:0:0:0:
249,372,35125,1,8,0:0:0:0:
409,320,35243,1,0,0:0:0:0:
286,130,35360,1,8,0:0:0:0:
258,291,35477,1,0,0:0:0:0:
361,101,35594,6,0,P|332:67|271:57,1,94.499997116089,2|0,0:0|0:0,0:0:0:0:
259,72,35829,2,0,B|223:67|198:93|198:93|174:119|138:115,1,125.999996154785,4|8,0:0|0:0,0:0:0:0:
57,111,36180,1,0,0:0:0:0:
103,38,36297,1,0,0:0:0:0:
103,38,36414,1,0,0:0:0:0:
97,184,36532,6,0,P|137:202|173:192,1,62.9999980773926,8|0,0:0|0:0,0:0:0:0:
286,130,36766,2,0,B|286:208|286:208|248:260,1,125.999996154785,4|8,0:0|0:0,0:0:0:0:
158,276,37118,2,0,P|99:292|72:347,1,125.999996154785
237,341,37469,6,0,P|283:347|322:322,1,94.499997116089,2|0,0:0|0:0,0:0:0:0:
332,297,37704,2,0,B|332:219|332:219|370:167,1,125.999996154785,4|8,0:0|0:0,0:0:0:0:
437,125,38055,1,0,0:0:0:0:
456,220,38172,1,0,0:0:0:0:
456,220,38289,1,0,0:0:0:0:
361,100,38407,6,0,P|387:59|415:52,1,62.9999980773926,8|0,0:0|0:0,0:0:0:0:
360,180,38641,2,0,P|294:136|285:88,1,125.999996154785,4|8,0:0|0:0,0:0:0:0:
218,28,38993,2,0,B|142:28|142:28|92:70,1,125.999996154785
173,209,39344,6,0,P|187:164|181:117,1,94.499997116089,2|0,0:0|0:0,0:0:0:0:
174,94,39579,2,0,P|123:132|56:128,1,125.999996154785,4|8,0:0|0:0,0:0:0:0:
0,49,39930,1,0,0:0:0:0:
96,37,40047,1,0,0:0:0:0:
96,37,40164,1,0,0:0:0:0:
34,205,40282,6,0,P|76:220|119:210,1,62.9999980773926,8|0,0:0|0:0,0:0:0:0:
159,270,40516,2,0,B|219:253|219:253|279:272,1,125.999996154785,4|8,0:0|0:0,0:0:0:0:
263,98,40868,2,0,P|272:168|330:189,1,125.999996154785
331,56,41219,6,0,P|288:21|261:23,1,62.9999980773926,8|0,0:0|0:0,0:0:0:0:
155,1,41454,2,0,P|197:35|224:33,1,62.9999980773926,4|0,0:0|0:0,0:0:0:0:
257,156,41688,2,0,P|264:101|249:79,1,62.9999980773926,8|0,0:0|0:0,0:0:0:0:
181,117,41922,1,0,0:0:0:0:
181,117,42039,1,0,0:0:0:0:
119,222,42157,6,0,P|153:205|202:224,1,62.9999980773926,8|0,0:0|0:0,0:0:0:0:
251,255,42391,1,4,0:0:0:0:
168,288,42508,1,0,0:0:0:0:
168,288,42625,1,8,0:0:0:0:
119,222,42743,2,0,L|111:155,2,62.9999980773926
85,299,43094,6,0,P|104:342|149:367,1,94.499997116089,2|0,0:0|0:0,0:0:0:0:
167,353,43329,2,0,P|242:334|304:353,1,125.999996154785,4|8,0:0|0:0,0:0:0:0:
376,372,43680,1,0,0:0:0:0:
351,280,43797,1,0,0:0:0:0:
351,280,43914,1,0,0:0:0:0:
464,165,44032,6,0,P|441:187|412:196,1,62.9999980773926,8|0,0:0|0:0,0:0:0:0:
310,67,44266,2,0,B|291:143|291:143|307:187,1,125.999996154785,4|8,0:0|0:0,0:0:0:0:
351,280,44618,1,0,0:0:0:0:
243,281,44735,1,0,0:0:0:0:
243,281,44852,1,0,0:0:0:0:
202,99,44969,6,0,L|178:193,1,94.499997116089,2|0,0:0|0:0,0:0:0:0:
171,210,45204,2,0,P|115:202|53:257,1,125.999996154785,4|8,0:0|0:0,0:0:0:0:
53,325,45555,1,0,0:0:0:0:
134,290,45672,1,0,0:0:0:0:
134,290,45789,1,0,0:0:0:0:
202,99,45907,6,0,P|157:86|111:91,1,94.499997116089,2|0,0:0|0:0,0:0:0:0:
88,111,46141,2,0,P|109:60|73:3,1,125.999996154785,4|8,0:0|0:0,0:0:0:0:
88,111,46493,2,0,P|57:119|25:119,2,62.9999980773926
202,99,46844,6,0,P|246:109|271:139,1,62.9999980773926,8|0,0:0|0:0,0:0:0:0:
304,265,47079,2,0,B|228:239|228:239|209:197,1,125.999996154785,4|8,0:0|0:0,0:0:0:0:
202,99,47430,1,0,0:0:0:0:
118,149,47547,1,0,0:0:0:0:
118,149,47664,1,0,0:0:0:0:
104,312,47782,6,0,P|122:270|121:247,1,62.9999980773926,8|0,0:0|0:0,0:0:0:0:
209,197,48016,2,0,P|272:174|340:206,1,125.999996154785,4|0,0:0|0:0,0:0:0:0:
275,380,48368,2,0,P|252:322|270:263,1,125.999996154785
407,259,48719,6,0,P|382:299|340:319,1,94.499997116089,2|0,0:0|0:0,0:0:0:0:
314,311,48954,2,0,B|247:307|247:307|176:323,1,125.999996154785,4|8,0:0|0:0,0:0:0:0:
76,337,49305,1,0,0:0:0:0:
116,221,49422,1,0,0:0:0:0:
116,221,49539,1,0,0:0:0:0:
189,80,49657,2,0,P|180:129|220:174,1,94.499997116089,8|0,0:0|0:0,0:0:0:0:
225,177,49891,5,4,0:0:0:0:
418,129,50008,1,0,0:0:0:0:
204,269,50125,5,4,0:0:0:0:
498,196,50243,1,0,0:0:0:0:
300,319,50360,5,8,0:0:0:0:
295,224,50477,1,8,0:0:0:0:
217,366,50594,1,8,0:0:0:0:
382,270,50711,1,8,0:0:0:0:
204,269,50829,6,0,P|142:249|73:278,1,125.999996154785,4|8,0:0|0:0,0:0:0:0:
48,354,51180,1,0,0:0:0:0:
143,338,51297,1,0,0:0:0:0:
143,338,51414,1,0,0:0:0:0:
0,282,51532,6,0,P|7:230|30:205,1,62.9999980773926,8|0,0:0|0:0,0:0:0:0:
118,64,51766,2,0,B|121:143|121:143|82:199,1,125.999996154785,4|8,0:0|0:0,0:0:0:0:
203,164,52118,2,0,P|277:158|324:200,1,125.999996154785
247,243,52469,2,0,P|192:253|145:233,1,94.499997116089,2|0,0:0|0:0,0:0:0:0:
137,231,52704,6,0,P|165:271|148:348,1,125.999996154785,4|8,0:0|0:0,0:0:0:0:
68,377,53055,1,0,0:0:0:0:
79,295,53172,1,0,0:0:0:0:
79,295,53289,1,0,0:0:0:0:
232,301,53407,6,0,B|266:311|266:311|292:301,1,62.9999980773926,8|0,0:0|0:0,0:0:0:0:
330,124,53641,2,0,B|282:152|282:152|265:233,1,125.999996154785,4|0,0:0|0:0,0:0:0:0:
419,175,53993,2,0,P|436:112|394:52,1,125.999996154785
316,30,54344,6,0,B|266:19|274:58|199:31,1,94.499997116089,2|0,0:0|0:0,0:0:0:0:
189,30,54579,2,0,P|200:99|147:157,1,125.999996154785,4|8,0:0|0:0,0:0:0:0:
79,157,54930,1,0,0:0:0:0:
114,75,55047,1,0,0:0:0:0:
114,75,55164,1,0,0:0:0:0:
138,219,55282,6,0,L|148:288,1,62.9999980773926,8|0,0:0|0:0,0:0:0:0:
60,355,55516,2,0,B|35:323|35:323|47:218,1,125.999996154785,4|0,0:0|0:0,0:0:0:0:
250,235,55868,2,0,P|215:276|144:280,1,125.999996154785
23,133,56219,6,0,P|69:146|88:180,1,62.9999980773926,8|0,0:0|0:0,0:0:0:0:
52,297,56454,2,0,P|39:268|44:237,1,62.9999980773926,4|0,0:0|0:0,0:0:0:0:
185,182,56688,2,0,P|166:206|137:218,1,62.9999980773926,8|0,0:0|0:0,0:0:0:0:
78,156,56922,1,0,0:0:0:0:
78,156,57039,1,0,0:0:0:0:
151,77,57157,6,0,P|186:67|232:77,1,62.9999980773926,8|0,0:0|0:0,0:0:0:0:
185,182,57391,1,4,0:0:0:0:
185,182,57508,1,0,0:0:0:0:
299,148,57625,1,8,0:0:0:0:
151,77,57743,2,0,L|73:79,2,62.9999980773926
325,49,58094,6,0,P|372:77|396:120,1,94.499997116089,2|0,0:0|0:0,0:0:0:0:
402,132,58329,2,0,P|383:166|402:252,1,125.999996154785,4|8,0:0|0:0,0:0:0:0:
494,288,58680,1,0,0:0:0:0:
480,192,58797,1,0,0:0:0:0:
480,192,58914,1,0,0:0:0:0:
312,192,59032,6,0,P|259:212|210:185,1,94.499997116089,2|0,0:0|0:0,0:0:0:0:
188,177,59266,2,0,P|208:211|189:305,1,125.999996154785,4|8,0:0|0:0,0:0:0:0:
109,333,59618,1,0,0:0:0:0:
111,243,59735,1,0,0:0:0:0:
111,243,59852,1,0,0:0:0:0:
189,384,59969,6,0,P|259:363|278:325,1,94.499997116089,2|0,0:0|0:0,0:0:0:0:
271,313,60204,2,0,P|288:255|348:215,1,125.999996154785,4|8,0:0|0:0,0:0:0:0:
372,313,60555,1,0,0:0:0:0:
273,141,60672,6,0,P|329:115|390:130,1,125.999996154785
339,217,61024,1,0,0:0:0:0:
236,233,61141,6,0,P|181:192|171:142,1,94.499997116089,4|0,0:0|0:0,0:0:0:0:
168,137,61375,1,10,0:0:0:0:
218,56,61493,1,2,0:0:0:0:
273,141,61610,1,2,0:0:0:0:
130,59,61727,1,10,0:0:0:0:
320,59,61844,6,0,P|353:86|363:147,1,94.499997116089,2|0,0:0|0:0,0:0:0:0:
364,161,62079,2,0,P|335:208|350:291,1,125.999996154785,4|8,0:0|0:0,0:0:0:0:
426,332,62430,1,0,0:0:0:0:
434,234,62547,1,0,0:0:0:0:
434,234,62664,1,0,0:0:0:0:
330,368,62782,6,0,P|291:354|262:317,1,62.9999980773926,8|0,0:0|0:0,0:0:0:0:
273,141,63016,2,0,P|279:203|223:263,1,125.999996154785,4|8,0:0|0:0,0:0:0:0:
103,179,63368,2,0,P|165:174|185:184,1,62.9999980773926
142,272,63602,5,0,0:0:0:0:
37,256,63719,1,8,0:0:0:0:
37,256,63836,1,0,0:0:0:0:
36,38,63954,6,0,L|30:100,1,62.9999980773926,8|0,0:0|0:0,0:0:0:0:
37,256,64188,1,4,0:0:0:0:
108,116,64305,6,0,L|102:178,1,62.9999980773926,8|0,0:0|0:0,0:0:0:0:
82,346,64539,1,4,0:0:0:0:
243,252,64657,6,0,L|236:170,1,62.9999980773926,8|0,0:0|0:0,0:0:0:0:
224,30,64891,1,12,0:0:0:0:
108,116,65008,1,8,0:0:0:0:
237,189,65125,1,8,0:0:0:0:
109,0,65243,1,8,0:0:0:0:
118,240,65360,1,8,0:0:0:0:
196,112,65477,1,2,0:0:0:0:
196,112,65536,1,0,0:0:0:0:
196,112,65594,1,8,0:0:0:0:
15,55,65711,1,8,0:0:0:0:
46,241,65829,6,0,P|120:241|137:264,1,76.5000014591217,4|0,0:0|0:0,0:0:0:0:
314,250,66063,2,0,P|239:249|222:226,1,76.5000014591217,8|0,0:0|0:0,0:0:0:0:
196,112,66297,1,0,0:0:0:0:
196,112,66414,1,0,0:0:0:0:
349,171,66532,6,0,P|392:204|301:329,1,229.500004377365,6|0,0:0|0:0,0:0:0:0:
247,333,67000,1,8,0:0:0:0:
314,250,67118,1,0,0:0:0:0:
174,296,67235,5,2,0:0:0:0:
149,291,67313,1,2,0:0:0:0:
124,298,67391,1,2,0:0:0:0:
105,314,67469,1,2,0:0:0:0:
163,210,67586,1,0,0:0:0:0:
389,260,67704,6,0,L|306:249,1,76.5000014591217,4|0,0:0|0:0,0:0:0:0:
163,210,67938,1,8,0:0:0:0:
424,160,68055,6,0,L|341:171,1,76.5000014591217
163,210,68289,1,0,0:0:0:0:
374,97,68407,6,0,P|283:104|348:170,1,229.500004377365,6|0,0:0|0:0,0:0:0:0:
424,160,68875,1,8,0:0:0:0:
452,81,68993,1,0,0:0:0:0:
396,231,69110,1,0,0:0:0:0:
502,141,69227,1,0,0:0:0:0:
374,97,69344,1,8,0:0:0:0:
478,223,69461,1,0,0:0:0:0:
271,180,69579,6,0,P|285:215|317:236,1,76.5000014591217,4|0,0:0|0:0,0:0:0:0:
442,296,69813,1,8,0:0:0:0:
320,37,69930,6,0,P|297:67|294:104,1,76.5000014591217
316,236,70164,1,0,0:0:0:0:
217,119,70282,6,0,B|178:97|107:124|138:124|77:166|23:121,1,204.000003890991,6|2,0:0|0:0,0:0:0:0:
1,103,70672,1,2,0:0:0:0:
23,121,70750,1,2,0:0:0:0:
37,146,70829,1,2,0:0:0:0:
39,175,70907,1,2,0:0:0:0:
30,202,70985,5,2,0:0:0:0:
62,221,71063,1,2,0:0:0:0:
99,226,71141,1,2,0:0:0:0:
135,213,71219,1,2,0:0:0:0:
170,197,71297,1,2,0:0:0:0:
208,193,71375,1,2,0:0:0:0:
244,204,71454,6,0,P|289:225|245:363,1,229.500004377365,6|0,0:0|0:0,0:0:0:0:
94,368,71922,6,0,P|89:318|231:287,1,229.500004377365,2|0,0:0|0:0,0:0:0:0:
372,346,72391,6,0,P|273:379|228:284,1,229.500004377365,2|0,0:0|0:0,0:0:0:0:
305,145,72860,6,0,P|327:248|228:283,1,229.500004377365,2|0,0:0|0:0,0:0:0:0:
174,226,73329,6,0,P|206:205|243:203,1,76.5000014591217,4|0,0:0|0:0,0:0:0:0:
228,283,73563,2,0,P|196:303|158:305,1,76.5000014591217,8|0,0:0|0:0,0:0:0:0:
36,113,73797,2,0,B|46:168|46:168|81:205|81:205|92:250,1,153.000002918243,0|8,0:0|0:0,0:0:0:0:
79,326,74149,1,0,0:0:0:0:
157,152,74266,6,0,L|175:227,1,76.5000014591217,4|0,0:0|0:0,0:0:0:0:
79,326,74500,2,0,L|93:250,1,76.5000014591217,8|0,0:0|0:0,0:0:0:0:
174,58,74735,2,0,B|119:67|119:67|82:102|82:102|37:113,1,153.000002918243,0|8,0:0|0:0,0:0:0:0:
255,115,75086,6,0,P|295:110|330:91,1,76.5000014591217,0|4,0:0|0:0,0:0:0:0:
268,24,75321,1,2,0:0:0:0:
268,24,75379,1,0,0:0:0:0:
268,24,75438,1,0,0:0:0:0:
174,58,75555,2,0,P|155:96|168:158,1,76.5000014591217,8|0,0:0|0:0,0:0:0:0:
263,249,75907,6,0,P|265:309|192:239,1,229.500004377365,6|0,0:0|0:0,0:0:0:0:
178,237,76317,1,0,0:0:0:0:
175,227,76375,1,8,0:0:0:0:
103,270,76493,5,0,0:0:0:0:
239,168,76610,1,10,0:0:0:0:
105,192,76727,1,0,0:0:0:0:
263,249,76844,1,2,0:0:0:0:
155,129,76961,6,0,P|116:110|54:123,1,76.5000014591217,0|4,0:0|0:0,0:0:0:0:
21,171,77196,1,0,0:0:0:0:
0,88,77313,1,8,0:0:0:0:
105,192,77430,1,0,0:0:0:0:
61,31,77547,1,0,0:0:0:0:
49,250,77664,1,0,0:0:0:0:
143,51,77782,1,8,0:0:0:0:
131,271,77899,1,0,0:0:0:0:
83,110,78016,5,4,0:0:0:0:
76,330,78133,1,0,0:0:0:0:
170,128,78250,1,8,0:0:0:0:
49,250,78368,1,0,0:0:0:0:
256,143,78485,1,0,0:0:0:0:
21,171,78602,1,0,0:0:0:0:
143,51,78719,1,8,0:0:0:0:
131,271,78836,1,2,0:0:0:0:
131,271,78895,1,0,0:0:0:0:
131,271,78954,5,4,0:0:0:0:
0,88,79071,1,0,0:0:0:0:
199,207,79188,1,8,0:0:0:0:
61,31,79305,1,0,0:0:0:0:
218,294,79422,1,0,0:0:0:0:
143,51,79539,1,0,0:0:0:0:
131,271,79657,1,8,0:0:0:0:
226,62,79774,1,0,0:0:0:0:
156,349,79891,5,4,0:0:0:0:
313,76,80008,1,0,0:0:0:0:
245,373,80125,1,8,0:0:0:0:
256,143,80243,1,0,0:0:0:0:
76,330,80360,5,2,0:0:0:0:
69,336,80438,1,2,0:0:0:0:
72,324,80516,1,2,0:0:0:0:
83,332,80594,1,0,0:0:0:0:
166,134,80750,5,0,0:0:0:0:
169,127,80829,2,0,P|114:21|226:62,1,306.000005836487,2|0,0:0|0:0,0:0:0:0:
199,212,81766,5,4,0:0:0:0:
169,127,81883,1,0,0:0:0:0:
280,237,82000,5,2,0:0:0:0:
226,62,82118,1,0,0:0:0:0:
361,262,82235,5,0,0:0:0:0:
296,6,82352,1,0,0:0:0:0:
345,177,82469,5,2,0:0:0:0:
114,193,82586,1,0,0:0:0:0:
318,94,82704,1,4,0:0:0:0:
318,94,83172,5,2,0:0:0:0:
318,94,83407,5,2,0:0:0:0:
318,94,83641,5,2,0:0:0:0:
255,194,83875,6,0,P|233:271|263:344,1,161.999995056153
157,376,84110,5,0,0:0:0:0:
123,379,84168,1,0,0:0:0:0:
91,369,84227,1,0,0:0:0:0:
62,347,84286,1,0,0:0:0:0:
44,322,84344,2,0,P|23:231|91:173,1,161.999995056153,2|0,0:0|0:0,0:0:0:0:
84,166,84579,6,0,B|145:144|206:187|167:193|231:239|280:225,1,215.999993408203,6|0,0:0|0:0,0:0:0:0:
