osu file format v14

[General]
AudioFilename: audio.mp3
AudioLeadIn: 0
PreviewTime: 83835
Countdown: 0
SampleSet: Soft
StackLeniency: 0.4
Mode: 0
LetterboxInBreaks: 0
WidescreenStoryboard: 0

[Editor]
Bookmarks: 340,20906,34031,35906,49969,50906,64031,65906,73406,77156,140906
DistanceSpacing: 1
BeatDivisor: 4
GridSize: 4
TimelineZoom: 3.299999

[Metadata]
Title:Kizuitara Shunkashuutou
TitleUnicode:気づいたら春夏秋冬
Artist:Camellia feat. Nanahira
ArtistUnicode:かめりあ feat. ななひら
Creator:Silver_Cr0w
Version:Seasons
Source:
Tags:
BeatmapID:1215530
BeatmapSetID:573804

[Difficulty]
HPDrainRate:6.2
CircleSize:4
OverallDifficulty:9.2
ApproachRate:9.7
SliderMultiplier:1.9
SliderTickRate:1

[Events]
//Background and Video events
0,0,"BG.jpg",0,0
//Break Periods
//Storyboard Layer 0 (Background)
//Storyboard Layer 1 (Fail)
//Storyboard Layer 2 (Pass)
//Storyboard Layer 3 (Foreground)
//Storyboard Sound Samples

[TimingPoints]
1219,234.375,4,2,0,100,1,0
2156,-200,4,2,0,100,0,0
8719,-166.666666666667,4,2,0,100,0,0
13406,-125,4,2,0,100,0,0
13875,-117.647058823529,4,2,0,100,0,0
14344,-111.111111111111,4,2,0,100,0,0
14812,-105.263157894737,4,2,0,100,0,0
15281,-100,4,2,0,100,0,0
17156,-200,4,2,0,100,0,0
17390,-100,4,2,0,100,0,0
18797,-74.0740740740741,4,2,0,100,0,0
19031,-142.857142857143,4,2,0,100,0,0
19265,-125,4,2,0,100,0,0
19500,-111.111111111111,4,2,0,100,0,0
19734,-100,4,2,0,100,0,0
20906,-83.3333333333333,4,2,0,100,0,0
34031,-166.666666666667,4,2,0,100,0,0
34265,-125,4,2,0,100,0,0
34969,-100,4,2,0,100,0,0
35906,-111.111111111111,4,2,0,100,0,0
49969,-83.3333333333333,4,2,0,100,0,0
50906,-100,4,2,0,100,0,0
65906,-90.9090909090909,4,2,0,100,0,0
71531,-133.333333333333,4,2,0,100,0,0
75984,-166.666666666667,4,2,0,100,0,0
76336,-125,4,2,0,100,0,0
77156,-142.857142857143,4,2,0,100,0,0
79031,-117.647058823529,4,2,0,100,0,0
83953,-83.3333333333333,4,2,0,100,0,0
84656,-76.9230769230769,4,2,0,100,0,1
118406,-100,4,2,0,100,0,0

[HitObjects]
105,65,2156,6,0,B|235:28|235:107|361:65,1,261.25
431,19,2859,2,0,L|447:82,1,47.5
469,157,3094,1,0,0:0:0:0:
469,157,3328,5,0,0:0:0:0:
284,199,3445,1,0,0:0:0:0:
484,258,3679,5,0,0:0:0:0:
258,100,3914,6,0,B|192:121|142:98|142:98|123:150|54:174,1,237.5
178,192,4734,2,0,P|158:215|127:231,1,47.5
60,270,4969,1,0,0:0:0:0:
60,270,5203,5,0,0:0:0:0:
245,312,5320,1,0,0:0:0:0:
45,371,5554,5,0,0:0:0:0:
271,213,5789,6,0,B|339:161|344:68|344:68|366:79|371:116|351:150,1,237.5
379,245,6609,1,0,0:0:0:0:
272,65,6844,2,0,P|260:111|233:150,1,95
100,15,7312,2,0,P|112:61|139:100,1,95
183,222,7664,5,0,0:0:0:0:
164,236,7781,2,0,B|109:271|109:271|72:281,2,95
278,237,8484,1,0,0:0:0:0:
424,61,8719,6,0,L|430:142,1,56.9999982604981
434,220,8953,1,0,0:0:0:0:
435,230,9011,1,0,0:0:0:0:
436,240,9070,1,0,0:0:0:0:
312,99,9187,1,0,0:0:0:0:
221,185,9304,1,0,0:0:0:0:
113,120,9422,1,0,0:0:0:0:
312,99,9656,6,0,P|317:131|316:164,1,56.9999982604981
255,338,9890,2,0,P|249:305|251:273,1,56.9999982604981
316,115,10125,6,0,P|318:145|314:174,1,56.9999982604981
246,325,10359,2,0,P|243:296|247:267,1,56.9999982604981
318,131,10594,6,0,P|318:158|309:190,1,56.9999982604981
238,314,10828,2,0,P|238:287|246:257,1,56.9999982604981
314,140,11062,6,0,P|314:164|304:197,1,56.9999982604981
242,304,11296,2,0,P|244:280|255:250,1,56.9999982604981
416,119,11531,6,0,L|358:104,1,56.9999982604981
234,73,11765,2,0,L|292:88,1,56.9999982604981
424,72,12000,6,0,L|368:86,1,56.9999982604981
224,123,12234,2,0,L|279:108,1,56.9999982604981
436,124,12469,6,0,L|365:106,1,56.9999982604981
216,68,12703,2,0,L|286:86,1,56.9999982604981
445,66,12937,6,0,L|390:80,1,56.9999982604981
204,128,13172,2,0,L|259:114,1,56.9999982604981
109,25,13406,6,0,B|92:60|92:60|90:98,1,76
110,240,13640,2,0,B|127:205|127:205|129:167,1,76
144,16,13875,6,0,B|122:50|122:50|115:89,1,80.750001540184
75,245,14109,2,0,B|97:212|97:212|106:161,1,80.750001540184
178,6,14344,6,0,B|150:38|150:38|136:82,1,85.4999973907472
40,251,14578,2,0,B|67:218|67:218|86:161,1,85.4999973907472
213,1,14812,6,0,B|179:31|179:31|156:79,1,90.2499975900651
6,258,15046,2,0,B|39:227|39:227|72:159,1,90.2499975900651
52,78,15281,5,0,0:0:0:0:
177,167,15398,1,0,0:0:0:0:
59,187,15515,5,0,0:0:0:0:
126,334,15632,1,0,0:0:0:0:
177,167,15750,5,0,0:0:0:0:
337,226,15867,1,0,0:0:0:0:
160,262,15984,5,0,0:0:0:0:
226,84,16101,1,0,0:0:0:0:
226,84,16160,1,0,0:0:0:0:
226,84,16219,5,0,0:0:0:0:
254,272,16336,1,0,0:0:0:0:
351,98,16453,5,0,0:0:0:0:
143,89,16570,1,0,0:0:0:0:
350,19,16687,5,0,0:0:0:0:
177,167,16804,1,0,0:0:0:0:
421,57,16922,5,0,0:0:0:0:
254,272,17039,1,0,0:0:0:0:
243,287,17097,1,0,0:0:0:0:
229,300,17156,6,0,L|140:291,1,71.25
64,252,17390,6,0,L|253:271,1,190
54,231,17859,2,0,L|243:250,1,190
44,210,18328,2,0,L|233:229,1,190
33,188,18797,6,0,P|117:228|213:208,1,192.375000733852
146,120,19031,6,0,P|118:159|118:220,1,99.7499969558717
158,103,19265,6,0,P|115:140|105:204,1,114
171,85,19500,6,0,P|113:118|94:184,1,128.249996086121
185,69,19734,6,0,P|120:86|84:148,1,142.5
230,152,19969,5,0,0:0:0:0:
338,59,20086,1,0,0:0:0:0:
444,260,20203,5,0,0:0:0:0:
336,167,20320,1,0,0:0:0:0:
232,370,20437,5,0,0:0:0:0:
242,335,20495,1,0,0:0:0:0:
265,308,20554,1,0,0:0:0:0:
296,290,20612,1,0,0:0:0:0:
331,284,20672,2,0,L|383:291,1,47.5
460,384,20789,2,0,L|408:377,1,47.5
198,273,20906,6,0,P|168:228|186:164,1,113.999996520996
268,0,21140,2,0,L|290:116,1,113.999996520996
37,113,21375,1,0,0:0:0:0:
241,212,21492,1,0,0:0:0:0:
61,38,21609,1,0,0:0:0:0:
121,258,21726,1,0,0:0:0:0:
318,49,21844,6,0,P|370:27|431:41,1,113.999996520996
194,278,22078,2,0,P|249:288|301:267,1,113.999996520996
390,116,22254,1,0,0:0:0:0:
387,101,22312,2,0,P|350:143|343:199,1,113.999996520996
441,355,22547,2,0,P|422:301|377:268,1,113.999996520996
239,92,22781,5,0,0:0:0:0:
22,168,22898,1,0,0:0:0:0:
176,0,23015,1,0,0:0:0:0:
85,258,23133,1,0,0:0:0:0:
69,8,23250,2,0,B|78:52|78:52|132:119,1,113.999996520996
184,165,23426,1,0,0:0:0:0:
196,177,23484,2,0,P|226:220|214:291,1,113.999996520996
199,85,23719,6,0,L|319:59,1,113.999996520996
508,214,23953,2,0,L|388:240,1,113.999996520996
345,0,24129,1,0,0:0:0:0:
358,0,24187,2,0,P|388:51|373:108,1,113.999996520996
349,299,24421,2,0,P|319:248|334:191,1,113.999996520996
134,0,24656,6,0,B|181:30|181:30|198:86,1,113.999996520996
221,335,24890,2,0,P|174:301|157:247,1,113.999996520996
337,72,25125,1,0,0:0:0:0:
125,154,25242,1,0,0:0:0:0:
322,0,25359,1,0,0:0:0:0:
258,219,25476,1,0,0:0:0:0:
65,30,25594,6,0,B|49:144,1,113.999996520996
264,52,25828,2,0,P|213:31|150:36,1,113.999996520996
254,130,26004,1,0,0:0:0:0:
267,135,26062,2,0,P|323:132|373:107,1,113.999996520996
471,30,26297,2,0,B|487:144,1,113.999996520996
402,379,26531,5,0,0:0:0:0:
376,153,26648,1,0,0:0:0:0:
296,384,26765,5,0,0:0:0:0:
267,135,26882,1,0,0:0:0:0:
462,296,27000,2,0,P|413:267|350:266,1,113.999996520996
277,296,27176,1,0,0:0:0:0:
261,302,27234,2,0,P|204:299|156:270,1,113.999996520996
249,23,27469,6,0,B|266:78|266:78|266:138,2,113.999996520996
90,19,27820,1,0,0:0:0:0:
84,38,27879,1,0,0:0:0:0:
84,58,27937,1,0,0:0:0:0:
203,196,28054,1,0,0:0:0:0:
362,0,28172,1,0,0:0:0:0:
190,89,28289,1,0,0:0:0:0:
440,75,28406,6,0,L|431:188,1,113.999996520996
203,196,28640,2,0,L|213:324,1,113.999996520996
330,87,28875,1,0,0:0:0:0:
112,153,28992,1,0,0:0:0:0:
310,0,29109,1,0,0:0:0:0:
298,227,29226,1,0,0:0:0:0:
123,29,29344,6,0,B|97:79|97:79|94:149,1,113.999996520996
288,353,29578,2,0,B|314:303|314:303|317:233,1,113.999996520996
228,141,29754,1,0,0:0:0:0:
222,157,29813,2,0,B|195:267,1,113.999996520996
403,91,30047,2,0,B|429:201,1,113.999996520996
239,39,30281,5,0,0:0:0:0:
112,228,30398,1,0,0:0:0:0:
48,0,30515,5,0,0:0:0:0:
228,141,30632,1,0,0:0:0:0:
45,315,30750,2,0,B|102:306|102:306|166:336,1,113.999996520996
403,312,30984,2,0,B|345:320|345:320|281:290,1,113.999996520996
327,46,31219,5,0,0:0:0:0:
447,240,31336,1,0,0:0:0:0:
397,0,31453,1,0,0:0:0:0:
371,233,31570,1,0,0:0:0:0:
371,233,31629,1,0,0:0:0:0:
371,233,31687,2,0,P|317:197|265:202,1,113.999996520996
504,105,31922,2,0,P|450:141|398:136,1,113.999996520996
213,63,32156,6,0,B|184:95|184:95|160:161,1,113.999996520996
0,275,32390,2,0,B|42:283|42:283|112:271,1,113.999996520996
288,361,32625,2,0,B|274:320|274:320|228:265,1,113.999996520996
4,156,32859,5,0,0:0:0:0:
59,377,32976,1,0,0:0:0:0:
83,126,33094,2,0,P|100:70|140:25,1,113.999996520996
301,72,33328,5,0,0:0:0:0:
191,203,33445,1,0,0:0:0:0:
231,1,33562,5,0,0:0:0:0:
365,19,33679,1,0,0:0:0:0:
389,153,33797,1,0,0:0:0:0:
268,218,33914,1,0,0:0:0:0:
169,122,34031,6,0,P|220:124|257:157,1,85.4999973907472
268,218,34265,6,0,L|333:258,1,76
481,218,34500,2,0,L|416:258,1,76
266,294,34734,5,0,0:0:0:0:
374,349,34851,1,0,0:0:0:0:
94,204,34969,6,0,L|73:300,1,95
60,371,35203,1,0,0:0:0:0:
178,176,35320,6,0,L|199:272,1,95
212,343,35554,1,0,0:0:0:0:
118,128,35672,5,0,0:0:0:0:
154,20,35789,1,0,0:0:0:0:
257,68,35906,6,0,P|344:53|426:79,1,170.999994781494
257,148,36375,5,0,0:0:0:0:
340,132,36492,1,0,0:0:0:0:
421,156,36609,2,0,P|454:180|482:224,1,85.4999973907472
257,228,36844,6,0,P|224:284|219:351,1,128.249996086121
225,362,37078,1,0,0:0:0:0:
369,270,37195,2,0,P|362:324|338:356,1,85.4999973907472
257,148,37429,1,0,0:0:0:0:
257,148,37547,2,0,P|264:94|288:62,1,85.4999973907472
103,9,37781,6,0,P|73:84|69:185,1,170.999994781494
177,30,38250,5,0,0:0:0:0:
146,109,38367,1,0,0:0:0:0:
141,194,38484,2,0,P|123:237|88:266,1,85.4999973907472
67,358,38719,6,0,B|150:338|150:338|185:313,1,128.249996086121
196,300,38953,1,0,0:0:0:0:
215,156,39070,2,0,B|298:176,1,85.4999973907472
439,272,39304,1,0,0:0:0:0:
429,286,39422,2,0,B|346:264,1,85.4999973907472
254,72,39656,6,0,P|175:44|79:62,1,170.999994781494
247,146,40125,5,0,0:0:0:0:
167,117,40242,1,0,0:0:0:0:
83,130,40359,2,0,P|44:151|12:197,1,85.4999973907472
159,284,40594,6,0,P|217:307|279:296,1,128.249996086121
294,287,40828,1,0,0:0:0:0:
371,119,40945,2,0,P|345:155|338:197,1,85.4999973907472
449,363,41179,1,0,0:0:0:0:
449,363,41297,2,0,P|430:323|397:295,1,85.4999973907472
210,124,41531,6,0,B|240:97|291:106|291:106|304:51|358:39,2,170.999994781494
371,119,42117,1,0,0:0:0:0:
236,14,42234,1,0,0:0:0:0:
146,80,42469,5,0,0:0:0:0:
79,194,42586,1,0,0:0:0:0:
226,197,42703,1,0,0:0:0:0:
157,65,42820,1,0,0:0:0:0:
69,208,42937,5,0,0:0:0:0:
240,207,43054,1,0,0:0:0:0:
158,302,43172,2,0,P|127:330|85:339,1,85.4999973907472
370,226,43406,6,0,B|395:166|348:166|370:102,1,128.249996086121
425,47,43640,1,0,0:0:0:0:
385,318,43875,6,0,P|422:337|465:334,2,85.4999973907472
385,318,44344,6,0,P|347:298|304:301,1,85.4999973907472
182,336,44578,1,0,0:0:0:0:
85,253,44695,2,0,B|43:260|43:260|4:286,2,85.4999973907472
213,138,45047,2,0,B|205:98|219:53|219:53|191:55|171:82,1,128.249996086121
150,196,45281,6,0,B|193:205|232:190|232:190|276:198|276:198|301:182|327:180,2,170.999994781494
240,289,45867,1,0,0:0:0:0:
286,107,45984,1,0,0:0:0:0:
455,75,46219,6,0,B|430:139|476:139|455:206,1,128.249996086121
472,276,46453,2,0,P|427:271|385:280,1,85.4999973907472
292,364,46687,1,0,0:0:0:0:
167,337,46804,1,0,0:0:0:0:
259,212,46922,1,0,0:0:0:0:
85,49,47156,6,0,P|78:132|145:180,1,170.999994781494
259,212,47508,1,0,0:0:0:0:
235,81,47625,2,0,P|200:78|150:100,1,85.4999973907472
348,129,47859,2,0,P|383:132|433:110,1,85.4999973907472
259,212,48094,6,0,B|283:337|283:337|315:377,2,170.999994781494
235,81,48679,1,0,0:0:0:0:
344,214,48797,1,0,0:0:0:0:
94,324,49031,6,0,P|167:364|245:338,1,170.999994781494
154,185,49500,5,0,0:0:0:0:
239,260,49617,1,0,0:0:0:0:
344,214,49734,1,0,0:0:0:0:
132,0,49969,6,0,B|118:57|118:57|135:93|131:126,1,113.999996520996
380,0,50203,2,0,B|394:57|394:57|377:93|381:126,1,113.999996520996
43,168,50437,5,0,0:0:0:0:
154,185,50554,1,0,0:0:0:0:
239,260,50672,1,0,0:0:0:0:
344,214,50789,1,0,0:0:0:0:
457,222,50906,6,0,B|455:270|469:316|469:316|418:315|379:338,1,190
239,260,51375,2,0,P|244:307|231:353,1,95
154,185,51609,2,0,P|149:138|162:92,1,95
384,37,51844,6,0,B|315:62|315:20|245:37,1,142.5
230,50,52078,2,0,P|271:72|287:125,1,95
254,214,52312,1,0,0:0:0:0:
379,170,52429,1,0,0:0:0:0:
343,269,52547,2,0,P|359:312|400:334,1,95
254,214,52781,6,0,B|202:236|202:236|131:229|131:229|73:256,1,190
129,93,53250,2,0,L|223:51,2,95
62,160,53601,1,0,0:0:0:0:
253,161,53719,6,0,B|289:172|312:162|312:162|336:170|336:170|356:160|392:161,1,142.5
415,182,53953,2,0,B|406:229|406:229|370:271,1,95
252,261,54187,1,0,0:0:0:0:
252,261,54304,1,0,0:0:0:0:
273,90,54422,2,0,P|319:82|367:89,1,95
152,13,54656,6,0,B|98:-6|23:25|23:25|56:33|78:61,1,190
197,144,55125,2,0,P|230:111|273:89,2,95
170,245,55476,1,0,0:0:0:0:
320,275,55594,6,0,B|356:278|388:260|388:260|415:287|455:295,1,142.5
478,286,55828,2,0,B|491:240|491:240|471:188,1,95
364,42,56062,2,0,L|470:49,1,95
372,174,56297,2,0,L|266:167,1,95
112,40,56531,6,0,B|55:116|55:116|89:207,1,190
212,255,56883,1,0,0:0:0:0:
202,271,57000,2,0,L|168:180,1,95
301,263,57234,2,0,L|335:354,1,95
294,165,57469,5,0,0:0:0:0:
421,47,57586,1,0,0:0:0:0:
387,217,57703,1,0,0:0:0:0:
314,57,57820,1,0,0:0:0:0:
465,144,57937,5,0,0:0:0:0:
283,178,58054,1,0,0:0:0:0:
189,17,58172,1,0,0:0:0:0:
72,0,58406,6,0,P|144:48|153:155,1,190
106,278,58758,1,0,0:0:0:0:
95,297,58875,2,0,L|36:211,2,95
440,0,59344,6,0,P|368:48|359:155,1,190
406,278,59695,1,0,0:0:0:0:
417,297,59812,2,0,L|475:211,2,95
169,224,60281,6,0,P|256:192|343:223,1,190
138,45,60750,2,0,P|180:21|236:5,1,95
256,168,60984,2,0,P|214:143|172:103,1,95
306,5,61219,6,0,P|305:53|291:109,1,95
169,224,61453,1,0,0:0:0:0:
271,284,61570,2,0,L|350:336,2,95
38,384,61922,2,0,P|80:363|110:327,1,95
311,221,62156,6,0,B|405:192|405:248|507:221,1,190
376,19,62625,2,0,L|285:52,1,95
232,193,62859,2,0,L|141:160,1,95
118,10,63094,6,0,B|32:50|32:50|0:139,1,190
264,124,63562,5,0,0:0:0:0:
417,174,63679,1,0,0:0:0:0:
506,61,63797,5,0,0:0:0:0:
353,111,63914,1,0,0:0:0:0:
469,318,64031,6,0,B|390:326|332:293|332:293|373:338,1,190
43,318,64383,2,0,B|122:326|180:293|180:293|139:338,1,190
192,201,64734,6,0,L|157:105,1,95
321,201,64969,1,0,0:0:0:0:
353,111,65086,1,0,0:0:0:0:
484,208,65203,5,0,0:0:0:0:
394,176,65320,1,0,0:0:0:0:
368,22,65437,6,0,P|337:60|280:69,1,95
261,52,65613,1,0,0:0:0:0:
228,33,65672,2,0,P|182:45|153:82,1,95
63,167,65906,5,0,0:0:0:0:
249,190,66023,1,0,0:0:0:0:
47,137,66140,1,0,0:0:0:0:
261,271,66258,5,0,0:0:0:0:
75,248,66375,1,0,0:0:0:0:
277,301,66492,1,0,0:0:0:0:
103,359,66609,6,0,B|197:265|156:164|156:164|198:192|256:189,1,313.500009567261
368,56,67078,1,0,0:0:0:0:
368,233,67195,1,0,0:0:0:0:
421,135,67312,5,0,0:0:0:0:
371,150,67390,1,0,0:0:0:0:
321,138,67468,1,0,0:0:0:0:
284,102,67546,1,0,0:0:0:0:
246,66,67625,1,0,0:0:0:0:
196,54,67703,1,0,0:0:0:0:
146,69,67781,5,0,0:0:0:0:
77,244,67898,1,0,0:0:0:0:
56,36,68015,1,0,0:0:0:0:
11,285,68133,5,0,0:0:0:0:
80,110,68250,1,0,0:0:0:0:
101,318,68367,1,0,0:0:0:0:
199,158,68484,6,0,B|278:241|230:357|230:357|285:335|351:365,1,313.500009567261
493,273,68953,2,0,B|438:295|372:265,1,104.500003189087
369,118,69187,5,0,0:0:0:0:
331,183,69304,1,0,0:0:0:0:
331,52,69422,1,0,0:0:0:0:
444,117,69539,1,0,0:0:0:0:
239,40,69656,5,0,0:0:0:0:
268,226,69773,1,0,0:0:0:0:
260,17,69890,1,0,0:0:0:0:
205,264,70008,5,0,0:0:0:0:
176,78,70125,1,0,0:0:0:0:
184,287,70242,1,0,0:0:0:0:
74,110,70359,6,0,B|49:41|49:41|38:280,1,313.500009567261
193,370,70828,1,0,0:0:0:0:
244,374,70906,1,0,0:0:0:0:
296,366,70984,1,0,0:0:0:0:
344,346,71062,1,0,0:0:0:0:
386,314,71140,5,0,0:0:0:0:
366,272,71218,1,0,0:0:0:0:
358,227,71296,1,0,0:0:0:0:
359,182,71374,1,0,0:0:0:0:
372,139,71452,1,0,0:0:0:0:
397,101,71531,6,0,B|499:108|499:108|461:138,1,142.500005435944
316,26,72000,2,0,B|214:33|214:33|252:63,1,142.500005435944
259,272,72469,2,0,P|277:200|239:119,1,142.500005435944
118,13,72937,2,0,P|100:85|138:166,1,142.500005435944
324,12,73406,6,0,L|342:167,1,142.500005435944
403,24,73875,1,0,0:0:0:0:
251,47,74109,1,0,0:0:0:0:
204,358,74344,6,0,L|222:203,1,142.500005435944
283,346,74813,1,0,0:0:0:0:
131,323,75047,1,0,0:0:0:0:
29,28,75281,6,0,L|47:183,1,142.500005435944
105,16,75633,2,0,L|123:171,1,142.500005435944
194,4,75984,6,0,B|184:36|184:36|199:158,1,142.499995651245
336,190,76336,6,0,L|345:253,2,38
243,220,76570,1,0,0:0:0:0:
292,119,76687,1,0,0:0:0:0:
404,137,76804,1,0,0:0:0:0:
421,248,76922,1,0,0:0:0:0:
322,299,77039,1,0,0:0:0:0:
123,297,77156,6,0,L|130:231,1,66.4999979705811
146,91,77390,2,0,L|139:157,1,66.4999979705811
109,315,77625,6,0,L|124:236,1,66.4999979705811
159,72,77859,2,0,L|143:150,1,66.4999979705811
92,336,78094,6,0,L|118:245,1,66.4999979705811
176,50,78328,2,0,L|149:141,1,66.4999979705811
68,360,78562,6,0,L|101:274,1,66.4999979705811
199,26,78796,2,0,L|167:108,1,66.4999979705811
201,203,78972,1,0,0:0:0:0:
214,219,79031,6,0,P|248:240|296:240,1,80.750001540184
431,218,79265,2,0,P|397:197|349:197,1,80.750001540184
192,219,79500,6,0,P|233:244|290:244,1,80.750001540184
452,217,79734,2,0,P|411:192|354:192,1,80.750001540184
166,219,79969,6,0,P|206:244|264:244,1,80.750001540184
478,217,80203,2,0,P|437:191|379:191,1,80.750001540184
350,295,80437,6,0,L|358:362,2,53.8333343601227
295,141,80672,2,0,L|303:74,2,53.8333343601227
178,294,80906,5,0,0:0:0:0:
143,314,81023,5,0,0:0:0:0:
103,307,81140,5,0,0:0:0:0:
77,276,81258,5,0,0:0:0:0:
77,235,81375,5,0,0:0:0:0:
103,204,81492,5,0,0:0:0:0:
143,197,81609,5,0,0:0:0:0:
178,218,81726,5,0,0:0:0:0:
191,256,81844,5,0,0:0:0:0:
110,126,81961,5,0,0:0:0:0:
212,78,82078,1,0,0:0:0:0:
319,113,82195,1,0,0:0:0:0:
421,65,82312,1,0,0:0:0:0:
333,225,82429,1,0,0:0:0:0:
499,146,82547,1,0,0:0:0:0:
444,246,82664,1,0,0:0:0:0:
242,171,82781,5,0,0:0:0:0:
242,171,83953,6,0,B|212:174|184:164|184:164|155:175|115:171|115:171|137:184|154:215,1,170.999994781494
62,112,84187,2,0,B|76:99|99:93|99:93|135:108|156:95|186:89|186:89|205:95|225:98,1,170.999994781494
306,133,84422,2,0,B|328:113|328:113|328:227|328:227|306:212,1,170.999994781494
173,285,84656,6,0,B|229:260|229:260|286:302,1,123.499994346619
400,359,84890,1,0,0:0:0:0:
424,111,85008,1,0,0:0:0:0:
276,379,85125,1,0,0:0:0:0:
469,220,85243,1,0,0:0:0:0:
323,10,85359,2,0,L|306:132,1,123.499994346619
120,339,85594,6,0,L|137:217,1,123.499994346619
173,10,85828,1,0,0:0:0:0:
359,183,85945,2,0,B|327:222|304:294|304:294|283:222|254:183,1,246.999988693238
96,42,86297,5,0,0:0:0:0:
207,241,86414,1,0,0:0:0:0:
303,39,86531,6,0,B|364:18|364:64|429:39,1,123.499994346619
463,260,86765,2,0,B|402:239|402:285|337:260,1,123.499994346619
350,173,87000,1,0,0:0:0:0:
262,297,87117,1,0,0:0:0:0:
268,208,87234,2,0,B|206:202|206:202|143:241,1,123.499994346619
0,130,87469,6,0,B|62:136|125:97,1,123.499994346619
311,20,87703,1,0,0:0:0:0:
153,234,87820,2,0,B|126:258|90:268|90:268|263:297,1,246.999988693238
422,178,88172,5,0,0:0:0:0:
229,97,88289,1,0,0:0:0:0:
447,32,88406,6,0,P|453:73|435:163,1,123.499994346619
230,228,88640,2,0,P|262:202|349:172,1,123.499994346619
486,223,88875,1,0,0:0:0:0:
388,340,88992,1,0,0:0:0:0:
509,319,89109,2,0,P|470:303|401:243,1,123.499994346619
229,97,89344,6,0,P|160:119|87:44,1,185.249991519928
134,142,89578,2,0,P|107:203|115:262,1,123.499994346619
283,382,89812,1,0,0:0:0:0:
212,185,89929,1,0,0:0:0:0:
123,383,90047,2,0,P|185:358|221:311,1,123.499994346619
366,117,90281,6,0,L|324:-2,1,123.499994346619
463,205,90515,2,0,L|505:86,1,123.499994346619
366,293,90750,1,0,0:0:0:0:
463,381,90867,1,0,0:0:0:0:
375,205,90984,2,0,L|256:163,1,123.499994346619
45,98,91219,5,0,0:0:0:0:
259,39,91336,1,0,0:0:0:0:
146,258,91453,1,0,0:0:0:0:
169,131,91570,1,0,0:0:0:0:
230,245,91687,5,0,0:0:0:0:
133,0,91804,1,0,0:0:0:0:
1,239,91922,2,0,P|6:301|50:354,1,123.499994346619
350,365,92156,6,0,L|306:248,1,123.499994346619
442,73,92390,6,0,P|384:90|308:67,1,123.499994346619
133,0,92625,1,0,0:0:0:0:
133,15,92742,1,0,0:0:0:0:
224,304,92859,2,0,P|238:245|296:190,1,123.499994346619
512,246,93094,6,0,L|392:219,1,123.499994346619
176,168,93328,2,0,L|56:141,1,123.499994346619
260,73,93562,1,0,0:0:0:0:
398,239,93679,1,0,0:0:0:0:
180,189,93797,2,0,L|60:162,1,123.499994346619
260,73,94031,6,0,P|320:81|368:152,1,123.499994346619
494,177,94265,2,0,P|456:225|371:231,1,123.499994346619
290,177,94500,1,0,0:0:0:0:
190,249,94617,1,0,0:0:0:0:
0,238,94734,2,0,P|36:190|96:177,1,123.499994346619
275,350,94969,5,0,0:0:0:0:
272,375,95086,1,0,0:0:0:0:
359,256,95203,5,0,0:0:0:0:
362,281,95320,1,0,0:0:0:0:
275,162,95437,5,0,0:0:0:0:
272,187,95554,1,0,0:0:0:0:
359,68,95672,5,0,0:0:0:0:
362,93,95789,1,0,0:0:0:0:
235,20,95906,6,0,B|174:7|117:44|117:44|60:7|0:20,1,246.999988693238
