osu file format v14

[General]
AudioFilename: hoyl.mp3
AudioLeadIn: 0
PreviewTime: 70750
Countdown: 0
SampleSet: Soft
StackLeniency: 0.5
Mode: 0
LetterboxInBreaks: 0
WidescreenStoryboard: 1

[Editor]
Bookmarks: 70166,104428,107871,166395,169018
DistanceSpacing: 1.3
BeatDivisor: 4
GridSize: 4
TimelineZoom: 0.8999998

[Metadata]
Title:Kansoku Eisei
TitleUnicode:觀測衞曐
Artist:Camellia feat. Nanahira
ArtistUnicode:かめりあ feat. ななひら
Creator:jonathanlfj
Version:Normal
Source:
Tags:ふぉーす! Force! かめるかめりあ×Confetto MaridiuS Trust Raose Nyquill apaffy
BeatmapID:1806994
BeatmapSetID:720294

[Difficulty]
HPDrainRate:4
CircleSize:3.5
OverallDifficulty:4
ApproachRate:6
SliderMultiplier:1.2
SliderTickRate:1

[Events]
//Background and Video events
0,0,"ayy.jpg",0,0
//Break Periods
2,104638,107650
2,166605,167978
2,214930,221749
//Storyboard Layer 0 (Background)
//Storyboard Layer 1 (Fail)
//Storyboard Layer 2 (Pass)
//Storyboard Layer 3 (Foreground)
//Storyboard Sound Samples

[TimingPoints]
1160,327.868852459016,4,2,1,50,1,0
1160,-125,4,2,1,50,0,0
5094,-125,4,2,1,35,0,0
5422,-125,4,2,1,40,0,0
5750,-125,4,2,1,45,0,0
6078,-125,4,2,1,50,0,0
11651,-125,4,2,1,60,0,0
12471,-100,4,2,1,60,0,0
12963,-100,4,1,1,70,0,0
14274,-100,4,1,1,70,0,0
15586,-100,4,1,1,70,0,0
16897,-100,4,1,1,70,0,0
18209,-100,4,1,1,70,0,0
19520,-100,4,1,1,70,0,0
20832,-100,4,1,1,70,0,0
22143,-125,4,1,1,70,0,0
22471,-125,4,1,1,40,0,0
22799,-125,4,1,1,50,0,0
23127,-100,4,1,1,60,0,0
23455,-100,4,1,1,65,0,0
24766,-100,4,1,1,70,0,0
33946,-125,4,1,1,60,0,0
36569,-125,4,2,1,60,0,0
45750,-125,4,1,1,60,0,0
47061,-100,4,1,1,65,0,0
66078,-100,4,1,1,70,0,0
66733,-100,4,1,1,80,0,0
67553,-100,4,1,1,80,0,0
68209,-100,4,1,1,80,0,0
69684,-100,4,1,1,80,0,0
70176,-100,4,1,1,80,0,0
70832,-100,4,2,1,25,0,0
71487,-100,4,2,1,60,0,0
71979,-90.9090909090909,4,1,1,80,0,1
90996,-90.9090909090909,4,1,1,80,0,1
91241,-90.9090909090909,4,1,1,80,0,1
91651,-100,4,1,1,70,0,0
98209,-100,4,1,1,70,0,0
100832,-125,4,1,1,70,0,0
102471,-100,4,1,1,70,0,0
103455,-100,4,1,1,60,0,0
104438,-111.111111111111,4,2,1,40,0,0
108700,-111.111111111111,4,2,1,60,0,0
117061,-111.111111111111,4,2,1,40,0,0
117225,-111.111111111111,4,2,1,45,0,0
117389,-111.111111111111,4,2,1,50,0,0
117553,-111.111111111111,4,2,1,55,0,0
117717,-100,4,2,1,60,0,0
119192,-100,4,1,1,65,0,0
138209,-100,4,1,1,75,0,0
138864,-100,4,1,1,80,0,0
139684,-100,4,1,1,80,0,0
140012,-100,4,1,1,80,0,0
140340,-100,4,1,1,80,0,0
142307,-100,4,1,1,80,0,0
142963,-100,4,2,1,40,0,0
143619,-100,4,2,1,70,0,0
143946,-100,4,2,1,10,0,0
144110,-90.9090909090909,4,1,1,80,0,1
163782,-100,4,1,1,70,0,0
169028,-125,4,2,1,50,0,0
172963,-125,4,2,1,35,0,0
173291,-125,4,2,1,40,0,0
173619,-125,4,2,1,45,0,0
173946,-125,4,2,1,50,0,0
176897,-111.111111111111,4,2,1,60,0,0
179520,-111.111111111111,4,2,1,65,0,0
180832,-111.111111111111,4,2,1,65,0,0
181487,-100,4,2,1,65,0,0
182143,-100,4,1,1,70,0,0
196569,-100,4,1,1,75,0,0
197881,-100,4,1,1,70,0,0
203127,-100,4,1,1,65,0,0
214274,-100,4,2,1,20,0,0
214930,-125,4,2,1,40,0,0
222799,-125,4,2,1,30,0,0
223127,-125,4,2,1,40,0,0
223455,-111.111111111111,4,2,1,50,0,0
223782,-111.111111111111,4,2,1,60,0,0
224110,-100,4,1,1,80,0,0
224930,-100,4,1,1,80,0,0
225586,-100,4,1,1,80,0,0
227553,-100,4,1,1,80,0,0
228209,-125,4,2,1,30,0,0
229520,-100,4,1,1,80,0,0
229684,-90.9090909090909,4,1,1,80,0,1
247717,-90.9090909090909,4,1,1,90,0,1
249028,-100,4,1,1,70,0,0
259520,-90.9090909090909,4,1,1,80,0,1
267389,-100,4,1,1,70,0,0
268700,333.333333333333,4,2,1,60,1,0
268700,-125,4,2,1,60,0,0
269366,344.827586206897,4,2,1,60,1,0
269366,-125,4,2,1,60,0,0
270055,355.029585798817,4,2,1,60,1,0
270055,-125,4,2,1,60,0,0
270410,368.098159509202,4,2,1,60,1,0
270410,-125,4,2,1,60,0,0
270778,397.350993377483,4,3,1,60,1,0
270778,-125,4,3,1,60,0,0
271175,472.44094488189,4,3,1,60,1,0
271411,545.454545454546,4,3,1,60,1,0
271547,600,4,3,1,60,1,0
271697,600,4,3,1,70,1,0
271772,-100,4,2,1,20,0,0
278522,-100,4,1,1,50,0,0

[Colours]
Combo1 : 188,206,211
Combo2 : 119,232,255
Combo3 : 62,164,255
Combo4 : 56,62,254
Combo5 : 255,244,45
Combo6 : 250,163,1

[HitObjects]
429,245,1160,6,0,P|377:229|329:237,1,96,2|0,0:0|0:0,0:0:0:0:
297,261,1651,1,0,0:0:0:0:
269,300,1815,2,0,L|159:296,1,96,0|2,0:0|0:0,0:0:0:0:
88,251,2471,2,0,B|108:208|108:208|92:104,1,144,0|0,0:0|0:0,0:0:0:0:
83,65,3127,1,2,0:0:0:0:
178,69,3455,1,0,0:0:0:0:
273,75,3782,6,0,L|286:186,1,96,2|0,0:0|0:0,0:0:0:0:
316,205,4274,1,0,0:0:0:0:
356,231,4438,2,0,P|404:232|449:204,1,96,0|2,0:0|0:0,0:0:0:0:
474,117,5094,1,2,0:0:0:0:
383,148,5422,1,2,0:0:0:0:
299,100,5750,1,2,0:0:0:0:
232,168,6078,1,2,0:0:0:0:
161,103,6405,6,0,P|99:93|55:110,1,96,2|0,0:0|0:0,0:0:0:0:
31,134,6897,1,0,0:0:0:0:
19,180,7061,2,0,L|36:290,1,96,0|2,0:0|0:0,0:0:0:0:
96,348,7717,2,0,B|143:365|189:344|189:344|237:322|286:338,1,192,0|2,0:0|0:0,0:0:0:0:
372,372,8700,1,0,0:0:0:0:
435,300,9028,6,0,P|435:277|430:253,1,48,2|0,0:0|0:0,0:0:0:0:
396,218,9356,2,0,L|291:224,1,96,0|2,0:0|0:0,0:0:0:0:
206,200,10012,1,0,0:0:0:0:
196,104,10340,1,0,0:0:0:0:
285,68,10668,1,2,0:0:0:0:
350,138,10996,1,2,0:0:0:0:
235,291,11651,5,2,0:0:0:0:
127,249,11979,1,2,0:0:0:0:
20,205,12307,1,2,0:0:0:0:
20,205,12471,2,0,L|12:135,2,60,2|8|0,0:0|1:0|1:0,0:0:0:0:
29,282,12963,5,10,0:0:0:0:
29,282,13127,1,10,0:0:0:0:
231,164,13619,1,10,0:0:0:0:
231,164,13782,2,0,P|259:229|262:282,1,120,10|8,0:0|0:0,0:0:0:0:
232,350,14274,2,0,P|310:327|348:331,1,120,12|12,0:0|0:0,0:0:0:0:
481,249,14930,2,0,P|410:243|361:205,1,120,8|0,3:0|3:0,0:0:0:0:
319,68,15586,5,10,0:0:0:0:
319,68,15750,1,10,0:0:0:0:
296,300,16241,1,10,0:0:0:0:
296,300,16405,2,0,L|166:289,1,120,10|0,0:0|0:0,0:0:0:0:
124,230,16897,2,0,P|99:302|117:345,2,120,12|12|12,0:0|0:0|0:0,0:0:0:0:
271,178,17881,2,0,L|350:182,1,60,8|2,0:0|0:0,0:0:0:0:
388,234,18209,5,10,0:0:0:0:
388,234,18373,1,10,0:0:0:0:
230,61,18864,1,10,0:0:0:0:
230,61,19028,2,0,P|160:60|116:88,1,120,10|8,0:0|0:0,0:0:0:0:
89,158,19520,2,0,B|105:214|105:214|84:275,1,120,12|12,0:0|0:0,0:0:0:0:
214,360,20176,2,0,B|198:304|198:304|219:243,1,120,8|0,3:0|3:0,0:0:0:0:
361,308,20832,5,10,0:0:0:0:
361,308,20996,1,10,0:0:0:0:
190,148,21487,1,10,0:0:0:0:
190,148,21651,2,0,L|199:20,1,120,10|8,0:0|3:0,0:0:0:0:
275,42,22143,6,0,B|322:51|367:24|367:24|422:24|459:52,1,192,10|2,0:0|0:2,0:0:0:0:
377,185,23127,2,0,P|349:174|304:174,1,60,0|2,0:0|0:2,0:0:0:0:
246,199,23455,6,0,B|259:222|259:222|252:294,1,90,12|8,0:0|0:0,0:0:0:0:
156,352,23946,2,0,B|137:336|137:336|57:342,1,90,8|8,0:0|0:0,0:0:0:0:
20,235,24438,2,0,B|18:204|18:204|31:165,1,60,0|0,3:0|3:0,0:0:0:0:
95,214,24766,6,2,P|145:226|213:196,1,120,6|8,0:0|0:0,0:0:0:0:
254,138,25258,1,2,0:0:0:0:
331,126,25422,2,0,L|397:137,2,60,2|0|10,0:0|0:0|0:0,0:0:0:0:
331,282,26078,2,2,L|462:262,1,120,2|8,0:0|0:0,0:0:0:0:
474,189,26569,1,2,0:0:0:0:
496,114,26733,2,2,L|483:45,1,60,2|0,0:0|0:0,0:0:0:0:
411,27,27061,2,0,B|352:45|352:45|283:30,1,120,12|6,0:0|0:0,0:0:0:0:
229,76,27553,5,0,0:0:0:0:
268,144,27717,2,0,L|342:160,2,60,8|2|2,0:0|0:0|0:0,0:0:0:0:
126,77,28373,2,0,L|54:89,1,60,8|2,0:0|0:0,0:0:0:0:
25,153,28700,2,2,L|35:218,1,60,2|0,0:0|0:0,0:0:0:0:
90,267,29028,2,2,P|139:248|209:263,1,120,8|2,0:0|0:0,0:0:0:0:
255,318,29520,1,4,0:2:0:0:
255,318,29684,2,0,L|329:311,1,60,12|2,0:0|0:0,0:0:0:0:
383,274,30012,6,2,P|390:234|368:159,1,120,6|8,0:0|0:0,0:0:0:0:
295,128,30504,1,2,0:0:0:0:
222,155,30668,2,0,P|208:192|207:224,2,60,2|0|10,0:0|0:0|0:0,0:0:0:0:
359,81,31323,2,2,P|420:100|452:153,1,120,2|8,0:0|0:0,0:0:0:0:
442,222,31815,1,2,0:0:0:0:
383,273,31979,2,2,P|345:261|309:259,1,60,2|0,0:0|0:0,0:0:0:0:
256,297,32307,2,0,P|200:299|128:269,1,120,12|6,0:0|0:0,0:0:0:0:
97,212,32799,5,8,0:0:0:0:
134,143,32963,2,0,L|142:70,1,60,10|10,0:0|0:0,0:0:0:0:
84,28,33291,2,0,P|144:37|208:25,1,120,0|0,3:0|3:0,0:0:0:0:
311,86,33946,6,0,B|318:150|318:150|284:202|284:202|290:267,1,192,4|12,0:2|0:0,0:0:0:0:
386,346,34930,1,0,0:0:0:0:
466,250,35258,2,0,L|524:259,2,48,2|8|0,0:0|0:0|3:0,0:0:0:0:
415,212,35750,1,0,3:0:0:0:
430,151,35914,2,0,P|472:130|514:128,2,72,8|0|0,0:0|3:0|0:0,0:0:0:0:
415,212,36569,6,0,P|368:238|319:246,1,96,4|8,0:1|0:0,0:0:0:0:
204,219,37225,2,0,P|174:193|163:175,2,48,8|0|8,0:0|0:0|0:0,0:0:0:0:
204,281,37717,2,0,P|137:291|67:236,1,144,0|8,0:0|0:0,0:0:0:0:
81,125,38537,5,8,0:0:0:0:
81,125,38700,2,0,L|184:117,1,96,0|0,0:0|0:0,0:0:0:0:
293,162,39356,2,0,P|349:137|364:48,1,144,0|8,0:0|0:0,0:0:0:0:
322,19,40012,6,0,L|259:25,2,48,0|8|0,0:0|0:0|0:0,0:0:0:0:
447,12,40668,1,0,0:0:0:0:
502,123,40996,1,0,0:0:0:0:
417,214,41323,1,0,0:0:0:0:
417,214,41487,2,0,P|418:248|423:280,1,48,12|8,0:0|0:0,0:0:0:0:
454,314,41815,6,0,P|400:311|341:322,1,96,12|8,0:0|0:0,0:0:0:0:
305,351,42307,1,0,0:0:0:0:
245,330,42471,2,0,L|230:268,2,48,8|0|8,0:0|0:0|0:0,0:0:0:0:
195,368,42963,2,0,P|146:345|138:259,1,144,0|8,0:0|0:0,0:0:0:0:
241,195,43782,5,8,0:0:0:0:
241,195,43946,2,0,P|253:139|225:93,1,96,0|0,0:0|0:0,0:0:0:0:
127,44,44602,2,0,L|118:148,1,96,0|0,0:0|0:0,0:0:0:0:
83,191,45094,2,0,L|26:196,2,48,8|0|8,3:0|3:0|3:0,0:0:0:0:
116,244,45586,1,0,3:0:0:0:
153,294,45750,6,0,P|214:279|258:281,1,96,8|0,0:0|3:0,0:0:0:0:
302,308,46241,2,0,P|344:314|408:302,1,96,8|0,0:0|0:0,0:0:0:0:
450,273,46733,2,0,L|515:283,2,48,2|2|4,3:2|3:2|0:0,0:0:0:0:
336,164,47389,6,0,P|276:162|219:187,1,120,8|2,0:0|0:2,0:0:0:0:
170,244,47881,2,0,L|177:308,1,60,0|0,0:0|2:0,0:0:0:0:
111,347,48209,2,0,P|44:305|59:208,1,180,8|8,0:0|0:0,0:0:0:0:
186,132,49028,2,0,L|179:69,2,60,2|0|8,0:2|0:0|0:0,0:0:0:0:
255,168,49520,6,0,P|323:156|359:111,1,120,2|0,2:0|2:0,0:0:0:0:
360,41,50012,2,0,P|396:105|435:129,1,120,8|0,0:0|0:0,0:0:0:0:
412,204,50504,2,0,P|367:222|353:234,1,60,0|8,0:0|0:0,0:0:0:0:
323,299,50832,5,2,2:0:0:0:
478,306,51159,2,0,P|481:275|474:235,1,60,2|8,2:0|0:0,0:0:0:0:
412,204,51487,2,0,P|407:140|429:78,1,120,2|8,2:0|0:0,0:0:0:0:
360,41,51979,2,0,P|325:60|305:65,1,60,8|2,0:0|0:2,0:0:0:0:
228,49,52307,6,0,L|241:171,1,120,2|8,0:2|0:0,0:0:0:0:
182,221,52799,1,0,0:0:0:0:
112,185,52963,2,0,L|117:109,2,60,0|2|0,0:0|0:2|2:0,0:0:0:0:
42,221,53455,2,0,P|29:266|57:343,1,120,8|0,0:0|0:0,0:0:0:0:
122,362,53946,2,0,P|184:341|244:349,1,120,8|0,0:0|0:0,0:0:0:0:
301,302,54438,2,0,P|339:311|362:312,2,60,2|8|2,0:2|0:0|0:2,0:0:0:0:
267,230,54930,5,2,0:2:0:0:
320,173,55094,2,0,P|387:175|440:203,1,120,0|2,2:0|2:0,0:0:0:0:
488,51,55750,2,0,P|442:68|363:67,1,120,2|0,0:2|3:0,0:0:0:0:
307,23,56241,2,0,P|277:27|243:46,2,60,8|0|0,3:1|3:0|3:0,0:0:0:0:
301,101,56733,2,0,P|311:161|350:206,1,120,12|0,0:0|0:0,0:0:0:0:
423,227,57225,1,8,0:0:0:0:
301,324,57553,6,0,B|242:306|242:306|180:320,1,120,4|8,0:0|0:0,0:0:0:0:
120,362,58045,1,0,3:0:0:0:
55,318,58209,2,0,L|48:246,2,60,0|0|8,3:0|3:0|0:0,0:0:0:0:
120,362,58700,1,2,0:2:0:0:
185,318,58864,6,0,P|193:260|171:186,1,120,2|8,0:2|0:0,0:0:0:0:
116,152,59356,1,0,3:0:0:0:
41,130,59520,2,0,P|24:88|24:58,2,60,0|0|8,3:0|3:0|0:0,0:0:0:0:
116,152,60012,1,2,0:2:0:0:
188,124,60176,6,0,L|316:116,1,120,4|8,0:0|0:0,0:0:0:0:
366,168,60668,1,0,0:0:0:0:
366,168,60832,2,0,P|374:211|355:289,1,120,6|8,0:2|0:0,0:0:0:0:
290,325,61323,1,0,0:0:0:0:
290,325,61487,2,0,B|256:314|256:314|161:329,2,120,2|0|0,0:2|3:0|3:0,0:0:0:0:
358,363,62307,2,0,L|424:358,1,60,0|12,3:0|0:0,0:0:0:0:
488,218,62799,6,0,P|493:162|459:102,1,120,4|8,0:0|0:0,0:0:0:0:
387,88,63291,1,0,3:0:0:0:
323,133,63455,2,0,P|313:173|317:201,2,60,0|0|8,3:0|3:0|0:0,0:0:0:0:
387,88,63946,1,2,0:2:0:0:
317,53,64110,6,0,P|261:71|188:57,1,120,2|8,0:2|0:0,0:0:0:0:
139,14,64602,1,0,3:0:0:0:
66,43,64766,2,0,P|53:71|52:108,2,60,0|0|8,3:0|3:0|0:0,0:0:0:0:
139,14,65258,1,2,0:2:0:0:
129,91,65422,6,0,L|148:216,1,120,4|8,0:2|0:0,0:0:0:0:
222,232,65914,1,0,0:0:0:0:
222,232,66078,2,0,L|285:224,1,60,0|0,0:0|0:0,0:0:0:0:
344,177,66405,2,0,L|419:186,1,60,8|8,0:0|0:0,0:0:0:0:
460,237,66733,6,0,B|462:270|462:270|450:305,1,60,2|2,0:2|0:2,0:0:0:0:
392,345,67061,1,2,0:2:0:0:
182,240,67553,6,0,B|209:221|209:221|245:214,1,60,2|2,0:2|0:2,0:0:0:0:
310,245,67881,1,2,0:2:0:0:
203,358,68209,6,0,L|139:353,1,60,12|2,0:0|0:2,0:0:0:0:
65,346,68537,1,2,0:2:0:0:
63,190,68864,2,0,L|145:184,2,60,12|2|2,0:0|0:2|0:2,0:0:0:0:
18,125,69356,6,0,B|18:95|18:95|31:63,1,60,2|2,0:2|0:2,0:0:0:0:
100,33,69684,1,2,0:2:0:0:
275,187,70176,6,0,B|275:217|275:217|262:249,1,60,2|2,0:2|0:2,0:0:0:0:
193,279,70504,1,2,0:2:0:0:
193,279,71651,6,0,P|187:252|194:206,1,60,0|0,3:0|0:0,0:0:0:0:
242,159,71979,6,0,L|381:150,1,132.00000402832,4|8,0:0|0:0,0:0:0:0:
428,208,72471,1,0,0:0:0:0:
404,283,72635,2,0,P|360:273|272:281,1,132.00000402832,2|8,0:2|0:0,0:0:0:0:
212,330,73127,1,0,0:0:0:0:
138,301,73291,2,0,P|106:309|62:307,2,66.0000020141602,2|0|8,0:2|0:0|0:0,0:0:0:0:
201,252,73782,1,2,0:2:0:0:
192,173,73946,2,0,P|156:140|65:131,1,132.00000402832,2|8,0:2|0:0,0:0:0:0:
217,54,74602,6,0,P|267:72|363:60,1,132.00000402832,4|8,0:0|0:0,0:0:0:0:
411,24,75094,1,0,0:0:0:0:
476,68,75258,2,0,L|490:206,1,132.00000402832,2|8,0:2|0:0,0:0:0:0:
437,259,75750,1,0,0:0:0:0:
364,226,75914,2,0,L|367:148,2,66.0000020141602,2|0|8,0:2|0:0|0:0,0:0:0:0:
302,276,76405,1,2,0:2:0:0:
237,322,76569,2,0,L|162:313,1,66.0000020141602,2|12,0:2|0:0,0:0:0:0:
107,267,76897,2,0,B|92:203|92:203|113:139,1,132.00000402832,8|4,0:0|0:0,0:0:0:0:
241,46,77553,6,0,B|249:123,1,66.0000020141602,8|0,0:0|0:0,0:0:0:0:
301,170,77881,2,0,P|353:179|430:140,1,132.00000402832,2|8,0:2|0:0,0:0:0:0:
484,198,78373,1,0,0:0:0:0:
458,272,78537,2,0,P|465:326|470:341,2,66.0000020141602,2|0|8,0:2|0:0|0:0,0:0:0:0:
383,245,79028,1,2,0:2:0:0:
318,290,79192,2,0,P|258:268|182:281,1,132.00000402832,2|8,0:2|0:0,0:0:0:0:
50,349,79848,6,0,P|70:286|65:211,1,132.00000402832,4|8,0:0|0:0,0:0:0:0:
27,152,80340,1,0,0:0:0:0:
27,152,80504,2,0,P|68:177|175:182,1,132.00000402832,2|8,0:2|0:0,0:0:0:0:
293,120,81159,2,0,P|328:116|369:126,1,66.0000020141602,2|0,0:2|0:0,0:0:0:0:
412,180,81487,2,0,L|407:318,1,132.00000402832,8|0,0:0|3:0,0:0:0:0:
341,356,81979,1,0,3:0:0:0:
274,312,82143,2,0,P|239:305|198:311,1,66.0000020141602,8|8,0:0|0:0,0:0:0:0:
144,354,82471,6,0,P|157:298|156:214,1,132.00000402832,12|8,0:0|0:0,0:0:0:0:
131,148,82963,1,0,0:0:0:0:
85,82,83127,2,0,P|152:95|220:94,1,132.00000402832,8|8,0:0|0:0,0:0:0:0:
291,69,83619,1,0,0:0:0:0:
356,112,83782,2,0,L|364:184,1,66.0000020141602,8|0,0:0|0:0,0:0:0:0:
309,236,84110,2,0,L|308:314,1,66.0000020141602,8|0,0:0|0:0,0:0:0:0:
369,352,84438,2,0,P|428:355|493:305,1,132.00000402832,8|12,0:0|0:0,0:0:0:0:
509,158,85094,6,0,L|370:153,1,132.00000402832,12|8,0:0|0:0,0:0:0:0:
311,198,85586,1,0,0:0:0:0:
235,175,85750,2,0,L|244:32,1,132.00000402832,8|8,0:0|0:0,0:0:0:0:
171,9,86241,1,0,0:0:0:0:
105,53,86405,2,0,L|101:123,1,66.0000020141602,8|0,0:0|0:0,0:0:0:0:
155,177,86733,2,0,B|165:209|165:209|157:279,2,99.0000030212403,8|8|0,0:0|3:1|0:0,0:0:0:0:
86,218,87389,1,8,0:0:0:0:
163,356,87717,6,0,P|213:342|296:343,1,132.00000402832,12|8,0:0|0:0,0:0:0:0:
359,298,88209,1,0,0:0:0:0:
437,311,88373,2,0,L|419:174,1,132.00000402832,8|8,0:0|0:0,0:0:0:0:
356,132,88864,1,0,0:0:0:0:
283,164,89028,2,0,P|247:162|202:147,1,66.0000020141602,8|0,0:0|0:0,0:0:0:0:
158,207,89356,2,0,P|141:172|140:138,1,66.0000020141602,8|0,0:0|0:0,0:0:0:0:
186,81,89684,2,0,P|127:97|47:97,1,132.00000402832,8|12,0:0|0:0,0:0:0:0:
94,252,90340,6,0,B|103:285|103:285|98:319,1,66.0000020141602,2|2,0:2|0:2,0:0:0:0:
166,358,90668,2,0,B|233:354,1,66.0000020141602,2|2,0:2|0:2,0:0:0:0:
311,348,90996,1,10,0:0:0:0:
215,51,91651,5,10,0:0:0:0:
215,51,91815,1,10,0:0:0:0:
394,201,92307,1,10,0:0:0:0:
394,201,92471,2,0,L|385:320,1,120,10|8,0:0|0:0,0:0:0:0:
311,348,92963,2,0,P|260:331|188:332,1,120,12|12,0:0|0:0,0:0:0:0:
54,260,93619,2,0,P|115:247|167:205,1,120,8|0,3:0|3:0,0:0:0:0:
48,103,94274,5,10,0:0:0:0:
48,103,94438,1,10,0:0:0:0:
140,318,94930,1,10,0:0:0:0:
140,318,95094,2,0,L|265:301,1,120,10|0,0:0|0:0,0:0:0:0:
325,343,95586,2,0,P|362:330|449:352,2,120,10|8|2,0:0|3:0|0:1,0:0:0:0:
223,224,96569,2,0,P|232:185|251:156,1,60,0|10,3:0|0:0,0:0:0:0:
315,140,96897,5,10,0:0:0:0:
315,140,97061,1,10,0:0:0:0:
103,39,97553,1,10,0:0:0:0:
103,39,97717,2,0,L|116:167,1,120,10|8,0:0|0:0,0:0:0:0:
67,220,98209,2,0,B|121:195|121:195|186:202,1,120,12|12,0:0|0:0,0:0:0:0:
303,298,98864,2,0,B|363:304|363:304|417:279,1,120,8|0,3:0|3:0,0:0:0:0:
486,138,99520,5,10,0:0:0:0:
486,138,99684,1,10,0:0:0:0:
268,51,100176,1,10,0:0:0:0:
268,51,100340,2,0,B|302:36|302:36|394:44,1,120,10|0,0:0|3:0,0:0:0:0:
434,73,100832,6,0,B|445:118|425:167|425:167|404:213|423:260,1,192,10|12,0:0|0:0,0:0:0:0:
423,260,102143,6,0,L|325:249,1,96,8|8,0:0|0:0,0:0:0:0:
200,318,102799,2,0,L|139:322,2,60,12|0|4,0:0|0:0|0:2,0:0:0:0:
252,259,103291,1,0,0:0:0:0:
239,181,103455,6,0,B|186:154|123:167|123:167|89:109|124:53|124:53|186:37|242:69,1,360,6|0,0:0|2:0,0:0:0:0:
438,68,108700,6,0,P|412:113|409:183,1,107.999996704102,14|8,0:0|0:0,0:0:0:0:
438,294,109356,2,0,P|377:272|327:273,1,107.999996704102,8|8,0:0|0:0,0:0:0:0:
271,289,109848,2,0,L|281:163,1,107.999996704102,2|0,0:0|0:0,0:0:0:0:
250,122,110340,1,8,0:0:0:0:
142,194,110668,2,0,P|113:193|75:185,1,53.9999983520508,8|0,0:0|0:0,0:0:0:0:
36,149,110996,6,0,P|45:217|45:266,1,107.999996704102,8|10,0:0|0:0,0:0:0:0:
23,317,111487,2,0,P|81:309|139:308,1,107.999996704102,0|2,0:0|0:0,0:0:0:0:
193,324,111979,1,8,0:0:0:0:
252,349,112143,2,0,L|314:342,1,53.9999983520508,2|10,0:0|0:0,0:0:0:0:
370,338,112471,5,2,0:0:0:0:
297,230,112799,1,8,1:0:0:0:
415,176,113127,2,0,L|430:60,1,107.999996704102,0|8,3:0|1:0,0:0:0:0:
382,23,113619,2,0,P|347:19|317:25,1,53.9999983520508,8|8,3:0|1:0,0:0:0:0:
272,54,113946,2,0,L|279:115,1,53.9999983520508,6|0,0:0|3:0,0:0:0:0:
316,160,114274,6,0,P|260:152|203:161,1,107.999996704102,12|8,1:0|0:0,0:0:0:0:
155,195,114766,2,0,L|160:258,1,53.9999983520508,2|8,0:0|0:0,0:0:0:0:
197,301,115094,2,0,B|237:323|237:323|362:306,1,161.999995056153,2|8,0:0|0:0,0:0:0:0:
441,213,115914,6,0,L|516:223,2,53.9999983520508,8|2|8,0:0|0:0|0:0,0:0:0:0:
384,181,116405,2,0,P|368:131|375:67,1,107.999996704102,2|0,0:0|0:0,0:0:0:0:
415,27,116897,1,10,0:0:0:0:
509,115,117225,1,0,3:0:0:0:
509,115,117389,2,0,L|504:192,1,53.9999983520508,4|0,3:2|3:0,0:0:0:0:
441,213,117717,6,0,P|401:200|307:211,1,120,12|0,1:0|3:0,0:0:0:0:
260,250,118209,2,0,L|266:314,1,60,0|0,3:0|3:0,0:0:0:0:
192,338,118537,2,0,L|178:201,1,120,8|2,1:0|3:2,0:0:0:0:
243,172,119028,1,8,1:0:0:0:
308,129,119192,6,0,L|296:0,1,120,12|8,0:0|0:0,0:0:0:0:
145,48,119848,2,0,B|139:77|139:77|148:112,1,60,2|0,0:2|0:0,0:0:0:0:
206,157,120176,1,2,0:2:0:0:
194,234,120340,2,0,L|176:366,1,120,8|0,0:0|0:0,0:0:0:0:
102,373,120832,1,8,0:0:0:0:
31,234,121159,2,0,P|18:172|21:109,1,120,2|8,0:2|0:0,0:0:0:0:
56,46,121651,6,0,L|124:33,1,60,2|0,2:0|0:0,0:0:0:0:
183,72,121979,2,0,L|311:77,1,120,0|2,2:0|2:0,0:0:0:0:
373,42,122471,1,0,0:0:0:0:
427,98,122635,2,0,P|433:129|429:166,1,60,0|8,0:0|0:0,0:0:0:0:
385,221,122963,5,2,2:0:0:0:
234,179,123291,2,0,P|228:208|229:238,1,60,2|8,2:0|0:0,0:0:0:0:
273,303,123619,2,0,P|325:291|398:307,1,120,2|12,2:0|0:0,0:0:0:0:
450,352,124110,1,8,0:0:0:0:
501,204,124438,6,0,L|484:77,1,120,2|8,0:2|0:0,0:0:0:0:
424,35,124930,1,0,2:0:0:0:
362,82,125094,2,0,L|351:146,2,60,0|0|2,0:0|0:0|0:2,0:0:0:0:
301,32,125586,2,0,B|243:19|243:19|179:41,1,120,8|0,0:0|0:0,0:0:0:0:
137,100,126078,2,0,L|146:224,1,120,8|0,0:0|0:0,0:0:0:0:
200,274,126569,2,0,L|206:348,1,60,2|8,0:2|0:0,0:0:0:0:
52,369,127061,5,2,0:2:0:0:
52,369,127225,2,0,L|60:299,1,60,0|8,2:0|0:0,0:0:0:0:
112,251,127553,2,0,L|239:259,1,120,2|2,2:0|0:2,0:0:0:0:
284,316,128045,1,8,0:0:0:0:
330,166,128373,6,0,P|279:155|215:176,1,120,12|0,3:1|0:0,0:0:0:0:
141,153,128864,1,12,3:1:0:0:
141,153,129028,2,0,L|155:88,1,60,2|0,3:2|3:0,0:0:0:0:
207,37,129356,2,0,L|271:22,1,60,2|8,3:2|3:0,0:0:0:0:
337,54,129684,6,0,L|463:60,1,120,4|8,0:0|0:0,0:0:0:0:
465,138,130176,1,0,3:0:0:0:
388,153,130340,2,0,L|311:169,2,60,0|0|8,3:0|3:0|0:0,0:0:0:0:
465,138,130832,1,2,0:2:0:0:
506,203,130996,6,0,P|504:255|464:311,1,120,2|8,0:2|0:0,0:0:0:0:
388,317,131487,1,0,3:0:0:0:
314,290,131651,2,0,P|268:303|242:306,2,60,0|0|8,3:0|3:0|0:0,0:0:0:0:
375,240,132143,1,2,0:2:0:0:
364,162,132307,6,0,L|348:37,1,120,6|8,0:2|0:0,0:0:0:0:
272,24,132799,1,0,0:0:0:0:
272,24,132963,2,0,B|218:47|218:47|154:37,1,120,6|8,0:2|0:0,0:0:0:0:
80,23,133455,1,0,0:0:0:0:
80,23,133619,2,0,P|34:71|40:134,2,120,2|0|0,0:2|3:0|3:0,0:0:0:0:
107,95,134438,2,0,P|108:138|93:174,1,60,0|12,3:0|0:0,0:0:0:0:
35,294,134930,6,0,P|86:288|160:308,1,120,4|8,0:0|0:0,0:0:0:0:
217,347,135422,1,0,3:0:0:0:
286,311,135586,2,0,L|289:251,2,60,0|0|8,3:0|3:0|0:0,0:0:0:0:
347,358,136078,1,2,0:2:0:0:
418,327,136241,6,0,P|433:287|422:210,1,120,2|8,0:2|0:0,0:0:0:0:
353,174,136733,1,0,3:0:0:0:
274,169,136897,2,0,P|246:190|226:219,2,60,0|0|8,3:0|3:0|0:0,0:0:0:0:
353,174,137389,1,2,0:2:0:0:
421,136,137553,6,0,P|425:77|399:21,1,120,4|8,0:2|0:0,0:0:0:0:
323,7,138045,1,0,0:0:0:0:
256,48,138209,2,0,B|225:58|225:58|154:46,2,90,8|8|8,0:2|0:0|0:0,0:0:0:0:
324,85,138864,6,0,B|335:116|335:116|329:151,1,60,2|2,0:2|0:2,0:0:0:0:
276,199,139192,1,2,0:2:0:0:
51,132,139684,6,0,B|72:106|72:106|105:94,1,60,2|2,0:2|0:2,0:0:0:0:
174,117,140012,1,2,0:2:0:0:
126,265,140340,6,0,L|45:278,2,60,12|0|0,3:0|3:0|3:0,0:0:0:0:
191,307,140832,1,8,0:0:0:0:
257,347,140996,2,0,L|321:338,2,60,2|2|2,0:2|0:2|0:2,0:0:0:0:
191,307,141487,6,0,B|202:277|202:277|227:254,1,60,2|2,0:2|0:2,0:0:0:0:
300,247,141815,1,2,0:2:0:0:
158,60,142307,6,0,B|147:90|147:90|122:113,1,60,2|2,0:2|0:2,0:0:0:0:
49,120,142635,1,2,0:2:0:0:
49,120,143782,6,0,P|64:158|69:196,1,60,8|0,3:0|0:0,0:0:0:0:
36,253,144110,6,0,P|90:226|174:231,1,132.00000402832,4|8,0:0|0:0,0:0:0:0:
231,269,144602,1,0,0:0:0:0:
305,233,144766,2,0,P|313:166|296:96,1,132.00000402832,2|8,0:2|0:0,0:0:0:0:
360,47,145258,1,0,0:0:0:0:
420,103,145422,2,0,P|419:139|410:180,2,66.0000020141602,2|0|8,0:2|0:0|0:0,0:0:0:0:
360,47,145913,1,2,0:2:0:0:
280,23,146077,2,0,P|203:29|146:57,1,132.00000402832,2|8,0:2|0:0,0:0:0:0:
66,193,146733,6,0,P|116:211|211:212,1,132.00000402832,4|8,0:0|0:0,0:0:0:0:
270,181,147225,1,0,0:0:0:0:
320,115,147389,2,0,L|334:253,1,132.00000402832,2|8,0:2|0:0,0:0:0:0:
394,302,147881,1,0,0:0:0:0:
414,221,148045,2,0,L|417:143,2,66.0000020141602,2|0|8,0:2|0:0|0:0,0:0:0:0:
473,278,148536,1,2,0:2:0:0:
394,302,148700,2,0,L|389:368,1,66.0000020141602,2|12,0:2|0:0,0:0:0:0:
309,343,149028,2,0,B|249:323|249:323|176:338,1,132.00000402832,8|4,0:0|0:0,0:0:0:0:
17,361,149684,6,0,B|23:295,1,66.0000020141602,8|0,0:0|0:0,0:0:0:0:
87,241,150012,2,0,B|147:261|147:261|220:246,1,132.00000402832,2|8,0:2|0:0,0:0:0:0:
256,175,150504,1,0,0:0:0:0:
188,127,150668,2,0,L|112:120,2,66.0000020141602,2|0|8,0:2|0:0|0:0,0:0:0:0:
256,175,151159,1,2,0:2:0:0:
333,146,151323,2,0,P|354:84|341:18,1,132.00000402832,2|8,0:2|0:0,0:0:0:0:
460,136,151979,6,0,P|447:200|469:261,1,132.00000402832,4|8,0:0|0:0,0:0:0:0:
426,332,152471,1,0,0:0:0:0:
426,332,152635,2,0,P|371:335|296:286,1,132.00000402832,2|8,0:2|0:0,0:0:0:0:
275,136,153291,2,0,P|310:132|351:142,1,66.0000020141602,2|0,0:2|0:0,0:0:0:0:
307,214,153619,2,0,P|272:218|231:208,1,66.0000020141602,8|0,0:0|0:0,0:0:0:0:
192,145,153946,2,0,L|186:13,1,132.00000402832,8|8,3:0|0:0,0:0:0:0:
103,26,154438,1,8,0:0:0:0:
22,42,154602,6,0,L|14:181,1,132.00000402832,12|8,0:0|0:0,0:0:0:0:
58,244,155094,1,0,0:0:0:0:
134,212,155258,2,0,P|198:233|269:224,1,132.00000402832,8|8,0:0|0:0,0:0:0:0:
318,166,155750,1,0,0:0:0:0:
264,103,155914,2,0,L|259:36,1,66.0000020141602,8|0,0:0|0:0,0:0:0:0:
340,21,156241,2,0,L|344:86,1,66.0000020141602,8|0,0:0|0:0,0:0:0:0:
318,166,156569,2,0,P|371:142|453:144,1,132.00000402832,8|8,0:0|0:0,0:0:0:0:
481,302,157225,6,0,P|424:278|350:275,1,132.00000402832,12|8,0:0|0:0,0:0:0:0:
283,316,157717,1,0,0:0:0:0:
220,262,157881,2,0,L|229:119,1,132.00000402832,8|8,0:0|0:0,0:0:0:0:
167,74,158372,1,0,0:0:0:0:
96,117,158536,2,0,P|59:125|20:126,1,66.0000020141602,8|0,0:0|0:0,0:0:0:0:
5,205,158864,2,0,P|58:215|93:256,2,99.0000030212403,8|8|8,0:0|3:1|0:0,0:0:0:0:
17,287,159520,1,8,0:0:0:0:
158,371,159848,6,0,P|211:366|283:322,1,132.00000402832,12|8,0:0|0:0,0:0:0:0:
298,246,160340,1,0,0:0:0:0:
240,186,160504,2,0,P|184:187|108:152,1,132.00000402832,8|8,0:0|0:0,0:0:0:0:
77,83,160995,1,0,0:0:0:0:
137,26,161159,2,0,P|173:19|211:18,1,66.0000020141602,8|0,0:0|0:0,0:0:0:0:
261,76,161487,2,0,P|304:84|347:85,1,66.0000020141602,8|0,0:0|0:0,0:0:0:0:
392,35,161815,2,0,L|370:183,1,132.00000402832,8|8,0:0|0:0,0:0:0:0:
289,308,162471,6,0,L|281:237,1,66.0000020141602,2|2,0:2|0:2,0:0:0:0:
271,159,162799,1,2,0:2:0:0:
124,83,163127,1,8,0:0:0:0:
77,150,163291,2,0,P|124:165|193:127,1,132.00000402832,0|0,3:0|3:0,0:0:0:0:
197,45,163782,5,4,0:0:0:0:
256,192,163946,12,0,166405,0:0:0:0:
86,131,169028,6,0,P|138:147|186:139,1,96,2|0,0:0|0:0,0:0:0:0:
224,115,169519,1,0,0:0:0:0:
254,71,169684,2,0,L|364:75,1,96,0|2,0:0|0:0,0:0:0:0:
448,114,170340,2,0,B|428:157|428:157|444:261,1,144
456,303,170995,1,2,0:0:0:0:
351,289,171323,1,0,0:0:0:0:
246,273,171651,6,0,L|233:162,1,96,2|0,0:0|0:0,0:0:0:0:
193,143,172142,1,0,0:0:0:0:
142,126,172307,2,0,P|94:125|49:153,1,96,0|2,0:0|0:0,0:0:0:0:
18,248,172962,1,2,0:0:0:0:
121,228,173290,1,2,0:0:0:0:
205,291,173618,1,2,0:0:0:0:
280,216,173946,1,2,0:0:0:0:
337,304,174274,6,0,P|399:314|443:297,1,96,2|0,0:0|0:0,0:0:0:0:
471,271,174766,1,0,0:0:0:0:
486,220,174930,2,0,L|469:110,1,96,0|2,0:0|0:0,0:0:0:0:
408,39,175585,2,0,B|361:22|315:43|315:43|267:65|218:49,1,192,0|8,0:0|3:0,0:0:0:0:
121,14,176569,2,0,P|114:47|117:71,1,48,2|0,3:2|0:0,0:0:0:0:
135,122,176897,6,0,P|124:178|99:227,1,107.999996704102,4|2,0:0|0:0,0:0:0:0:
222,175,177553,2,0,P|236:228|237:294,1,107.999996704102,0|0,0:0|0:0,0:0:0:0:
323,182,178209,2,0,P|363:226|382:270,1,107.999996704102,2|0,0:0|0:0,0:0:0:0:
368,333,178700,2,0,P|426:321|482:323,2,107.999996704102,2|2|2,0:0|0:0|0:0,0:0:0:0:
311,365,179520,5,4,0:0:0:0:
99,214,180176,1,4,0:0:0:0:
336,108,180832,1,4,0:0:0:0:
257,210,181159,1,2,0:0:0:0:
201,93,181487,2,0,L|195:23,1,60,2|0,1:2|1:0,0:0:0:0:
118,22,181815,2,0,L|125:95,1,60,8|2,1:0|1:0,0:0:0:0:
151,155,182143,6,0,B|206:127|206:127|280:134,1,120,4|8,0:0|0:0,0:0:0:0:
352,261,182799,2,0,L|419:268,2,60,0|0|8,0:0|0:0|0:0,0:0:0:0:
290,309,183291,2,0,B|231:314|231:314|176:286,1,120,0|0,0:0|0:0,0:0:0:0:
139,217,183782,1,10,0:0:0:0:
186,155,183946,2,2,L|317:141,1,120,2|0,0:0|0:0,0:0:0:0:
367,94,184438,1,10,0:0:0:0:
435,131,184602,6,0,B|458:185|458:185|444:254,2,120,2|0|0,0:0|0:0|0:0,0:0:0:0:
367,94,185422,1,2,0:0:0:0:
305,142,185586,2,2,L|295:275,1,120
173,358,186241,1,0,0:0:0:0:
173,358,186405,2,2,L|161:274,1,60,10|2,0:0|0:0,0:0:0:0:
99,254,186733,2,0,B|68:251|68:251|39:261,2,60,0|4|12,0:0|0:2|0:0,0:0:0:0:
245,310,187389,6,0,L|374:317,1,120,4|10,0:0|0:0,0:0:0:0:
419,260,187881,1,0,0:0:0:0:
384,189,188045,2,2,L|257:182,1,120,2|10,0:0|0:0,0:0:0:0:
212,123,188537,1,2,0:0:0:0:
265,66,188700,2,0,L|329:61,1,60,0|2,0:0|0:0,0:0:0:0:
386,109,189028,2,0,B|448:117|448:117|508:88,2,120,8|2|10,0:0|0:0|0:0,0:0:0:0:
285,228,190012,6,0,B|226:221|226:221|170:245,1,120,2|8,0:0|0:0,0:0:0:0:
114,299,190504,2,2,B|118:239|118:239|86:187|86:187|91:126,1,180,2|8,0:0|0:0,0:0:0:0:
218,39,191323,2,2,P|251:57|241:136,1,120,2|8,0:0|0:0,0:0:0:0:
114,212,191979,2,0,B|148:196|148:196|177:210|195:232|195:232|225:211|225:211|255:219|282:218,1,180,0|0,0:0|3:0,0:0:0:0:
348,208,192635,5,4,0:0:0:0:
254,333,192963,2,0,P|220:326|182:326,1,60,10|0,0:0|0:0,0:0:0:0:
119,348,193291,2,0,L|101:216,1,120,2|8,0:0|0:0,0:0:0:0:
114,73,193946,2,0,P|67:115|2:105,1,120,0|10,0:0|0:0,0:0:0:0:
43,38,194438,6,2,L|173:4,2,120,2|2|0,0:0|0:0|0:0,0:0:0:0:
13,111,195258,1,2,0:0:0:0:
68,166,195422,2,2,B|125:177|125:177|190:151,2,120,2|2|0,0:0|0:0|0:0,0:0:0:0:
34,237,196241,2,0,L|30:307,1,60,8|2,0:0|0:0,0:0:0:0:
84,353,196569,6,2,B|127:369|169:347|169:347|212:323|257:338,1,180,2|0,0:0|0:0,0:0:0:0:
326,376,197225,2,0,P|333:352|329:306,1,60,2|12,0:0|0:0,0:0:0:0:
276,262,197553,2,0,P|274:219|278:195,1,60,12|0,0:0|0:0,0:0:0:0:
331,146,197881,6,2,P|377:162|452:163,1,120,6|8,0:0|0:0,0:0:0:0:
364,30,198537,2,0,P|310:27|289:31,1,60,0|0,3:0|3:0,0:0:0:0:
237,67,198864,1,8,0:0:0:0:
171,208,199192,1,2,0:0:0:0:
236,250,199356,2,2,P|243:180|203:137,1,120,2|2,0:0|3:1,0:0:0:0:
136,137,199848,1,0,3:1:0:0:
94,202,200012,2,2,P|119:266|170:286,1,120,2|2,3:1|3:1,0:0:0:0:
227,329,200504,6,0,P|268:306|352:300,1,120,12|0,0:0|0:0,0:0:0:0:
409,333,200996,2,0,L|424:209,1,120,14|0,0:0|0:0,0:0:0:0:
381,148,201487,1,14,0:0:0:0:
230,188,201815,2,0,L|223:120,2,60,2|12|0,0:0|0:0|0:0,0:0:0:0:
280,248,202307,1,0,0:0:0:0:
331,306,202471,2,0,L|323:373,2,60,2|0|8,3:1|3:0|3:0,0:0:0:0:
395,261,202963,1,8,3:0:0:0:
459,217,203127,6,0,L|468:148,1,60,2|2,0:2|0:2,0:0:0:0:
414,99,203455,2,0,P|379:91|344:92,1,60,2|2,0:2|0:2,0:0:0:0:
290,135,203782,1,8,0:0:0:0:
194,258,204110,2,0,P|228:259|257:265,1,60,2|2,0:2|0:2,0:0:0:0:
316,310,204438,1,2,0:2:0:0:
256,360,204602,2,0,L|125:364,1,120,2|0,0:2|0:0,0:0:0:0:
77,311,205094,2,0,P|62:263|80:196,1,120,8|0,0:0|2:0,0:0:0:0:
217,123,205750,6,0,P|248:133|284:137,1,60,6|2,0:2|0:2,0:0:0:0:
351,118,206078,2,0,L|360:190,1,60,2|2,0:2|0:2,0:0:0:0:
343,254,206405,1,8,0:0:0:0:
471,166,206733,2,0,P|480:121|480:97,1,60,2|2,0:2|0:2,0:0:0:0:
442,38,207061,1,2,0:2:0:0:
369,8,207225,2,0,L|246:14,1,120,2|0,0:2|0:0,0:0:0:0:
196,71,207717,2,0,B|226:91|226:91|294:88,2,90,8|8|8,0:0|0:0|0:0,0:0:0:0:
132,25,208373,6,0,L|62:31,1,60,2|2,0:2|0:2,0:0:0:0:
18,86,208700,2,0,P|15:121|24:151,1,60,2|2,0:2|0:2,0:0:0:0:
80,196,209028,1,8,0:0:0:0:
226,140,209356,2,0,L|230:72,1,60,2|2,0:2|0:2,0:0:0:0:
292,33,209684,1,2,0:2:0:0:
351,84,209848,2,0,P|357:141|333:206,1,120,2|0,0:2|0:0,0:0:0:0:
264,228,210340,2,0,P|257:286|274:352,1,120,8|0,0:0|2:0,0:0:0:0:
427,337,210996,6,0,P|458:344|487:358,2,60,2|2|2,0:2|0:2|0:2,0:0:0:0:
372,280,211487,1,8,0:0:0:0:
299,250,211651,2,2,P|268:254|232:272,1,60,0|8,0:0|3:0,0:0:0:0:
188,322,211979,5,6,1:2:0:0:
256,192,212143,12,0,214274,0:0:0:0:
64,264,222799,6,0,L|72:320,2,48,0|0|0,3:0|3:0|3:0,0:0:0:0:
107,218,223291,1,0,3:0:0:0:
151,173,223455,2,0,L|145:113,2,53.9999983520508,8|8|8,1:0|1:0|1:0,0:0:0:0:
200,215,223946,1,8,1:0:0:0:
247,261,224110,6,0,L|309:257,1,60,2|2,0:2|0:2,0:0:0:0:
385,252,224438,1,2,0:2:0:0:
255,56,224930,6,0,L|189:51,1,60,2|2,0:2|0:2,0:0:0:0:
116,45,225258,1,2,0:2:0:0:
47,185,225586,6,0,L|115:178,2,60,0|0|0,3:0|3:0|3:0,0:0:0:0:
11,255,226078,1,8,0:0:0:0:
67,307,226241,2,0,B|97:309|97:309|140:294,1,60,2|2,0:2|0:2,0:0:0:0:
165,231,226569,1,2,0:2:0:0:
236,262,226733,6,0,L|239:328,1,60,2|2,0:2|0:2,0:0:0:0:
311,351,227061,2,0,B|335:328|335:328|331:234,1,120,2|0,0:2|0:0,0:0:0:0:
282,179,227553,6,0,L|279:113,1,60,2|2,0:2|0:2,0:0:0:0:
320,52,227881,1,2,0:2:0:0:
201,13,228209,2,0,B|154:63|170:136|170:136|128:107|76:119|51:170|72:220|122:232,1,336,0|0,0:0|2:0,0:0:0:0:
289,245,229684,6,0,P|321:229|365:227,1,66.0000020141602,12|0,0:0|0:0,0:0:0:0:
341,311,230012,2,0,P|291:328|213:283,1,132.00000402832,2|8,0:2|0:0,0:0:0:0:
209,211,230504,1,0,0:0:0:0:
278,160,230668,2,0,P|284:128|285:87,2,66.0000020141602,2|0|8,0:2|0:0|0:0,0:0:0:0:
209,211,231159,1,2,0:2:0:0:
142,157,231323,2,0,P|136:111|140:79,1,66.0000020141602,2|0,0:2|0:0,0:0:0:0:
56,62,231651,2,0,P|51:130|64:203,1,132.00000402832,8|4,0:0|0:0,0:0:0:0:
162,331,232307,6,0,P|209:321|238:320,1,66.0000020141602,8|0,0:0|0:0,0:0:0:0:
294,266,232635,2,0,P|340:284|430:244,1,132.00000402832,2|8,0:2|0:0,0:0:0:0:
457,184,233127,1,0,0:0:0:0:
404,116,233291,2,0,L|410:50,2,66.0000020141602,2|0|8,0:2|0:0|0:0,0:0:0:0:
326,152,233782,1,2,0:2:0:0:
258,98,233946,2,0,P|212:92|179:92,1,66.0000020141602,2|12,0:2|0:0,0:0:0:0:
113,127,234274,1,8,0:0:0:0:
45,284,234602,6,0,P|104:307|185:282,1,132.00000402832,4|8,0:0|0:0,0:0:0:0:
227,229,235094,1,0,0:0:0:0:
299,275,235258,2,0,L|444:281,1,132.00000402832,2|8,0:2|0:0,0:0:0:0:
484,212,235750,1,0,0:0:0:0:
415,160,235914,2,0,L|334:164,2,66.0000020141602,2|0|8,0:2|0:0|0:0,0:0:0:0:
469,93,236405,1,2,0:2:0:0:
406,34,236569,2,0,P|335:20|276:30,1,132.00000402832,2|12,0:2|0:0,0:0:0:0:
129,117,237225,6,0,P|188:120|260:168,1,132.00000402832,4|8,0:0|0:0,0:0:0:0:
271,239,237717,1,0,0:0:0:0:
271,239,237881,2,0,B|244:269|244:269|143:265,1,132.00000402832,2|8,0:2|0:0,0:0:0:0:
20,154,238537,2,0,P|15:110|19:83,1,66.0000020141602,8|0,0:0|0:0,0:0:0:0:
83,32,238864,2,0,L|227:40,1,132.00000402832,8|8,0:0|3:0,0:0:0:0:
271,104,239356,1,0,3:1:0:0:
221,174,239520,2,0,P|195:145|184:97,1,66.0000020141602,8|2,0:0|0:2,0:0:0:0:
107,157,239848,6,0,P|106:208|148:280,1,132.00000402832,12|8,0:0|0:0,0:0:0:0:
227,302,240340,1,0,0:0:0:0:
302,260,240504,2,0,P|361:256|439:287,1,132.00000402832,8|8,0:0|0:0,0:0:0:0:
483,346,240996,1,0,0:0:0:0:
399,363,241159,2,0,L|320:357,1,66.0000020141602,8|0,0:0|0:0,0:0:0:0:
251,330,241487,2,0,L|180:338,1,66.0000020141602,8|0,0:0|0:0,0:0:0:0:
104,368,241815,2,0,P|97:321|119:228,1,132.00000402832,8|12,0:0|0:0,0:0:0:0:
209,96,242471,6,0,P|232:162|232:246,1,132.00000402832,12|8,0:0|0:0,0:0:0:0:
307,269,242963,1,0,0:0:0:0:
387,240,243127,2,0,B|412:205|412:205|399:108,1,132.00000402832,8|8,0:0|0:0,0:0:0:0:
389,31,243619,1,0,0:0:0:0:
304,16,243782,2,0,L|319:92,1,66.0000020141602,8|0,0:0|0:0,0:0:0:0:
250,136,244110,2,0,B|213:124|213:124|146:142,2,99.0000030212403,8|8|8,0:0|3:1|0:0,0:0:0:0:
330,167,244766,2,0,L|326:243,1,66.0000020141602,8|0,0:0|0:0,0:0:0:0:
274,302,245094,6,0,B|212:280|212:280|139:299,1,132.00000402832,12|8,0:0|0:0,0:0:0:0:
71,255,245586,1,0,0:0:0:0:
87,170,245750,2,0,B|137:127|137:127|157:54,1,132.00000402832,8|8,0:0|0:0,0:0:0:0:
225,14,246241,1,0,0:0:0:0:
291,71,246405,2,0,B|302:135,1,66.0000020141602,8|0,0:0|0:0,0:0:0:0:
371,188,246733,2,0,L|458:195,1,66.0000020141602,8|0,0:0|0:0,0:0:0:0:
474,271,247061,2,0,L|337:288,1,132.00000402832,8|8,0:0|0:0,0:0:0:0:
173,257,247717,6,0,P|187:227|212:206,1,66.0000020141602,2|2,0:2|0:2,0:0:0:0:
299,207,248045,2,0,P|323:227|339:259,1,66.0000020141602,2|2,0:2|0:2,0:0:0:0:
256,280,248373,1,2,0:2:0:0:
212,206,248537,2,0,P|196:135|220:75,1,132.00000402832,8|8,3:1|3:1,0:0:0:0:
279,36,249028,6,2,P|326:53|408:54,1,120,14|8,0:0|0:0,0:0:0:0:
469,29,249520,1,2,0:0:0:0:
456,106,249684,2,0,P|459:143|471:170,2,60,2|0|10,0:0|0:0|0:0,0:0:0:0:
324,190,250340,2,2,P|348:251|343:323,1,120,2|8,0:0|0:0,0:0:0:0:
297,364,250831,1,2,0:0:0:0:
228,327,250995,2,2,P|202:322|163:322,1,60,2|0,0:0|0:0,0:0:0:0:
96,351,251323,2,0,P|123:299|118:221,1,120,12|6,0:0|0:0,0:0:0:0:
77,174,251815,5,0,0:0:0:0:
2,151,251979,2,0,P|0:176|8:210,2,60,8|2|2,0:0|0:0|0:0,0:0:0:0:
103,32,252635,2,0,L|164:36,1,60,8|2,0:0|0:0,0:0:0:0:
221,87,252963,2,2,L|231:152,1,60,2|0,0:0|0:0,0:0:0:0:
198,218,253291,2,0,P|142:199|85:231,1,120,8|2,0:0|0:0,0:0:0:0:
147,277,253782,1,12,0:0:0:0:
147,277,253946,2,0,P|172:290|213:296,1,60,8|2,0:0|0:0,0:0:0:0:
269,254,254274,6,2,P|305:242|403:252,1,120,6|8,0:0|0:0,0:0:0:0:
443,192,254766,1,2,0:0:0:0:
390,134,254930,2,0,P|366:129|326:129,2,60,2|0|10,0:0|0:0|0:0,0:0:0:0:
270,34,255586,2,2,P|206:55|142:50,1,120,2|8,0:0|0:0,0:0:0:0:
81,23,256077,1,2,0:0:0:0:
28,80,256241,2,2,L|34:143,1,60,2|0,0:0|0:0,0:0:0:0:
73,207,256569,2,0,P|130:186|201:192,1,120,8|4,0:0|0:0,0:0:0:0:
257,225,257061,5,0,0:0:0:0:
294,293,257225,2,0,L|288:355,1,60,14|2,0:0|0:0,0:0:0:0:
365,366,257553,2,2,L|377:234,1,120,2|14,0:0|0:0,0:0:0:0:
506,160,258209,2,2,L|488:32,1,120,14|8,0:0|0:0,0:0:0:0:
415,16,258700,1,8,3:0:0:0:
360,72,258864,2,0,L|369:140,1,60,0|0,3:0|3:0,0:0:0:0:
418,191,259192,2,0,L|412:256,1,60,8|8,0:0|0:0,0:0:0:0:
350,311,259520,6,2,B|288:328|288:328|213:298,1,132.00000402832,14|10,0:0|0:0,0:0:0:0:
171,234,260012,1,2,0:0:0:0:
212,158,260176,2,2,L|280:146,1,66.0000020141602,10|0,0:0|0:0,0:0:0:0:
357,177,260504,2,0,B|362:145|362:145|354:108,1,66.0000020141602,8|2,0:0|0:0,0:0:0:0:
286,59,260832,6,2,L|146:45,1,132.00000402832,10|10,0:0|0:0,0:0:0:0:
79,87,261323,1,2,0:0:0:0:
126,158,261487,2,0,B|199:167,2,66.0000020141602,10|0|12,0:0|0:0|0:0,0:0:0:0:
39,163,261979,1,2,0:0:0:0:
22,247,262143,6,2,L|32:316,1,66.0000020141602,14|0,0:0|0:0,0:0:0:0:
114,287,262471,2,2,L|162:340,1,66.0000020141602,8|2,0:0|0:0,0:0:0:0:
224,281,262799,2,0,L|307:289,2,66.0000020141602,10|0|10,0:0|0:0|0:0,0:0:0:0:
182,205,263291,1,2,0:0:0:0:
229,133,263455,6,2,B|311:128,1,66.0000020141602,10|0,0:0|0:0,0:0:0:0:
364,179,263782,2,0,B|379:143|379:143|370:73,2,99.0000030212403,10|8|8,0:0|0:0|0:0,0:0:0:0:
286,216,264438,1,8,0:0:0:0:
372,364,264766,6,2,B|306:351|306:351|243:375,1,132.00000402832,14|14,0:0|0:0,0:0:0:0:
166,340,265258,1,2,0:0:0:0:
124,264,265422,2,2,L|133:192,1,66.0000020141602,10|0,0:0|0:0,0:0:0:0:
210,161,265750,2,0,B|219:196|219:196|210:234,1,66.0000020141602,8|2,0:0|0:0,0:0:0:0:
298,243,266078,6,2,B|306:193|306:193|284:106,1,132.00000402832,10|10,0:0|0:0,0:0:0:0:
265,30,266569,1,2,0:0:0:0:
182,7,266733,2,2,B|150:20|150:20|125:51,1,66.0000020141602,10|0,0:0|0:0,0:0:0:0:
202,91,267061,2,0,B|177:114|177:114|165:150,1,66.0000020141602,12|2,0:0|0:0,0:0:0:0:
250,161,267389,5,10,0:0:0:0:
250,161,267553,1,10,0:0:0:0:
459,55,268045,1,10,0:0:0:0:
459,55,268209,2,0,L|471:123,1,60,2|0,0:0|3:0,0:0:0:0:
447,189,268537,1,0,3:0:0:0:
447,189,268700,1,6,1:0:0:0:
256,192,268866,12,4,271697,3:1:0:0:
256,192,271997,12,2,278522,2:1:0:0:
