osu file format v14

[General]
AudioFilename: audio.mp3
AudioLeadIn: 0
PreviewTime: 20346
Countdown: 0
SampleSet: None
StackLeniency: 0.7
Mode: 3
LetterboxInBreaks: 0
SpecialStyle: 0
WidescreenStoryboard: 0

[Editor]
DistanceSpacing: 0.8
BeatDivisor: 4
GridSize: 4
TimelineZoom: 1

[Metadata]
Title:Ju-Ju- Yakiniku no Hi kara Phenix!?~Saitan no Sumibi Yaki~
TitleUnicode:じゅーじゅー♥焼肉の火からフェニックス!?~再誕の†炭火焼き~
Artist:Camellia feat. Nanahira
ArtistUnicode:かめりあ feat. ななひら
Creator:Shirou
Version:ADVANCED
Source:SOUND VOLTEX III GRAVITY WARS
Tags:sdvx
BeatmapID:1027375
BeatmapSetID:481371

[Difficulty]
HPDrainRate:7.5
CircleSize:4
OverallDifficulty:7.5
ApproachRate:5
SliderMultiplier:1.4
SliderTickRate:1

[Events]
//Background and Video events
0,0,"BG.png",0,0
//Break Periods
//Storyboard Layer 0 (Background)
//Storyboard Layer 1 (Fail)
//Storyboard Layer 2 (Pass)
//Storyboard Layer 3 (Foreground)
//Storyboard Sound Samples

[TimingPoints]
1763,333.333333333333,4,3,1,40,1,0
20429,-100,4,3,1,40,0,1
31096,-100,4,3,1,40,0,0
97762,-100,4,3,1,40,0,1
114262,-100,4,3,1,40,0,0

[HitObjects]
64,192,1762,5,6,0:0:0:0:
448,192,1762,1,0,0:0:0:0:
192,192,2429,1,6,0:0:0:0:
320,192,2429,1,0,0:0:0:0:
448,192,2762,1,0,0:0:0:0:
64,192,3096,1,6,0:0:0:0:
448,192,3096,1,0,0:0:0:0:
320,192,3262,1,0,0:0:0:0:
64,192,3346,1,6,0:0:0:0:
192,192,3346,1,0,0:0:0:0:
192,192,3512,1,0,0:0:0:0:
320,192,3596,1,6,0:0:0:0:
448,192,3596,1,0,0:0:0:0:
448,192,3762,1,0,0:0:0:0:
320,192,3818,1,0,0:0:0:0:
192,192,3874,1,0,0:0:0:0:
64,192,3929,1,0,0:0:0:0:
448,192,4012,1,0,0:0:0:0:
320,192,4096,1,0,0:0:0:0:
192,192,4179,1,0,0:0:0:0:
64,192,4262,1,0,0:0:0:0:
448,192,4346,1,0,0:0:0:0:
320,192,4429,128,0,4762:0:0:0:0:
192,192,4679,1,0,0:0:0:0:
64,192,4762,1,6,0:0:0:0:
448,192,4762,1,0,0:0:0:0:
192,192,5096,128,0,5429:0:0:0:0:
320,192,5346,1,0,0:0:0:0:
64,192,5429,1,6,0:0:0:0:
448,192,5429,1,0,0:0:0:0:
192,192,5762,1,6,0:0:0:0:
320,192,5762,1,0,0:0:0:0:
64,192,5929,1,0,0:0:0:0:
320,192,6012,1,6,0:0:0:0:
448,192,6012,1,0,0:0:0:0:
448,192,6179,1,0,0:0:0:0:
64,192,6262,1,6,0:0:0:0:
192,192,6262,1,0,0:0:0:0:
448,192,6429,1,0,0:0:0:0:
320,192,6512,1,0,0:0:0:0:
192,192,6596,1,0,0:0:0:0:
64,192,6679,1,0,0:0:0:0:
192,192,6762,1,8,0:0:0:0:
448,192,6762,1,0,0:0:0:0:
320,192,6846,1,0,0:0:0:0:
448,192,6929,1,0,0:0:0:0:
64,192,7012,1,0,0:0:0:0:
192,192,7096,1,14,0:0:0:0:
320,192,7096,1,0,0:0:0:0:
448,192,7262,1,0,0:0:0:0:
64,192,7429,1,2,0:0:0:0:
320,192,7429,1,0,0:0:0:0:
192,192,7596,1,0,0:0:0:0:
64,192,7762,1,2,0:0:0:0:
448,192,7762,1,0,0:0:0:0:
320,192,7929,1,0,0:0:0:0:
64,192,8096,1,2,0:0:0:0:
192,192,8096,1,0,0:0:0:0:
320,192,8262,1,0,0:0:0:0:
448,192,8429,1,2,0:0:0:0:
64,192,8429,1,0,0:0:0:0:
192,192,8596,1,0,0:0:0:0:
320,192,8679,1,0,0:0:0:0:
64,192,8762,1,2,0:0:0:0:
192,192,8762,1,0,0:0:0:0:
320,192,8846,1,0,0:0:0:0:
192,192,8929,1,0,0:0:0:0:
64,192,9096,1,2,0:0:0:0:
448,192,9096,1,0,0:0:0:0:
192,192,9262,1,0,0:0:0:0:
320,192,9429,1,2,0:0:0:0:
448,192,9429,1,0,0:0:0:0:
192,192,9596,1,0,0:0:0:0:
64,192,9762,1,10,0:0:0:0:
320,192,9762,1,0,0:0:0:0:
448,192,9929,128,0,10096:0:0:0:0:
320,192,10096,128,2,10262:0:0:0:0:
64,192,10096,1,0,0:0:0:0:
192,192,10262,128,0,10429:0:0:0:0:
448,192,10429,1,2,0:0:0:0:
320,192,10429,1,0,0:0:0:0:
64,192,10596,1,0,0:0:0:0:
192,192,10762,1,2,0:0:0:0:
448,192,10762,1,0,0:0:0:0:
320,192,10929,1,0,0:0:0:0:
192,192,11096,1,2,0:0:0:0:
448,192,11096,1,0,0:0:0:0:
64,192,11262,128,2,11429:0:0:0:0:
320,192,11262,1,0,0:0:0:0:
192,192,11429,128,2,11596:0:0:0:0:
448,192,11429,1,0,0:0:0:0:
320,192,11596,128,2,11762:0:0:0:0:
64,192,11596,1,0,0:0:0:0:
192,192,11762,1,2,0:0:0:0:
448,192,11762,1,0,0:0:0:0:
320,192,11929,1,2,0:0:0:0:
448,192,11929,1,0,0:0:0:0:
64,192,12012,1,2,0:0:0:0:
192,192,12012,1,0,0:0:0:0:
320,192,12096,1,2,0:0:0:0:
448,192,12096,1,0,0:0:0:0:
64,192,12262,128,2,12429:0:0:0:0:
192,192,12262,1,0,0:0:0:0:
448,192,12346,1,2,0:0:0:0:
320,192,12429,1,6,0:0:0:0:
192,192,12429,1,0,0:0:0:0:
64,192,12596,1,0,0:0:0:0:
192,192,12679,1,0,0:0:0:0:
320,192,12762,1,0,0:0:0:0:
192,192,12929,1,0,0:0:0:0:
320,192,13096,1,0,0:0:0:0:
448,192,13262,1,0,0:0:0:0:
64,192,13429,1,0,0:0:0:0:
192,192,13512,1,0,0:0:0:0:
320,192,13596,1,0,0:0:0:0:
448,192,13679,1,0,0:0:0:0:
192,192,13762,1,10,0:0:0:0:
64,192,13762,1,0,0:0:0:0:
448,192,13846,1,10,0:0:0:0:
320,192,13846,1,0,0:0:0:0:
448,192,14012,1,10,0:0:0:0:
320,192,14012,1,0,0:0:0:0:
192,192,14096,1,10,0:0:0:0:
64,192,14096,1,0,0:0:0:0:
192,192,14262,1,10,0:0:0:0:
320,192,14262,1,0,0:0:0:0:
64,192,14346,1,10,0:0:0:0:
448,192,14346,1,0,0:0:0:0:
448,192,14512,1,10,0:0:0:0:
64,192,14512,1,0,0:0:0:0:
192,192,14596,1,10,0:0:0:0:
320,192,14596,1,0,0:0:0:0:
64,192,14762,1,4,0:0:0:0:
448,192,14762,1,0,0:0:0:0:
320,192,14762,1,0,0:0:0:0:
64,192,15096,1,2,0:0:0:0:
448,192,15096,1,0,0:0:0:0:
320,192,15179,1,2,0:0:0:0:
192,192,15262,1,2,0:0:0:0:
320,192,15346,1,2,0:0:0:0:
64,192,15429,1,2,0:0:0:0:
448,192,15429,1,0,0:0:0:0:
64,192,15596,1,2,0:0:0:0:
448,192,15596,1,0,0:0:0:0:
192,192,15679,1,2,0:0:0:0:
320,192,15762,1,2,0:0:0:0:
192,192,15846,1,2,0:0:0:0:
64,192,15929,1,2,0:0:0:0:
448,192,15929,1,0,0:0:0:0:
192,192,16096,1,2,0:0:0:0:
320,192,16096,1,0,0:0:0:0:
64,192,16262,1,2,0:0:0:0:
448,192,16262,1,0,0:0:0:0:
192,192,16429,1,2,0:0:0:0:
320,192,16429,1,0,0:0:0:0:
64,192,16512,1,2,0:0:0:0:
192,192,16596,1,2,0:0:0:0:
320,192,16679,1,2,0:0:0:0:
448,192,16762,1,2,0:0:0:0:
64,192,16762,1,0,0:0:0:0:
192,192,16929,1,2,0:0:0:0:
448,192,16929,1,0,0:0:0:0:
320,192,17012,1,2,0:0:0:0:
64,192,17096,1,2,0:0:0:0:
192,192,17096,1,0,0:0:0:0:
64,192,17262,1,2,0:0:0:0:
448,192,17262,1,0,0:0:0:0:
192,192,17429,128,2,17762:0:0:0:0:
64,192,17762,1,2,0:0:0:0:
448,192,17762,1,0,0:0:0:0:
320,192,17846,1,2,0:0:0:0:
192,192,17929,1,2,0:0:0:0:
320,192,18012,1,2,0:0:0:0:
192,192,18096,1,2,0:0:0:0:
64,192,18096,1,0,0:0:0:0:
64,192,18262,1,2,0:0:0:0:
448,192,18262,1,0,0:0:0:0:
192,192,18346,1,2,0:0:0:0:
320,192,18429,1,2,0:0:0:0:
192,192,18512,1,2,0:0:0:0:
320,192,18596,1,2,0:0:0:0:
448,192,18596,1,0,0:0:0:0:
64,192,18762,1,2,0:0:0:0:
192,192,18762,1,0,0:0:0:0:
320,192,18929,128,2,19096:0:0:0:0:
64,192,19096,1,6,0:0:0:0:
448,192,19096,1,0,0:0:0:0:
192,192,19262,1,0,0:0:0:0:
320,192,19346,1,6,0:0:0:0:
448,192,19346,1,0,0:0:0:0:
320,192,19512,1,0,0:0:0:0:
64,192,19596,1,6,0:0:0:0:
192,192,19596,1,0,0:0:0:0:
64,192,19762,1,0,0:0:0:0:
192,192,19818,1,0,0:0:0:0:
320,192,19874,1,0,0:0:0:0:
448,192,19929,1,0,0:0:0:0:
64,192,19985,1,0,0:0:0:0:
192,192,20040,1,0,0:0:0:0:
320,192,20096,1,0,0:0:0:0:
448,192,20151,1,0,0:0:0:0:
64,192,20207,1,0,0:0:0:0:
192,192,20262,1,0,0:0:0:0:
320,192,20318,1,0,0:0:0:0:
448,192,20374,1,0,0:0:0:0:
64,192,20429,1,10,0:0:0:0:
192,192,20429,1,0,0:0:0:0:
320,192,20596,1,0,0:0:0:0:
64,192,20762,1,2,0:0:0:0:
448,192,20762,1,0,0:0:0:0:
192,192,20929,1,0,0:0:0:0:
64,192,21096,1,2,0:0:0:0:
320,192,21096,1,0,0:0:0:0:
448,192,21262,1,0,0:0:0:0:
192,192,21429,1,2,0:0:0:0:
320,192,21429,1,0,0:0:0:0:
64,192,21596,1,0,0:0:0:0:
448,192,21679,128,0,21762:0:0:0:0:
320,192,21762,1,2,0:0:0:0:
192,192,21762,1,0,0:0:0:0:
64,192,21846,128,0,22012:0:0:0:0:
448,192,21929,1,0,0:0:0:0:
192,192,22096,1,2,0:0:0:0:
320,192,22096,1,0,0:0:0:0:
448,192,22262,1,0,0:0:0:0:
64,192,22429,128,2,22596:0:0:0:0:
192,192,22429,1,0,0:0:0:0:
320,192,22596,1,0,0:0:0:0:
192,192,22679,128,0,22846:0:0:0:0:
64,192,22762,1,2,0:0:0:0:
448,192,22762,1,0,0:0:0:0:
320,192,22929,128,0,23096:0:0:0:0:
64,192,23096,1,2,0:0:0:0:
448,192,23096,1,0,0:0:0:0:
192,192,23262,1,0,0:0:0:0:
320,192,23429,1,2,0:0:0:0:
448,192,23429,1,0,0:0:0:0:
64,192,23596,1,0,0:0:0:0:
192,192,23762,1,2,0:0:0:0:
320,192,23762,1,0,0:0:0:0:
448,192,23929,1,0,0:0:0:0:
64,192,24096,1,2,0:0:0:0:
320,192,24096,1,0,0:0:0:0:
192,192,24262,1,0,0:0:0:0:
320,192,24429,1,2,0:0:0:0:
448,192,24429,1,0,0:0:0:0:
64,192,24429,128,0,24762:0:0:0:0:
320,192,24596,1,0,0:0:0:0:
192,192,24762,128,10,25096:0:0:0:0:
448,192,24762,1,0,0:0:0:0:
448,192,24929,1,0,0:0:0:0:
320,192,25096,128,10,25429:0:0:0:0:
64,192,25096,1,0,0:0:0:0:
64,192,25262,1,0,0:0:0:0:
448,192,25429,128,10,25762:0:0:0:0:
192,192,25429,1,0,0:0:0:0:
192,192,25596,1,0,0:0:0:0:
64,192,25762,1,6,0:0:0:0:
320,192,25762,1,0,0:0:0:0:
448,192,25929,1,0,0:0:0:0:
64,192,26096,1,2,0:0:0:0:
320,192,26096,1,0,0:0:0:0:
192,192,26262,1,0,0:0:0:0:
64,192,26429,1,2,0:0:0:0:
448,192,26429,1,0,0:0:0:0:
320,192,26596,1,0,0:0:0:0:
192,192,26762,1,2,0:0:0:0:
448,192,26762,1,0,0:0:0:0:
64,192,26929,1,0,0:0:0:0:
448,192,27012,128,2,27096:0:0:0:0:
192,192,27096,1,0,0:0:0:0:
320,192,27096,1,0,0:0:0:0:
64,192,27179,128,2,27346:0:0:0:0:
448,192,27262,1,0,0:0:0:0:
320,192,27429,1,2,0:0:0:0:
192,192,27429,1,0,0:0:0:0:
192,192,27596,1,0,0:0:0:0:
448,192,27762,128,2,27929:0:0:0:0:
320,192,27762,1,0,0:0:0:0:
64,192,27929,1,0,0:0:0:0:
192,192,28012,1,2,0:0:0:0:
320,192,28012,128,0,28179:0:0:0:0:
448,192,28096,1,0,0:0:0:0:
64,192,28262,1,2,0:0:0:0:
192,192,28262,128,0,28429:0:0:0:0:
448,192,28429,1,0,0:0:0:0:
64,192,28596,128,2,28762:0:0:0:0:
320,192,28596,1,0,0:0:0:0:
192,192,28762,1,10,0:0:0:0:
448,192,28762,1,0,0:0:0:0:
320,192,28929,1,0,0:0:0:0:
64,192,29096,1,2,0:0:0:0:
448,192,29096,1,0,0:0:0:0:
192,192,29262,1,0,0:0:0:0:
320,192,29429,1,2,0:0:0:0:
448,192,29429,1,0,0:0:0:0:
192,192,29596,1,0,0:0:0:0:
320,192,29762,128,6,30096:0:0:0:0:
64,192,29762,1,0,0:0:0:0:
64,192,29929,1,0,0:0:0:0:
192,192,30096,128,2,30429:0:0:0:0:
448,192,30096,1,0,0:0:0:0:
448,192,30262,1,2,0:0:0:0:
320,192,30429,1,6,0:0:0:0:
64,192,30429,128,0,30762:0:0:0:0:
192,192,30596,1,0,0:0:0:0:
320,192,30679,1,6,0:0:0:0:
448,192,30762,128,0,31096:0:0:0:0:
192,192,30762,1,0,0:0:0:0:
64,192,30929,1,6,0:0:0:0:
192,192,31096,1,14,0:0:0:0:
320,192,31096,1,0,0:0:0:0:
320,192,32262,1,2,0:0:0:0:
448,192,32262,1,0,0:0:0:0:
64,192,32429,1,2,0:0:0:0:
192,192,32429,1,0,0:0:0:0:
64,192,33596,1,2,0:0:0:0:
192,192,33596,1,0,0:0:0:0:
320,192,33762,1,2,0:0:0:0:
448,192,33762,1,0,0:0:0:0:
64,192,34929,1,2,0:0:0:0:
448,192,34929,1,0,0:0:0:0:
192,192,35096,1,2,0:0:0:0:
320,192,35096,1,0,0:0:0:0:
64,192,36429,1,2,0:0:0:0:
448,192,36429,1,0,0:0:0:0:
192,192,37596,1,2,0:0:0:0:
320,192,37596,1,0,0:0:0:0:
64,192,37762,1,2,0:0:0:0:
448,192,37762,1,0,0:0:0:0:
64,192,38929,1,2,0:0:0:0:
320,192,38929,1,0,0:0:0:0:
192,192,39096,1,2,0:0:0:0:
448,192,39096,1,0,0:0:0:0:
448,192,39762,1,2,0:0:0:0:
192,192,39762,1,0,0:0:0:0:
64,192,39929,1,2,0:0:0:0:
320,192,39929,1,0,0:0:0:0:
64,192,40429,128,2,40596:0:0:0:0:
448,192,40429,1,0,0:0:0:0:
192,192,40596,128,0,40762:0:0:0:0:
320,192,40762,128,0,40929:0:0:0:0:
448,192,40929,128,0,41096:0:0:0:0:
320,192,41096,128,0,41262:0:0:0:0:
192,192,41262,128,0,41429:0:0:0:0:
64,192,41429,128,0,41596:0:0:0:0:
448,192,41596,128,0,41762:0:0:0:0:
64,192,41762,1,10,0:0:0:0:
320,192,41762,1,0,0:0:0:0:
192,192,41929,1,0,0:0:0:0:
64,192,42096,1,2,0:0:0:0:
448,192,42096,1,0,0:0:0:0:
320,192,42262,1,0,0:0:0:0:
64,192,42429,1,2,0:0:0:0:
192,192,42429,1,0,0:0:0:0:
320,192,42596,1,0,0:0:0:0:
64,192,42762,1,2,0:0:0:0:
448,192,42762,1,0,0:0:0:0:
192,192,42929,128,0,43262:0:0:0:0:
320,192,43096,1,2,0:0:0:0:
64,192,43096,1,0,0:0:0:0:
448,192,43262,128,0,43429:0:0:0:0:
320,192,43429,128,2,43596:0:0:0:0:
64,192,43429,1,0,0:0:0:0:
192,192,43596,128,0,43762:0:0:0:0:
448,192,43762,128,2,43929:0:0:0:0:
320,192,43762,1,0,0:0:0:0:
64,192,43929,1,0,0:0:0:0:
192,192,44096,128,2,44262:0:0:0:0:
448,192,44096,1,0,0:0:0:0:
64,192,44262,128,0,44429:0:0:0:0:
192,192,44429,1,2,0:0:0:0:
448,192,44429,1,0,0:0:0:0:
320,192,44596,1,0,0:0:0:0:
64,192,44762,1,2,0:0:0:0:
448,192,44762,1,0,0:0:0:0:
192,192,44929,1,0,0:0:0:0:
320,192,45096,1,2,0:0:0:0:
448,192,45096,1,0,0:0:0:0:
192,192,45262,1,0,0:0:0:0:
64,192,45429,1,2,0:0:0:0:
448,192,45429,1,0,0:0:0:0:
320,192,45596,1,0,0:0:0:0:
448,192,45762,128,2,45929:0:0:0:0:
64,192,45762,1,0,0:0:0:0:
320,192,45929,128,0,46096:0:0:0:0:
192,192,46096,128,2,46262:0:0:0:0:
448,192,46096,1,0,0:0:0:0:
64,192,46262,128,0,46429:0:0:0:0:
448,192,46429,128,2,46596:0:0:0:0:
192,192,46429,1,0,0:0:0:0:
320,192,46596,128,0,46762:0:0:0:0:
192,192,46762,128,2,46929:0:0:0:0:
448,192,46762,1,0,0:0:0:0:
64,192,46929,128,0,47096:0:0:0:0:
192,192,47096,1,2,0:0:0:0:
448,192,47096,1,0,0:0:0:0:
320,192,47262,1,0,0:0:0:0:
64,192,47429,1,2,0:0:0:0:
192,192,47429,1,0,0:0:0:0:
320,192,47596,1,0,0:0:0:0:
64,192,47762,1,2,0:0:0:0:
448,192,47762,1,0,0:0:0:0:
320,192,47929,1,0,0:0:0:0:
64,192,48096,1,2,0:0:0:0:
192,192,48096,1,0,0:0:0:0:
320,192,48262,128,0,48596:0:0:0:0:
448,192,48429,1,2,0:0:0:0:
192,192,48429,1,0,0:0:0:0:
64,192,48596,128,0,48762:0:0:0:0:
192,192,48762,128,2,48929:0:0:0:0:
448,192,48762,1,0,0:0:0:0:
320,192,48929,128,0,49096:0:0:0:0:
64,192,49096,1,2,0:0:0:0:
448,192,49096,1,0,0:0:0:0:
192,192,49179,1,0,0:0:0:0:
320,192,49262,1,0,0:0:0:0:
448,192,49346,1,0,0:0:0:0:
320,192,49429,1,2,0:0:0:0:
64,192,49429,1,0,0:0:0:0:
192,192,49512,1,0,0:0:0:0:
320,192,49596,1,0,0:0:0:0:
448,192,49679,1,0,0:0:0:0:
64,192,49762,1,2,0:0:0:0:
320,192,49762,1,0,0:0:0:0:
192,192,49929,1,0,0:0:0:0:
64,192,50096,128,2,50262:0:0:0:0:
448,192,50096,1,0,0:0:0:0:
192,192,50262,128,0,50429:0:0:0:0:
320,192,50429,128,2,50596:0:0:0:0:
64,192,50429,1,0,0:0:0:0:
448,192,50596,128,0,50762:0:0:0:0:
320,192,50762,1,2,0:0:0:0:
64,192,50762,128,0,50929:0:0:0:0:
192,192,50929,1,0,0:0:0:0:
320,192,51096,1,10,0:0:0:0:
448,192,51096,1,0,0:0:0:0:
64,192,51262,1,10,0:0:0:0:
192,192,51262,1,0,0:0:0:0:
448,192,51429,1,0,0:0:0:0:
320,192,51512,1,0,0:0:0:0:
192,192,51596,1,0,0:0:0:0:
64,192,51679,1,0,0:0:0:0:
320,192,51762,1,0,0:0:0:0:
192,192,51846,1,0,0:0:0:0:
64,192,51929,1,2,0:0:0:0:
448,192,51929,1,0,0:0:0:0:
192,192,52262,128,0,52429:0:0:0:0:
64,192,52429,1,6,0:0:0:0:
448,192,52429,1,0,0:0:0:0:
320,192,52596,1,0,0:0:0:0:
64,192,52762,1,2,0:0:0:0:
192,192,52762,1,0,0:0:0:0:
320,192,52929,1,0,0:0:0:0:
64,192,53096,1,2,0:0:0:0:
448,192,53096,1,0,0:0:0:0:
192,192,53262,1,0,0:0:0:0:
320,192,53429,1,2,0:0:0:0:
448,192,53429,1,0,0:0:0:0:
192,192,53596,128,0,53929:0:0:0:0:
64,192,53762,1,2,0:0:0:0:
448,192,53762,1,0,0:0:0:0:
320,192,53929,1,0,0:0:0:0:
64,192,54096,1,2,0:0:0:0:
192,192,54096,1,0,0:0:0:0:
320,192,54262,1,0,0:0:0:0:
64,192,54429,128,2,54596:0:0:0:0:
448,192,54429,1,0,0:0:0:0:
320,192,54596,1,0,0:0:0:0:
448,192,54762,128,2,54929:0:0:0:0:
64,192,54762,1,0,0:0:0:0:
320,192,54929,128,0,55096:0:0:0:0:
64,192,55096,1,2,0:0:0:0:
192,192,55096,1,0,0:0:0:0:
320,192,55262,1,0,0:0:0:0:
448,192,55429,1,2,0:0:0:0:
64,192,55429,1,0,0:0:0:0:
192,192,55596,1,0,0:0:0:0:
320,192,55762,1,2,0:0:0:0:
448,192,55762,1,0,0:0:0:0:
192,192,55929,1,0,0:0:0:0:
64,192,56096,1,2,0:0:0:0:
448,192,56096,1,0,0:0:0:0:
320,192,56262,1,0,0:0:0:0:
448,192,56429,128,2,56596:0:0:0:0:
64,192,56429,1,0,0:0:0:0:
320,192,56596,128,0,56762:0:0:0:0:
192,192,56762,128,2,56929:0:0:0:0:
448,192,56762,1,0,0:0:0:0:
64,192,56929,128,0,57096:0:0:0:0:
448,192,57096,128,2,57262:0:0:0:0:
192,192,57096,1,0,0:0:0:0:
320,192,57262,128,0,57429:0:0:0:0:
192,192,57429,128,2,57596:0:0:0:0:
448,192,57429,1,0,0:0:0:0:
64,192,57596,128,0,57762:0:0:0:0:
192,192,57762,1,2,0:0:0:0:
448,192,57762,1,0,0:0:0:0:
192,192,57929,1,0,0:0:0:0:
64,192,58096,1,2,0:0:0:0:
448,192,58096,1,0,0:0:0:0:
448,192,58262,1,0,0:0:0:0:
64,192,58429,1,2,0:0:0:0:
192,192,58429,1,0,0:0:0:0:
64,192,58596,1,0,0:0:0:0:
448,192,58762,1,2,0:0:0:0:
320,192,58762,1,0,0:0:0:0:
448,192,58929,1,0,0:0:0:0:
64,192,59096,1,6,0:0:0:0:
320,192,59096,1,0,0:0:0:0:
64,192,59262,1,0,0:0:0:0:
192,192,59429,1,2,0:0:0:0:
320,192,59429,1,0,0:0:0:0:
320,192,59596,1,0,0:0:0:0:
192,192,59762,1,2,0:0:0:0:
448,192,59762,1,0,0:0:0:0:
192,192,59929,1,0,0:0:0:0:
64,192,60096,1,2,0:0:0:0:
448,192,60096,1,0,0:0:0:0:
448,192,60262,1,0,0:0:0:0:
192,192,60429,1,2,0:0:0:0:
320,192,60429,1,0,0:0:0:0:
64,192,60596,1,0,0:0:0:0:
192,192,60762,1,2,0:0:0:0:
448,192,60762,1,0,0:0:0:0:
320,192,60929,1,0,0:0:0:0:
64,192,61096,1,2,0:0:0:0:
448,192,61096,1,0,0:0:0:0:
192,192,61262,1,0,0:0:0:0:
320,192,61429,1,2,0:0:0:0:
448,192,61429,1,0,0:0:0:0:
64,192,61596,1,0,0:0:0:0:
448,192,61762,1,0,0:0:0:0:
192,192,61762,1,2,0:0:0:0:
320,192,61929,1,2,0:0:0:0:
448,192,61929,1,0,0:0:0:0:
64,192,62096,1,2,0:0:0:0:
192,192,62096,1,0,0:0:0:0:
64,192,62262,1,2,0:0:0:0:
320,192,62262,1,0,0:0:0:0:
320,192,62429,1,2,0:0:0:0:
448,192,62429,1,0,0:0:0:0:
192,192,62512,1,2,0:0:0:0:
64,192,62512,1,0,0:0:0:0:
448,192,62596,1,2,0:0:0:0:
320,192,62679,1,2,0:0:0:0:
192,192,62762,1,2,0:0:0:0:
64,192,62846,1,0,0:0:0:0:
320,192,62846,1,2,0:0:0:0:
192,192,62929,1,2,0:0:0:0:
448,192,62929,128,0,63096:0:0:0:0:
64,192,63096,1,10,0:0:0:0:
320,192,63096,1,0,0:0:0:0:
448,192,63429,1,0,0:0:0:0:
320,192,63512,1,0,0:0:0:0:
192,192,63596,1,0,0:0:0:0:
64,192,63679,1,0,0:0:0:0:
448,192,63762,1,0,0:0:0:0:
320,192,63874,1,0,0:0:0:0:
192,192,63985,1,0,0:0:0:0:
64,192,64096,1,0,0:0:0:0:
448,192,64207,1,0,0:0:0:0:
320,192,64318,1,0,0:0:0:0:
64,192,64429,128,0,65096:0:0:0:0:
448,192,64762,128,0,64929:0:0:0:0:
320,192,64929,128,0,65096:0:0:0:0:
64,192,65179,1,2,0:0:0:0:
192,192,65179,1,0,0:0:0:0:
320,192,65346,1,2,0:0:0:0:
448,192,65346,1,0,0:0:0:0:
320,192,65596,1,10,0:0:0:0:
448,192,65596,1,0,0:0:0:0:
64,192,65762,1,6,0:0:0:0:
192,192,65762,1,0,0:0:0:0:
64,192,66096,1,0,0:0:0:0:
192,192,66179,1,0,0:0:0:0:
320,192,66262,1,0,0:0:0:0:
448,192,66346,1,0,0:0:0:0:
64,192,66429,1,6,0:0:0:0:
320,192,66429,1,0,0:0:0:0:
64,192,66846,128,0,66929:0:0:0:0:
192,192,66846,128,0,66929:0:0:0:0:
320,192,66929,1,2,0:0:0:0:
448,192,66929,1,0,0:0:0:0:
64,192,67012,1,2,0:0:0:0:
192,192,67012,1,0,0:0:0:0:
320,192,67096,1,6,0:0:0:0:
448,192,67096,1,0,0:0:0:0:
64,192,67318,1,6,0:0:0:0:
192,192,67318,1,0,0:0:0:0:
320,192,67540,1,6,0:0:0:0:
448,192,67540,1,0,0:0:0:0:
64,192,67762,1,6,0:0:0:0:
448,192,67762,1,0,0:0:0:0:
192,192,67985,1,6,0:0:0:0:
320,192,67985,1,0,0:0:0:0:
64,192,68207,1,6,0:0:0:0:
448,192,68207,1,0,0:0:0:0:
64,192,68429,1,14,0:0:0:0:
320,192,68429,1,0,0:0:0:0:
448,192,68429,1,0,0:0:0:0:
64,192,69762,128,0,69929:0:0:0:0:
320,192,69929,128,0,70096:0:0:0:0:
192,192,70096,128,0,70262:0:0:0:0:
448,192,70262,128,0,70429:0:0:0:0:
320,192,70429,128,0,70762:0:0:0:0:
64,192,70762,128,0,71096:0:0:0:0:
192,192,71096,1,6,0:0:0:0:
448,192,71096,1,0,0:0:0:0:
64,192,71762,1,6,0:0:0:0:
448,192,71762,1,0,0:0:0:0:
320,192,72096,1,0,0:0:0:0:
64,192,72429,1,6,0:0:0:0:
192,192,72429,1,0,0:0:0:0:
448,192,72596,1,0,0:0:0:0:
192,192,72679,1,6,0:0:0:0:
320,192,72679,1,0,0:0:0:0:
64,192,72846,1,0,0:0:0:0:
192,192,72929,1,6,0:0:0:0:
320,192,72929,1,0,0:0:0:0:
64,192,73096,1,0,0:0:0:0:
192,192,73151,1,0,0:0:0:0:
320,192,73207,1,0,0:0:0:0:
448,192,73262,1,0,0:0:0:0:
64,192,73346,1,0,0:0:0:0:
192,192,73429,1,0,0:0:0:0:
320,192,73512,1,0,0:0:0:0:
448,192,73596,1,0,0:0:0:0:
64,192,73679,1,0,0:0:0:0:
192,192,73762,128,0,74096:0:0:0:0:
320,192,74012,1,0,0:0:0:0:
448,192,74096,1,6,0:0:0:0:
64,192,74096,1,0,0:0:0:0:
320,192,74429,128,0,74762:0:0:0:0:
192,192,74679,1,0,0:0:0:0:
64,192,74762,1,6,0:0:0:0:
448,192,74762,1,0,0:0:0:0:
320,192,75096,1,6,0:0:0:0:
448,192,75096,1,0,0:0:0:0:
64,192,75262,1,0,0:0:0:0:
192,192,75346,1,6,0:0:0:0:
448,192,75346,1,0,0:0:0:0:
448,192,75512,1,0,0:0:0:0:
64,192,75596,1,6,0:0:0:0:
320,192,75596,1,0,0:0:0:0:
64,192,75762,1,0,0:0:0:0:
192,192,75846,1,0,0:0:0:0:
320,192,75929,1,0,0:0:0:0:
448,192,76012,1,0,0:0:0:0:
320,192,76096,1,8,0:0:0:0:
192,192,76179,1,0,0:0:0:0:
64,192,76262,1,0,0:0:0:0:
448,192,76346,1,0,0:0:0:0:
192,192,76429,1,14,0:0:0:0:
320,192,76429,1,0,0:0:0:0:
64,192,76596,1,0,0:0:0:0:
192,192,76762,1,2,0:0:0:0:
448,192,76762,1,0,0:0:0:0:
320,192,76929,1,0,0:0:0:0:
64,192,77096,1,2,0:0:0:0:
448,192,77096,1,0,0:0:0:0:
192,192,77262,1,0,0:0:0:0:
320,192,77429,1,2,0:0:0:0:
448,192,77429,1,0,0:0:0:0:
192,192,77596,1,0,0:0:0:0:
64,192,77762,1,2,0:0:0:0:
448,192,77762,1,0,0:0:0:0:
320,192,77929,1,0,0:0:0:0:
64,192,78096,1,2,0:0:0:0:
192,192,78096,1,0,0:0:0:0:
320,192,78262,1,0,0:0:0:0:
448,192,78429,1,2,0:0:0:0:
64,192,78429,1,0,0:0:0:0:
192,192,78596,1,0,0:0:0:0:
320,192,78762,1,2,0:0:0:0:
448,192,78762,1,0,0:0:0:0:
192,192,78929,1,0,0:0:0:0:
64,192,79096,128,2,79429:0:0:0:0:
448,192,79096,1,0,0:0:0:0:
320,192,79262,1,0,0:0:0:0:
448,192,79429,128,2,79762:0:0:0:0:
192,192,79429,1,0,0:0:0:0:
64,192,79596,1,0,0:0:0:0:
192,192,79762,1,2,0:0:0:0:
320,192,79762,1,0,0:0:0:0:
448,192,79846,1,0,0:0:0:0:
320,192,79929,1,0,0:0:0:0:
192,192,80012,1,0,0:0:0:0:
64,192,80096,1,2,0:0:0:0:
448,192,80096,1,0,0:0:0:0:
192,192,80179,1,0,0:0:0:0:
320,192,80262,1,0,0:0:0:0:
448,192,80346,1,0,0:0:0:0:
64,192,80429,1,10,0:0:0:0:
320,192,80429,1,0,0:0:0:0:
192,192,80596,1,10,0:0:0:0:
448,192,80596,1,0,0:0:0:0:
320,192,80762,1,0,0:0:0:0:
64,192,80846,1,6,0:0:0:0:
192,192,80846,1,0,0:0:0:0:
448,192,81012,1,0,0:0:0:0:
192,192,81096,1,6,0:0:0:0:
320,192,81096,1,0,0:0:0:0:
64,192,81262,1,0,0:0:0:0:
448,192,81429,1,0,0:0:0:0:
320,192,81471,1,0,0:0:0:0:
192,192,81512,1,0,0:0:0:0:
64,192,81596,1,0,0:0:0:0:
448,192,81679,1,0,0:0:0:0:
320,192,81762,128,0,81929:0:0:0:0:
64,192,81929,1,6,0:0:0:0:
192,192,81929,1,0,0:0:0:0:
320,192,82596,1,6,0:0:0:0:
448,192,82596,1,0,0:0:0:0:
192,192,82762,128,0,83096:0:0:0:0:
320,192,83012,1,0,0:0:0:0:
64,192,83096,1,6,0:0:0:0:
448,192,83096,1,0,0:0:0:0:
320,192,83262,1,0,0:0:0:0:
64,192,83346,1,6,0:0:0:0:
192,192,83346,1,0,0:0:0:0:
192,192,83512,1,0,0:0:0:0:
320,192,83596,1,6,0:0:0:0:
448,192,83596,1,0,0:0:0:0:
64,192,83762,1,0,0:0:0:0:
192,192,83846,1,0,0:0:0:0:
320,192,83929,1,2,0:0:0:0:
448,192,83929,1,0,0:0:0:0:
448,192,84096,1,2,0:0:0:0:
320,192,84137,1,0,0:0:0:0:
192,192,84179,1,0,0:0:0:0:
64,192,84221,1,0,0:0:0:0:
448,192,84262,1,2,0:0:0:0:
320,192,84346,1,2,0:0:0:0:
64,192,84429,1,10,0:0:0:0:
192,192,84429,1,0,0:0:0:0:
320,192,84596,1,0,0:0:0:0:
192,192,84762,1,2,0:0:0:0:
64,192,84762,1,0,0:0:0:0:
320,192,84929,1,0,0:0:0:0:
64,192,85096,1,2,0:0:0:0:
448,192,85096,1,0,0:0:0:0:
320,192,85262,1,0,0:0:0:0:
64,192,85429,1,2,0:0:0:0:
192,192,85429,1,0,0:0:0:0:
320,192,85596,1,0,0:0:0:0:
320,192,85762,1,2,0:0:0:0:
192,192,85762,1,0,0:0:0:0:
448,192,85929,1,0,0:0:0:0:
64,192,86012,1,0,0:0:0:0:
192,192,86012,1,0,0:0:0:0:
64,192,86179,1,0,0:0:0:0:
320,192,86262,1,0,0:0:0:0:
448,192,86262,1,0,0:0:0:0:
64,192,86429,1,2,0:0:0:0:
448,192,86429,1,0,0:0:0:0:
192,192,86512,1,0,0:0:0:0:
320,192,86596,1,0,0:0:0:0:
448,192,86679,1,0,0:0:0:0:
64,192,86762,1,2,0:0:0:0:
320,192,86762,1,0,0:0:0:0:
192,192,86846,1,0,0:0:0:0:
320,192,86929,1,0,0:0:0:0:
448,192,87012,1,0,0:0:0:0:
320,192,87096,1,6,0:0:0:0:
64,192,87096,1,0,0:0:0:0:
192,192,87262,1,0,0:0:0:0:
448,192,87429,1,2,0:0:0:0:
320,192,87429,1,0,0:0:0:0:
192,192,87596,1,0,0:0:0:0:
64,192,87762,1,6,0:0:0:0:
448,192,87762,1,0,0:0:0:0:
320,192,87929,1,0,0:0:0:0:
64,192,88096,1,2,0:0:0:0:
192,192,88096,1,0,0:0:0:0:
448,192,88262,1,0,0:0:0:0:
320,192,88429,1,2,0:0:0:0:
192,192,88429,1,0,0:0:0:0:
64,192,88596,1,0,0:0:0:0:
448,192,88679,1,0,0:0:0:0:
64,192,88762,1,2,0:0:0:0:
192,192,88762,1,0,0:0:0:0:
448,192,88846,1,0,0:0:0:0:
64,192,88929,1,0,0:0:0:0:
192,192,89096,1,2,0:0:0:0:
320,192,89096,1,0,0:0:0:0:
448,192,89262,1,0,0:0:0:0:
64,192,89429,1,2,0:0:0:0:
320,192,89429,1,0,0:0:0:0:
192,192,89596,1,0,0:0:0:0:
448,192,89762,1,6,0:0:0:0:
320,192,89762,1,0,0:0:0:0:
64,192,89929,128,0,90096:0:0:0:0:
192,192,90096,128,2,90262:0:0:0:0:
448,192,90096,1,0,0:0:0:0:
320,192,90262,128,0,90429:0:0:0:0:
64,192,90429,1,2,0:0:0:0:
192,192,90429,1,0,0:0:0:0:
320,192,90596,1,0,0:0:0:0:
448,192,90762,1,2,0:0:0:0:
64,192,90762,1,0,0:0:0:0:
192,192,90929,1,0,0:0:0:0:
64,192,91096,1,2,0:0:0:0:
320,192,91096,1,0,0:0:0:0:
448,192,91262,128,2,91429:0:0:0:0:
192,192,91262,1,0,0:0:0:0:
320,192,91429,128,2,91596:0:0:0:0:
64,192,91429,1,0,0:0:0:0:
192,192,91596,128,2,91762:0:0:0:0:
448,192,91596,1,0,0:0:0:0:
320,192,91762,1,2,0:0:0:0:
448,192,91762,1,0,0:0:0:0:
192,192,91846,1,2,0:0:0:0:
448,192,91929,1,2,0:0:0:0:
64,192,91929,1,0,0:0:0:0:
320,192,92012,1,2,0:0:0:0:
64,192,92096,1,2,0:0:0:0:
192,192,92096,1,0,0:0:0:0:
320,192,92179,1,0,0:0:0:0:
64,192,92262,1,2,0:0:0:0:
448,192,92262,1,0,0:0:0:0:
192,192,92346,1,0,0:0:0:0:
320,192,92429,1,14,0:0:0:0:
448,192,92429,1,0,0:0:0:0:
64,192,92596,1,0,0:0:0:0:
448,192,92762,1,8,0:0:0:0:
192,192,92762,1,0,0:0:0:0:
64,192,92929,1,2,0:0:0:0:
320,192,92929,1,0,0:0:0:0:
192,192,93096,1,0,0:0:0:0:
320,192,93262,1,2,0:0:0:0:
448,192,93262,1,0,0:0:0:0:
64,192,93429,1,8,0:0:0:0:
192,192,93429,1,0,0:0:0:0:
320,192,93596,1,0,0:0:0:0:
64,192,93762,1,2,0:0:0:0:
448,192,93762,1,0,0:0:0:0:
192,192,93929,1,0,0:0:0:0:
320,192,94096,1,8,0:0:0:0:
448,192,94096,1,0,0:0:0:0:
64,192,94262,128,2,94596:0:0:0:0:
192,192,94262,1,0,0:0:0:0:
320,192,94596,1,2,0:0:0:0:
448,192,94596,1,0,0:0:0:0:
64,192,94762,1,2,0:0:0:0:
448,192,94762,1,0,0:0:0:0:
192,192,94846,1,2,0:0:0:0:
320,192,94929,1,2,0:0:0:0:
448,192,95012,1,2,0:0:0:0:
320,192,95096,1,6,0:0:0:0:
192,192,95096,1,0,0:0:0:0:
64,192,95262,128,0,95429:0:0:0:0:
192,192,95429,128,0,95596:0:0:0:0:
320,192,95596,128,0,95762:0:0:0:0:
320,192,95929,1,6,0:0:0:0:
448,192,95929,1,0,0:0:0:0:
192,192,96096,1,6,0:0:0:0:
320,192,96096,1,0,0:0:0:0:
64,192,96262,1,6,0:0:0:0:
192,192,96262,1,0,0:0:0:0:
448,192,96596,128,0,96762:0:0:0:0:
320,192,96762,128,0,96929:0:0:0:0:
192,192,96929,128,0,97096:0:0:0:0:
64,192,97096,128,0,97762:0:0:0:0:
448,192,97096,128,0,97762:0:0:0:0:
192,192,97762,1,14,0:0:0:0:
320,192,97762,1,0,0:0:0:0:
448,192,97929,1,0,0:0:0:0:
64,192,98096,1,2,0:0:0:0:
320,192,98096,1,0,0:0:0:0:
192,192,98262,1,0,0:0:0:0:
64,192,98429,1,2,0:0:0:0:
448,192,98429,1,0,0:0:0:0:
320,192,98596,1,0,0:0:0:0:
192,192,98762,1,2,0:0:0:0:
64,192,98762,1,0,0:0:0:0:
448,192,98929,1,0,0:0:0:0:
64,192,99012,128,0,99096:0:0:0:0:
192,192,99096,1,2,0:0:0:0:
320,192,99096,1,0,0:0:0:0:
448,192,99179,128,0,99346:0:0:0:0:
64,192,99262,1,0,0:0:0:0:
192,192,99429,1,2,0:0:0:0:
448,192,99429,1,0,0:0:0:0:
320,192,99596,1,0,0:0:0:0:
64,192,99762,1,2,0:0:0:0:
448,192,99762,128,0,99929:0:0:0:0:
192,192,99929,1,0,0:0:0:0:
320,192,100012,128,0,100179:0:0:0:0:
64,192,100096,1,2,0:0:0:0:
192,192,100096,1,0,0:0:0:0:
192,192,100262,128,0,100429:0:0:0:0:
64,192,100429,1,2,0:0:0:0:
448,192,100429,1,0,0:0:0:0:
320,192,100596,1,0,0:0:0:0:
192,192,100762,1,2,0:0:0:0:
448,192,100762,1,0,0:0:0:0:
64,192,100929,1,0,0:0:0:0:
192,192,101096,1,2,0:0:0:0:
448,192,101096,1,0,0:0:0:0:
320,192,101262,1,0,0:0:0:0:
192,192,101429,1,2,0:0:0:0:
448,192,101429,1,0,0:0:0:0:
64,192,101596,1,0,0:0:0:0:
448,192,101762,128,2,102096:0:0:0:0:
192,192,101762,1,0,0:0:0:0:
192,192,101929,1,0,0:0:0:0:
320,192,102096,128,2,102429:0:0:0:0:
64,192,102096,1,0,0:0:0:0:
64,192,102262,1,0,0:0:0:0:
192,192,102429,128,2,102762:0:0:0:0:
448,192,102429,1,0,0:0:0:0:
448,192,102596,1,0,0:0:0:0:
64,192,102762,128,2,103096:0:0:0:0:
320,192,102762,1,0,0:0:0:0:
320,192,102929,1,0,0:0:0:0:
192,192,103096,1,10,0:0:0:0:
448,192,103096,1,0,0:0:0:0:
320,192,103262,1,0,0:0:0:0:
64,192,103429,1,2,0:0:0:0:
448,192,103429,1,0,0:0:0:0:
192,192,103596,1,0,0:0:0:0:
320,192,103762,1,2,0:0:0:0:
448,192,103762,1,0,0:0:0:0:
192,192,103929,1,0,0:0:0:0:
64,192,104096,1,2,0:0:0:0:
320,192,104096,1,0,0:0:0:0:
448,192,104262,1,0,0:0:0:0:
64,192,104346,128,2,104429:0:0:0:0:
192,192,104429,1,0,0:0:0:0:
320,192,104429,1,0,0:0:0:0:
448,192,104512,128,2,104679:0:0:0:0:
64,192,104596,1,0,0:0:0:0:
192,192,104762,1,2,0:0:0:0:
448,192,104762,1,0,0:0:0:0:
320,192,104929,1,0,0:0:0:0:
64,192,105096,128,2,105262:0:0:0:0:
192,192,105096,1,0,0:0:0:0:
448,192,105262,1,0,0:0:0:0:
192,192,105346,128,2,105512:0:0:0:0:
320,192,105346,1,0,0:0:0:0:
64,192,105429,1,0,0:0:0:0:
320,192,105596,128,2,105762:0:0:0:0:
448,192,105596,1,0,0:0:0:0:
64,192,105762,1,0,0:0:0:0:
448,192,105929,128,2,106096:0:0:0:0:
192,192,105929,1,0,0:0:0:0:
64,192,106096,1,10,0:0:0:0:
320,192,106096,1,0,0:0:0:0:
192,192,106262,1,0,0:0:0:0:
320,192,106429,1,2,0:0:0:0:
448,192,106429,1,0,0:0:0:0:
192,192,106596,1,0,0:0:0:0:
64,192,106762,1,2,0:0:0:0:
448,192,106762,1,0,0:0:0:0:
320,192,106929,1,0,0:0:0:0:
448,192,107096,1,2,0:0:0:0:
192,192,107096,1,0,0:0:0:0:
320,192,107262,1,2,0:0:0:0:
448,192,107262,1,0,0:0:0:0:
64,192,107429,1,2,0:0:0:0:
320,192,107429,1,0,0:0:0:0:
64,192,107596,1,2,0:0:0:0:
192,192,107596,1,0,0:0:0:0:
448,192,107762,1,2,0:0:0:0:
64,192,107762,1,0,0:0:0:0:
320,192,107846,1,2,0:0:0:0:
448,192,107929,1,2,0:0:0:0:
192,192,107929,1,0,0:0:0:0:
64,192,108012,1,0,0:0:0:0:
192,192,108096,1,2,0:0:0:0:
448,192,108096,1,0,0:0:0:0:
320,192,108179,1,2,0:0:0:0:
64,192,108262,1,2,0:0:0:0:
192,192,108262,1,0,0:0:0:0:
320,192,108346,1,0,0:0:0:0:
448,192,108429,1,2,0:0:0:0:
64,192,108429,1,0,0:0:0:0:
192,192,108512,1,2,0:0:0:0:
320,192,108596,1,2,0:0:0:0:
192,192,108679,1,2,0:0:0:0:
448,192,108762,1,2,0:0:0:0:
64,192,108762,1,0,0:0:0:0:
448,192,108929,1,2,0:0:0:0:
64,192,108929,1,0,0:0:0:0:
320,192,109012,1,2,0:0:0:0:
192,192,109096,1,2,0:0:0:0:
320,192,109179,1,2,0:0:0:0:
448,192,109262,1,2,0:0:0:0:
64,192,109262,1,0,0:0:0:0:
320,192,109429,1,2,0:0:0:0:
192,192,109429,1,0,0:0:0:0:
448,192,109596,1,2,0:0:0:0:
64,192,109596,1,0,0:0:0:0:
320,192,109762,1,2,0:0:0:0:
192,192,109762,1,0,0:0:0:0:
448,192,109846,1,2,0:0:0:0:
320,192,109929,1,2,0:0:0:0:
192,192,110012,1,2,0:0:0:0:
64,192,110096,1,2,0:0:0:0:
448,192,110096,1,0,0:0:0:0:
320,192,110262,1,2,0:0:0:0:
64,192,110262,1,0,0:0:0:0:
192,192,110346,1,2,0:0:0:0:
448,192,110429,1,2,0:0:0:0:
320,192,110429,1,0,0:0:0:0:
448,192,110596,1,2,0:0:0:0:
64,192,110596,1,0,0:0:0:0:
320,192,110762,128,2,111096:0:0:0:0:
448,192,111096,1,2,0:0:0:0:
64,192,111096,1,0,0:0:0:0:
192,192,111179,1,2,0:0:0:0:
320,192,111262,1,2,0:0:0:0:
192,192,111346,1,2,0:0:0:0:
320,192,111429,1,2,0:0:0:0:
448,192,111429,1,0,0:0:0:0:
448,192,111596,1,2,0:0:0:0:
64,192,111596,1,0,0:0:0:0:
320,192,111679,1,2,0:0:0:0:
192,192,111762,1,2,0:0:0:0:
320,192,111846,1,2,0:0:0:0:
192,192,111929,1,2,0:0:0:0:
64,192,111929,1,0,0:0:0:0:
448,192,112096,1,2,0:0:0:0:
320,192,112096,1,0,0:0:0:0:
192,192,112262,128,2,112429:0:0:0:0:
448,192,112429,1,6,0:0:0:0:
64,192,112429,1,0,0:0:0:0:
320,192,112596,1,0,0:0:0:0:
192,192,112679,1,6,0:0:0:0:
64,192,112679,1,0,0:0:0:0:
192,192,112846,1,0,0:0:0:0:
448,192,112929,1,6,0:0:0:0:
320,192,112929,1,0,0:0:0:0:
192,192,113096,1,6,0:0:0:0:
320,192,113096,1,0,0:0:0:0:
64,192,113262,1,0,0:0:0:0:
192,192,113346,1,6,0:0:0:0:
320,192,113346,1,0,0:0:0:0:
448,192,113512,1,0,0:0:0:0:
320,192,113596,1,6,0:0:0:0:
192,192,113596,1,0,0:0:0:0:
64,192,113762,1,6,0:0:0:0:
448,192,113762,1,0,0:0:0:0:
320,192,113929,1,0,0:0:0:0:
64,192,114012,1,6,0:0:0:0:
448,192,114012,1,0,0:0:0:0:
192,192,114179,1,0,0:0:0:0:
64,192,114262,1,6,0:0:0:0:
448,192,114262,1,0,0:0:0:0:
