osu file format v14

[General]
AudioFilename: audio.mp3
AudioLeadIn: 0
PreviewTime: 70679
Countdown: 0
SampleSet: None
StackLeniency: 0.7
Mode: 1
LetterboxInBreaks: 0
WidescreenStoryboard: 0

[Editor]
Bookmarks: 1762,2429,3096,3346,3596,4762,5429,5762,6012,6262,7096,12429,13762,15096,19096,19346,19596,20429,27012,27179,27346,27429,31096,41762,51096,52429,63096,69762,71096,71762,72429,72679,72929,74096,74762,75096,75346,75596,76429,80429,84429,92429,97762,108429,112429,113096,113762,114262
DistanceSpacing: 0.8
BeatDivisor: 4
GridSize: 4
TimelineZoom: 1

[Metadata]
Title:Ju-Ju- Yakiniku no Hi kara Phenix!?~Saitan no Sumibi Yaki~
TitleUnicode:じゅーじゅー♥焼肉の火からフェニックス!?~再誕の†炭火焼き~
Artist:Camellia feat. Nanahira
ArtistUnicode:かめりあ feat. ななひら
Creator:404 AccNotFound
Version:
Source:SOUND VOLTEX III GRAVITY WARS
Tags:sdvx
BeatmapID:1600097
BeatmapSetID:760900

[Difficulty]
HPDrainRate:5
CircleSize:5
OverallDifficulty:5
ApproachRate:5
SliderMultiplier:1.4
SliderTickRate:1

[Events]
//Background and Video events
0,0,"BG.png",0,0
//Break Periods
//Storyboard Layer 0 (Background)
//Storyboard Layer 1 (Fail)
//Storyboard Layer 2 (Pass)
//Storyboard Layer 3 (Foreground)
//Storyboard Sound Samples

[TimingPoints]
1763,333.333333333333,4,1,0,100,1,0
76429,-100,4,1,0,100,0,1
95096,-100,4,1,0,100,0,0

[HitObjects]
296,172,1762,5,12,0:0:0:0:
296,212,2429,1,12,0:0:0:0:
276,220,3096,1,8,0:0:0:0:
276,220,3262,1,0,0:0:0:0:
276,220,3346,1,8,0:0:0:0:
276,220,3512,1,0,0:0:0:0:
276,220,3596,1,0,0:0:0:0:
208,136,3762,1,0,0:0:0:0:
324,180,3818,1,0,0:0:0:0:
324,180,3874,1,0,0:0:0:0:
324,180,3929,1,8,0:0:0:0:
308,172,4012,1,0,0:0:0:0:
308,172,4096,1,8,0:0:0:0:
244,160,4179,1,8,0:0:0:0:
112,176,4262,1,0,0:0:0:0:
244,160,4429,1,0,0:0:0:0:
84,144,4762,1,12,0:0:0:0:
84,144,5429,1,12,0:0:0:0:
160,160,5762,1,0,0:0:0:0:
160,160,5929,1,8,0:0:0:0:
160,160,6012,1,0,0:0:0:0:
160,160,6179,1,0,0:0:0:0:
160,160,6262,1,8,0:0:0:0:
160,160,6429,1,0,0:0:0:0:
160,160,6512,1,0,0:0:0:0:
160,160,6596,1,8,0:0:0:0:
160,160,6679,1,0,0:0:0:0:
160,160,6762,1,8,0:0:0:0:
160,160,6846,1,8,0:0:0:0:
160,160,6929,1,0,0:0:0:0:
160,160,7096,1,12,0:0:0:0:
216,196,7262,1,0,0:0:0:0:
216,196,7429,1,8,0:0:0:0:
216,196,7596,1,0,0:0:0:0:
216,200,7679,1,0,0:0:0:0:
216,200,7762,1,8,0:0:0:0:
216,196,7929,1,8,0:0:0:0:
216,196,8012,1,0,0:0:0:0:
216,196,8179,1,0,0:0:0:0:
216,196,8262,1,8,0:0:0:0:
216,196,8429,1,0,0:0:0:0:
216,196,8596,1,8,0:0:0:0:
216,192,8679,1,8,0:0:0:0:
140,144,8762,1,0,0:0:0:0:
216,196,8846,1,0,0:0:0:0:
216,196,8929,1,8,0:0:0:0:
216,196,9096,1,0,0:0:0:0:
248,164,9262,1,8,0:0:0:0:
248,164,9346,1,0,0:0:0:0:
248,164,9429,1,8,0:0:0:0:
248,164,9596,1,8,0:0:0:0:
248,164,9762,1,0,0:0:0:0:
212,208,9929,1,0,0:0:0:0:
188,260,10096,1,8,0:0:0:0:
368,156,10262,1,0,0:0:0:0:
184,144,10346,1,8,0:0:0:0:
184,144,10429,1,0,0:0:0:0:
336,188,10596,1,0,0:0:0:0:
336,188,10762,1,8,0:0:0:0:
336,188,10929,1,8,0:0:0:0:
184,144,11096,1,0,0:0:0:0:
336,188,11262,1,0,0:0:0:0:
336,188,11429,1,8,0:0:0:0:
336,188,11596,1,0,0:0:0:0:
336,192,11679,1,8,0:0:0:0:
336,188,11762,1,0,0:0:0:0:
336,188,11929,1,0,0:0:0:0:
156,184,12012,1,0,0:0:0:0:
336,188,12096,1,8,0:0:0:0:
88,128,12262,1,8,0:0:0:0:
88,128,12429,1,4,0:0:0:0:
160,188,13762,1,0,0:0:0:0:
160,188,13846,1,0,0:0:0:0:
160,188,14012,1,8,0:0:0:0:
160,188,14096,1,8,0:0:0:0:
160,188,14262,1,8,0:0:0:0:
160,188,14346,1,8,0:0:0:0:
160,188,14512,1,0,0:0:0:0:
160,188,14596,1,0,0:0:0:0:
160,188,14762,1,8,0:0:0:0:
192,168,15096,1,0,0:0:0:0:
148,188,15179,1,0,0:0:0:0:
148,188,15262,1,0,0:0:0:0:
148,188,15346,1,0,0:0:0:0:
144,188,15429,1,0,0:0:0:0:
164,160,15596,1,8,0:0:0:0:
164,160,15679,1,8,0:0:0:0:
164,160,15762,1,8,0:0:0:0:
164,160,15846,1,8,0:0:0:0:
164,160,15929,1,8,0:0:0:0:
164,160,16096,1,0,0:0:0:0:
164,160,16262,1,8,0:0:0:0:
164,160,16429,1,0,0:0:0:0:
164,160,16512,1,0,0:0:0:0:
164,160,16596,1,8,0:0:0:0:
164,160,16679,1,8,0:0:0:0:
164,160,16762,1,0,0:0:0:0:
164,160,16929,1,8,0:0:0:0:
164,160,17012,1,8,0:0:0:0:
164,160,17096,1,0,0:0:0:0:
164,160,17262,1,8,0:0:0:0:
164,160,17429,1,0,0:0:0:0:
264,128,17485,1,0,0:0:0:0:
264,128,17540,1,0,0:0:0:0:
264,128,17596,1,8,0:0:0:0:
404,96,17679,1,8,0:0:0:0:
164,160,17762,1,0,0:0:0:0:
216,108,17929,1,8,0:0:0:0:
216,108,18012,1,8,0:0:0:0:
216,108,18096,1,8,0:0:0:0:
204,136,18262,1,0,0:0:0:0:
204,136,18429,1,8,0:0:0:0:
204,136,18512,1,8,0:0:0:0:
204,136,18596,1,8,0:0:0:0:
204,136,18762,1,0,0:0:0:0:
204,136,18929,1,8,0:0:0:0:
300,152,18985,1,0,0:0:0:0:
300,152,19040,1,0,0:0:0:0:
204,136,19096,1,8,0:0:0:0:
204,136,19262,5,0,0:0:0:0:
204,136,19346,1,8,0:0:0:0:
204,136,19512,1,8,0:0:0:0:
204,136,19596,1,0,0:0:0:0:
300,192,19762,1,0,0:0:0:0:
300,192,19818,1,0,0:0:0:0:
300,192,19874,1,0,0:0:0:0:
300,192,19929,1,8,0:0:0:0:
300,192,20012,1,0,0:0:0:0:
300,192,20096,1,8,0:0:0:0:
300,192,20151,1,0,0:0:0:0:
300,192,20207,1,0,0:0:0:0:
300,192,20262,1,8,0:0:0:0:
196,120,20346,1,8,0:0:0:0:
372,300,20429,5,4,0:0:0:0:
372,300,20596,1,8,0:0:0:0:
372,300,20762,1,0,0:0:0:0:
372,300,20929,1,0,0:0:0:0:
372,300,21012,1,8,0:0:0:0:
372,300,21096,1,0,0:0:0:0:
372,300,21179,1,0,0:0:0:0:
372,300,21262,1,8,0:0:0:0:
372,300,21429,1,0,0:0:0:0:
372,300,21596,1,8,0:0:0:0:
372,300,21679,1,0,0:0:0:0:
96,176,21762,1,8,0:0:0:0:
372,300,21846,1,8,0:0:0:0:
372,300,21929,1,0,0:0:0:0:
100,176,22012,1,8,0:0:0:0:
372,300,22096,1,0,0:0:0:0:
372,300,22262,1,8,0:0:0:0:
372,300,22346,1,0,0:0:0:0:
372,300,22429,1,8,0:0:0:0:
372,300,22596,1,0,0:0:0:0:
372,300,22679,1,8,0:0:0:0:
128,128,22846,1,8,0:0:0:0:
372,300,22929,1,0,0:0:0:0:
372,300,23096,1,8,0:0:0:0:
192,176,23262,1,0,0:0:0:0:
192,176,23429,1,8,0:0:0:0:
192,176,23596,1,0,0:0:0:0:
192,176,23679,1,8,0:0:0:0:
192,176,23762,1,0,0:0:0:0:
192,176,23846,1,0,0:0:0:0:
192,176,23929,1,8,0:0:0:0:
192,176,24096,1,0,0:0:0:0:
192,176,24262,1,8,0:0:0:0:
192,176,24346,1,0,0:0:0:0:
192,176,24429,1,0,0:0:0:0:
204,116,24512,1,8,0:0:0:0:
192,176,24596,1,8,0:0:0:0:
192,176,24679,1,0,0:0:0:0:
192,176,24762,1,8,0:0:0:0:
204,124,24929,1,0,0:0:0:0:
204,124,25012,1,8,0:0:0:0:
204,124,25096,1,0,0:0:0:0:
204,124,25179,1,0,0:0:0:0:
204,124,25262,1,8,0:0:0:0:
204,124,25346,1,0,0:0:0:0:
204,124,25429,1,8,0:0:0:0:
204,124,25512,1,8,0:0:0:0:
204,124,25596,1,8,0:0:0:0:
204,124,25679,1,8,0:0:0:0:
204,124,25762,1,0,0:0:0:0:
264,216,25929,1,8,0:0:0:0:
264,216,26096,1,0,0:0:0:0:
264,216,26262,1,8,0:0:0:0:
264,216,26346,1,8,0:0:0:0:
264,216,26429,1,0,0:0:0:0:
264,216,26512,1,0,0:0:0:0:
264,216,26596,1,8,0:0:0:0:
264,216,26762,1,0,0:0:0:0:
264,216,26929,1,8,0:0:0:0:
264,216,27012,1,0,0:0:0:0:
264,216,27179,1,8,0:0:0:0:
152,188,27346,1,0,0:0:0:0:
344,164,27429,1,8,0:0:0:0:
344,164,27512,1,0,0:0:0:0:
240,168,27596,1,8,0:0:0:0:
240,168,27679,1,8,0:0:0:0:
240,168,27762,1,0,0:0:0:0:
240,168,27929,1,8,0:0:0:0:
240,168,28012,1,0,0:0:0:0:
240,168,28179,1,0,0:0:0:0:
240,168,28262,1,8,0:0:0:0:
240,168,28429,1,0,0:0:0:0:
336,188,28596,1,0,0:0:0:0:
288,168,28651,1,0,0:0:0:0:
288,168,28707,1,0,0:0:0:0:
336,188,28762,1,8,0:0:0:0:
240,144,28846,1,8,0:0:0:0:
240,144,28929,1,0,0:0:0:0:
240,144,29012,1,8,0:0:0:0:
240,144,29096,1,0,0:0:0:0:
240,144,29262,1,8,0:0:0:0:
144,136,29346,1,0,0:0:0:0:
240,160,29512,1,0,0:0:0:0:
240,160,29596,1,8,0:0:0:0:
240,160,29679,1,8,0:0:0:0:
240,160,29762,1,0,0:0:0:0:
244,164,30096,1,8,0:0:0:0:
244,164,30262,1,8,0:0:0:0:
240,160,30346,1,0,0:0:0:0:
240,160,30429,1,0,0:0:0:0:
240,160,30512,1,8,0:0:0:0:
240,160,30596,1,8,0:0:0:0:
240,160,30679,1,0,0:0:0:0:
240,160,30762,1,8,0:0:0:0:
244,164,30846,1,0,0:0:0:0:
244,164,30929,1,8,0:0:0:0:
244,164,31096,1,4,0:0:0:0:
240,184,32262,1,8,0:0:0:0:
256,184,32429,1,0,0:0:0:0:
192,192,33596,1,12,0:0:0:0:
192,192,33762,1,12,0:0:0:0:
248,160,34929,1,8,0:0:0:0:
248,160,35096,1,0,0:0:0:0:
180,204,36429,1,4,0:0:0:0:
120,176,37596,1,8,0:0:0:0:
120,176,37762,1,0,0:0:0:0:
172,200,38929,1,4,0:0:0:0:
168,200,39096,1,4,0:0:0:0:
164,136,39762,1,0,0:0:0:0:
164,136,39929,1,0,0:0:0:0:
164,136,40096,1,8,0:0:0:0:
164,136,40179,1,8,0:0:0:0:
164,136,40262,1,8,0:0:0:0:
256,192,40429,12,0,41429,0:0:0:0:
216,168,41762,5,4,0:0:0:0:
236,232,41929,1,8,0:0:0:0:
240,236,42096,1,0,0:0:0:0:
240,236,42262,1,8,0:0:0:0:
240,236,42346,1,8,0:0:0:0:
236,232,42429,1,0,0:0:0:0:
176,52,42512,1,8,0:0:0:0:
236,232,42596,1,0,0:0:0:0:
236,232,42679,1,0,0:0:0:0:
236,232,42762,1,8,0:0:0:0:
196,140,42929,1,0,0:0:0:0:
240,236,43096,1,8,0:0:0:0:
240,236,43262,1,0,0:0:0:0:
0,144,43346,1,0,0:0:0:0:
236,232,43429,1,8,0:0:0:0:
224,244,43512,1,8,0:0:0:0:
224,244,43596,1,0,0:0:0:0:
224,244,43762,1,8,0:0:0:0:
184,192,43929,1,0,0:0:0:0:
200,164,44012,1,0,0:0:0:0:
184,192,44096,1,8,0:0:0:0:
184,192,44262,1,8,0:0:0:0:
184,192,44429,1,0,0:0:0:0:
240,144,44596,1,0,0:0:0:0:
184,192,44762,1,8,0:0:0:0:
200,164,44929,1,0,0:0:0:0:
192,164,45012,1,0,0:0:0:0:
184,192,45096,1,8,0:0:0:0:
184,192,45262,1,0,0:0:0:0:
184,192,45429,1,8,0:0:0:0:
80,136,45512,1,8,0:0:0:0:
68,148,45596,1,0,0:0:0:0:
184,192,45762,1,0,0:0:0:0:
184,192,45929,1,8,0:0:0:0:
184,76,46012,1,0,0:0:0:0:
184,192,46096,1,8,0:0:0:0:
208,128,46179,1,8,0:0:0:0:
184,192,46262,1,0,0:0:0:0:
104,96,46346,1,8,0:0:0:0:
184,192,46429,1,0,0:0:0:0:
224,172,46512,1,0,0:0:0:0:
184,192,46596,1,8,0:0:0:0:
184,192,46762,1,0,0:0:0:0:
184,192,46929,1,8,0:0:0:0:
196,136,47012,1,0,0:0:0:0:
184,192,47096,1,8,0:0:0:0:
184,192,47262,1,0,0:0:0:0:
184,192,47429,1,8,0:0:0:0:
184,192,47596,1,0,0:0:0:0:
184,192,47679,1,8,0:0:0:0:
184,192,47762,1,0,0:0:0:0:
184,192,47929,1,8,0:0:0:0:
200,48,48012,1,0,0:0:0:0:
200,32,48096,1,8,0:0:0:0:
116,128,48179,1,8,0:0:0:0:
184,192,48262,1,0,0:0:0:0:
184,192,48429,1,8,0:0:0:0:
184,192,48596,1,0,0:0:0:0:
108,144,48679,1,0,0:0:0:0:
184,192,48762,1,8,0:0:0:0:
184,192,48929,1,8,0:0:0:0:
184,192,49096,1,0,0:0:0:0:
184,192,49262,1,8,0:0:0:0:
184,192,49429,1,8,0:0:0:0:
184,192,49512,1,0,0:0:0:0:
184,192,49596,1,8,0:0:0:0:
184,192,49762,1,0,0:0:0:0:
184,192,49846,1,0,0:0:0:0:
184,192,49929,1,0,0:0:0:0:
180,200,50012,1,0,0:0:0:0:
184,192,50096,1,8,0:0:0:0:
180,200,50262,1,0,0:0:0:0:
180,200,50346,1,8,0:0:0:0:
180,200,50429,1,0,0:0:0:0:
180,200,50596,1,8,0:0:0:0:
180,200,50762,1,8,0:0:0:0:
192,144,50846,1,8,0:0:0:0:
192,144,50929,1,0,0:0:0:0:
180,200,51096,1,8,0:0:0:0:
340,160,51262,1,8,0:0:0:0:
216,160,51429,1,0,0:0:0:0:
216,160,51596,1,0,0:0:0:0:
216,160,51679,1,8,0:0:0:0:
284,128,51846,1,8,0:0:0:0:
216,160,51929,1,0,0:0:0:0:
200,168,52096,1,8,0:0:0:0:
196,168,52429,1,4,0:0:0:0:
244,100,52596,1,8,0:0:0:0:
244,100,52762,1,0,0:0:0:0:
244,100,52929,1,8,0:0:0:0:
224,136,53012,1,8,0:0:0:0:
244,100,53096,1,0,0:0:0:0:
96,152,53179,1,0,0:0:0:0:
244,100,53262,1,8,0:0:0:0:
244,100,53346,1,8,0:0:0:0:
244,100,53429,1,0,0:0:0:0:
24,144,53596,1,8,0:0:0:0:
244,100,53762,1,0,0:0:0:0:
244,100,53929,1,8,0:0:0:0:
236,140,54012,1,0,0:0:0:0:
244,100,54096,1,8,0:0:0:0:
236,140,54179,1,8,0:0:0:0:
244,100,54262,1,0,0:0:0:0:
236,140,54429,1,8,0:0:0:0:
236,140,54596,1,0,0:0:0:0:
244,172,54679,1,0,0:0:0:0:
236,140,54762,1,8,0:0:0:0:
236,140,54929,1,8,0:0:0:0:
236,140,55096,1,0,0:0:0:0:
248,176,55262,1,0,0:0:0:0:
236,140,55429,1,8,0:0:0:0:
236,140,55596,1,0,0:0:0:0:
296,192,55679,1,0,0:0:0:0:
236,140,55762,1,8,0:0:0:0:
144,172,55846,1,0,0:0:0:0:
236,140,55929,1,8,0:0:0:0:
24,180,56012,1,8,0:0:0:0:
236,140,56096,1,0,0:0:0:0:
236,140,56262,1,8,0:0:0:0:
236,140,56429,1,0,0:0:0:0:
196,64,56512,1,0,0:0:0:0:
236,140,56596,1,8,0:0:0:0:
236,140,56762,1,0,0:0:0:0:
236,140,56929,1,8,0:0:0:0:
160,136,57012,1,8,0:0:0:0:
128,152,57096,1,0,0:0:0:0:
276,100,57179,1,0,0:0:0:0:
236,140,57262,1,8,0:0:0:0:
236,140,57429,1,0,0:0:0:0:
236,140,57596,1,8,0:0:0:0:
236,140,57762,1,0,0:0:0:0:
236,140,57846,1,0,0:0:0:0:
236,140,57929,1,8,0:0:0:0:
236,140,58012,1,8,0:0:0:0:
236,140,58096,1,0,0:0:0:0:
236,140,58179,1,0,0:0:0:0:
236,140,58262,1,8,0:0:0:0:
236,140,58346,1,0,0:0:0:0:
236,140,58429,1,0,0:0:0:0:
236,140,58512,1,8,0:0:0:0:
236,140,58596,1,8,0:0:0:0:
236,140,58762,1,0,0:0:0:0:
160,164,58929,1,8,0:0:0:0:
236,144,59096,1,0,0:0:0:0:
236,144,59262,1,8,0:0:0:0:
184,148,59346,1,0,0:0:0:0:
236,144,59429,1,0,0:0:0:0:
236,144,59512,1,8,0:0:0:0:
236,144,59596,1,8,0:0:0:0:
236,144,59679,1,0,0:0:0:0:
236,144,59762,1,0,0:0:0:0:
236,144,59846,1,8,0:0:0:0:
236,144,59929,1,8,0:0:0:0:
116,196,60012,1,0,0:0:0:0:
236,144,60096,1,8,0:0:0:0:
196,156,60262,1,8,0:0:0:0:
232,96,60346,1,8,0:0:0:0:
236,144,60429,1,0,0:0:0:0:
236,144,60596,1,0,0:0:0:0:
236,144,60762,1,8,0:0:0:0:
236,144,60929,1,8,0:0:0:0:
204,100,61012,1,0,0:0:0:0:
236,144,61096,1,8,0:0:0:0:
160,104,61179,1,8,0:0:0:0:
124,128,61262,1,0,0:0:0:0:
236,144,61429,1,8,0:0:0:0:
236,144,61762,1,0,0:0:0:0:
184,64,61929,1,0,0:0:0:0:
236,144,62096,1,8,0:0:0:0:
184,72,62262,1,8,0:0:0:0:
236,144,62429,1,0,0:0:0:0:
184,72,62512,1,0,0:0:0:0:
236,144,62596,1,8,0:0:0:0:
184,72,62679,1,0,0:0:0:0:
236,144,62762,1,8,0:0:0:0:
176,92,62846,1,8,0:0:0:0:
184,72,62929,1,0,0:0:0:0:
236,144,63096,1,12,0:0:0:0:
192,128,63429,1,0,0:0:0:0:
192,128,63512,1,0,0:0:0:0:
192,128,63596,1,8,0:0:0:0:
192,128,63679,1,8,0:0:0:0:
192,128,63762,1,0,0:0:0:0:
184,212,63874,1,8,0:0:0:0:
184,212,63985,1,0,0:0:0:0:
184,212,64096,1,8,0:0:0:0:
184,212,64207,1,8,0:0:0:0:
184,212,64318,1,0,0:0:0:0:
184,212,64429,1,8,0:0:0:0:
212,188,64485,1,0,0:0:0:0:
212,188,64540,1,0,0:0:0:0:
212,188,64596,1,8,0:0:0:0:
216,132,64679,1,8,0:0:0:0:
184,96,64762,1,0,0:0:0:0:
276,152,64874,1,0,0:0:0:0:
184,100,65179,1,4,0:0:0:0:
184,100,65346,1,12,0:0:0:0:
184,100,65596,1,12,0:0:0:0:
184,100,65762,1,4,0:0:0:0:
200,156,66096,1,8,0:0:0:0:
200,156,66179,1,8,0:0:0:0:
200,156,66262,1,8,0:0:0:0:
200,156,66346,1,8,0:0:0:0:
200,156,66429,1,4,0:0:0:0:
200,128,66762,1,8,0:0:0:0:
124,240,66818,1,8,0:0:0:0:
128,248,66874,1,8,0:0:0:0:
128,248,66929,1,0,0:0:0:0:
348,184,67012,1,0,0:0:0:0:
200,128,67096,1,12,0:0:0:0:
340,124,67318,1,4,0:0:0:0:
340,124,67540,1,12,0:0:0:0:
340,124,67762,1,12,0:0:0:0:
340,124,67985,1,4,0:0:0:0:
340,124,68207,1,4,0:0:0:0:
340,124,68429,1,12,0:0:0:0:
352,196,69762,5,0,0:0:0:0:
352,196,70096,1,0,0:0:0:0:
352,196,70429,1,8,0:0:0:0:
352,196,70762,1,0,0:0:0:0:
352,196,70929,1,0,0:0:0:0:
296,172,71096,5,12,0:0:0:0:
296,212,71763,1,12,0:0:0:0:
276,220,72429,1,8,0:0:0:0:
276,220,72595,1,0,0:0:0:0:
276,220,72679,1,8,0:0:0:0:
276,220,72845,1,0,0:0:0:0:
276,220,72929,1,0,0:0:0:0:
208,136,73095,1,8,0:0:0:0:
324,180,73151,1,8,0:0:0:0:
324,180,73207,1,0,0:0:0:0:
324,180,73262,1,0,0:0:0:0:
308,172,73345,1,0,0:0:0:0:
308,172,73429,1,8,0:0:0:0:
244,160,73512,1,8,0:0:0:0:
112,176,73595,1,0,0:0:0:0:
244,160,73762,1,0,0:0:0:0:
84,144,74096,1,12,0:0:0:0:
84,144,74763,1,12,0:0:0:0:
160,160,75096,1,8,0:0:0:0:
160,160,75263,1,0,0:0:0:0:
160,160,75346,1,8,0:0:0:0:
160,160,75513,1,8,0:0:0:0:
160,160,75596,1,0,0:0:0:0:
160,160,75763,1,0,0:0:0:0:
160,160,75846,1,0,0:0:0:0:
160,160,75930,1,8,0:0:0:0:
160,160,76013,1,0,0:0:0:0:
160,160,76096,1,8,0:0:0:0:
160,160,76180,1,8,0:0:0:0:
160,160,76263,1,8,0:0:0:0:
160,160,76430,1,4,0:0:0:0:
160,132,76596,1,8,0:0:0:0:
160,132,76762,1,0,0:0:0:0:
160,136,76929,1,8,0:0:0:0:
160,136,77012,1,0,0:0:0:0:
160,136,77096,1,8,0:0:0:0:
168,136,77262,1,0,0:0:0:0:
168,136,77346,1,8,0:0:0:0:
168,136,77512,1,8,0:0:0:0:
168,136,77596,1,0,0:0:0:0:
168,136,77762,1,8,0:0:0:0:
168,136,77929,1,0,0:0:0:0:
184,72,78012,1,0,0:0:0:0:
168,136,78096,1,8,0:0:0:0:
192,136,78179,1,8,0:0:0:0:
168,136,78262,1,0,0:0:0:0:
168,136,78429,1,8,0:0:0:0:
80,100,78596,1,0,0:0:0:0:
168,136,78762,1,8,0:0:0:0:
168,136,79096,1,0,0:0:0:0:
168,136,79346,1,8,0:0:0:0:
168,136,79429,1,0,0:0:0:0:
168,136,79596,1,8,0:0:0:0:
180,168,79762,1,0,0:0:0:0:
180,168,79846,1,0,0:0:0:0:
180,168,79929,1,8,0:0:0:0:
180,168,80012,1,0,0:0:0:0:
180,168,80096,1,8,0:0:0:0:
180,168,80179,1,8,0:0:0:0:
180,168,80262,1,0,0:0:0:0:
100,208,80429,1,0,0:0:0:0:
100,208,80596,1,12,0:0:0:0:
100,208,80846,1,12,0:0:0:0:
100,208,81096,1,8,0:0:0:0:
100,208,81262,1,0,0:0:0:0:
100,208,81346,1,0,0:0:0:0:
88,216,81429,1,8,0:0:0:0:
88,216,81512,1,0,0:0:0:0:
88,216,81596,1,8,0:0:0:0:
88,216,81679,1,8,0:0:0:0:
88,216,81762,1,0,0:0:0:0:
168,168,81929,1,12,0:0:0:0:
168,176,82596,1,4,0:0:0:0:
184,184,83096,1,8,0:0:0:0:
184,172,83262,1,0,0:0:0:0:
184,184,83346,1,8,0:0:0:0:
136,208,83512,1,0,0:0:0:0:
136,208,83596,1,0,0:0:0:0:
144,216,83929,1,0,0:0:0:0:
144,216,84096,1,8,0:0:0:0:
308,160,84151,1,8,0:0:0:0:
308,160,84207,1,0,0:0:0:0:
272,172,84262,1,0,0:0:0:0:
344,164,84346,1,8,0:0:0:0:
144,216,84429,1,0,0:0:0:0:
228,216,84596,1,8,0:0:0:0:
232,232,84762,1,0,0:0:0:0:
232,228,84929,1,8,0:0:0:0:
232,228,85012,1,8,0:0:0:0:
232,228,85096,1,0,0:0:0:0:
232,232,85262,1,8,0:0:0:0:
232,232,85429,1,0,0:0:0:0:
232,228,85596,1,8,0:0:0:0:
232,232,85679,1,0,0:0:0:0:
232,232,85762,1,8,0:0:0:0:
224,248,85929,1,0,0:0:0:0:
224,248,86012,1,8,0:0:0:0:
224,248,86179,1,8,0:0:0:0:
224,248,86262,1,0,0:0:0:0:
204,120,86429,1,0,0:0:0:0:
204,120,86512,1,0,0:0:0:0:
204,120,86596,1,8,0:0:0:0:
204,120,86679,1,0,0:0:0:0:
204,120,86762,1,8,0:0:0:0:
204,120,86846,1,8,0:0:0:0:
204,120,86929,1,0,0:0:0:0:
80,120,87012,1,8,0:0:0:0:
204,120,87096,1,0,0:0:0:0:
184,216,87262,1,8,0:0:0:0:
184,216,87429,1,0,0:0:0:0:
184,216,87596,1,8,0:0:0:0:
184,64,87679,1,0,0:0:0:0:
144,76,87762,1,8,0:0:0:0:
76,164,87929,1,0,0:0:0:0:
184,216,88012,1,8,0:0:0:0:
140,160,88179,1,0,0:0:0:0:
184,216,88262,1,0,0:0:0:0:
184,216,88429,1,8,0:0:0:0:
184,216,88596,1,0,0:0:0:0:
184,216,88679,1,8,0:0:0:0:
184,80,88762,1,0,0:0:0:0:
184,216,88846,1,0,0:0:0:0:
304,152,88929,1,8,0:0:0:0:
304,152,89096,1,0,0:0:0:0:
184,216,89262,1,8,0:0:0:0:
272,216,89318,1,8,0:0:0:0:
272,216,89374,1,8,0:0:0:0:
272,216,89429,1,0,0:0:0:0:
336,256,89512,1,0,0:0:0:0:
184,216,89596,1,8,0:0:0:0:
184,216,89762,1,0,0:0:0:0:
176,96,89929,1,8,0:0:0:0:
176,88,90012,1,0,0:0:0:0:
176,92,90096,1,8,0:0:0:0:
172,140,90262,1,8,0:0:0:0:
172,140,90429,1,0,0:0:0:0:
172,140,90596,1,8,0:0:0:0:
172,140,90679,1,0,0:0:0:0:
172,140,90762,1,8,0:0:0:0:
172,140,90929,1,8,0:0:0:0:
172,140,91096,1,0,0:0:0:0:
172,140,91262,1,0,0:0:0:0:
144,92,91346,1,0,0:0:0:0:
172,140,91429,1,8,0:0:0:0:
172,140,91596,1,0,0:0:0:0:
96,144,91679,1,0,0:0:0:0:
172,140,91762,1,8,0:0:0:0:
176,152,91846,1,8,0:0:0:0:
176,152,91929,1,8,0:0:0:0:
176,152,92012,1,8,0:0:0:0:
176,152,92096,1,0,0:0:0:0:
176,152,92262,1,8,0:0:0:0:
176,152,92429,1,4,0:0:0:0:
144,168,92762,1,8,0:0:0:0:
144,188,92929,1,0,0:0:0:0:
144,188,93012,1,8,0:0:0:0:
144,188,93096,1,0,0:0:0:0:
144,188,93179,1,0,0:0:0:0:
144,188,93262,1,8,0:0:0:0:
144,188,93346,1,0,0:0:0:0:
144,188,93429,1,8,0:0:0:0:
144,188,93512,1,8,0:0:0:0:
144,188,93596,1,0,0:0:0:0:
144,188,93679,1,8,0:0:0:0:
144,188,93762,1,0,0:0:0:0:
144,188,93846,1,0,0:0:0:0:
144,188,93929,1,8,0:0:0:0:
144,188,94012,1,0,0:0:0:0:
144,188,94096,1,8,0:0:0:0:
172,112,94179,1,8,0:0:0:0:
144,188,94262,1,0,0:0:0:0:
144,188,94596,1,0,0:0:0:0:
144,188,94762,1,8,0:0:0:0:
144,188,94846,1,8,0:0:0:0:
144,188,94929,1,8,0:0:0:0:
144,188,95012,1,8,0:0:0:0:
144,188,95096,1,0,0:0:0:0:
316,188,95929,1,4,0:0:0:0:
316,188,96096,1,4,0:0:0:0:
316,188,96262,1,12,0:0:0:0:
288,240,97096,1,0,0:0:0:0:
288,240,97179,1,0,0:0:0:0:
288,240,97262,1,8,0:0:0:0:
288,240,97346,1,0,0:0:0:0:
276,180,97429,1,8,0:0:0:0:
260,184,97485,1,0,0:0:0:0:
248,176,97540,1,0,0:0:0:0:
240,172,97596,1,8,0:0:0:0:
428,120,97679,1,8,0:0:0:0:
372,300,97762,5,4,0:0:0:0:
372,300,97929,1,8,0:0:0:0:
372,300,98095,1,0,0:0:0:0:
372,300,98262,1,8,0:0:0:0:
372,300,98345,1,8,0:0:0:0:
372,300,98429,1,0,0:0:0:0:
372,300,98512,1,0,0:0:0:0:
372,300,98595,1,8,0:0:0:0:
372,300,98762,1,0,0:0:0:0:
372,300,98929,1,8,0:0:0:0:
372,300,99012,1,0,0:0:0:0:
96,176,99095,1,8,0:0:0:0:
372,300,99179,1,8,0:0:0:0:
372,300,99262,1,0,0:0:0:0:
100,176,99345,1,8,0:0:0:0:
372,300,99429,1,0,0:0:0:0:
372,300,99595,1,8,0:0:0:0:
372,300,99679,1,0,0:0:0:0:
372,300,99762,1,8,0:0:0:0:
372,300,99929,1,0,0:0:0:0:
372,300,100012,1,8,0:0:0:0:
128,128,100179,1,8,0:0:0:0:
372,300,100262,1,0,0:0:0:0:
372,300,100429,1,8,0:0:0:0:
192,176,100595,1,0,0:0:0:0:
192,176,100762,1,8,0:0:0:0:
192,176,100929,1,0,0:0:0:0:
192,176,101012,1,8,0:0:0:0:
192,176,101095,1,0,0:0:0:0:
192,176,101179,1,0,0:0:0:0:
192,176,101262,1,8,0:0:0:0:
192,176,101429,1,0,0:0:0:0:
192,176,101595,1,8,0:0:0:0:
192,176,101679,1,0,0:0:0:0:
192,176,101762,1,0,0:0:0:0:
204,116,101845,1,8,0:0:0:0:
192,176,101929,1,8,0:0:0:0:
192,176,102012,1,0,0:0:0:0:
192,176,102095,1,8,0:0:0:0:
204,124,102262,1,0,0:0:0:0:
204,124,102345,1,8,0:0:0:0:
204,124,102429,1,0,0:0:0:0:
204,124,102512,1,0,0:0:0:0:
204,124,102595,1,8,0:0:0:0:
204,124,102679,1,0,0:0:0:0:
204,124,102762,1,8,0:0:0:0:
204,124,102845,1,8,0:0:0:0:
204,124,102929,1,8,0:0:0:0:
204,124,103012,1,8,0:0:0:0:
204,124,103095,1,0,0:0:0:0:
264,216,103262,1,8,0:0:0:0:
264,216,103429,1,0,0:0:0:0:
264,216,103595,1,8,0:0:0:0:
264,216,103679,1,8,0:0:0:0:
264,216,103762,1,0,0:0:0:0:
264,216,103845,1,0,0:0:0:0:
264,216,103929,1,8,0:0:0:0:
264,216,104095,1,0,0:0:0:0:
264,216,104262,1,8,0:0:0:0:
264,216,104345,1,0,0:0:0:0:
264,216,104512,1,8,0:0:0:0:
152,188,104679,1,0,0:0:0:0:
344,164,104762,1,8,0:0:0:0:
344,164,104845,1,0,0:0:0:0:
240,168,104929,1,8,0:0:0:0:
240,168,105012,1,8,0:0:0:0:
240,168,105095,1,0,0:0:0:0:
240,168,105262,1,8,0:0:0:0:
240,168,105345,1,0,0:0:0:0:
240,168,105512,1,0,0:0:0:0:
240,168,105595,1,8,0:0:0:0:
240,168,105762,1,0,0:0:0:0:
336,188,105929,1,0,0:0:0:0:
288,168,105984,1,0,0:0:0:0:
288,168,106040,1,0,0:0:0:0:
336,188,106095,1,8,0:0:0:0:
240,144,106179,1,8,0:0:0:0:
240,144,106262,1,0,0:0:0:0:
240,144,106345,1,8,0:0:0:0:
240,144,106429,1,0,0:0:0:0:
240,144,106595,1,8,0:0:0:0:
144,136,106679,1,0,0:0:0:0:
240,160,106845,1,0,0:0:0:0:
240,160,106929,1,8,0:0:0:0:
240,160,107012,1,8,0:0:0:0:
240,160,107095,1,0,0:0:0:0:
216,192,107179,1,0,0:0:0:0:
216,192,107262,1,8,0:0:0:0:
212,196,107346,1,0,0:0:0:0:
244,164,107429,1,8,0:0:0:0:
244,164,107595,1,8,0:0:0:0:
240,160,107679,1,0,0:0:0:0:
240,160,107762,1,0,0:0:0:0:
240,160,107845,1,8,0:0:0:0:
240,160,107929,1,8,0:0:0:0:
240,160,108012,1,0,0:0:0:0:
240,160,108095,1,8,0:0:0:0:
244,164,108179,1,0,0:0:0:0:
244,164,108262,1,8,0:0:0:0:
192,168,108429,1,0,0:0:0:0:
148,188,108512,1,0,0:0:0:0:
148,188,108595,1,0,0:0:0:0:
148,188,108679,1,0,0:0:0:0:
144,188,108762,1,0,0:0:0:0:
164,160,108929,1,8,0:0:0:0:
164,160,109012,1,8,0:0:0:0:
164,160,109095,1,8,0:0:0:0:
164,160,109179,1,8,0:0:0:0:
164,160,109262,1,8,0:0:0:0:
164,160,109429,1,0,0:0:0:0:
164,160,109595,1,8,0:0:0:0:
164,160,109762,1,0,0:0:0:0:
164,160,109845,1,0,0:0:0:0:
164,160,109929,1,8,0:0:0:0:
164,160,110012,1,8,0:0:0:0:
164,160,110095,1,0,0:0:0:0:
164,160,110262,1,8,0:0:0:0:
164,160,110345,1,8,0:0:0:0:
164,160,110429,1,0,0:0:0:0:
164,160,110595,1,8,0:0:0:0:
164,160,110762,1,0,0:0:0:0:
264,128,110818,1,0,0:0:0:0:
264,128,110873,1,0,0:0:0:0:
264,128,110929,1,8,0:0:0:0:
404,96,111012,1,8,0:0:0:0:
164,160,111095,1,0,0:0:0:0:
216,108,111262,1,8,0:0:0:0:
216,108,111345,1,8,0:0:0:0:
216,108,111429,1,8,0:0:0:0:
204,136,111595,1,0,0:0:0:0:
204,136,111762,1,8,0:0:0:0:
204,136,111845,1,8,0:0:0:0:
204,136,111929,1,8,0:0:0:0:
204,136,112095,1,0,0:0:0:0:
204,136,112262,1,8,0:0:0:0:
300,152,112318,1,0,0:0:0:0:
300,152,112373,1,0,0:0:0:0:
204,136,112429,1,8,0:0:0:0:
204,136,112595,5,0,0:0:0:0:
204,136,112679,1,8,0:0:0:0:
204,136,112845,1,8,0:0:0:0:
204,136,112929,1,0,0:0:0:0:
204,136,113096,1,8,0:0:0:0:
204,136,113262,5,0,0:0:0:0:
204,136,113346,1,8,0:0:0:0:
204,136,113512,1,8,0:0:0:0:
204,136,113596,1,0,0:0:0:0:
204,136,113762,1,8,0:0:0:0:
204,136,113928,5,0,0:0:0:0:
204,136,114012,1,8,0:0:0:0:
204,136,114262,1,12,0:0:0:0:
