osu file format v14

[General]
AudioFilename: audio.mp3
AudioLeadIn: 0
PreviewTime: 63804
Countdown: 0
SampleSet: Soft
StackLeniency: 0.7
Mode: 3
LetterboxInBreaks: 0
SpecialStyle: 0
WidescreenStoryboard: 1

[Editor]
DistanceSpacing: 0.7
BeatDivisor: 4
GridSize: 8
TimelineZoom: 3.199999

[Metadata]
Title:Hardbass festa
TitleUnicode:ハードベース・フェスタ
Artist:Camellia feat. Nanahira
ArtistUnicode:かめりあ feat. ななひら
Creator:[Shana Lesus]
Version:Russian Hardbass
Source:beatmania IIDX 26 Rootage
Tags:A-STYLE RUSSIAN HARDBASS VJ GYO yama_ko [ a v a l o n ] -mysticeyes
BeatmapID:2069246
BeatmapSetID:989288

[Difficulty]
HPDrainRate:8
CircleSize:4
OverallDifficulty:8
ApproachRate:5
SliderMultiplier:1.4
SliderTickRate:1

[Events]
//Background and Video events
0,0,"hardbass zelenoi sok.jpg",0,0
Video,-400,"russian hardbass.avi"
//Break Periods
//Storyboard Layer 0 (Background)
//Storyboard Layer 1 (Fail)
//Storyboard Layer 2 (Pass)
//Storyboard Layer 3 (Foreground)
//Storyboard Sound Samples

[TimingPoints]
1518,379.746835443038,4,2,0,30,1,0
63796,-100,4,2,0,30,0,1
88100,-100,4,2,0,30,0,0

[HitObjects]
64,192,1518,5,0,0:0:0:0:
448,192,1518,1,0,0:0:0:0:
192,192,1612,1,0,0:0:0:0:
320,192,1707,1,0,0:0:0:0:
192,192,1802,1,0,0:0:0:0:
64,192,1897,1,0,0:0:0:0:
448,192,1897,1,0,0:0:0:0:
320,192,1992,1,0,0:0:0:0:
192,192,2087,1,0,0:0:0:0:
64,192,2087,1,0,0:0:0:0:
320,192,2182,1,0,0:0:0:0:
64,192,2277,1,0,0:0:0:0:
448,192,2277,1,0,0:0:0:0:
192,192,2324,1,0,0:0:0:0:
320,192,2372,1,0,0:0:0:0:
448,192,2419,1,0,0:0:0:0:
192,192,2467,1,0,0:0:0:0:
64,192,2562,1,0,0:0:0:0:
448,192,2657,1,0,0:0:0:0:
192,192,2657,1,0,0:0:0:0:
320,192,2752,1,0,0:0:0:0:
192,192,2847,1,0,0:0:0:0:
64,192,2942,1,0,0:0:0:0:
320,192,3036,1,0,0:0:0:0:
448,192,3036,1,0,0:0:0:0:
192,192,3036,1,0,0:0:0:0:
64,192,3226,1,0,0:0:0:0:
448,192,3416,1,0,0:0:0:0:
192,192,3416,1,0,0:0:0:0:
320,192,3511,1,0,0:0:0:0:
64,192,3606,1,0,0:0:0:0:
320,192,3701,1,0,0:0:0:0:
192,192,3701,1,0,0:0:0:0:
64,192,3796,1,0,0:0:0:0:
448,192,3891,1,0,0:0:0:0:
320,192,3891,1,0,0:0:0:0:
192,192,3986,1,0,0:0:0:0:
64,192,3986,1,0,0:0:0:0:
448,192,4176,1,0,0:0:0:0:
192,192,4176,1,0,0:0:0:0:
320,192,4271,1,0,0:0:0:0:
192,192,4366,1,0,0:0:0:0:
64,192,4366,1,0,0:0:0:0:
448,192,4461,1,0,0:0:0:0:
64,192,4555,1,0,0:0:0:0:
320,192,4555,1,0,0:0:0:0:
192,192,4650,1,0,0:0:0:0:
320,192,4745,1,0,0:0:0:0:
448,192,4935,1,0,0:0:0:0:
64,192,4935,1,0,0:0:0:0:
320,192,5030,1,0,0:0:0:0:
64,192,5125,1,0,0:0:0:0:
448,192,5220,1,0,0:0:0:0:
192,192,5315,1,0,0:0:0:0:
64,192,5410,1,0,0:0:0:0:
320,192,5410,1,0,0:0:0:0:
192,192,5505,1,0,0:0:0:0:
448,192,5505,1,0,0:0:0:0:
448,192,5695,1,0,0:0:0:0:
64,192,5695,1,0,0:0:0:0:
320,192,5790,1,0,0:0:0:0:
64,192,5885,1,0,0:0:0:0:
192,192,5885,1,0,0:0:0:0:
320,192,5980,1,0,0:0:0:0:
192,192,6074,1,0,0:0:0:0:
448,192,6074,1,0,0:0:0:0:
64,192,6264,1,0,0:0:0:0:
320,192,6454,1,0,0:0:0:0:
192,192,6454,1,0,0:0:0:0:
448,192,6549,1,0,0:0:0:0:
64,192,6644,1,0,0:0:0:0:
448,192,6739,1,0,0:0:0:0:
192,192,6739,1,0,0:0:0:0:
320,192,6834,1,0,0:0:0:0:
448,192,6929,1,0,0:0:0:0:
192,192,6929,1,0,0:0:0:0:
320,192,7024,1,0,0:0:0:0:
64,192,7024,1,0,0:0:0:0:
320,192,7214,1,0,0:0:0:0:
448,192,7214,1,0,0:0:0:0:
192,192,7309,1,0,0:0:0:0:
448,192,7404,1,0,0:0:0:0:
64,192,7404,1,0,0:0:0:0:
192,192,7499,1,0,0:0:0:0:
64,192,7593,1,0,0:0:0:0:
320,192,7593,1,0,0:0:0:0:
448,192,7783,1,0,0:0:0:0:
192,192,7783,1,0,0:0:0:0:
320,192,7878,1,0,0:0:0:0:
192,192,7973,1,0,0:0:0:0:
64,192,7973,1,0,0:0:0:0:
192,192,8163,1,0,0:0:0:0:
448,192,8163,1,0,0:0:0:0:
320,192,8258,1,0,0:0:0:0:
64,192,8353,1,0,0:0:0:0:
448,192,8353,1,0,0:0:0:0:
192,192,8448,1,0,0:0:0:0:
320,192,8543,1,0,0:0:0:0:
448,192,8543,1,0,0:0:0:0:
192,192,8733,1,0,0:0:0:0:
64,192,8733,1,0,0:0:0:0:
320,192,8733,1,0,0:0:0:0:
448,192,8923,1,0,0:0:0:0:
320,192,9112,1,0,0:0:0:0:
448,192,9112,1,0,0:0:0:0:
64,192,9112,1,0,0:0:0:0:
192,192,9302,1,0,0:0:0:0:
320,192,9492,1,0,0:0:0:0:
448,192,9492,1,0,0:0:0:0:
64,192,9587,1,0,0:0:0:0:
448,192,9682,1,0,0:0:0:0:
320,192,9777,1,0,0:0:0:0:
192,192,9777,1,0,0:0:0:0:
64,192,9872,1,0,0:0:0:0:
192,192,9967,1,0,0:0:0:0:
448,192,9967,1,0,0:0:0:0:
64,192,10062,1,0,0:0:0:0:
320,192,10062,1,0,0:0:0:0:
64,192,10252,1,0,0:0:0:0:
192,192,10252,1,0,0:0:0:0:
448,192,10347,1,0,0:0:0:0:
192,192,10442,1,0,0:0:0:0:
320,192,10442,1,0,0:0:0:0:
448,192,10536,1,0,0:0:0:0:
320,192,10631,1,0,0:0:0:0:
64,192,10631,1,0,0:0:0:0:
192,192,10821,1,0,0:0:0:0:
320,192,11011,1,0,0:0:0:0:
448,192,11011,1,0,0:0:0:0:
64,192,11106,1,0,0:0:0:0:
448,192,11201,1,0,0:0:0:0:
192,192,11296,1,0,0:0:0:0:
320,192,11391,1,0,0:0:0:0:
64,192,11486,1,0,0:0:0:0:
448,192,11486,1,0,0:0:0:0:
320,192,11581,1,0,0:0:0:0:
192,192,11581,1,0,0:0:0:0:
192,192,11771,1,0,0:0:0:0:
448,192,11771,1,0,0:0:0:0:
320,192,11866,1,0,0:0:0:0:
448,192,11961,1,0,0:0:0:0:
64,192,11961,1,0,0:0:0:0:
192,192,12055,1,0,0:0:0:0:
448,192,12150,1,0,0:0:0:0:
320,192,12150,1,0,0:0:0:0:
192,192,12340,1,0,0:0:0:0:
448,192,12530,1,0,0:0:0:0:
64,192,12530,1,0,0:0:0:0:
320,192,12625,1,0,0:0:0:0:
64,192,12720,1,0,0:0:0:0:
448,192,12815,1,0,0:0:0:0:
192,192,12815,1,0,0:0:0:0:
64,192,12910,1,0,0:0:0:0:
448,192,13005,1,0,0:0:0:0:
320,192,13005,1,0,0:0:0:0:
64,192,13100,1,0,0:0:0:0:
192,192,13100,1,0,0:0:0:0:
448,192,13147,1,0,0:0:0:0:
320,192,13195,1,0,0:0:0:0:
192,192,13242,1,0,0:0:0:0:
64,192,13290,1,0,0:0:0:0:
448,192,13290,1,0,0:0:0:0:
320,192,13337,1,0,0:0:0:0:
192,192,13385,1,0,0:0:0:0:
64,192,13432,1,0,0:0:0:0:
192,192,13480,1,0,0:0:0:0:
448,192,13480,1,0,0:0:0:0:
320,192,13480,1,0,0:0:0:0:
448,192,13859,1,0,0:0:0:0:
192,192,13859,1,0,0:0:0:0:
64,192,13859,1,0,0:0:0:0:
448,192,14049,1,0,0:0:0:0:
320,192,14049,1,0,0:0:0:0:
192,192,14049,1,0,0:0:0:0:
448,192,14239,1,0,0:0:0:0:
320,192,14239,1,0,0:0:0:0:
64,192,14239,1,0,0:0:0:0:
64,192,14429,1,0,0:0:0:0:
320,192,14429,1,0,0:0:0:0:
192,192,14429,1,0,0:0:0:0:
320,192,14619,1,0,0:0:0:0:
192,192,14666,1,0,0:0:0:0:
448,192,14714,1,0,0:0:0:0:
320,192,14761,1,0,0:0:0:0:
64,192,14809,1,0,0:0:0:0:
192,192,14809,1,0,0:0:0:0:
192,192,15188,1,0,0:0:0:0:
64,192,15188,1,0,0:0:0:0:
320,192,15188,1,0,0:0:0:0:
448,192,15188,1,0,0:0:0:0:
192,192,15378,1,0,0:0:0:0:
448,192,15473,1,0,0:0:0:0:
64,192,15568,1,0,0:0:0:0:
320,192,15568,1,0,0:0:0:0:
192,192,15758,1,0,0:0:0:0:
320,192,15853,1,0,0:0:0:0:
64,192,15948,1,0,0:0:0:0:
448,192,15948,1,0,0:0:0:0:
320,192,16138,1,0,0:0:0:0:
64,192,16233,1,0,0:0:0:0:
320,192,16328,1,0,0:0:0:0:
192,192,16328,1,0,0:0:0:0:
448,192,16518,1,0,0:0:0:0:
64,192,16612,1,0,0:0:0:0:
448,192,16707,1,0,0:0:0:0:
192,192,16707,1,0,0:0:0:0:
64,192,16897,1,0,0:0:0:0:
320,192,16992,1,0,0:0:0:0:
64,192,17087,1,0,0:0:0:0:
192,192,17087,1,0,0:0:0:0:
320,192,17277,1,0,0:0:0:0:
192,192,17372,1,0,0:0:0:0:
448,192,17467,1,0,0:0:0:0:
64,192,17467,1,0,0:0:0:0:
192,192,17657,1,0,0:0:0:0:
448,192,17752,1,0,0:0:0:0:
320,192,17847,1,0,0:0:0:0:
64,192,17847,1,0,0:0:0:0:
192,192,18036,1,0,0:0:0:0:
448,192,18226,1,0,0:0:0:0:
64,192,18226,1,0,0:0:0:0:
192,192,18226,1,0,0:0:0:0:
320,192,18321,1,0,0:0:0:0:
64,192,18416,1,0,0:0:0:0:
320,192,18511,1,0,0:0:0:0:
448,192,18606,1,0,0:0:0:0:
192,192,18606,1,0,0:0:0:0:
64,192,18701,1,0,0:0:0:0:
320,192,18796,1,0,0:0:0:0:
64,192,18891,1,0,0:0:0:0:
448,192,18986,1,0,0:0:0:0:
192,192,18986,1,0,0:0:0:0:
320,192,19081,1,0,0:0:0:0:
64,192,19176,1,0,0:0:0:0:
192,192,19271,1,0,0:0:0:0:
64,192,19366,1,0,0:0:0:0:
448,192,19366,1,0,0:0:0:0:
320,192,19461,1,0,0:0:0:0:
192,192,19555,1,0,0:0:0:0:
320,192,19650,1,0,0:0:0:0:
448,192,19745,1,0,0:0:0:0:
64,192,19745,1,0,0:0:0:0:
320,192,19793,1,0,0:0:0:0:
192,192,19840,1,0,0:0:0:0:
448,192,19888,1,0,0:0:0:0:
320,192,19935,1,0,0:0:0:0:
64,192,19983,1,0,0:0:0:0:
192,192,20030,1,0,0:0:0:0:
320,192,20078,1,0,0:0:0:0:
64,192,20125,1,0,0:0:0:0:
192,192,20173,1,0,0:0:0:0:
448,192,20220,1,0,0:0:0:0:
320,192,20268,1,0,0:0:0:0:
192,192,20315,1,0,0:0:0:0:
64,192,20362,1,0,0:0:0:0:
320,192,20410,1,0,0:0:0:0:
192,192,20457,1,0,0:0:0:0:
448,192,20505,1,0,0:0:0:0:
320,192,20552,1,0,0:0:0:0:
64,192,20600,1,0,0:0:0:0:
192,192,20647,1,0,0:0:0:0:
448,192,20695,1,0,0:0:0:0:
320,192,20742,1,0,0:0:0:0:
192,192,20790,1,0,0:0:0:0:
64,192,20837,1,0,0:0:0:0:
320,192,20885,1,0,0:0:0:0:
448,192,20885,1,0,0:0:0:0:
192,192,20916,1,0,0:0:0:0:
64,192,20948,1,0,0:0:0:0:
320,192,20980,1,0,0:0:0:0:
448,192,21011,1,0,0:0:0:0:
64,192,21043,1,0,0:0:0:0:
192,192,21074,1,0,0:0:0:0:
320,192,21106,1,0,0:0:0:0:
448,192,21138,1,0,0:0:0:0:
64,192,21169,1,0,0:0:0:0:
192,192,21201,1,0,0:0:0:0:
320,192,21233,1,0,0:0:0:0:
64,192,21264,1,0,0:0:0:0:
448,192,21264,1,0,0:0:0:0:
192,192,21454,1,0,0:0:0:0:
64,192,21454,1,0,0:0:0:0:
320,192,21644,1,0,0:0:0:0:
192,192,21644,1,0,0:0:0:0:
448,192,21834,1,0,0:0:0:0:
320,192,21834,1,0,0:0:0:0:
192,192,22024,1,0,0:0:0:0:
64,192,22024,1,0,0:0:0:0:
448,192,22024,1,0,0:0:0:0:
320,192,22024,1,0,0:0:0:0:
320,192,22214,1,0,0:0:0:0:
448,192,22214,1,0,0:0:0:0:
320,192,22404,1,0,0:0:0:0:
192,192,22404,1,0,0:0:0:0:
192,192,22593,1,0,0:0:0:0:
64,192,22593,1,0,0:0:0:0:
192,192,22783,1,0,0:0:0:0:
64,192,22783,1,0,0:0:0:0:
448,192,22783,1,0,0:0:0:0:
320,192,22783,1,0,0:0:0:0:
320,192,22878,1,0,0:0:0:0:
448,192,23163,1,0,0:0:0:0:
192,192,23163,1,0,0:0:0:0:
64,192,23163,1,0,0:0:0:0:
320,192,23258,1,0,0:0:0:0:
192,192,23353,1,0,0:0:0:0:
192,192,23543,1,0,0:0:0:0:
64,192,23543,1,0,0:0:0:0:
320,192,23543,1,0,0:0:0:0:
448,192,23638,1,0,0:0:0:0:
64,192,23828,1,0,0:0:0:0:
320,192,23923,1,0,0:0:0:0:
448,192,23923,1,0,0:0:0:0:
192,192,24018,1,0,0:0:0:0:
448,192,24112,1,0,0:0:0:0:
64,192,24112,1,0,0:0:0:0:
64,192,24302,1,0,0:0:0:0:
448,192,24302,1,0,0:0:0:0:
320,192,24302,1,0,0:0:0:0:
192,192,24302,1,0,0:0:0:0:
320,192,24492,1,0,0:0:0:0:
320,192,24682,1,0,0:0:0:0:
64,192,24682,1,0,0:0:0:0:
448,192,24777,1,0,0:0:0:0:
192,192,24872,1,0,0:0:0:0:
448,192,25062,1,0,0:0:0:0:
320,192,25062,1,0,0:0:0:0:
64,192,25157,1,0,0:0:0:0:
64,192,25347,1,0,0:0:0:0:
320,192,25442,1,0,0:0:0:0:
192,192,25442,1,0,0:0:0:0:
192,192,25631,1,0,0:0:0:0:
448,192,25631,1,0,0:0:0:0:
64,192,25821,1,0,0:0:0:0:
448,192,25821,1,0,0:0:0:0:
320,192,26011,1,0,0:0:0:0:
192,192,26201,1,0,0:0:0:0:
448,192,26296,1,0,0:0:0:0:
64,192,26391,1,0,0:0:0:0:
448,192,26486,1,0,0:0:0:0:
192,192,26581,1,0,0:0:0:0:
320,192,26676,1,0,0:0:0:0:
64,192,26771,1,0,0:0:0:0:
448,192,26866,1,0,0:0:0:0:
64,192,26866,1,0,0:0:0:0:
192,192,26961,1,0,0:0:0:0:
448,192,26961,1,0,0:0:0:0:
64,192,27150,1,0,0:0:0:0:
448,192,27340,1,0,0:0:0:0:
320,192,27340,1,0,0:0:0:0:
448,192,27530,1,0,0:0:0:0:
320,192,27720,1,0,0:0:0:0:
64,192,27720,1,0,0:0:0:0:
192,192,27815,1,0,0:0:0:0:
448,192,27910,1,0,0:0:0:0:
192,192,28100,1,0,0:0:0:0:
320,192,28100,1,0,0:0:0:0:
64,192,28195,1,0,0:0:0:0:
64,192,28385,1,0,0:0:0:0:
448,192,28480,1,0,0:0:0:0:
320,192,28480,1,0,0:0:0:0:
192,192,28669,1,0,0:0:0:0:
448,192,28669,1,0,0:0:0:0:
320,192,28859,1,0,0:0:0:0:
64,192,28859,1,0,0:0:0:0:
192,192,29049,1,0,0:0:0:0:
320,192,29144,1,0,0:0:0:0:
64,192,29239,1,0,0:0:0:0:
448,192,29239,1,0,0:0:0:0:
320,192,29334,1,0,0:0:0:0:
448,192,29429,1,0,0:0:0:0:
192,192,29429,1,0,0:0:0:0:
320,192,29619,1,0,0:0:0:0:
64,192,29619,1,0,0:0:0:0:
448,192,29809,1,0,0:0:0:0:
64,192,29809,1,0,0:0:0:0:
320,192,29904,1,0,0:0:0:0:
192,192,29904,1,0,0:0:0:0:
448,192,29999,1,0,0:0:0:0:
192,192,30093,1,0,0:0:0:0:
64,192,30093,1,0,0:0:0:0:
448,192,30188,1,0,0:0:0:0:
320,192,30236,1,0,0:0:0:0:
192,192,30283,1,0,0:0:0:0:
64,192,30331,1,0,0:0:0:0:
192,192,30378,1,0,0:0:0:0:
448,192,30378,1,0,0:0:0:0:
320,192,30378,1,0,0:0:0:0:
64,192,30568,1,0,0:0:0:0:
448,192,30758,1,0,0:0:0:0:
320,192,30758,1,0,0:0:0:0:
64,192,30853,1,0,0:0:0:0:
320,192,30948,1,0,0:0:0:0:
64,192,31138,1,0,0:0:0:0:
192,192,31138,1,0,0:0:0:0:
448,192,31233,1,0,0:0:0:0:
448,192,31423,1,0,0:0:0:0:
192,192,31518,1,0,0:0:0:0:
320,192,31518,1,0,0:0:0:0:
320,192,31707,1,0,0:0:0:0:
64,192,31707,1,0,0:0:0:0:
448,192,31897,1,0,0:0:0:0:
64,192,31897,1,0,0:0:0:0:
448,192,32087,1,0,0:0:0:0:
192,192,32277,1,0,0:0:0:0:
64,192,32372,1,0,0:0:0:0:
448,192,32467,1,0,0:0:0:0:
320,192,32467,1,0,0:0:0:0:
320,192,32562,1,0,0:0:0:0:
64,192,32562,1,0,0:0:0:0:
64,192,32657,1,0,0:0:0:0:
448,192,32752,1,0,0:0:0:0:
320,192,32752,1,0,0:0:0:0:
192,192,32847,1,0,0:0:0:0:
448,192,32942,1,0,0:0:0:0:
192,192,32942,1,0,0:0:0:0:
64,192,33036,1,0,0:0:0:0:
448,192,33036,1,0,0:0:0:0:
320,192,33226,1,0,0:0:0:0:
64,192,33226,1,0,0:0:0:0:
448,192,33416,1,0,0:0:0:0:
192,192,33416,1,0,0:0:0:0:
64,192,33606,1,0,0:0:0:0:
192,192,33654,1,0,0:0:0:0:
320,192,33701,1,0,0:0:0:0:
448,192,33749,1,0,0:0:0:0:
64,192,33796,1,0,0:0:0:0:
192,192,33796,1,0,0:0:0:0:
320,192,33891,1,0,0:0:0:0:
64,192,33986,1,0,0:0:0:0:
320,192,34176,1,0,0:0:0:0:
192,192,34176,1,0,0:0:0:0:
448,192,34271,1,0,0:0:0:0:
192,192,34366,1,0,0:0:0:0:
64,192,34461,1,0,0:0:0:0:
320,192,34461,1,0,0:0:0:0:
448,192,34555,1,0,0:0:0:0:
448,192,34745,1,0,0:0:0:0:
192,192,34745,1,0,0:0:0:0:
64,192,34745,1,0,0:0:0:0:
64,192,34935,1,0,0:0:0:0:
192,192,34935,1,0,0:0:0:0:
320,192,34935,1,0,0:0:0:0:
448,192,35062,1,0,0:0:0:0:
64,192,35125,1,0,0:0:0:0:
320,192,35188,1,0,0:0:0:0:
448,192,35315,1,0,0:0:0:0:
192,192,35315,1,0,0:0:0:0:
64,192,35442,1,0,0:0:0:0:
320,192,35505,1,0,0:0:0:0:
192,192,35568,1,0,0:0:0:0:
320,192,35695,1,0,0:0:0:0:
448,192,35695,1,0,0:0:0:0:
448,192,35885,1,0,0:0:0:0:
192,192,35885,1,0,0:0:0:0:
64,192,35885,1,0,0:0:0:0:
64,192,36074,1,0,0:0:0:0:
320,192,36074,1,0,0:0:0:0:
448,192,36169,1,0,0:0:0:0:
320,192,36264,1,0,0:0:0:0:
192,192,36264,1,0,0:0:0:0:
192,192,36454,1,0,0:0:0:0:
448,192,36454,1,0,0:0:0:0:
64,192,36454,1,0,0:0:0:0:
448,192,36834,1,0,0:0:0:0:
64,192,36834,1,0,0:0:0:0:
320,192,36834,1,0,0:0:0:0:
192,192,36929,1,0,0:0:0:0:
448,192,37024,1,0,0:0:0:0:
192,192,37214,1,0,0:0:0:0:
320,192,37214,1,0,0:0:0:0:
64,192,37309,1,0,0:0:0:0:
448,192,37404,1,0,0:0:0:0:
64,192,37499,1,0,0:0:0:0:
448,192,37593,1,0,0:0:0:0:
192,192,37593,1,0,0:0:0:0:
192,192,37783,1,0,0:0:0:0:
320,192,37783,1,0,0:0:0:0:
320,192,37973,1,0,0:0:0:0:
64,192,37973,1,0,0:0:0:0:
192,192,38163,1,0,0:0:0:0:
448,192,38353,1,0,0:0:0:0:
320,192,38353,1,0,0:0:0:0:
192,192,38448,1,0,0:0:0:0:
64,192,38733,1,0,0:0:0:0:
448,192,38733,1,0,0:0:0:0:
320,192,38923,1,0,0:0:0:0:
64,192,39018,1,0,0:0:0:0:
192,192,39018,1,0,0:0:0:0:
448,192,39112,1,0,0:0:0:0:
192,192,39302,1,0,0:0:0:0:
448,192,39302,1,0,0:0:0:0:
320,192,39492,1,0,0:0:0:0:
64,192,39492,1,0,0:0:0:0:
448,192,39492,1,0,0:0:0:0:
64,192,39682,1,0,0:0:0:0:
320,192,39872,1,0,0:0:0:0:
192,192,39872,1,0,0:0:0:0:
448,192,39967,1,0,0:0:0:0:
64,192,40062,1,0,0:0:0:0:
448,192,40252,1,0,0:0:0:0:
64,192,40252,1,0,0:0:0:0:
320,192,40347,1,0,0:0:0:0:
192,192,40442,1,0,0:0:0:0:
320,192,40536,1,0,0:0:0:0:
192,192,40631,1,0,0:0:0:0:
64,192,40631,1,0,0:0:0:0:
448,192,40821,1,0,0:0:0:0:
64,192,41011,1,0,0:0:0:0:
320,192,41011,1,0,0:0:0:0:
192,192,41201,1,0,0:0:0:0:
448,192,41391,1,0,0:0:0:0:
320,192,41391,1,0,0:0:0:0:
64,192,41486,1,0,0:0:0:0:
320,192,41676,1,0,0:0:0:0:
64,192,41771,1,0,0:0:0:0:
192,192,41771,1,0,0:0:0:0:
448,192,41961,1,0,0:0:0:0:
320,192,42055,1,0,0:0:0:0:
64,192,42055,1,0,0:0:0:0:
192,192,42245,1,0,0:0:0:0:
448,192,42340,1,0,0:0:0:0:
320,192,42340,1,0,0:0:0:0:
448,192,42530,1,0,0:0:0:0:
64,192,42530,1,0,0:0:0:0:
64,192,42720,1,0,0:0:0:0:
320,192,42720,1,0,0:0:0:0:
448,192,42910,1,0,0:0:0:0:
64,192,42910,1,0,0:0:0:0:
192,192,42910,1,0,0:0:0:0:
320,192,43005,1,0,0:0:0:0:
64,192,43100,1,0,0:0:0:0:
448,192,43290,1,0,0:0:0:0:
192,192,43290,1,0,0:0:0:0:
320,192,43385,1,0,0:0:0:0:
320,192,43574,1,0,0:0:0:0:
192,192,43669,1,0,0:0:0:0:
64,192,43669,1,0,0:0:0:0:
64,192,43859,1,0,0:0:0:0:
448,192,43859,1,0,0:0:0:0:
448,192,44049,1,0,0:0:0:0:
192,192,44049,1,0,0:0:0:0:
320,192,44239,1,0,0:0:0:0:
64,192,44429,1,0,0:0:0:0:
192,192,44429,1,0,0:0:0:0:
448,192,44524,1,0,0:0:0:0:
64,192,44619,1,0,0:0:0:0:
320,192,44714,1,0,0:0:0:0:
192,192,44809,1,0,0:0:0:0:
448,192,44904,1,0,0:0:0:0:
320,192,44999,1,0,0:0:0:0:
64,192,45093,1,0,0:0:0:0:
448,192,45188,1,0,0:0:0:0:
192,192,45188,1,0,0:0:0:0:
320,192,45378,1,0,0:0:0:0:
64,192,45568,1,0,0:0:0:0:
320,192,45758,1,0,0:0:0:0:
448,192,45758,1,0,0:0:0:0:
192,192,45758,1,0,0:0:0:0:
448,192,45948,1,0,0:0:0:0:
192,192,45948,1,0,0:0:0:0:
64,192,45948,1,0,0:0:0:0:
320,192,46043,1,0,0:0:0:0:
64,192,46138,1,0,0:0:0:0:
448,192,46233,1,0,0:0:0:0:
320,192,46328,1,0,0:0:0:0:
192,192,46328,1,0,0:0:0:0:
448,192,46423,1,0,0:0:0:0:
64,192,46518,1,0,0:0:0:0:
448,192,46612,1,0,0:0:0:0:
64,192,46707,1,0,0:0:0:0:
192,192,46707,1,0,0:0:0:0:
448,192,46897,1,0,0:0:0:0:
192,192,46897,1,0,0:0:0:0:
64,192,47087,1,0,0:0:0:0:
448,192,47087,1,0,0:0:0:0:
320,192,47087,1,0,0:0:0:0:
64,192,47277,1,0,0:0:0:0:
192,192,47277,1,0,0:0:0:0:
448,192,47372,1,0,0:0:0:0:
192,192,47372,1,0,0:0:0:0:
448,192,47467,1,0,0:0:0:0:
320,192,47467,1,0,0:0:0:0:
192,192,47562,1,0,0:0:0:0:
320,192,47657,1,0,0:0:0:0:
64,192,47657,1,0,0:0:0:0:
448,192,47752,1,0,0:0:0:0:
64,192,47847,1,0,0:0:0:0:
320,192,47847,1,0,0:0:0:0:
192,192,47847,1,0,0:0:0:0:
192,192,48036,1,0,0:0:0:0:
448,192,48036,1,0,0:0:0:0:
64,192,48131,1,0,0:0:0:0:
448,192,48131,1,0,0:0:0:0:
320,192,48131,1,0,0:0:0:0:
320,192,48321,1,0,0:0:0:0:
192,192,48321,1,0,0:0:0:0:
448,192,48416,1,0,0:0:0:0:
192,192,48416,1,0,0:0:0:0:
64,192,48416,1,0,0:0:0:0:
192,192,48606,1,0,0:0:0:0:
64,192,48606,1,0,0:0:0:0:
448,192,48606,1,0,0:0:0:0:
320,192,48606,1,0,0:0:0:0:
64,192,48986,1,0,0:0:0:0:
448,192,48986,1,0,0:0:0:0:
320,192,49081,1,0,0:0:0:0:
192,192,49271,1,0,0:0:0:0:
448,192,49366,1,0,0:0:0:0:
64,192,49461,1,0,0:0:0:0:
192,192,49555,1,0,0:0:0:0:
320,192,49555,1,0,0:0:0:0:
448,192,49650,1,0,0:0:0:0:
64,192,49745,1,0,0:0:0:0:
320,192,49745,1,0,0:0:0:0:
448,192,49935,1,0,0:0:0:0:
192,192,49935,1,0,0:0:0:0:
192,192,50125,1,0,0:0:0:0:
64,192,50125,1,0,0:0:0:0:
320,192,50315,1,0,0:0:0:0:
64,192,50315,1,0,0:0:0:0:
448,192,50505,1,0,0:0:0:0:
64,192,50505,1,0,0:0:0:0:
64,192,50695,1,0,0:0:0:0:
192,192,50695,1,0,0:0:0:0:
320,192,50885,1,0,0:0:0:0:
192,192,50980,1,0,0:0:0:0:
448,192,51074,1,0,0:0:0:0:
64,192,51074,1,0,0:0:0:0:
64,192,51264,1,0,0:0:0:0:
320,192,51264,1,0,0:0:0:0:
192,192,51359,1,0,0:0:0:0:
448,192,51454,1,0,0:0:0:0:
192,192,51549,1,0,0:0:0:0:
448,192,51644,1,0,0:0:0:0:
64,192,51644,1,0,0:0:0:0:
320,192,51644,1,0,0:0:0:0:
320,192,51834,1,0,0:0:0:0:
448,192,52024,1,0,0:0:0:0:
64,192,52024,1,0,0:0:0:0:
192,192,52119,1,0,0:0:0:0:
320,192,52309,1,0,0:0:0:0:
192,192,52404,1,0,0:0:0:0:
64,192,52404,1,0,0:0:0:0:
448,192,52499,1,0,0:0:0:0:
64,192,52593,1,0,0:0:0:0:
320,192,52593,1,0,0:0:0:0:
192,192,52688,1,0,0:0:0:0:
320,192,52783,1,0,0:0:0:0:
448,192,52783,1,0,0:0:0:0:
320,192,52973,1,0,0:0:0:0:
64,192,52973,1,0,0:0:0:0:
64,192,53163,1,0,0:0:0:0:
448,192,53163,1,0,0:0:0:0:
448,192,53353,1,0,0:0:0:0:
192,192,53353,1,0,0:0:0:0:
64,192,53448,1,0,0:0:0:0:
320,192,53448,1,0,0:0:0:0:
192,192,53543,1,0,0:0:0:0:
448,192,53733,1,0,0:0:0:0:
64,192,53733,1,0,0:0:0:0:
192,192,53828,1,0,0:0:0:0:
320,192,53828,1,0,0:0:0:0:
448,192,53923,1,0,0:0:0:0:
64,192,53923,1,0,0:0:0:0:
448,192,54112,1,0,0:0:0:0:
192,192,54112,1,0,0:0:0:0:
320,192,54207,1,0,0:0:0:0:
192,192,54302,1,0,0:0:0:0:
64,192,54302,1,0,0:0:0:0:
320,192,54492,1,0,0:0:0:0:
448,192,54682,1,0,0:0:0:0:
192,192,54682,1,0,0:0:0:0:
64,192,54682,1,0,0:0:0:0:
320,192,54872,1,0,0:0:0:0:
192,192,54967,1,0,0:0:0:0:
448,192,55062,1,0,0:0:0:0:
64,192,55062,1,0,0:0:0:0:
192,192,55252,1,0,0:0:0:0:
320,192,55347,1,0,0:0:0:0:
64,192,55442,1,0,0:0:0:0:
448,192,55442,1,0,0:0:0:0:
320,192,55631,1,0,0:0:0:0:
448,192,55726,1,0,0:0:0:0:
64,192,55821,1,0,0:0:0:0:
192,192,55821,1,0,0:0:0:0:
320,192,56011,1,0,0:0:0:0:
64,192,56106,1,0,0:0:0:0:
448,192,56201,1,0,0:0:0:0:
192,192,56201,1,0,0:0:0:0:
320,192,56391,1,0,0:0:0:0:
64,192,56486,1,0,0:0:0:0:
320,192,56581,1,0,0:0:0:0:
192,192,56581,1,0,0:0:0:0:
448,192,56771,1,0,0:0:0:0:
64,192,56866,1,0,0:0:0:0:
448,192,56961,1,0,0:0:0:0:
192,192,56961,1,0,0:0:0:0:
320,192,57150,1,0,0:0:0:0:
448,192,57245,1,0,0:0:0:0:
192,192,57340,1,0,0:0:0:0:
64,192,57340,1,0,0:0:0:0:
320,192,57530,1,0,0:0:0:0:
192,192,57720,1,0,0:0:0:0:
64,192,57720,1,0,0:0:0:0:
320,192,57720,1,0,0:0:0:0:
448,192,57815,1,0,0:0:0:0:
192,192,57910,1,0,0:0:0:0:
64,192,57910,1,0,0:0:0:0:
448,192,58005,1,0,0:0:0:0:
64,192,58100,1,0,0:0:0:0:
320,192,58100,1,0,0:0:0:0:
192,192,58195,1,0,0:0:0:0:
448,192,58290,1,0,0:0:0:0:
320,192,58290,1,0,0:0:0:0:
192,192,58385,1,0,0:0:0:0:
448,192,58480,1,0,0:0:0:0:
64,192,58480,1,0,0:0:0:0:
320,192,58574,1,0,0:0:0:0:
64,192,58669,1,0,0:0:0:0:
192,192,58669,1,0,0:0:0:0:
448,192,58764,1,0,0:0:0:0:
64,192,58859,1,0,0:0:0:0:
320,192,58859,1,0,0:0:0:0:
448,192,58954,1,0,0:0:0:0:
320,192,59049,1,0,0:0:0:0:
192,192,59049,1,0,0:0:0:0:
448,192,59144,1,0,0:0:0:0:
64,192,59239,1,0,0:0:0:0:
192,192,59239,1,0,0:0:0:0:
320,192,59286,1,0,0:0:0:0:
448,192,59334,1,0,0:0:0:0:
192,192,59381,1,0,0:0:0:0:
320,192,59429,1,0,0:0:0:0:
64,192,59476,1,0,0:0:0:0:
192,192,59524,1,0,0:0:0:0:
448,192,59571,1,0,0:0:0:0:
320,192,59619,1,0,0:0:0:0:
192,192,59666,1,0,0:0:0:0:
448,192,59714,1,0,0:0:0:0:
320,192,59761,1,0,0:0:0:0:
64,192,59809,1,0,0:0:0:0:
192,192,59856,1,0,0:0:0:0:
320,192,59904,1,0,0:0:0:0:
64,192,59951,1,0,0:0:0:0:
192,192,59999,1,0,0:0:0:0:
448,192,60046,1,0,0:0:0:0:
320,192,60093,1,0,0:0:0:0:
192,192,60141,1,0,0:0:0:0:
64,192,60188,1,0,0:0:0:0:
320,192,60236,1,0,0:0:0:0:
448,192,60283,1,0,0:0:0:0:
192,192,60331,1,0,0:0:0:0:
320,192,60378,1,0,0:0:0:0:
448,192,60410,1,0,0:0:0:0:
64,192,60442,1,0,0:0:0:0:
192,192,60473,1,0,0:0:0:0:
448,192,60505,1,0,0:0:0:0:
320,192,60536,1,0,0:0:0:0:
192,192,60568,1,0,0:0:0:0:
64,192,60600,1,0,0:0:0:0:
320,192,60631,1,0,0:0:0:0:
448,192,60663,1,0,0:0:0:0:
192,192,60695,1,0,0:0:0:0:
320,192,60726,1,0,0:0:0:0:
448,192,60758,1,0,0:0:0:0:
64,192,60758,1,0,0:0:0:0:
448,192,60948,1,0,0:0:0:0:
320,192,60948,1,0,0:0:0:0:
320,192,61138,1,0,0:0:0:0:
192,192,61138,1,0,0:0:0:0:
192,192,61328,1,0,0:0:0:0:
64,192,61328,1,0,0:0:0:0:
320,192,61518,1,0,0:0:0:0:
64,192,61518,1,0,0:0:0:0:
192,192,61518,1,0,0:0:0:0:
448,192,61518,1,0,0:0:0:0:
192,192,61707,1,0,0:0:0:0:
64,192,61707,1,0,0:0:0:0:
320,192,61897,1,0,0:0:0:0:
192,192,61897,1,0,0:0:0:0:
448,192,62087,1,0,0:0:0:0:
320,192,62087,1,0,0:0:0:0:
64,192,62277,1,0,0:0:0:0:
192,192,62277,1,0,0:0:0:0:
320,192,62277,1,0,0:0:0:0:
448,192,62277,1,0,0:0:0:0:
320,192,62657,1,0,0:0:0:0:
192,192,62657,1,0,0:0:0:0:
64,192,62657,1,0,0:0:0:0:
448,192,62752,1,0,0:0:0:0:
192,192,63036,1,0,0:0:0:0:
64,192,63036,1,0,0:0:0:0:
448,192,63036,1,0,0:0:0:0:
320,192,63131,1,0,0:0:0:0:
192,192,63321,1,0,0:0:0:0:
448,192,63416,1,0,0:0:0:0:
64,192,63416,1,0,0:0:0:0:
320,192,63511,1,0,0:0:0:0:
192,192,63606,1,0,0:0:0:0:
192,192,63796,1,0,0:0:0:0:
320,192,63796,1,0,0:0:0:0:
64,192,63796,1,0,0:0:0:0:
448,192,63796,1,0,0:0:0:0:
320,192,63986,1,0,0:0:0:0:
448,192,64176,1,0,0:0:0:0:
192,192,64176,1,0,0:0:0:0:
64,192,64271,1,0,0:0:0:0:
320,192,64366,1,0,0:0:0:0:
448,192,64461,1,0,0:0:0:0:
192,192,64555,1,0,0:0:0:0:
320,192,64650,1,0,0:0:0:0:
64,192,64745,1,0,0:0:0:0:
448,192,64935,1,0,0:0:0:0:
192,192,64935,1,0,0:0:0:0:
320,192,65125,1,0,0:0:0:0:
448,192,65315,1,0,0:0:0:0:
192,192,65315,1,0,0:0:0:0:
64,192,65315,1,0,0:0:0:0:
320,192,65505,1,0,0:0:0:0:
64,192,65695,1,0,0:0:0:0:
192,192,65695,1,0,0:0:0:0:
448,192,65790,1,0,0:0:0:0:
320,192,65885,1,0,0:0:0:0:
192,192,65980,1,0,0:0:0:0:
320,192,66074,1,0,0:0:0:0:
64,192,66074,1,0,0:0:0:0:
448,192,66169,1,0,0:0:0:0:
192,192,66264,1,0,0:0:0:0:
448,192,66454,1,0,0:0:0:0:
320,192,66454,1,0,0:0:0:0:
320,192,66644,1,0,0:0:0:0:
64,192,66644,1,0,0:0:0:0:
448,192,66834,1,0,0:0:0:0:
192,192,66834,1,0,0:0:0:0:
320,192,67024,1,0,0:0:0:0:
64,192,67214,1,0,0:0:0:0:
448,192,67214,1,0,0:0:0:0:
192,192,67309,1,0,0:0:0:0:
320,192,67404,1,0,0:0:0:0:
448,192,67499,1,0,0:0:0:0:
64,192,67593,1,0,0:0:0:0:
192,192,67593,1,0,0:0:0:0:
320,192,67688,1,0,0:0:0:0:
64,192,67783,1,0,0:0:0:0:
448,192,67973,1,0,0:0:0:0:
320,192,67973,1,0,0:0:0:0:
192,192,67973,1,0,0:0:0:0:
448,192,68163,1,0,0:0:0:0:
64,192,68163,1,0,0:0:0:0:
192,192,68353,1,0,0:0:0:0:
320,192,68353,1,0,0:0:0:0:
320,192,68543,1,0,0:0:0:0:
448,192,68543,1,0,0:0:0:0:
448,192,68733,1,0,0:0:0:0:
64,192,68733,1,0,0:0:0:0:
320,192,68828,1,0,0:0:0:0:
192,192,68923,1,0,0:0:0:0:
64,192,69018,1,0,0:0:0:0:
448,192,69112,1,0,0:0:0:0:
320,192,69112,1,0,0:0:0:0:
192,192,69207,1,0,0:0:0:0:
64,192,69302,1,0,0:0:0:0:
320,192,69302,1,0,0:0:0:0:
64,192,69492,1,0,0:0:0:0:
448,192,69492,1,0,0:0:0:0:
192,192,69492,1,0,0:0:0:0:
320,192,69682,1,0,0:0:0:0:
448,192,69872,1,0,0:0:0:0:
64,192,69872,1,0,0:0:0:0:
192,192,69872,1,0,0:0:0:0:
320,192,69872,1,0,0:0:0:0:
192,192,70062,1,0,0:0:0:0:
320,192,70252,1,0,0:0:0:0:
448,192,70252,1,0,0:0:0:0:
64,192,70347,1,0,0:0:0:0:
192,192,70442,1,0,0:0:0:0:
320,192,70536,1,0,0:0:0:0:
192,192,70631,1,0,0:0:0:0:
448,192,70631,1,0,0:0:0:0:
64,192,70726,1,0,0:0:0:0:
320,192,70821,1,0,0:0:0:0:
64,192,71011,1,0,0:0:0:0:
192,192,71011,1,0,0:0:0:0:
448,192,71201,1,0,0:0:0:0:
320,192,71201,1,0,0:0:0:0:
448,192,71391,1,0,0:0:0:0:
64,192,71391,1,0,0:0:0:0:
192,192,71581,1,0,0:0:0:0:
448,192,71771,1,0,0:0:0:0:
320,192,71771,1,0,0:0:0:0:
64,192,71866,1,0,0:0:0:0:
320,192,71961,1,0,0:0:0:0:
192,192,72055,1,0,0:0:0:0:
448,192,72150,1,0,0:0:0:0:
64,192,72150,1,0,0:0:0:0:
320,192,72245,1,0,0:0:0:0:
64,192,72340,1,0,0:0:0:0:
192,192,72530,1,0,0:0:0:0:
320,192,72530,1,0,0:0:0:0:
448,192,72720,1,0,0:0:0:0:
320,192,72720,1,0,0:0:0:0:
64,192,72910,1,0,0:0:0:0:
192,192,73100,1,0,0:0:0:0:
320,192,73100,1,0,0:0:0:0:
64,192,73290,1,0,0:0:0:0:
448,192,73290,1,0,0:0:0:0:
320,192,73290,1,0,0:0:0:0:
192,192,73385,1,0,0:0:0:0:
320,192,73574,1,0,0:0:0:0:
192,192,73622,1,0,0:0:0:0:
448,192,73669,1,0,0:0:0:0:
64,192,73669,1,0,0:0:0:0:
320,192,73764,1,0,0:0:0:0:
64,192,73859,1,0,0:0:0:0:
192,192,73859,1,0,0:0:0:0:
448,192,73954,1,0,0:0:0:0:
320,192,74049,1,0,0:0:0:0:
192,192,74144,1,0,0:0:0:0:
64,192,74239,1,0,0:0:0:0:
448,192,74239,1,0,0:0:0:0:
320,192,74239,1,0,0:0:0:0:
192,192,74334,1,0,0:0:0:0:
64,192,74429,1,0,0:0:0:0:
448,192,74429,1,0,0:0:0:0:
448,192,74619,1,0,0:0:0:0:
320,192,74619,1,0,0:0:0:0:
192,192,74714,1,0,0:0:0:0:
320,192,74809,1,0,0:0:0:0:
64,192,74809,1,0,0:0:0:0:
192,192,74999,1,0,0:0:0:0:
448,192,74999,1,0,0:0:0:0:
320,192,75093,1,0,0:0:0:0:
64,192,75188,1,0,0:0:0:0:
192,192,75188,1,0,0:0:0:0:
320,192,75378,1,0,0:0:0:0:
192,192,75378,1,0,0:0:0:0:
448,192,75568,1,0,0:0:0:0:
320,192,75568,1,0,0:0:0:0:
64,192,75663,1,0,0:0:0:0:
320,192,75758,1,0,0:0:0:0:
192,192,75758,1,0,0:0:0:0:
448,192,75853,1,0,0:0:0:0:
192,192,75948,1,0,0:0:0:0:
320,192,75948,1,0,0:0:0:0:
64,192,75948,1,0,0:0:0:0:
192,192,76138,1,0,0:0:0:0:
448,192,76138,1,0,0:0:0:0:
448,192,76328,1,0,0:0:0:0:
64,192,76328,1,0,0:0:0:0:
320,192,76423,1,0,0:0:0:0:
192,192,76518,1,0,0:0:0:0:
448,192,76612,1,0,0:0:0:0:
320,192,76707,1,0,0:0:0:0:
192,192,76707,1,0,0:0:0:0:
64,192,76802,1,0,0:0:0:0:
320,192,76897,1,0,0:0:0:0:
192,192,76992,1,0,0:0:0:0:
64,192,77087,1,0,0:0:0:0:
448,192,77087,1,0,0:0:0:0:
320,192,77182,1,0,0:0:0:0:
192,192,77277,1,0,0:0:0:0:
192,192,77467,1,0,0:0:0:0:
320,192,77467,1,0,0:0:0:0:
448,192,77562,1,0,0:0:0:0:
64,192,77657,1,0,0:0:0:0:
192,192,77847,1,0,0:0:0:0:
448,192,77847,1,0,0:0:0:0:
320,192,77942,1,0,0:0:0:0:
448,192,78036,1,0,0:0:0:0:
64,192,78131,1,0,0:0:0:0:
448,192,78226,1,0,0:0:0:0:
320,192,78226,1,0,0:0:0:0:
64,192,78321,1,0,0:0:0:0:
320,192,78416,1,0,0:0:0:0:
192,192,78416,1,0,0:0:0:0:
192,192,78606,1,0,0:0:0:0:
448,192,78606,1,0,0:0:0:0:
64,192,78796,1,0,0:0:0:0:
448,192,78796,1,0,0:0:0:0:
320,192,78986,1,0,0:0:0:0:
448,192,78986,1,0,0:0:0:0:
64,192,78986,1,0,0:0:0:0:
192,192,78986,1,0,0:0:0:0:
320,192,79176,1,0,0:0:0:0:
192,192,79366,1,0,0:0:0:0:
64,192,79366,1,0,0:0:0:0:
448,192,79461,1,0,0:0:0:0:
320,192,79555,1,0,0:0:0:0:
192,192,79650,1,0,0:0:0:0:
448,192,79745,1,0,0:0:0:0:
320,192,79745,1,0,0:0:0:0:
64,192,79840,1,0,0:0:0:0:
320,192,79935,1,0,0:0:0:0:
192,192,80125,1,0,0:0:0:0:
64,192,80125,1,0,0:0:0:0:
448,192,80315,1,0,0:0:0:0:
320,192,80505,1,0,0:0:0:0:
448,192,80505,1,0,0:0:0:0:
64,192,80505,1,0,0:0:0:0:
192,192,80505,1,0,0:0:0:0:
64,192,80695,1,0,0:0:0:0:
320,192,80885,1,0,0:0:0:0:
64,192,80885,1,0,0:0:0:0:
448,192,80980,1,0,0:0:0:0:
192,192,81074,1,0,0:0:0:0:
448,192,81169,1,0,0:0:0:0:
320,192,81169,1,0,0:0:0:0:
448,192,81264,1,0,0:0:0:0:
64,192,81264,1,0,0:0:0:0:
192,192,81359,1,0,0:0:0:0:
64,192,81454,1,0,0:0:0:0:
320,192,81454,1,0,0:0:0:0:
320,192,81644,1,0,0:0:0:0:
448,192,81644,1,0,0:0:0:0:
192,192,81739,1,0,0:0:0:0:
320,192,81834,1,0,0:0:0:0:
64,192,81834,1,0,0:0:0:0:
448,192,81929,1,0,0:0:0:0:
64,192,82024,1,0,0:0:0:0:
320,192,82024,1,0,0:0:0:0:
192,192,82024,1,0,0:0:0:0:
448,192,82214,1,0,0:0:0:0:
192,192,82214,1,0,0:0:0:0:
192,192,82404,1,0,0:0:0:0:
320,192,82404,1,0,0:0:0:0:
64,192,82499,1,0,0:0:0:0:
320,192,82593,1,0,0:0:0:0:
448,192,82688,1,0,0:0:0:0:
64,192,82783,1,0,0:0:0:0:
192,192,82783,1,0,0:0:0:0:
448,192,82878,1,0,0:0:0:0:
320,192,82973,1,0,0:0:0:0:
192,192,83163,1,0,0:0:0:0:
320,192,83163,1,0,0:0:0:0:
448,192,83258,1,0,0:0:0:0:
320,192,83353,1,0,0:0:0:0:
64,192,83448,1,0,0:0:0:0:
192,192,83543,1,0,0:0:0:0:
448,192,83543,1,0,0:0:0:0:
64,192,83733,1,0,0:0:0:0:
320,192,83923,1,0,0:0:0:0:
192,192,83923,1,0,0:0:0:0:
448,192,84018,1,0,0:0:0:0:
64,192,84207,1,0,0:0:0:0:
192,192,84302,1,0,0:0:0:0:
320,192,84302,1,0,0:0:0:0:
448,192,84397,1,0,0:0:0:0:
64,192,84492,1,0,0:0:0:0:
192,192,84492,1,0,0:0:0:0:
448,192,84682,1,0,0:0:0:0:
64,192,84682,1,0,0:0:0:0:
320,192,84872,1,0,0:0:0:0:
192,192,85062,1,0,0:0:0:0:
320,192,85062,1,0,0:0:0:0:
64,192,85062,1,0,0:0:0:0:
448,192,85062,1,0,0:0:0:0:
192,192,85157,1,0,0:0:0:0:
320,192,85252,1,0,0:0:0:0:
448,192,85252,1,0,0:0:0:0:
64,192,85442,1,0,0:0:0:0:
320,192,85442,1,0,0:0:0:0:
192,192,85536,1,0,0:0:0:0:
448,192,85726,1,0,0:0:0:0:
320,192,85821,1,0,0:0:0:0:
192,192,85821,1,0,0:0:0:0:
64,192,85916,1,0,0:0:0:0:
192,192,86011,1,0,0:0:0:0:
320,192,86106,1,0,0:0:0:0:
64,192,86201,1,0,0:0:0:0:
448,192,86201,1,0,0:0:0:0:
448,192,86391,1,0,0:0:0:0:
64,192,86391,1,0,0:0:0:0:
192,192,86391,1,0,0:0:0:0:
320,192,86391,1,0,0:0:0:0:
448,192,86771,1,0,0:0:0:0:
320,192,86771,1,0,0:0:0:0:
192,192,86771,1,0,0:0:0:0:
448,192,86961,1,0,0:0:0:0:
192,192,86961,1,0,0:0:0:0:
64,192,86961,1,0,0:0:0:0:
192,192,87150,1,0,0:0:0:0:
64,192,87150,1,0,0:0:0:0:
320,192,87150,1,0,0:0:0:0:
64,192,87340,1,0,0:0:0:0:
448,192,87340,1,0,0:0:0:0:
320,192,87340,1,0,0:0:0:0:
192,192,87530,1,0,0:0:0:0:
64,192,87578,1,0,0:0:0:0:
320,192,87625,1,0,0:0:0:0:
192,192,87673,1,0,0:0:0:0:
320,192,87720,1,0,0:0:0:0:
64,192,87720,1,0,0:0:0:0:
448,192,87720,1,0,0:0:0:0:
320,192,88100,1,0,0:0:0:0:
448,192,88100,1,0,0:0:0:0:
64,192,88100,1,0,0:0:0:0:
192,192,88100,1,0,0:0:0:0:
192,192,88195,1,0,0:0:0:0:
448,192,88290,1,0,0:0:0:0:
64,192,88385,1,0,0:0:0:0:
320,192,88385,1,0,0:0:0:0:
192,192,88480,1,0,0:0:0:0:
320,192,88574,1,0,0:0:0:0:
448,192,88669,1,0,0:0:0:0:
64,192,88669,1,0,0:0:0:0:
192,192,88764,1,0,0:0:0:0:
448,192,88859,1,0,0:0:0:0:
320,192,88954,1,0,0:0:0:0:
64,192,89049,1,0,0:0:0:0:
192,192,89049,1,0,0:0:0:0:
320,192,89144,1,0,0:0:0:0:
192,192,89239,1,0,0:0:0:0:
448,192,89334,1,0,0:0:0:0:
64,192,89429,1,0,0:0:0:0:
320,192,89524,1,0,0:0:0:0:
64,192,89619,1,0,0:0:0:0:
192,192,89619,1,0,0:0:0:0:
448,192,89619,1,0,0:0:0:0:
320,192,89809,1,0,0:0:0:0:
192,192,89999,1,0,0:0:0:0:
64,192,89999,1,0,0:0:0:0:
320,192,90188,1,0,0:0:0:0:
64,192,90378,1,0,0:0:0:0:
448,192,90378,1,0,0:0:0:0:
448,192,90568,1,0,0:0:0:0:
192,192,90568,1,0,0:0:0:0:
64,192,90663,1,0,0:0:0:0:
448,192,90758,1,0,0:0:0:0:
320,192,90758,1,0,0:0:0:0:
192,192,90853,1,0,0:0:0:0:
64,192,90948,1,0,0:0:0:0:
320,192,90948,1,0,0:0:0:0:
448,192,91043,1,0,0:0:0:0:
64,192,91138,1,0,0:0:0:0:
192,192,91138,1,0,0:0:0:0:
320,192,91138,1,0,0:0:0:0:
448,192,91233,1,0,0:0:0:0:
320,192,91328,1,0,0:0:0:0:
448,192,91423,1,0,0:0:0:0:
64,192,91423,1,0,0:0:0:0:
192,192,91518,1,0,0:0:0:0:
320,192,91612,1,0,0:0:0:0:
448,192,91707,1,0,0:0:0:0:
192,192,91707,1,0,0:0:0:0:
64,192,91802,1,0,0:0:0:0:
320,192,91897,1,0,0:0:0:0:
192,192,91992,1,0,0:0:0:0:
448,192,92087,1,0,0:0:0:0:
320,192,92087,1,0,0:0:0:0:
64,192,92182,1,0,0:0:0:0:
448,192,92277,1,0,0:0:0:0:
192,192,92372,1,0,0:0:0:0:
320,192,92467,1,0,0:0:0:0:
192,192,92562,1,0,0:0:0:0:
448,192,92657,1,0,0:0:0:0:
320,192,92657,1,0,0:0:0:0:
64,192,92657,1,0,0:0:0:0:
192,192,92847,1,0,0:0:0:0:
448,192,93036,1,0,0:0:0:0:
320,192,93036,1,0,0:0:0:0:
192,192,93226,1,0,0:0:0:0:
320,192,93416,1,0,0:0:0:0:
64,192,93416,1,0,0:0:0:0:
192,192,93606,1,0,0:0:0:0:
448,192,93606,1,0,0:0:0:0:
64,192,93701,1,0,0:0:0:0:
192,192,93796,1,0,0:0:0:0:
320,192,93796,1,0,0:0:0:0:
448,192,93891,1,0,0:0:0:0:
64,192,93986,1,0,0:0:0:0:
320,192,93986,1,0,0:0:0:0:
448,192,94081,1,0,0:0:0:0:
64,192,94176,1,0,0:0:0:0:
192,192,94176,1,0,0:0:0:0:
320,192,94223,1,0,0:0:0:0:
448,192,94271,1,0,0:0:0:0:
192,192,94318,1,0,0:0:0:0:
320,192,94366,1,0,0:0:0:0:
64,192,94413,1,0,0:0:0:0:
192,192,94461,1,0,0:0:0:0:
320,192,94508,1,0,0:0:0:0:
448,192,94555,1,0,0:0:0:0:
192,192,94603,1,0,0:0:0:0:
64,192,94650,1,0,0:0:0:0:
320,192,94698,1,0,0:0:0:0:
192,192,94745,1,0,0:0:0:0:
64,192,94793,1,0,0:0:0:0:
320,192,94840,1,0,0:0:0:0:
448,192,94888,1,0,0:0:0:0:
64,192,94935,1,0,0:0:0:0:
192,192,94983,1,0,0:0:0:0:
320,192,95030,1,0,0:0:0:0:
64,192,95078,1,0,0:0:0:0:
192,192,95125,1,0,0:0:0:0:
448,192,95173,1,0,0:0:0:0:
320,192,95220,1,0,0:0:0:0:
192,192,95268,1,0,0:0:0:0:
320,192,95315,1,0,0:0:0:0:
448,192,95315,1,0,0:0:0:0:
64,192,95315,1,0,0:0:0:0:
448,192,95505,1,0,0:0:0:0:
192,192,95505,1,0,0:0:0:0:
448,192,95695,1,0,0:0:0:0:
64,192,95695,1,0,0:0:0:0:
192,192,95742,1,0,0:0:0:0:
320,192,95790,1,0,0:0:0:0:
448,192,95837,1,0,0:0:0:0:
64,192,95885,1,0,0:0:0:0:
192,192,95932,1,0,0:0:0:0:
448,192,95980,1,0,0:0:0:0:
320,192,96027,1,0,0:0:0:0:
192,192,96074,1,0,0:0:0:0:
448,192,96122,1,0,0:0:0:0:
320,192,96169,1,0,0:0:0:0:
192,192,96217,1,0,0:0:0:0:
64,192,96264,1,0,0:0:0:0:
320,192,96312,1,0,0:0:0:0:
192,192,96359,1,0,0:0:0:0:
448,192,96407,1,0,0:0:0:0:
320,192,96454,1,0,0:0:0:0:
64,192,96502,1,0,0:0:0:0:
192,192,96549,1,0,0:0:0:0:
320,192,96597,1,0,0:0:0:0:
64,192,96644,1,0,0:0:0:0:
192,192,96692,1,0,0:0:0:0:
448,192,96739,1,0,0:0:0:0:
320,192,96786,1,0,0:0:0:0:
64,192,96834,1,0,0:0:0:0:
192,192,96834,1,0,0:0:0:0:
320,192,97024,1,0,0:0:0:0:
64,192,97024,1,0,0:0:0:0:
320,192,97214,1,0,0:0:0:0:
448,192,97214,1,0,0:0:0:0:
192,192,97261,1,0,0:0:0:0:
64,192,97309,1,0,0:0:0:0:
320,192,97356,1,0,0:0:0:0:
192,192,97404,1,0,0:0:0:0:
448,192,97451,1,0,0:0:0:0:
320,192,97499,1,0,0:0:0:0:
192,192,97546,1,0,0:0:0:0:
448,192,97593,1,0,0:0:0:0:
64,192,97593,1,0,0:0:0:0:
192,192,97688,1,0,0:0:0:0:
448,192,97783,1,0,0:0:0:0:
320,192,97783,1,0,0:0:0:0:
192,192,97973,1,0,0:0:0:0:
64,192,97973,1,0,0:0:0:0:
320,192,98021,1,0,0:0:0:0:
448,192,98068,1,0,0:0:0:0:
192,192,98116,1,0,0:0:0:0:
320,192,98163,1,0,0:0:0:0:
64,192,98211,1,0,0:0:0:0:
192,192,98258,1,0,0:0:0:0:
320,192,98305,1,0,0:0:0:0:
64,192,98353,1,0,0:0:0:0:
448,192,98353,1,0,0:0:0:0:
320,192,98448,1,0,0:0:0:0:
64,192,98543,1,0,0:0:0:0:
448,192,98543,1,0,0:0:0:0:
192,192,98638,1,0,0:0:0:0:
448,192,98733,1,0,0:0:0:0:
320,192,98764,1,0,0:0:0:0:
192,192,98796,1,0,0:0:0:0:
64,192,98828,1,0,0:0:0:0:
320,192,98859,1,0,0:0:0:0:
448,192,98891,1,0,0:0:0:0:
64,192,98923,1,0,0:0:0:0:
192,192,98954,1,0,0:0:0:0:
320,192,98986,1,0,0:0:0:0:
448,192,99018,1,0,0:0:0:0:
64,192,99049,1,0,0:0:0:0:
192,192,99081,1,0,0:0:0:0:
448,192,99144,1,0,0:0:0:0:
320,192,99176,1,0,0:0:0:0:
192,192,99207,1,0,0:0:0:0:
64,192,99239,1,0,0:0:0:0:
448,192,99271,1,0,0:0:0:0:
320,192,99302,1,0,0:0:0:0:
64,192,99334,1,0,0:0:0:0:
192,192,99366,1,0,0:0:0:0:
320,192,99397,1,0,0:0:0:0:
448,192,99429,1,0,0:0:0:0:
192,192,99461,1,0,0:0:0:0:
64,192,99492,1,0,0:0:0:0:
320,192,99524,1,0,0:0:0:0:
448,192,99555,1,0,0:0:0:0:
64,192,99587,1,0,0:0:0:0:
192,192,99619,1,0,0:0:0:0:
320,192,99650,1,0,0:0:0:0:
448,192,99682,1,0,0:0:0:0:
64,192,99714,1,0,0:0:0:0:
192,192,99745,1,0,0:0:0:0:
448,192,99777,1,0,0:0:0:0:
320,192,99809,1,0,0:0:0:0:
192,192,99840,1,0,0:0:0:0:
64,192,99872,1,0,0:0:0:0:
320,192,99904,1,0,0:0:0:0:
448,192,99935,1,0,0:0:0:0:
64,192,99967,1,0,0:0:0:0:
192,192,99999,1,0,0:0:0:0:
320,192,100030,1,0,0:0:0:0:
448,192,100062,1,0,0:0:0:0:
64,192,100093,1,0,0:0:0:0:
192,192,100125,1,0,0:0:0:0:
448,192,100157,1,0,0:0:0:0:
320,192,100188,1,0,0:0:0:0:
192,192,100220,1,0,0:0:0:0:
448,192,100252,1,0,0:0:0:0:
64,192,100252,1,0,0:0:0:0:
448,192,100442,1,0,0:0:0:0:
192,192,100442,1,0,0:0:0:0:
192,192,100631,1,0,0:0:0:0:
320,192,100631,1,0,0:0:0:0:
320,192,100821,1,0,0:0:0:0:
448,192,100821,1,0,0:0:0:0:
320,192,101011,1,0,0:0:0:0:
448,192,101011,1,0,0:0:0:0:
64,192,101011,1,0,0:0:0:0:
192,192,101011,1,0,0:0:0:0:
192,192,101201,1,0,0:0:0:0:
448,192,101201,1,0,0:0:0:0:
192,192,101391,1,0,0:0:0:0:
320,192,101391,1,0,0:0:0:0:
64,192,101581,1,0,0:0:0:0:
192,192,101581,1,0,0:0:0:0:
320,192,101771,1,0,0:0:0:0:
448,192,101771,1,0,0:0:0:0:
64,192,101771,1,0,0:0:0:0:
192,192,101866,1,0,0:0:0:0:
320,192,102150,1,0,0:0:0:0:
192,192,102150,1,0,0:0:0:0:
64,192,102150,1,0,0:0:0:0:
448,192,102245,1,0,0:0:0:0:
320,192,102340,1,0,0:0:0:0:
192,192,102530,1,0,0:0:0:0:
64,192,102530,1,0,0:0:0:0:
448,192,102530,1,0,0:0:0:0:
320,192,102625,1,0,0:0:0:0:
192,192,102720,1,0,0:0:0:0:
448,192,102910,1,0,0:0:0:0:
192,192,102910,1,0,0:0:0:0:
320,192,102910,1,0,0:0:0:0:
64,192,103005,1,0,0:0:0:0:
192,192,103100,1,0,0:0:0:0:
320,192,103195,1,0,0:0:0:0:
64,192,103290,1,0,0:0:0:0:
192,192,103290,1,0,0:0:0:0:
320,192,103290,1,0,0:0:0:0:
448,192,103290,1,0,0:0:0:0:
448,192,103480,1,0,0:0:0:0:
320,192,103574,1,0,0:0:0:0:
192,192,103669,1,0,0:0:0:0:
64,192,103669,1,0,0:0:0:0:
320,192,103764,1,0,0:0:0:0:
448,192,103859,1,0,0:0:0:0:
192,192,103954,1,0,0:0:0:0:
448,192,104049,1,0,0:0:0:0:
320,192,104049,1,0,0:0:0:0:
192,192,104144,1,0,0:0:0:0:
64,192,104239,1,0,0:0:0:0:
320,192,104334,1,0,0:0:0:0:
64,192,104429,1,0,0:0:0:0:
192,192,104429,1,0,0:0:0:0:
192,192,104619,1,0,0:0:0:0:
448,192,104619,1,0,0:0:0:0:
64,192,104714,1,0,0:0:0:0:
448,192,104809,1,0,0:0:0:0:
320,192,104809,1,0,0:0:0:0:
192,192,104999,1,0,0:0:0:0:
320,192,105093,1,0,0:0:0:0:
64,192,105188,1,0,0:0:0:0:
448,192,105188,1,0,0:0:0:0:
192,192,105283,1,0,0:0:0:0:
320,192,105378,1,0,0:0:0:0:
64,192,105473,1,0,0:0:0:0:
320,192,105568,1,0,0:0:0:0:
448,192,105568,1,0,0:0:0:0:
192,192,105663,1,0,0:0:0:0:
64,192,105758,1,0,0:0:0:0:
320,192,105853,1,0,0:0:0:0:
448,192,105948,1,0,0:0:0:0:
192,192,105948,1,0,0:0:0:0:
64,192,106138,1,0,0:0:0:0:
448,192,106138,1,0,0:0:0:0:
320,192,106233,1,0,0:0:0:0:
448,192,106328,1,0,0:0:0:0:
64,192,106328,1,0,0:0:0:0:
192,192,106328,1,0,0:0:0:0:
64,192,106518,1,0,0:0:0:0:
448,192,106612,1,0,0:0:0:0:
192,192,106612,1,0,0:0:0:0:
448,192,106707,1,0,0:0:0:0:
320,192,106707,1,0,0:0:0:0:
192,192,106802,1,0,0:0:0:0:
320,192,106897,1,0,0:0:0:0:
64,192,106897,1,0,0:0:0:0:
448,192,106992,1,0,0:0:0:0:
320,192,107182,1,0,0:0:0:0:
192,192,107182,1,0,0:0:0:0:
192,192,107277,1,0,0:0:0:0:
64,192,107277,1,0,0:0:0:0:
320,192,107372,1,0,0:0:0:0:
192,192,107467,1,0,0:0:0:0:
64,192,107467,1,0,0:0:0:0:
448,192,107467,1,0,0:0:0:0:
448,192,107657,1,0,0:0:0:0:
320,192,107657,1,0,0:0:0:0:
64,192,107752,1,0,0:0:0:0:
320,192,107847,1,0,0:0:0:0:
192,192,107847,1,0,0:0:0:0:
64,192,107942,1,0,0:0:0:0:
448,192,107942,1,0,0:0:0:0:
448,192,108131,1,0,0:0:0:0:
192,192,108131,1,0,0:0:0:0:
64,192,108226,1,0,0:0:0:0:
320,192,108226,1,0,0:0:0:0:
192,192,108321,1,0,0:0:0:0:
448,192,108416,1,0,0:0:0:0:
320,192,108416,1,0,0:0:0:0:
192,192,108511,1,0,0:0:0:0:
64,192,108511,1,0,0:0:0:0:
192,192,108701,1,0,0:0:0:0:
320,192,108701,1,0,0:0:0:0:
64,192,108796,1,0,0:0:0:0:
448,192,108796,1,0,0:0:0:0:
448,192,108986,1,0,0:0:0:0:
192,192,108986,1,0,0:0:0:0:
192,192,109176,1,0,0:0:0:0:
64,192,109176,1,0,0:0:0:0:
320,192,109271,1,0,0:0:0:0:
320,192,109366,1,0,0:0:0:0:
192,192,109366,1,0,0:0:0:0:
448,192,109366,1,0,0:0:0:0:
64,192,109461,1,0,0:0:0:0:
448,192,109555,1,0,0:0:0:0:
448,192,109745,1,0,0:0:0:0:
320,192,109745,1,0,0:0:0:0:
64,192,109745,1,0,0:0:0:0:
192,192,109840,1,0,0:0:0:0:
448,192,109935,1,0,0:0:0:0:
320,192,110030,1,0,0:0:0:0:
192,192,110125,1,0,0:0:0:0:
64,192,110125,1,0,0:0:0:0:
320,192,110220,1,0,0:0:0:0:
448,192,110315,1,0,0:0:0:0:
192,192,110410,1,0,0:0:0:0:
448,192,110505,1,0,0:0:0:0:
320,192,110505,1,0,0:0:0:0:
192,192,110600,1,0,0:0:0:0:
448,192,110695,1,0,0:0:0:0:
64,192,110695,1,0,0:0:0:0:
320,192,110790,1,0,0:0:0:0:
448,192,110885,1,0,0:0:0:0:
64,192,110885,1,0,0:0:0:0:
192,192,110885,1,0,0:0:0:0:
320,192,110980,1,0,0:0:0:0:
192,192,111074,1,0,0:0:0:0:
448,192,111169,1,0,0:0:0:0:
64,192,111264,1,0,0:0:0:0:
192,192,111264,1,0,0:0:0:0:
320,192,111264,1,0,0:0:0:0:
448,192,111359,1,0,0:0:0:0:
64,192,111454,1,0,0:0:0:0:
320,192,111549,1,0,0:0:0:0:
64,192,111644,1,0,0:0:0:0:
192,192,111644,1,0,0:0:0:0:
320,192,111739,1,0,0:0:0:0:
64,192,111834,1,0,0:0:0:0:
448,192,111834,1,0,0:0:0:0:
192,192,111929,1,0,0:0:0:0:
448,192,112024,1,0,0:0:0:0:
320,192,112024,1,0,0:0:0:0:
192,192,112087,1,0,0:0:0:0:
448,192,112150,1,0,0:0:0:0:
320,192,112214,1,0,0:0:0:0:
64,192,112277,1,0,0:0:0:0:
192,192,112340,1,0,0:0:0:0:
64,192,112404,1,0,0:0:0:0:
320,192,112404,1,0,0:0:0:0:
448,192,112404,1,0,0:0:0:0:
320,192,112530,1,0,0:0:0:0:
192,192,112530,1,0,0:0:0:0:
192,192,112657,1,0,0:0:0:0:
64,192,112657,1,0,0:0:0:0:
320,192,112783,1,0,0:0:0:0:
448,192,112783,1,0,0:0:0:0:
64,192,112783,1,0,0:0:0:0:
192,192,112783,1,0,0:0:0:0:
320,192,112878,1,0,0:0:0:0:
64,192,112973,1,0,0:0:0:0:
448,192,112973,1,0,0:0:0:0:
192,192,113021,1,0,0:0:0:0:
320,192,113068,1,0,0:0:0:0:
448,192,113116,1,0,0:0:0:0:
64,192,113163,1,0,0:0:0:0:
192,192,113163,1,0,0:0:0:0:
320,192,113258,1,0,0:0:0:0:
448,192,113353,1,0,0:0:0:0:
192,192,113353,1,0,0:0:0:0:
192,192,113448,1,0,0:0:0:0:
64,192,113448,1,0,0:0:0:0:
320,192,113448,1,0,0:0:0:0:
448,192,113543,1,0,0:0:0:0:
192,192,113638,1,0,0:0:0:0:
64,192,113733,1,0,0:0:0:0:
448,192,113733,1,0,0:0:0:0:
320,192,113733,1,0,0:0:0:0:
320,192,113923,1,0,0:0:0:0:
448,192,113923,1,0,0:0:0:0:
192,192,113923,1,0,0:0:0:0:
64,192,113923,1,0,0:0:0:0:
64,192,114112,1,0,0:0:0:0:
320,192,114112,1,0,0:0:0:0:
192,192,114207,1,0,0:0:0:0:
448,192,114302,1,0,0:0:0:0:
64,192,114397,1,0,0:0:0:0:
448,192,114492,1,0,0:0:0:0:
320,192,114492,1,0,0:0:0:0:
192,192,114587,1,0,0:0:0:0:
64,192,114682,1,0,0:0:0:0:
320,192,114682,1,0,0:0:0:0:
448,192,114777,1,0,0:0:0:0:
320,192,114872,1,0,0:0:0:0:
192,192,114872,1,0,0:0:0:0:
64,192,114967,1,0,0:0:0:0:
448,192,115062,1,0,0:0:0:0:
192,192,115062,1,0,0:0:0:0:
64,192,115157,1,0,0:0:0:0:
320,192,115252,1,0,0:0:0:0:
192,192,115299,1,0,0:0:0:0:
448,192,115347,1,0,0:0:0:0:
320,192,115394,1,0,0:0:0:0:
64,192,115442,1,0,0:0:0:0:
192,192,115442,1,0,0:0:0:0:
320,192,115631,1,0,0:0:0:0:
192,192,115695,1,0,0:0:0:0:
320,192,115758,1,0,0:0:0:0:
192,192,115821,1,0,0:0:0:0:
192,192,115916,1,0,0:0:0:0:
448,192,116011,1,0,0:0:0:0:
320,192,116011,1,0,0:0:0:0:
64,192,116138,1,0,0:0:0:0:
320,192,116201,1,0,0:0:0:0:
192,192,116296,1,0,0:0:0:0:
448,192,116391,128,0,116771:0:0:0:0:
192,192,116581,1,0,0:0:0:0:
320,192,116707,1,0,0:0:0:0:
64,192,116771,128,0,116961:0:0:0:0:
192,192,116834,1,0,0:0:0:0:
448,192,116961,1,0,0:0:0:0:
320,192,116961,1,0,0:0:0:0:
192,192,117150,1,0,0:0:0:0:
192,192,117245,1,0,0:0:0:0:
448,192,117435,1,0,0:0:0:0:
448,192,117530,1,0,0:0:0:0:
320,192,117720,1,0,0:0:0:0:
64,192,117720,1,0,0:0:0:0:
64,192,117815,1,0,0:0:0:0:
320,192,117910,1,0,0:0:0:0:
320,192,118005,1,0,0:0:0:0:
320,192,118100,1,0,0:0:0:0:
64,192,118195,1,0,0:0:0:0:
64,192,118290,1,0,0:0:0:0:
448,192,118480,1,0,0:0:0:0:
192,192,118480,1,0,0:0:0:0:
448,192,118574,1,0,0:0:0:0:
320,192,118733,1,0,0:0:0:0:
64,192,118796,1,0,0:0:0:0:
320,192,118859,1,0,0:0:0:0:
64,192,118923,1,0,0:0:0:0:
448,192,119049,1,0,0:0:0:0:
64,192,119049,1,0,0:0:0:0:
448,192,119239,1,0,0:0:0:0:
192,192,119239,1,0,0:0:0:0:
320,192,119334,1,0,0:0:0:0:
192,192,119429,1,0,0:0:0:0:
448,192,119524,1,0,0:0:0:0:
320,192,119619,1,0,0:0:0:0:
64,192,119809,1,0,0:0:0:0:
320,192,119904,1,0,0:0:0:0:
448,192,119999,1,0,0:0:0:0:
192,192,119999,1,0,0:0:0:0:
