osu file format v14

[General]
AudioFilename: audio.mp3
AudioLeadIn: 0
PreviewTime: 76057
Countdown: 1
SampleSet: Soft
StackLeniency: 0.7
Mode: 0
LetterboxInBreaks: 0
WidescreenStoryboard: 1

[Editor]
Bookmarks: 9706,17274,24841,33489,42138,50786,59435,68084,76732,85381,94030,101597,109165,117813,126462,135110,143759,152408,161056,169705,178354,187002,195651,204300,212948,220515,228083
DistanceSpacing: 1
BeatDivisor: 4
GridSize: 16
TimelineZoom: 2.100001

[Metadata]
Title:Hakuraku
TitleUnicode:雹落
Artist:Camellia feat. Nanahira
ArtistUnicode:かめりあ feat. ななひら
Creator:Hinsvar
Version:Insane
Source:
Tags:Confetto Japanese Rock J-Rock JRock ばーさす! Versus! Meltical sugar wave Featured Artist FA Mappers' Guild MG MPG
BeatmapID:4418011
BeatmapSetID:2105591

[Difficulty]
HPDrainRate:5
CircleSize:3.5
OverallDifficulty:8
ApproachRate:9
SliderMultiplier:1.44
SliderTickRate:1

[Events]
//Background and Video events
0,0,"BG.jpg",0,0
//Break Periods
//Storyboard Layer 0 (Background)
//Storyboard Layer 1 (Fail)
//Storyboard Layer 2 (Pass)
//Storyboard Layer 3 (Foreground)
//Storyboard Layer 4 (Overlay)
//Storyboard Sound Samples

[TimingPoints]
2139,270.27027027027,7,2,1,70,1,0
9706,-100,7,2,1,80,0,0
24841,270.27027027027,4,2,1,60,1,0
24841,-200,4,2,1,60,0,0
42138,-133.333333333333,4,2,1,70,0,0
59435,-100,4,2,1,75,0,0
60786,-200,4,2,1,60,0,0
61597,-100,4,2,1,75,0,0
63219,-200,4,2,1,60,0,0
63759,-100,4,2,1,75,0,0
69435,-200,4,2,1,60,0,0
70246,-100,4,2,1,75,0,0
71597,-200,4,2,1,60,0,0
72408,-100,4,2,1,75,0,0
74840,-200,4,2,1,75,0,0
76192,-133.333333333333,4,2,1,75,0,0
76732,-80,4,2,1,85,0,1
94030,270.27027027027,7,2,1,80,1,0
109165,270.27027027027,4,2,1,60,1,0
109165,-200,4,2,1,60,0,0
126462,-133.333333333333,4,2,1,70,0,0
143759,-100,4,2,1,75,0,0
145110,-200,4,2,1,75,0,0
145921,-100,4,2,1,75,0,0
147543,-200,4,2,1,75,0,0
148083,-100,4,2,1,75,0,0
153759,-200,4,2,1,75,0,0
154570,-100,4,2,1,75,0,0
155921,-200,4,2,1,75,0,0
156732,-100,4,2,1,75,0,0
159164,-200,4,2,1,75,0,0
160516,-100,4,2,1,75,0,0
161056,-80,4,2,1,85,0,1
178354,-100,4,2,1,80,0,0
195651,-80,4,2,1,85,0,1
212948,270.27027027027,7,2,1,80,1,0
228083,-100,7,2,1,70,0,0
228893,-200,7,2,1,50,0,0

[Colours]
Combo1 : 102,135,234
Combo2 : 228,191,105
Combo3 : 106,171,242
Combo4 : 241,156,80

[HitObjects]
256,296,7679,5,2,0:0:0:0:
256,296,7747,1,2,0:0:0:0:
256,296,7814,1,2,3:2:0:0:
256,296,8355,2,0,P|256:338|262:379,2,72,0|2|0,1:0|3:2|3:0,0:0:0:0:
192,212,8760,5,0,3:0:0:0:
192,212,8828,1,0,3:0:0:0:
192,212,8895,2,0,P|163:234|113:242,1,72,2|0,1:2|3:0,0:0:0:0:
320,172,9166,2,0,P|349:150|399:142,1,72,2|0,3:2|3:0,0:0:0:0:
205,118,9436,2,0,P|171:103|139:64,1,72,2|0,1:2|3:0,0:0:0:0:
325,65,9706,5,4,3:2:0:0:
415,58,9841,2,0,L|490:52,1,72,2|0,0:0|3:0,0:0:0:0:
471,194,10111,2,0,L|477:269,1,72,2|0,0:0|1:0,0:0:0:0:
335,250,10382,2,0,L|185:262,1,144,2|0,0:0|3:0,0:0:0:0:
48,367,10787,6,0,P|83:364|109:340,1,72,2|0,0:0|1:0,0:0:0:0:
137,167,11057,1,2,1:2:0:0:
50,101,11193,1,0,3:0:0:0:
37,210,11328,1,2,0:0:0:0:
37,210,11463,2,0,P|39:245|63:271,1,72,0|0,1:0|3:0,0:0:0:0:
193,336,11733,6,0,L|266:320,1,72,2|0,0:0|3:0,0:0:0:0:
440,285,12003,2,0,L|367:269,1,72,2|0,0:0|1:0,0:0:0:0:
193,227,12274,2,0,P|271:195|320:160,1,144,2|0,0:0|3:0,0:0:0:0:
227,104,12679,6,0,L|210:32,1,72,2|0,0:0|1:0,0:0:0:0:
369,64,12949,1,2,1:2:0:0:
467,18,13084,1,0,3:0:0:0:
461,129,13220,1,2,1:2:0:0:
461,129,13355,2,0,L|444:199,1,72,0|0,3:0|3:0,0:0:0:0:
283,193,13625,6,0,P|249:196|211:216,1,72,2|0,0:0|3:0,0:0:0:0:
125,200,13895,2,0,P|128:234|148:272,1,72,2|0,0:0|1:0,0:0:0:0:
328,381,14166,2,0,P|360:316|367:245,1,144,2|0,0:0|3:0,0:0:0:0:
290,104,14571,6,0,L|212:85,1,72,2|0,0:0|1:0,0:0:0:0:
89,30,14841,1,2,1:2:0:0:
3,96,14976,1,0,3:0:0:0:
104,138,15111,1,2,0:0:0:0:
104,138,15247,2,0,L|48:196,1,72,0|0,1:0|3:0,0:0:0:0:
234,308,15517,6,0,P|237:277|223:236,1,72,2|0,0:0|3:0,0:0:0:0:
50,284,15787,2,0,P|46:314|60:355,1,72,2|0,0:0|1:0,0:0:0:0:
163,383,16057,1,2,0:0:0:0:
163,383,16463,2,0,L|146:311,1,72,2|0,0:0|1:0,0:0:0:0:
220,150,16733,2,0,L|292:133,1,72,6|0,1:2|3:0,0:0:0:0:
453,207,17003,1,2,1:2:0:0:
477,312,17138,1,0,3:0:0:0:
306,369,17274,5,4,3:2:0:0:
325,281,17409,2,0,P|298:261|281:226,1,72,2|0,0:0|3:0,0:0:0:0:
389,131,17679,2,0,P|384:97|396:60,1,72,2|0,0:0|1:0,0:0:0:0:
261,109,17949,2,0,B|215:90|218:56|222:57|221:22|171:5,1,144,2|0,0:0|3:0,0:0:0:0:
9,84,18355,6,0,P|45:90|81:74,1,72,2|0,0:0|1:0,0:0:0:0:
166,214,18625,1,2,1:2:0:0:
61,186,18760,1,0,3:0:0:0:
1,276,18895,1,2,0:0:0:0:
1,276,19030,2,0,P|6:312|32:341,1,72,0|0,1:0|3:0,0:0:0:0:
171,376,19301,6,0,L|167:303,1,72,2|0,0:0|3:0,0:0:0:0:
320,316,19571,2,0,L|258:355,1,72,2|0,0:0|1:0,0:0:0:0:
133,179,19841,2,0,L|262:247,1,144,2|0,0:0|3:0,0:0:0:0:
403,272,20247,6,0,P|425:248|428:205,1,72,2|0,0:0|1:0,0:0:0:0:
282,141,20517,1,2,1:2:0:0:
198,73,20652,1,0,3:0:0:0:
298,34,20787,1,2,1:2:0:0:
298,34,20922,2,0,P|330:18|364:26,1,72,0|0,3:0|3:0,0:0:0:0:
490,100,21193,6,0,L|415:112,1,72,2|0,0:0|3:0,0:0:0:0:
302,159,21463,2,0,L|290:234,1,72,2|0,0:0|1:0,0:0:0:0:
173,277,21733,2,0,L|30:299,1,144,2|0,0:0|3:0,0:0:0:0:
3,157,22138,6,0,P|17:191|52:213,1,72,2|0,0:0|1:0,0:0:0:0:
206,188,22409,1,2,1:2:0:0:
226,82,22544,1,0,3:0:0:0:
144,11,22679,1,2,0:0:0:0:
144,11,22814,2,0,P|120:40|119:81,1,72,0|0,1:0|3:0,0:0:0:0:
134,252,23084,6,0,L|128:327,1,72,2|0,0:0|3:0,0:0:0:0:
260,384,23355,2,0,L|254:312,1,72,2|0,0:0|1:0,0:0:0:0:
351,204,23625,1,2,0:0:0:0:
351,204,24030,2,0,P|382:217|429:223,1,72,2|0,0:0|1:0,0:0:0:0:
418,368,24301,2,0,P|387:355|340:349,1,72,2|0,1:2|3:0,0:0:0:0:
163,349,24571,1,2,1:2:0:0:
98,262,24706,1,0,3:0:0:0:
56,362,24841,5,4,3:2:0:0:
56,362,25111,2,0,P|21:351|3:323,1,72,2|0,0:0|1:0,0:0:0:0:
8,233,25516,2,0,P|0:216|3:200,2,36,0|2|0,3:0|0:0|3:0,0:0:0:0:
122,194,25922,5,2,0:0:0:0:
122,194,26057,2,0,L|163:183,2,36,0|0|0,1:0|1:0|3:0,0:0:0:0:
28,111,26462,2,0,L|46:41,1,72,2|0,0:0|3:0,0:0:0:0:
153,66,26868,1,2,0:0:0:0:
254,29,27003,6,0,P|267:61|273:110,2,72,0|2|0,3:0|0:0|1:0,0:0:0:0:
342,16,27678,2,0,P|359:13|376:6,1,36,0|0,3:0|0:0,0:0:0:0:
389,94,27949,1,2,3:2:0:0:
231,212,28219,1,2,1:2:0:0:
218,301,28354,2,0,P|250:312|286:317,1,72,0|0,1:2|0:0,0:0:0:0:
421,334,28759,2,0,P|415:350|412:368,2,36,0|0|0,1:0|3:0|1:0,0:0:0:0:
456,205,29165,5,0,3:0:0:0:
456,205,29435,2,0,P|460:169|440:136,1,72,2|0,0:0|1:0,0:0:0:0:
457,50,29840,2,0,P|446:35|427:31,2,36,0|2|0,3:0|0:0|3:0,0:0:0:0:
356,101,30246,5,2,0:0:0:0:
356,101,30381,2,0,L|307:91,2,36,0|0|0,1:0|1:0|3:0,0:0:0:0:
258,22,30786,2,0,L|178:38,1,72,2|0,0:0|3:0,0:0:0:0:
94,94,31192,1,2,0:0:0:0:
231,123,31327,5,0,3:0:0:0:
231,123,31462,2,0,L|228:162,1,36,2|0,0:0|0:0,0:0:0:0:
323,255,31732,2,0,L|317:183,1,72,2|0,0:0|3:0,0:0:0:0:
407,174,32138,2,0,L|443:171,2,36,2|0|0,0:0|3:0|0:0,0:0:0:0:
436,297,32543,1,0,1:0:0:0:
360,345,32678,1,0,1:0:0:0:
152,345,32949,1,2,0:0:0:0:
76,297,33084,2,0,P|74:274|64:252,2,36,0|0|2,1:0|3:0|0:0,0:0:0:0:
208,236,33489,5,0,3:0:0:0:
208,236,33759,2,0,P|201:201|228:170,1,72,2|0,0:0|1:0,0:0:0:0:
306,205,34165,2,0,P|309:222|296:238,2,36,0|2|0,3:0|0:0|3:0,0:0:0:0:
250,88,34570,5,2,0:0:0:0:
250,88,34705,2,0,L|236:40,2,36,0|0|0,1:0|1:0|3:0,0:0:0:0:
384,68,35111,2,0,L|328:125,1,72,2|0,0:0|3:0,0:0:0:0:
437,173,35516,1,2,0:0:0:0:
480,300,35651,6,0,P|452:278|410:281,2,72,0|2|0,3:0|0:0|1:0,0:0:0:0:
443,382,36327,2,0,P|425:381|411:371,1,36,0|0,3:0|0:0,0:0:0:0:
337,319,36597,1,2,3:2:0:0:
214,142,36868,1,2,1:2:0:0:
234,28,37003,2,0,P|203:30|150:40,1,72,0|0,1:0|0:0,0:0:0:0:
42,98,37408,2,0,P|26:97|0:92,2,36,0|0|0,1:0|3:0|1:0,0:0:0:0:
114,222,37813,6,0,P|116:186|122:150,2,72,0|0|0,3:0|0:0|1:0,0:0:0:0:
202,241,38489,2,0,P|203:259|206:277,2,36,0|2|0,3:0|0:0|3:0,0:0:0:0:
101,313,38895,5,2,0:0:0:0:
101,313,39030,2,0,L|61:321,1,36,0|0,1:0|1:0,0:0:0:0:
65,320,39435,2,0,L|145:336,1,72,2|0,0:0|3:0,0:0:0:0:
256,373,39840,1,2,0:0:0:0:
377,334,39976,5,0,3:0:0:0:
466,324,40111,2,0,P|465:307|453:286,1,36,2|0,0:0|0:0,0:0:0:0:
350,207,40381,2,0,P|317:207|274:232,2,72,2|2|0,0:0|3:2|3:2,0:0:0:0:
350,207,40989,1,0,3:0:0:0:
350,207,41057,1,0,1:0:0:0:
473,195,41192,6,0,P|452:181|444:164,1,36,0|0,1:0|3:0,0:0:0:0:
394,98,41462,1,0,3:0:0:0:
266,140,41597,2,0,P|256:92|268:56,1,72,0|0,1:0|3:0,0:0:0:0:
340,27,42003,1,0,3:0:0:0:
177,44,42138,6,0,L|96:25,1,81.0000030899049,4|0,3:2|0:0,0:0:0:0:
30,60,42408,2,0,L|17:113,1,54.0000020599366,2|0,0:0|3:0,0:0:0:0:
128,190,42678,2,0,L|140:243,2,54.0000020599366,0|0|2,1:0|3:0|0:0,0:0:0:0:
53,236,43084,1,0,3:0:0:0:
240,260,43219,5,2,0:0:0:0:
302,347,43354,1,0,1:0:0:0:
388,284,43489,2,0,P|442:281|473:234,1,108.000004119873,0|2,1:0|0:0,0:0:0:0:
395,128,43895,1,0,1:0:0:0:
373,37,44030,2,0,P|346:38|330:62,1,54.0000020599366,2|0,0:0|3:0,0:0:0:0:
177,25,44300,6,0,L|198:111,1,81.0000030899049,0|0,3:0|0:0,0:0:0:0:
245,163,44570,2,0,L|202:203,1,54.0000020599366,2|0,0:0|3:0,0:0:0:0:
75,230,44840,2,0,L|18:213,1,54.0000020599366,0|0,1:0|3:0,0:0:0:0:
77,122,45111,1,2,0:0:0:0:
77,122,45246,1,0,3:0:0:0:
202,333,45516,5,2,1:2:0:0:
308,351,45651,2,0,P|315:302|331:274,1,81.0000030899049,0|0,1:0|0:0,0:0:0:0:
402,305,45922,2,0,P|427:325|438:343,1,54.0000020599366,0|0,3:0|1:0,0:0:0:0:
390,187,46192,1,0,3:0:0:0:
495,213,46327,1,0,1:0:0:0:
496,65,46462,6,0,L|416:81,1,81.0000030899049,0|0,3:0|0:0,0:0:0:0:
341,71,46732,2,0,L|330:17,1,54.0000020599366,2|0,0:0|3:0,0:0:0:0:
197,45,47003,2,0,L|207:98,2,54.0000020599366,0|0|2,1:0|3:0|0:0,0:0:0:0:
118,89,47408,1,0,3:0:0:0:
8,189,47543,5,2,0:0:0:0:
110,223,47678,1,0,1:0:0:0:
76,325,47813,2,0,P|136:332|175:303,1,108.000004119873,0|2,1:0|0:0,0:0:0:0:
285,229,48219,1,0,1:0:0:0:
295,323,48354,2,0,P|291:353|306:372,1,54.0000020599366,2|0,0:0|3:0,0:0:0:0:
386,290,48624,5,0,3:0:0:0:
456,382,48759,2,0,P|457:356|477:333,1,54.0000020599366,2|0,0:0|3:0,0:0:0:0:
467,199,49030,2,0,P|428:197|393:166,1,81.0000030899049,2|0,0:0|0:0,0:0:0:0:
355,107,49300,2,0,L|292:100,1,54.0000020599366,2|0,0:0|3:0,0:0:0:0:
157,107,49570,2,0,L|220:100,1,54.0000020599366,2|0,0:0|3:0,0:0:0:0:
339,20,49840,1,0,1:0:0:0:
446,10,49976,1,2,1:2:0:0:
446,10,50246,6,0,P|476:22|488:54,1,54.0000020599366,2|0,3:2|1:0,0:0:0:0:
424,191,50516,1,0,3:0:0:0:
355,107,50651,1,2,1:2:0:0:
253,146,50786,6,0,P|213:161|166:161,1,81.0000030899049,0|0,3:0|0:0,0:0:0:0:
99,148,51057,2,0,L|90:83,1,54.0000020599366,2|0,0:0|3:0,0:0:0:0:
203,18,51327,2,0,L|196:71,2,54.0000020599366,0|0|2,1:0|3:0|0:0,0:0:0:0:
284,55,51732,1,0,3:0:0:0:
382,149,51868,5,2,0:0:0:0:
488,134,52003,1,0,1:0:0:0:
503,240,52138,2,0,P|456:251|403:289,1,108.000004119873,0|2,1:0|0:0,0:0:0:0:
296,362,52543,1,0,1:0:0:0:
280,269,52678,2,0,P|274:245|255:219,1,54.0000020599366,2|0,0:0|3:0,0:0:0:0:
111,188,52949,6,0,L|26:182,1,81.0000030899049,0|0,3:0|0:0,0:0:0:0:
21,258,53219,2,0,L|77:261,1,54.0000020599366,2|0,0:0|3:0,0:0:0:0:
177,328,53489,2,0,L|201:379,1,54.0000020599366,0|0,1:0|3:0,0:0:0:0:
312,376,53759,1,2,0:0:0:0:
312,376,53895,1,0,3:0:0:0:
506,185,54165,5,2,1:2:0:0:
399,213,54300,2,0,P|360:201|322:180,1,81.0000030899049,0|0,1:0|0:0,0:0:0:0:
248,175,54570,2,0,P|255:149|269:123,1,54.0000020599366,0|0,3:0|1:0,0:0:0:0:
417,125,54840,1,0,3:0:0:0:
391,19,54976,1,0,1:0:0:0:
256,37,55111,6,0,P|203:36|144:14,2,108.000004119873,0|0|0,3:0|3:0|1:0,0:0:0:0:
256,37,55922,2,0,P|235:54|221:77,1,54.0000020599366,2|0,0:0|3:0,0:0:0:0:
77,114,56192,1,2,0:0:0:0:
23,207,56327,1,0,1:0:0:0:
94,287,56462,2,0,P|152:305|188:349,1,108.000004119873,0|2,1:0|0:0,0:0:0:0:
301,272,56868,1,0,1:0:0:0:
295,178,57003,2,0,P|288:148|298:121,1,54.0000020599366,2|0,0:0|3:0,0:0:0:0:
416,22,57273,5,4,3:2:0:0:
308,39,57408,2,0,L|225:21,1,81.0000030899049,2|0,0:0|0:0,0:0:0:0:
207,95,57678,2,0,L|195:150,1,54.0000020599366,2|0,0:0|3:0,0:0:0:0:
42,205,57949,2,0,L|30:152,1,54.0000020599366,2|0,0:0|1:0,0:0:0:0:
102,69,58219,1,2,0:0:0:0:
146,238,58354,5,6,3:2:0:0:
107,336,58489,2,0,B|131:322|158:344|159:347|190:363|210:347,1,108.000004119873,0|0,1:0|3:0,0:0:0:0:
366,238,58895,5,6,3:2:0:0:
405,336,59030,2,0,B|381:322|354:344|353:347|322:363|302:347,1,108.000004119873,0|0,1:0|3:0,0:0:0:0:
256,191,59435,6,0,P|251:105|265:39,1,144,2|0,3:2|1:0,0:0:0:0:
457,15,59840,2,0,P|462:101|448:167,1,144,2|0,3:2|1:0,0:0:0:0:
356,289,60246,2,0,P|351:203|365:137,1,144,2|0,3:2|3:0,0:0:0:0:
361,146,60786,6,0,L|358:103,1,36,2|0,0:0|0:0,0:0:0:0:
280,65,61057,2,0,L|277:22,1,36,2|0,0:0|0:0,0:0:0:0:
203,152,61327,2,0,L|198:87,1,54,2|0,0:0|0:0,0:0:0:0:
137,53,61597,6,0,P|67:67|13:24,1,144,2|0,3:2|1:0,0:0:0:0:
0,224,62003,2,0,P|70:210|124:253,1,144,2|0,3:2|3:0,0:0:0:0:
326,180,62408,2,0,P|256:194|202:151,1,144,6|0,3:2|3:0,0:0:0:0:
206,155,63219,5,0,1:0:0:0:
206,155,63489,2,0,L|176:163,2,18,2|0|0,3:2|3:0|3:0,0:0:0:0:
153,20,63759,6,0,B|198:19|215:47|212:48|230:75|292:67,1,144,2|0,3:2|1:0,0:0:0:0:
477,21,64165,2,0,B|455:60|422:61|423:58|390:60|366:117,1,144,2|0,3:2|1:0,0:0:0:0:
314,301,64570,5,2,3:2:0:0:
314,301,64705,1,0,3:0:0:0:
314,301,64840,2,0,B|291:262|306:233|308:235|323:206|286:156,1,144,2|0,3:2|3:0,0:0:0:0:
132,101,65246,1,0,3:0:0:0:
189,194,65381,5,2,3:2:0:0:
30,256,65516,2,0,P|115:278|158:359,1,180,0|0,1:0|0:0,0:0:0:0:
82,370,65922,5,4,3:2:0:0:
261,343,66057,2,0,P|295:354|332:352,2,72,2|0|2,1:2|1:0|1:2,0:0:0:0:
306,246,66462,5,4,3:2:0:0:
218,131,66597,5,2,1:2:0:0:
304,147,66732,1,0,1:0:0:0:
378,97,66868,1,0,1:0:0:0:
232,25,67003,6,0,P|188:22|139:60,1,108,4|0,3:2|0:0,0:0:0:0:
79,109,67273,1,0,3:0:0:0:
79,109,67340,1,0,3:0:0:0:
79,109,67408,2,0,P|49:111|17:85,1,72,0|0,3:0|3:0,0:0:0:0:
142,246,67678,2,0,P|172:244|204:270,2,72,0|2|0,3:0|0:0|3:0,0:0:0:0:
40,205,68084,6,0,B|17:251|47:279|50:276|77:295|58:349,1,144,2|0,3:2|1:0,0:0:0:0:
174,156,68489,2,0,B|157:111|184:92|187:95|217:67|194:21,1,144,2|0,3:2|1:0,0:0:0:0:
338,101,68895,2,0,B|315:147|345:175|348:172|375:191|356:245,1,144,2|0,3:2|3:0,0:0:0:0:
358,235,69435,6,0,L|319:243,2,24,2|0|0,0:0|0:0|0:0,0:0:0:0:
405,227,69705,5,2,0:0:0:0:
395,316,69840,2,0,B|415:330|431:320|429:318|449:311|467:324,1,72,2|0,0:0|0:0,0:0:0:0:
280,371,70246,6,0,P|229:313|243:244,1,144,2|0,3:2|1:0,0:0:0:0:
88,123,70651,2,0,P|164:108|217:154,1,144,2|0,3:2|3:0,0:0:0:0:
399,81,71057,2,0,P|374:154|307:177,1,144,6|0,3:2|3:0,0:0:0:0:
316,177,71597,6,0,L|311:148,3,18,2|0|0|0,0:0|0:0|0:0|0:0,0:0:0:0:
297,84,71868,1,0,1:0:0:0:
136,225,72138,5,0,1:0:0:0:
134,233,72205,1,0,1:0:0:0:
132,242,72273,1,0,1:0:0:0:
131,251,72340,1,0,1:0:0:0:
129,260,72408,6,0,P|118:186|64:135,1,144,6|0,3:2|3:0,0:0:0:0:
246,248,72813,2,0,P|257:322|311:373,1,144,6|0,3:2|1:0,0:0:0:0:
412,349,73219,6,0,P|449:343|474:316,1,72,2|0,3:2|3:0,0:0:0:0:
318,156,73489,6,0,B|367:161|383:189|379:195|390:221|451:232,1,144,6|0,3:2|3:0,0:0:0:0:
234,150,73895,2,0,B|213:105|230:77|237:77|254:55|233:-3,1,144,6|0,3:2|1:0,0:0:0:0:
271,226,74300,2,0,B|256:245|240:245|238:242|224:240|204:264,1,72,2|0,3:2|3:0,0:0:0:0:
106,361,74570,6,0,P|70:367|29:341,1,72,6|0,3:2|0:0,0:0:0:0:
19,264,74840,6,0,P|82:222|125:124,1,180,2|0,0:0|0:0,0:0:0:0:
36,109,75651,1,0,3:0:0:0:
98,44,75786,2,0,P|82:24|74:19,2,36,2|0|0,0:0|3:0|0:0,0:0:0:0:
256,85,76192,5,0,1:0:0:0:
414,44,76327,2,0,B|427:75|405:98|403:95|385:114|396:146,1,108.000004119873,2|0,0:0|0:0,0:0:0:0:
473,355,76732,6,0,P|387:254|256:242,1,270,6|0,3:2|3:0,0:0:0:0:
87,320,77273,1,0,1:0:0:0:
184,380,77408,2,0,P|227:372|252:336,1,90,2|0,0:0|3:0,0:0:0:0:
247,151,77678,5,0,3:0:0:0:
247,151,77746,1,0,3:0:0:0:
247,151,77813,2,0,B|166:165|130:100|152:98|105:21|20:41,1,270,2|0,3:2|3:0,0:0:0:0:
45,152,78354,1,0,1:0:0:0:
195,255,78489,2,0,P|176:293|173:340,1,90,2|0,0:0|3:0,0:0:0:0:
427,376,78759,5,0,3:0:0:0:
427,376,78827,1,0,3:0:0:0:
427,376,78895,2,0,P|364:293|351:116,1,270,2|0,3:2|3:0,0:0:0:0:
508,20,79435,1,0,1:0:0:0:
399,49,79570,2,0,P|357:44|310:14,1,90,2|0,0:0|3:0,0:0:0:0:
159,127,79840,5,0,3:0:0:0:
159,127,79908,1,0,3:0:0:0:
159,127,79976,1,2,3:2:0:0:
77,233,80111,2,0,P|164:217|268:212,1,180,0|0,1:0|0:0,0:0:0:0:
416,286,80516,2,0,P|424:329|426:381,2,90,0|2|0,1:0|0:0|3:0,0:0:0:0:
348,131,80922,5,0,3:0:0:0:
348,131,80989,1,0,3:0:0:0:
348,131,81057,2,0,P|420:111|467:21,1,180,2|0,3:2|3:0,0:0:0:0:
271,73,81462,2,0,P|217:20|116:24,1,180,2|0,0:0|3:0,0:0:0:0:
268,177,81868,2,0,P|258:213|285:256,1,90,2|0,0:0|3:0,0:0:0:0:
284,255,82070,1,0,3:0:0:0:
284,255,82138,6,0,P|261:282|137:382,1,180,2|0,3:2|3:0,0:0:0:0:
40,229,82543,2,0,P|63:202|187:102,1,180,2|0,0:0|3:0,0:0:0:0:
157,245,82949,1,2,0:0:0:0:
306,160,83084,5,0,3:0:0:0:
306,160,83151,1,0,3:0:0:0:
306,160,83219,2,0,B|399:161|412:236|404:236|423:315|505:310,1,270,2|0,3:2|3:0,0:0:0:0:
324,308,83759,2,0,P|282:322|247:362,2,90,0|2|0,1:0|0:0|3:0,0:0:0:0:
512,219,84165,5,0,3:0:0:0:
512,219,84232,1,0,3:0:0:0:
512,219,84300,1,2,3:2:0:0:
497,107,84435,2,0,P|457:35|355:37,1,180,0|0,1:0|3:0,0:0:0:0:
190,66,84840,5,0,1:0:0:0:
316,163,84976,1,2,3:2:0:0:
220,258,85111,1,0,3:0:0:0:
256,364,85246,5,0,3:0:0:0:
256,364,85313,1,0,3:0:0:0:
256,364,85381,2,0,B|186:398|135:335|143:324|85:261|16:294,1,270,6|0,3:2|3:0,0:0:0:0:
9,135,85922,1,4,1:2:0:0:
107,190,86057,2,0,P|150:188|199:168,1,90,2|0,0:0|3:0,0:0:0:0:
145,32,86327,5,0,3:0:0:0:
145,32,86395,1,0,3:0:0:0:
145,32,86462,2,0,L|433:102,1,270,2|0,3:2|3:0,0:0:0:0:
285,173,87003,1,0,1:0:0:0:
339,370,87138,2,0,L|362:274,1,90,2|0,0:0|3:0,0:0:0:0:
502,281,87408,5,0,3:0:0:0:
502,281,87476,1,0,3:0:0:0:
502,281,87543,2,0,B|432:225|487:160|491:165|538:92|480:24,1,270,2|0,3:2|3:0,0:0:0:0:
390,130,88084,1,0,1:0:0:0:
244,23,88219,2,0,P|284:38|307:89,1,90,2|0,0:0|3:0,0:0:0:0:
372,232,88489,5,0,3:0:0:0:
372,232,88557,1,0,3:0:0:0:
372,232,88624,1,2,3:2:0:0:
381,345,88759,2,0,P|297:359|205:383,1,180,0|0,1:0|3:0,0:0:0:0:
114,281,89165,2,0,P|72:274|26:262,2,90,0|2|0,1:0|0:0|3:0,0:0:0:0:
280,271,89570,5,0,3:0:0:0:
280,271,89638,1,0,3:0:0:0:
280,271,89705,2,0,B|303:222|270:191|262:193|224:152|253:102,1,180,2|0,3:2|3:0,0:0:0:0:
487,68,90111,2,0,B|433:72|422:116|428:122|411:175|354:175,1,180,2|0,0:0|3:0,0:0:0:0:
295,28,90516,2,0,B|311:50|332:44|334:40|361:34|375:58,1,90,2|0,0:0|3:0,0:0:0:0:
374,57,90719,1,0,3:0:0:0:
374,57,90786,6,0,L|473:211,1,180,2|0,3:2|3:0,0:0:0:0:
331,367,91192,2,0,L|322:187,1,180,2|0,0:0|3:0,0:0:0:0:
169,351,91597,1,2,0:0:0:0:
212,222,91732,5,0,3:0:0:0:
212,222,91800,1,0,3:0:0:0:
212,222,91868,2,0,P|228:98|38:27,1,360,2|0,3:2|1:0,0:0:0:0:
39,27,92678,2,0,P|10:38|18:88,1,90,0|2,3:0|0:0,0:0:0:0:
89,293,92949,5,4,3:2:0:0:
124,215,93084,2,0,L|118:167,2,45,0|0|2,1:0|1:0|1:2,0:0:0:0:
38,223,93354,1,0,1:0:0:0:
38,223,93422,1,0,1:0:0:0:
38,223,93489,1,2,1:2:0:0:
246,194,93624,5,0,1:0:0:0:
246,194,93759,2,0,P|248:238|231:280,1,90,2|0,1:2|1:0,0:0:0:0:
171,381,94030,1,6,3:2:0:0:
256,192,94165,12,0,96192,0:0:0:0:
30,173,97002,6,0,P|67:178|96:206,1,72,2|0,0:0|1:0,0:0:0:0:
160,349,97273,1,2,1:2:0:0:
263,378,97408,1,0,3:0:0:0:
321,288,97543,1,2,1:2:0:0:
321,288,97678,2,0,P|334:255|328:221,1,72,0|0,3:0|3:0,0:0:0:0:
217,125,97948,6,0,L|206:45,1,72,2|0,0:0|3:0,0:0:0:0:
346,93,98219,2,0,L|356:12,1,72,2|0,0:0|1:0,0:0:0:0:
512,62,98489,2,0,L|457:195,1,144,2|0,0:0|3:0,0:0:0:0:
271,219,98894,6,0,P|235:218|195:235,1,72,2|0,0:0|1:0,0:0:0:0:
40,374,99165,1,2,1:2:0:0:
140,334,99300,1,0,3:0:0:0:
56,267,99435,1,2,0:0:0:0:
56,267,99570,2,0,P|43:233|44:197,1,72,0|0,1:0|3:0,0:0:0:0:
162,59,99840,6,0,L|152:130,1,72,2|0,0:0|3:0,0:0:0:0:
296,241,100111,2,0,L|305:169,1,72,2|0,0:0|1:0,0:0:0:0:
270,32,100381,2,0,B|317:21|336:53|333:58|355:86|435:72,1,144,2|0,0:0|3:0,0:0:0:0:
486,170,100786,6,0,L|399:178,1,72,2|0,0:0|1:0,0:0:0:0:
289,332,101057,2,0,L|202:324,1,72,6|0,1:2|3:0,0:0:0:0:
98,176,101327,1,2,1:2:0:0:
4,230,101462,1,0,3:0:0:0:
123,379,101597,5,4,3:2:0:0:
217,325,101732,2,0,P|214:288|215:244,1,72,2|0,0:0|3:0,0:0:0:0:
364,190,102002,2,0,P|367:227|366:271,1,72,2|0,0:0|1:0,0:0:0:0:
190,169,102273,2,0,P|216:109|289:100,1,144,2|0,0:0|3:0,0:0:0:0:
404,90,102678,6,0,L|356:27,1,72,2|0,0:0|1:0,0:0:0:0:
160,21,102948,1,2,1:2:0:0:
54,46,103084,1,0,3:0:0:0:
79,152,103219,1,2,0:0:0:0:
79,152,103354,2,0,L|35:209,1,72,0|0,1:0|3:0,0:0:0:0:
195,261,103624,6,0,P|160:263|120:276,1,72,2|0,0:0|3:0,0:0:0:0:
317,350,103894,2,0,P|352:348|392:335,1,72,2|0,0:0|1:0,0:0:0:0:
244,171,104165,2,0,B|235:128|260:102|263:106|288:74|274:21,1,144,2|0,0:0|3:0,0:0:0:0:
403,29,104570,6,0,P|405:67|431:104,1,72,2|0,0:0|1:0,0:0:0:0:
497,269,104840,1,2,1:2:0:0:
406,207,104975,1,0,3:0:0:0:
308,253,105111,1,2,1:2:0:0:
308,253,105246,2,0,P|276:273|257:314,1,72,0|0,3:0|3:0,0:0:0:0:
95,371,105516,6,0,L|104:296,1,72,2|0,0:0|3:0,0:0:0:0:
20,142,105786,2,0,L|80:187,1,72,2|0,0:0|1:0,0:0:0:0:
295,132,106057,2,0,B|249:135|243:176|247:174|240:210|188:219,1,144,2|0,0:0|3:0,0:0:0:0:
156,80,106462,6,0,P|147:43|145:3,1,72,2|0,0:0|1:0,0:0:0:0:
368,9,106732,1,2,1:2:0:0:
475,20,106867,1,0,3:0:0:0:
411,107,107002,1,2,0:0:0:0:
411,107,107138,2,0,P|408:142|399:177,1,72,0|0,1:0|3:0,0:0:0:0:
274,279,107408,6,0,P|256:253|207:232,1,72,2|0,0:0|3:0,0:0:0:0:
68,288,107678,2,0,P|86:314|135:335,1,72,2|0,0:0|1:0,0:0:0:0:
196,131,107948,2,0,B|153:112|134:148|136:154|113:192|55:168,1,144,2|0,0:0|3:0,0:0:0:0:
15,56,108354,6,0,L|93:47,1,72,2|0,0:0|3:0,0:0:0:0:
292,26,108624,2,0,L|220:17,1,72,2|0,1:2|3:0,0:0:0:0:
426,47,108894,1,2,1:2:0:0:
509,114,109029,1,0,3:0:0:0:
409,152,109165,5,4,3:2:0:0:
409,152,109435,2,0,P|376:148|346:117,2,72,2|8|0,0:0|0:0|0:0,0:0:0:0:
510,325,110246,2,0,P|458:339|426:381,1,108,10|0,0:0|0:0,0:0:0:0:
344,346,110786,2,0,P|334:311|306:290,1,72,10|0,0:0|0:0,0:0:0:0:
138,358,111327,5,10,0:0:0:0:
70,190,111597,1,2,0:0:0:0:
238,122,111867,2,0,P|259:115|276:100,1,36,8|0,0:0|0:0,0:0:0:0:
335,45,112137,1,2,0:0:0:0:
335,45,112273,1,2,0:0:0:0:
503,183,112543,5,2,0:0:0:0:
418,153,112678,2,0,P|392:176|380:220,1,72,0|8,3:0|0:0,0:0:0:0:
342,331,113083,2,0,P|335:296|312:270,1,72,0|0,3:0|0:0,0:0:0:0:
225,176,113489,5,2,3:2:0:0:
225,176,113759,2,0,P|258:187|292:180,2,72,2|8|0,0:0|0:0|0:0,0:0:0:0:
70,22,114570,2,0,B|57:56|71:75|75:73|91:92|75:131,1,108,10|0,0:0|0:0,0:0:0:0:
70,215,115110,2,0,B|78:237|69:250|66:248|56:261|65:284,1,72,10|0,0:0|0:0,0:0:0:0:
256,377,115651,5,10,0:0:0:0:
256,377,115786,1,2,0:0:0:0:
256,192,116056,1,2,0:0:0:0:
256,7,116327,1,2,0:0:0:0:
256,7,116462,2,0,P|239:11|220:29,1,36,2|0,0:0|0:0,0:0:0:0:
158,82,116732,2,0,P|169:94|195:102,1,36,10|0,0:0|0:0,0:0:0:0:
269,164,117002,6,0,P|279:130|266:79,1,72,0|0,1:0|3:0,0:0:0:0:
390,46,117408,2,0,P|387:28|392:11,2,36,0|0|0,1:0|3:0|0:0,0:0:0:0:
373,171,117813,5,4,3:2:0:0:
373,171,118083,2,0,L|453:181,2,72,2|8|0,0:0|0:0|0:0,0:0:0:0:
164,116,118894,2,0,L|44:131,1,108,10|0,0:0|0:0,0:0:0:0:
19,211,119435,2,0,L|28:290,1,72,10|0,0:0|0:0,0:0:0:0:
202,375,119975,5,10,0:0:0:0:
256,192,120246,1,2,0:0:0:0:
310,9,120516,2,0,P|325:26|345:31,1,36,10|0,0:0|0:0,0:0:0:0:
429,19,120786,1,2,0:0:0:0:
429,19,120921,1,2,0:0:0:0:
205,86,121192,5,2,0:0:0:0:
113,81,121327,2,0,P|79:85|54:114,1,72,0|8,3:0|0:0,0:0:0:0:
152,229,121732,2,0,P|165:197|152:161,1,72,0|0,3:0|0:0,0:0:0:0:
4,188,122137,2,0,B|51:200|52:236|38:244|42:288|86:292,1,144,2|8,3:2|0:0,0:0:0:0:
83,291,122948,6,0,P|89:312|92:337,1,36,2|0,0:0|0:0,0:0:0:0:
176,296,123219,2,0,P|176:335|170:380,1,72,8|0,0:0|0:0,0:0:0:0:
332,196,123759,1,2,3:2:0:0:
408,147,123894,2,0,P|411:138|413:129,2,18,0|0|0,3:0|0:0|3:0,0:0:0:0:
183,80,124300,5,4,3:2:0:0:
110,27,124435,2,0,P|95:57|97:101,1,72,2|0,3:2|0:0,0:0:0:0:
203,209,124840,1,0,3:0:0:0:
203,209,124975,2,0,P|184:181|145:160,1,72,0|0,3:0|0:0,0:0:0:0:
68,181,125381,1,0,3:0:0:0:
68,181,125516,2,0,P|52:189|34:191,2,36,0|0|0,3:0|3:0|3:0,0:0:0:0:
183,80,125921,5,0,1:0:0:0:
293,18,126056,2,0,B|285:38|298:62|302:60|315:88|311:112,1,90,0|0,3:0|0:0,0:0:0:0:
309,181,126462,6,0,P|347:190|396:226,1,81.0000030899049,4|0,3:2|0:0,0:0:0:0:
376,288,126732,2,0,L|313:293,1,54.0000020599366,2|0,0:0|3:0,0:0:0:0:
192,365,127002,2,0,L|255:370,2,54.0000020599366,0|0|2,1:0|3:0|0:0,0:0:0:0:
229,285,127408,1,0,3:0:0:0:
73,331,127543,5,2,0:0:0:0:
19,237,127678,1,0,1:0:0:0:
91,156,127813,2,0,P|139:147|175:100,1,108.000004119873,0|2,1:0|0:0,0:0:0:0:
301,36,128219,1,0,1:0:0:0:
393,16,128354,2,0,P|417:20|435:44,1,54.0000020599366,2|0,0:0|3:0,0:0:0:0:
386,212,128624,6,0,P|380:172|374:130,1,81.0000030899049,0|0,3:0|0:0,0:0:0:0:
298,125,128894,2,0,P|277:141|254:159,1,54.0000020599366,2|0,0:0|3:0,0:0:0:0:
134,216,129164,2,0,P|113:199|90:181,1,54.0000020599366,0|0,1:0|3:0,0:0:0:0:
48,73,129435,1,2,0:0:0:0:
48,73,129570,1,0,3:0:0:0:
312,22,129840,5,2,1:2:0:0:
421,11,129975,2,0,P|471:32|492:68,1,81.0000030899049,0|0,1:0|0:0,0:0:0:0:
465,127,130246,2,0,P|431:113|417:89,1,54.0000020599366,0|0,3:0|1:0,0:0:0:0:
263,128,130516,1,0,3:0:0:0:
240,233,130651,1,0,1:0:0:0:
370,328,130786,6,0,P|363:288|343:253,1,81.0000030899049,0|0,3:0|0:0,0:0:0:0:
285,303,131056,2,0,L|276:361,1,54.0000020599366,2|0,0:0|3:0,0:0:0:0:
102,375,131327,2,0,L|93:321,2,54.0000020599366,0|0|2,1:0|3:0|0:0,0:0:0:0:
16,359,131732,1,0,3:0:0:0:
0,212,131867,5,2,0:0:0:0:
106,228,132002,1,0,1:0:0:0:
153,132,132137,2,0,P|155:78|132:13,1,108.000004119873,0|2,1:0|0:0,0:0:0:0:
306,90,132543,1,0,1:0:0:0:
290,183,132678,2,0,P|282:208|283:235,1,54.0000020599366,2|0,0:0|3:0,0:0:0:0:
374,353,132948,5,0,3:0:0:0:
432,262,133083,2,0,L|489:251,1,54.0000020599366,2|0,0:0|3:0,0:0:0:0:
441,152,133354,2,0,P|442:96|473:73,1,81.0000030899049,2|0,0:0|0:0,0:0:0:0:
406,22,133624,2,0,P|373:40|349:29,1,54.0000020599366,0|2,3:0|0:0,0:0:0:0:
275,141,133894,2,0,P|248:138|231:117,1,54.0000020599366,0|2,3:0|0:0,0:0:0:0:
106,22,134164,1,0,1:0:0:0:
45,114,134300,1,0,1:0:0:0:
44,113,134570,6,0,P|27:134|1:137,1,54.0000020599366,0|0,3:0|1:0,0:0:0:0:
20,299,134840,1,0,3:0:0:0:
122,256,134975,1,0,1:0:0:0:
194,339,135110,6,0,P|229:358|281:353,1,81.0000030899049,0|0,3:0|0:0,0:0:0:0:
310,292,135381,2,0,L|302:238,1,54.0000020599366,2|0,0:0|3:0,0:0:0:0:
220,68,135651,2,0,L|228:14,2,54.0000020599366,4|0|2,1:2|3:0|0:0,0:0:0:0:
143,26,136056,1,0,3:0:0:0:
187,175,136192,5,2,0:0:0:0:
290,145,136327,1,0,1:0:0:0:
341,50,136462,2,0,P|389:20|436:40,1,108.000004119873,0|2,1:0|0:0,0:0:0:0:
499,155,136867,1,0,1:0:0:0:
463,242,137002,2,0,P|438:250|416:235,1,54.0000020599366,2|0,0:0|3:0,0:0:0:0:
257,221,137273,6,0,L|270:310,1,81.0000030899049,0|0,3:0|0:0,0:0:0:0:
343,318,137543,2,0,L|334:377,1,54.0000020599366,2|0,0:0|3:0,0:0:0:0:
194,373,137813,2,0,L|134:364,1,54.0000020599366,0|0,1:0|3:0,0:0:0:0:
37,349,138083,1,2,0:0:0:0:
37,349,138219,1,0,3:0:0:0:
156,77,138489,5,2,1:2:0:0:
17,26,138624,2,0,P|46:53|45:95,1,81.0000030899049,0|0,1:0|0:0,0:0:0:0:
36,168,138894,2,0,P|36:194|55:212,1,54.0000020599366,0|0,3:0|1:0,0:0:0:0:
215,242,139164,1,0,3:0:0:0:
283,157,139300,1,0,1:0:0:0:
322,258,139435,6,0,P|370:287|405:339,2,108.000004119873,0|0|0,3:0|3:0|1:0,0:0:0:0:
322,258,140246,2,0,P|311:282|311:309,1,54.0000020599366,2|0,0:0|3:0,0:0:0:0:
493,361,140516,1,2,0:0:0:0:
485,253,140651,1,0,1:0:0:0:
477,145,140786,2,0,B|493:105|469:94|467:98|443:81|458:36,1,108.000004119873,0|2,1:0|0:0,0:0:0:0:
312,88,141192,1,0,1:0:0:0:
222,56,141327,2,0,B|228:73|216:81|215:79|203:85|211:105,1,54.0000020599366,2|0,0:0|3:0,0:0:0:0:
346,202,141597,5,4,3:2:0:0:
282,321,141732,2,0,P|246:345|204:348,1,81.0000030899049,2|0,0:0|0:0,0:0:0:0:
140,379,142002,2,0,P|124:355|122:327,1,54.0000020599366,2|0,0:0|3:0,0:0:0:0:
196,200,142273,2,0,P|211:223|213:251,1,54.0000020599366,2|0,0:0|1:0,0:0:0:0:
67,233,142543,1,2,0:0:0:0:
106,47,142678,5,6,3:2:0:0:
12,123,142813,2,0,P|57:139|121:140,1,108.000004119873,0|0,1:0|3:0,0:0:0:0:
304,113,143219,5,6,3:2:0:0:
398,37,143354,2,0,P|347:19|293:18,1,108.000004119873,0|0,1:0|3:0,0:0:0:0:
216,200,143759,6,0,B|264:205|277:235|276:235|288:267|335:271,1,144,2|0,3:2|1:0,0:0:0:0:
438,374,144164,2,0,B|418:329|438:303|438:303|459:277|440:234,1,144,2|0,3:2|1:0,0:0:0:0:
478,95,144570,2,0,B|448:133|416:130|417:129|383:124|356:162,1,144,2|0,3:2|3:0,0:0:0:0:
355,162,145110,6,0,L|350:125,2,24,2|0|0,0:0|0:0|0:0,0:0:0:0:
310,181,145381,6,0,L|287:151,2,24,2|0|0,0:0|0:0|0:0,0:0:0:0:
280,219,145651,6,0,L|245:204,2,24,2|0|0,0:0|0:0|0:0,0:0:0:0:
273,266,145921,6,0,B|225:257|214:302|222:301|200:349|124:337,1,144,2|0,3:2|1:0,0:0:0:0:
22,171,146327,2,0,B|70:162|81:207|73:206|95:254|171:242,1,144,2|0,3:2|3:0,0:0:0:0:
273,76,146732,2,0,B|225:67|214:112|222:111|200:159|124:147,1,144,6|0,3:2|3:0,0:0:0:0:
162,151,147543,5,0,1:0:0:0:
162,151,147813,2,0,L|166:175,2,18,2|0|0,3:2|3:0|3:0,0:0:0:0:
8,14,148083,6,0,P|76:39|171:38,1,144,2|0,3:2|1:0,0:0:0:0:
326,16,148489,2,0,P|301:84|302:179,1,144,2|0,3:2|1:0,0:0:0:0:
324,334,148894,5,2,3:2:0:0:
324,334,149029,1,0,3:0:0:0:
324,334,149164,2,0,P|256:309|161:310,1,144,2|0,3:2|3:0,0:0:0:0:
54,368,149570,1,0,3:0:0:0:
92,266,149705,5,2,3:2:0:0:
247,196,149840,2,0,B|223:154|247:113|252:118|280:68|255:16,1,180,0|0,1:0|0:0,0:0:0:0:
183,42,150246,5,4,3:2:0:0:
61,75,150381,2,0,P|53:40|31:7,2,72,2|0|2,1:2|1:0|1:2,0:0:0:0:
12,230,150786,5,4,3:2:0:0:
112,305,150921,5,2,1:2:0:0:
194,338,151056,1,0,1:0:0:0:
251,270,151192,1,0,1:0:0:0:
315,103,151327,6,0,B|355:103|363:120|361:127|371:141|419:139,1,108,4|0,3:2|0:0,0:0:0:0:
497,143,151597,1,0,3:0:0:0:
497,143,151664,1,0,3:0:0:0:
497,143,151732,2,0,B|497:169|485:174|480:174|471:180|473:212,1,72,0|0,3:0|3:0,0:0:0:0:
421,361,152002,2,0,B|397:347|398:335|402:331|401:320|373:305,2,72,0|2|0,3:0|0:0|3:0,0:0:0:0:
323,211,152408,6,0,P|246:221|204:169,1,144,2|0,3:2|1:0,0:0:0:0:
411,83,152813,2,0,P|334:73|292:125,1,144,2|0,3:2|1:0,0:0:0:0:
104,137,153219,2,0,P|94:214|146:256,1,144,2|0,3:2|3:0,0:0:0:0:
139,254,153759,5,2,0:0:0:0:
220,304,153894,2,0,B|251:313|256:342|258:339|262:367|301:370,1,108,2|0,0:0|0:0,0:0:0:0:
493,108,154570,6,0,P|455:45|380:36,1,144,2|0,3:2|1:0,0:0:0:0:
297,209,154975,2,0,P|332:145|302:75,1,144,2|0,3:2|3:0,0:0:0:0:
111,89,155381,2,0,P|184:88|229:27,1,144,6|0,3:2|3:0,0:0:0:0:
226,37,155921,6,0,L|200:31,3,18,2|0|0|0,0:0|0:0|0:0|0:0,0:0:0:0:
134,11,156192,1,0,1:0:0:0:
19,195,156462,5,0,1:0:0:0:
27,192,156529,1,0,1:0:0:0:
36,190,156597,1,0,1:0:0:0:
45,188,156664,1,0,1:0:0:0:
54,186,156732,6,0,B|96:170|123:203|122:207|148:242|196:206,1,144,6|0,3:2|3:0,0:0:0:0:
385,334,157137,2,0,B|343:350|316:317|317:313|291:278|243:314,1,144,6|0,3:2|1:0,0:0:0:0:
106,375,157543,6,0,P|138:353|155:317,1,72,2|0,3:2|3:0,0:0:0:0:
292,196,157813,6,0,P|292:123|280:40,1,144,6|0,3:2|3:0,0:0:0:0:
93,165,158219,2,0,P|93:92|105:9,1,144,6|0,3:2|1:0,0:0:0:0:
193,176,158624,2,0,P|193:212|187:254,1,72,2|0,3:2|3:0,0:0:0:0:
360,375,158894,6,0,P|320:361|304:333,1,72,6|0,3:2|0:0,0:0:0:0:
282,249,159164,6,0,P|382:214|422:144,1,180,2|0,0:0|0:0,0:0:0:0:
417,64,159975,1,0,3:0:0:0:
288,23,160110,5,0,1:0:0:0:
247,123,160246,2,0,P|266:133|288:134,1,36,0|0,3:0|3:0,0:0:0:0:
449,237,160516,5,0,1:0:0:0:
309,217,160651,2,0,B|288:258|310:290|311:285|335:315|314:370,1,144,2|0,0:0|0:0,0:0:0:0:
118,379,161056,6,0,P|124:277|2:178,1,270,6|0,3:2|3:0,0:0:0:0:
133,21,161597,1,0,1:0:0:0:
141,133,161732,2,0,P|174:134|207:94,1,90,2|0,0:0|3:0,0:0:0:0:
425,18,162002,5,0,3:0:0:0:
425,18,162070,1,0,3:0:0:0:
425,18,162137,2,0,B|493:83|430:141|425:138|359:190|434:267,1,270,2|0,3:2|3:0,0:0:0:0:
289,375,162678,1,0,1:0:0:0:
252,245,162813,2,0,P|260:203|299:155,1,90,2|0,0:0|3:0,0:0:0:0:
162,25,163083,5,0,3:0:0:0:
162,25,163151,1,0,3:0:0:0:
162,25,163219,2,0,P|143:149|19:167,1,270,2|0,3:2|3:0,0:0:0:0:
178,291,163759,1,0,1:0:0:0:
309,220,163894,2,0,P|289:189|242:205,1,90,2|0,0:0|3:0,0:0:0:0:
376,371,164164,5,0,3:0:0:0:
376,371,164232,1,0,3:0:0:0:
376,371,164300,1,2,3:2:0:0:
491,306,164435,2,0,B|491:254|455:226|445:234|411:207|418:147,1,180,0|0,1:0|3:0,0:0:0:0:
293,21,164840,2,0,B|296:49|279:62|274:58|256:72|256:98,2,90,0|2|0,1:0|0:0|3:0,0:0:0:0:
53,27,165246,5,0,3:0:0:0:
53,27,165313,1,0,3:0:0:0:
53,27,165381,2,0,P|121:50|169:148,1,180,2|0,3:2|3:0,0:0:0:0:
135,343,165786,2,0,P|67:320|19:222,1,180,2|0,0:0|3:0,0:0:0:0:
255,219,166192,2,0,P|262:254|231:299,1,90,2|0,0:0|3:0,0:0:0:0:
234,297,166394,1,0,3:0:0:0:
234,297,166462,6,0,B|271:277|314:321|311:322|360:369|397:346,1,180,2|0,3:2|3:0,0:0:0:0:
445,127,166867,2,0,B|481:148|464:207|462:205|446:271|484:292,1,180,2|0,0:0|3:0,0:0:0:0:
351,205,167273,1,2,0:0:0:0:
478,23,167408,5,0,3:0:0:0:
478,23,167475,1,0,3:0:0:0:
478,23,167543,2,0,P|359:41|203:12,1,270,2|0,3:2|3:0,0:0:0:0:
118,192,168083,2,0,P|73:183|29:189,2,90,0|2|0,1:0|0:0|3:0,0:0:0:0:
74,298,168489,5,0,3:0:0:0:
74,298,168556,1,0,3:0:0:0:
74,298,168624,1,2,3:2:0:0:
232,378,168759,2,0,B|217:326|253:293|258:294|294:253|270:200,1,180,4|0,1:2|3:0,0:0:0:0:
149,23,169164,5,4,1:2:0:0:
271,123,169300,1,2,3:2:0:0:
361,23,169435,1,0,3:0:0:0:
470,79,169570,5,0,3:0:0:0:
470,79,169637,1,0,3:0:0:0:
470,79,169705,2,0,P|490:132|361:271,1,270,6|0,3:2|3:0,0:0:0:0:
183,361,170246,1,4,1:2:0:0:
50,367,170381,2,0,P|43:349|86:303,1,90,2|0,0:0|3:0,0:0:0:0:
251,224,170651,5,0,3:0:0:0:
251,224,170719,1,0,3:0:0:0:
251,224,170786,2,0,B|172:235|137:175|165:135|125:73|46:96,1,270,2|0,3:2|3:0,0:0:0:0:
69,208,171327,1,0,1:0:0:0:
252,122,171462,2,0,B|244:97|258:81|262:82|277:60|268:28,1,90,2|0,0:0|3:0,0:0:0:0:
500,29,171732,5,0,3:0:0:0:
500,29,171800,1,0,3:0:0:0:
500,29,171867,2,0,P|407:66|397:225,1,270,2|0,3:2|3:0,0:0:0:0:
171,266,172408,1,0,1:0:0:0:
264,365,172543,2,0,P|294:352|298:299,1,90,2|0,0:0|3:0,0:0:0:0:
163,167,172813,5,0,3:0:0:0:
163,167,172881,1,0,3:0:0:0:
163,167,172948,1,2,3:2:0:0:
250,44,173083,2,0,B|201:84|168:42|169:38|132:-4|84:24,1,180,0|0,1:0|3:0,0:0:0:0:
51,178,173489,2,0,B|71:202|50:219|48:218|27:237|41:261,2,90,0|2|0,1:0|0:0|3:0,0:0:0:0:
266,150,173894,5,0,3:0:0:0:
266,150,173962,1,0,3:0:0:0:
266,150,174029,2,0,P|289:230|387:270,1,180,2|0,3:2|3:0,0:0:0:0:
503,147,174435,2,0,P|462:219|503:317,1,180,2|0,0:0|3:0,0:0:0:0:
319,363,174840,2,0,P|277:377|239:357,1,90,2|0,0:0|3:0,0:0:0:0:
239,357,175043,1,0,3:0:0:0:
239,357,175110,6,0,P|163:309|75:279,1,180,2|0,3:2|3:0,0:0:0:0:
233,113,175516,2,0,P|148:83|72:35,1,180,2|0,0:0|3:0,0:0:0:0:
4,179,175921,1,2,0:0:0:0:
169,202,176056,5,0,3:0:0:0:
169,202,176124,1,0,3:0:0:0:
169,202,176192,2,0,B|323:194|339:262|313:264|328:335|485:320,1,360,2|0,3:2|1:0,0:0:0:0:
484,320,177002,2,0,B|486:281|469:277|468:284|450:280|454:241,1,90,0|2,3:0|0:0,0:0:0:0:
501,19,177273,5,4,3:2:0:0:
433,78,177408,2,0,L|442:128,2,45,0|0|2,1:0|1:0|1:2,0:0:0:0:
352,67,177678,1,0,1:0:0:0:
352,67,177746,1,0,1:0:0:0:
352,67,177813,1,2,1:2:0:0:
160,67,177948,5,0,1:0:0:0:
160,67,178083,2,0,P|123:88|103:142,1,90,2|0,1:2|1:0,0:0:0:0:
11,19,178354,1,6,3:2:0:0:
256,192,178489,12,0,180516,0:0:0:0:
17,164,180921,5,2,0:0:0:0:
66,260,181056,2,0,B|117:261|132:288|128:293|145:319|199:314,1,144,0|0,1:0|3:0,0:0:0:0:
355,269,181462,5,0,3:0:0:0:
355,269,181529,1,0,3:0:0:0:
355,269,181597,1,2,3:2:0:0:
461,325,181732,2,0,P|459:261|438:184,1,144,0|0,1:0|3:0,0:0:0:0:
319,106,182137,2,0,P|309:71|307:35,2,72,0|0|2,1:0|3:0|0:0,0:0:0:0:
189,24,182543,5,0,3:0:0:0:
189,24,182610,1,0,3:0:0:0:
189,24,182678,2,0,P|142:76|71:56,1,144,2|0,3:2|3:0,0:0:0:0:
182,163,183083,1,2,0:0:0:0:
192,272,183219,2,0,P|215:245|250:255,2,72,0|0|2,1:0|3:0|0:0,0:0:0:0:
63,368,183624,5,0,3:0:0:0:
63,368,183692,1,0,3:0:0:0:
63,368,183759,2,0,B|81:319|56:298|56:301|29:274|52:224,1,144,2|0,3:2|3:0,0:0:0:0:
118,101,184164,1,2,0:0:0:0:
219,139,184300,2,0,B|210:114|222:104|222:105|236:92|224:67,2,72,0|0|2,1:0|3:0|0:0,0:0:0:0:
348,254,184705,5,0,3:0:0:0:
348,254,184773,1,0,3:0:0:0:
348,254,184840,2,0,P|410:262|434:180,1,144,2|0,3:2|3:0,0:0:0:0:
353,80,185246,2,0,L|317:97,2,36,2|0|2,0:0|0:0|0:0,0:0:0:0:
191,95,185516,2,0,P|147:66|93:49,1,108,2|0,0:0|0:0,0:0:0:0:
23,23,185786,2,0,P|13:37|7:55,1,36,2|0,0:0|0:0,0:0:0:0:
11,164,185921,6,0,P|96:164|158:269,1,216,2|0,0:0|3:0,0:0:0:0:
58,370,186462,1,2,1:2:0:0:
29,284,186597,2,0,P|29:269|46:259,2,36,0|0|2,3:0|3:0|3:2,0:0:0:0:
219,354,186867,5,0,3:0:0:0:
219,354,186935,1,0,3:0:0:0:
219,354,187002,2,0,L|317:359,1,72,4|0,3:2|3:0,0:0:0:0:
398,233,187273,6,0,P|428:227|441:201,2,48,2|2|2,0:0|0:0|0:0,0:0:0:0:
357,258,187543,6,0,B|302:278|263:232|269:216|232:170|166:190,1,216,4|0,1:2|3:0,0:0:0:0:
53,102,188083,2,0,P|47:67|44:31,2,72,0|0|2,3:0|3:0|0:0,0:0:0:0:
160,64,188489,5,0,3:0:0:0:
160,64,188556,1,0,3:0:0:0:
160,64,188624,2,0,P|232:82|295:45,1,144,2|0,1:2|3:0,0:0:0:0:
450,24,189029,1,2,0:0:0:0:
445,114,189164,6,0,P|431:176|423:258,1,144,0|0,3:0|3:0,0:0:0:0:
306,370,189570,1,0,3:0:0:0:
306,370,189637,1,0,3:0:0:0:
306,370,189705,2,0,P|301:316|289:263,1,108,2|0,1:2|0:0,0:0:0:0:
269,190,189975,2,0,P|233:193|197:201,1,72,0|0,3:0|3:0,0:0:0:0:
50,336,190246,6,0,P|33:322|43:287,2,48,0|0|0,3:0|0:0|0:0,0:0:0:0:
101,362,190516,6,0,P|119:360|137:356,2,36,2|0|0,3:2|3:0|3:0,0:0:0:0:
98,191,190786,2,0,B|92:161|65:150|62:152|30:133|37:98,1,108,2|0,1:2|0:0,0:0:0:0:
5,38,191056,2,0,B|33:47|56:30|55:26|88:8|115:32,1,108,0|0,3:0|0:0,0:0:0:0:
184,33,191327,6,0,P|160:131|248:179,1,216,2|0,3:2|3:0,0:0:0:0:
434,118,191867,2,0,P|386:72|329:107,1,144,2|0,1:2|3:0,0:0:0:0:
349,212,192273,1,2,0:0:0:0:
465,349,192408,5,0,3:0:0:0:
355,353,192543,2,0,P|318:355|274:362,2,72,2|0|0,0:0|3:0|0:0,0:0:0:0:
210,281,192948,5,0,1:0:0:0:
100,277,193083,2,0,P|63:274|19:267,1,72,2|0,0:0|3:0,0:0:0:0:
129,117,193354,5,0,3:0:0:0:
129,117,193421,1,0,3:0:0:0:
129,117,193489,2,0,P|144:149|157:182,2,72,4|2|2,1:2|0:0|0:0,0:0:0:0:
282,22,193894,5,0,3:0:0:0:
282,22,193962,1,0,3:0:0:0:
282,22,194029,2,0,P|271:35|268:56,3,36,0|0|0|0,3:0|3:0|3:0|3:0,0:0:0:0:
291,127,194300,2,0,P|296:143|313:156,3,36,0|0|0|0,3:0|3:0|3:0|3:0,0:0:0:0:
386,171,194570,6,0,P|419:177|458:161,1,72,0|0,3:0|1:0,0:0:0:0:
334,321,194840,2,0,P|317:318|298:326,3,36,2|0|0|0,3:2|3:0|3:0|3:0,0:0:0:0:
224,328,195110,6,0,L|232:378,2,48,2|0|0,1:2|1:0|1:0,0:0:0:0:
202,284,195381,6,0,B|198:258|216:234|218:236|234:211|227:175,1,108,0|0,1:0|0:0,0:0:0:0:
292,137,195651,6,0,P|164:128|53:33,1,270,6|0,3:2|3:0,0:0:0:0:
107,217,196192,1,4,1:2:0:0:
193,319,196327,2,0,P|150:321|113:353,1,90,2|0,0:0|3:0,0:0:0:0:
371,367,196597,5,0,3:0:0:0:
371,367,196664,1,0,3:0:0:0:
371,367,196732,2,0,B|323:289|371:239|375:237|418:177|376:110,1,270,2|0,3:2|3:0,0:0:0:0:
167,28,197273,1,0,1:0:0:0:
33,53,197408,2,0,B|19:74|33:94|34:95|50:112|34:138,1,90,2|0,0:0|3:0,0:0:0:0:
33,346,197678,5,0,3:0:0:0:
33,346,197746,1,0,3:0:0:0:
33,346,197813,2,0,P|110:251|249:189,1,270,2|0,3:2|3:0,0:0:0:0:
335,35,198354,1,0,1:0:0:0:
491,27,198489,2,0,P|505:65|500:115,1,90,2|0,0:0|3:0,0:0:0:0:
392,193,198759,5,0,3:0:0:0:
392,193,198827,1,0,3:0:0:0:
392,193,198894,1,2,3:2:0:0:
455,372,199029,2,0,B|442:330|474:289|472:288|506:251|485:196,1,180,4|0,1:2|3:0,0:0:0:0:
316,263,199435,2,0,B|306:288|323:306|322:307|338:327|331:348,2,90,0|2|0,1:0|0:0|3:0,0:0:0:0:
311,136,199840,5,0,3:0:0:0:
311,136,199908,1,0,3:0:0:0:
311,136,199975,2,0,P|267:47|178:41,1,180,2|0,3:2|3:0,0:0:0:0:
47,99,200381,1,0,3:0:0:0:
27,107,200448,1,0,3:0:0:0:
22,128,200516,2,0,P|66:217|155:223,1,180,6|0,3:2|3:0,0:0:0:0:
228,196,200921,5,0,3:0:0:0:
228,196,200989,1,0,3:0:0:0:
228,196,201056,2,0,B|215:257|249:282|257:280|285:302|265:366,1,180,2|0,3:2|3:0,0:0:0:0:
414,362,201462,2,0,B|394:301|422:279|430:281|464:256|451:195,1,180,2|0,0:0|3:0,0:0:0:0:
335,30,201867,1,2,0:0:0:0:
468,52,202002,5,0,3:0:0:0:
468,52,202070,1,0,3:0:0:0:
468,52,202137,2,0,P|346:115|213:96,1,270,2|0,3:2|3:0,0:0:0:0:
85,33,202678,2,0,P|41:27|1:48,2,90,0|2|0,1:0|0:0|3:0,0:0:0:0:
64,129,203083,5,0,3:0:0:0:
64,129,203151,1,0,3:0:0:0:
64,129,203219,1,2,3:2:0:0:
218,196,203354,2,0,L|241:387,1,180,4|0,1:2|3:0,0:0:0:0:
150,353,203759,6,0,L|54:364,1,90,4|2,1:2|3:2,0:0:0:0:
325,284,204029,2,0,L|420:272,1,90,4|0,1:2|3:0,0:0:0:0:
414,272,204232,1,0,3:0:0:0:
414,272,204300,6,0,B|383:164|451:152|452:155|522:140|494:36,1,270,6|0,3:2|3:0,0:0:0:0:
319,138,204840,1,4,1:2:0:0:
343,5,204975,2,0,P|315:28|253:37,1,90,2|0,0:0|3:0,0:0:0:0:
187,207,205246,5,0,3:0:0:0:
187,207,205313,1,0,3:0:0:0:
187,207,205381,2,0,P|147:88|12:32,1,270,2|0,3:2|3:0,0:0:0:0:
62,161,205921,1,0,1:0:0:0:
9,321,206056,2,0,P|48:307|67:262,1,90,2|0,0:0|3:0,0:0:0:0:
295,239,206327,5,0,3:0:0:0:
295,239,206394,1,0,3:0:0:0:
295,239,206462,2,0,B|373:228|406:298|397:306|440:379|516:374,1,270,2|0,3:2|3:0,0:0:0:0:
502,263,207002,1,0,1:0:0:0:
394,148,207137,2,0,P|439:144|468:97,1,90,2|0,0:0|3:0,0:0:0:0:
387,45,207408,5,0,3:0:0:0:
387,45,207475,1,0,3:0:0:0:
387,45,207543,1,2,3:2:0:0:
254,14,207678,2,0,P|270:97|279:196,1,180,0|0,1:0|3:0,0:0:0:0:
84,255,208083,2,0,P|102:214|117:171,2,90,0|2|0,1:0|0:0|3:0,0:0:0:0:
147,374,208489,5,0,3:0:0:0:
147,374,208556,1,0,3:0:0:0:
147,374,208624,2,0,P|190:310|295:324,1,180,2|0,3:2|3:0,0:0:0:0:
338,184,209029,1,0,3:0:0:0:
338,184,209097,1,0,3:0:0:0:
338,184,209164,2,0,P|381:248|486:234,1,180,6|0,1:2|3:0,0:0:0:0:
496,17,209570,5,0,3:0:0:0:
496,17,209637,1,0,3:0:0:0:
496,17,209705,2,0,P|403:28|318:48,1,180,2|0,3:2|3:0,0:0:0:0:
192,200,210110,1,0,3:0:0:0:
192,200,210178,1,0,3:0:0:0:
192,200,210246,2,0,P|105:220|16:231,1,180,6|0,1:2|3:0,0:0:0:0:
87,130,210651,1,2,0:0:0:0:
57,19,210786,6,0,L|152:41,1,90,2|0,3:2|3:0,0:0:0:0:
303,127,211056,2,0,L|281:222,1,90,0|0,3:0|3:0,0:0:0:0:
195,373,211327,2,0,B|139:401|105:366|109:362|74:325|18:347,1,180,4|0,1:2|3:0,0:0:0:0:
124,252,211732,1,2,0:0:0:0:
311,331,211867,5,0,3:0:0:0:
388,285,212002,2,0,L|435:291,2,45,0|0|2,1:0|1:0|1:2,1:0:0:0:
397,382,212273,1,0,1:0:0:0:
397,382,212340,1,0,1:0:0:0:
397,382,212408,1,2,1:2:0:0:
471,215,212543,5,0,1:0:0:0:
471,215,212678,2,0,P|480:173|508:124,1,90,2|0,1:2|1:0,0:0:0:0:
312,191,212948,1,6,3:2:0:0:
256,192,213083,12,0,215110,0:0:0:0:
248,33,215920,6,0,P|263:65|269:110,1,72,2|0,0:0|1:0,0:0:0:0:
369,231,216191,1,2,1:2:0:0:
290,304,216326,1,0,3:0:0:0:
196,251,216461,1,2,1:2:0:0:
196,251,216596,2,0,P|160:256|128:272,1,72,0|0,3:0|3:0,0:0:0:0:
23,370,216866,6,0,P|41:349|40:303,1,72,2|0,0:0|3:0,0:0:0:0:
90,188,217137,2,0,P|69:170|23:171,1,72,2|0,0:0|1:0,0:0:0:0:
23,25,217407,2,0,B|74:12|91:45|86:48|101:84|161:67,1,144,2|0,0:0|3:0,0:0:0:0:
248,175,217812,6,0,L|266:97,1,72,2|0,0:0|1:0,0:0:0:0:
405,24,218083,1,2,1:2:0:0:
499,75,218218,1,0,3:0:0:0:
501,181,218353,1,2,0:0:0:0:
501,181,218488,2,0,L|423:163,1,72,0|0,1:0|3:0,0:0:0:0:
298,253,218758,6,0,P|330:245|364:206,1,72,2|0,0:0|3:0,0:0:0:0:
182,172,219029,2,0,P|198:143|195:92,1,72,2|0,0:0|1:0,0:0:0:0:
35,46,219299,1,2,0:0:0:0:
35,46,219704,6,0,L|107:34,1,72,2|0,0:0|3:0,0:0:0:0:
17,232,219975,2,0,L|89:239,1,72,6|0,1:2|3:0,0:0:0:0:
229,380,220245,1,2,1:2:0:0:
292,293,220380,1,0,3:0:0:0:
235,124,220515,5,4,3:2:0:0:
337,157,220650,2,0,P|344:120|327:79,1,72,2|0,0:0|3:0,0:0:0:0:
482,23,220920,2,0,P|445:16|404:33,1,72,2|0,0:0|1:0,0:0:0:0:
459,221,221191,2,0,B|451:268|476:291|480:290|502:311|491:358,1,144,2|0,0:0|3:0,0:0:0:0:
338,302,221596,6,0,L|257:290,1,72,2|0,0:0|1:0,0:0:0:0:
134,173,221866,1,2,1:2:0:0:
32,210,222002,1,0,3:0:0:0:
13,316,222137,1,2,0:0:0:0:
13,316,222272,2,0,L|94:328,1,72,0|0,1:0|3:0,0:0:0:0:
179,380,222542,6,0,P|181:341|168:304,1,72,2|0,0:0|3:0,0:0:0:0:
229,138,222812,2,0,P|227:177|240:214,1,72,2|0,0:0|1:0,0:0:0:0:
67,234,223083,2,0,P|95:185|98:93,1,144,2|0,0:0|3:0,0:0:0:0:
9,42,223488,6,0,P|38:19|85:15,1,72,2|0,0:0|1:0,0:0:0:0:
231,48,223758,1,2,1:2:0:0:
318,110,223893,1,0,3:0:0:0:
427,96,224029,1,2,1:2:0:0:
427,96,224164,2,0,P|450:125|454:172,1,72,0|0,3:0|3:0,0:0:0:0:
356,275,224434,6,0,L|372:205,1,72,2|0,0:0|3:0,0:0:0:0:
198,243,224704,2,0,L|258:204,1,72,2|0,0:0|1:0,0:0:0:0:
108,108,224975,2,0,P|185:119|229:73,1,144,2|0,0:0|3:0,0:0:0:0:
335,91,225380,6,0,P|333:53|326:20,1,72,2|0,0:0|1:0,0:0:0:0:
483,170,225650,1,2,1:2:0:0:
388,221,225785,1,0,3:0:0:0:
331,312,225920,1,2,0:0:0:0:
331,312,226056,2,0,P|293:314|260:321,1,72,0|0,1:0|3:0,0:0:0:0:
87,193,226326,6,0,P|51:197|28:238,1,72,2|0,0:0|3:0,0:0:0:0:
102,77,226596,2,0,P|116:43|92:3,1,72,2|0,0:0|1:0,0:0:0:0:
194,147,226866,1,2,0:0:0:0:
194,147,227272,6,0,P|216:176|263:175,1,72,2|0,0:0|1:0,0:0:0:0:
291,355,227542,2,0,P|320:332|319:285,1,72,2|0,1:2|3:0,0:0:0:0:
499,258,227812,1,2,1:2:0:0:
508,150,227947,1,0,3:0:0:0:
418,89,228083,6,0,P|372:75|319:108,1,108,4|0,3:2|0:0,0:0:0:0:
333,179,228353,2,0,P|241:207|135:141,1,216,4|0,3:2|0:0,0:0:0:0:
32,32,228893,6,0,B|70:85|32:133|29:130|-2:176|36:237,1,216,2|2,0:0|0:0,0:0:0:0:
