osu file format v14

[General]
AudioFilename: audio.mp3
AudioLeadIn: 0
PreviewTime: 76057
Countdown: 1
SampleSet: Soft
StackLeniency: 0.7
Mode: 0
LetterboxInBreaks: 0
WidescreenStoryboard: 0

[Editor]
Bookmarks: 9706,17274,24841,33489,42138,50786,59435,68084,76732,85381,94030,101597,109165,117813,126462,135110,143759,152408,161056,169705,178354,187002,195651,204300,212948,220515,228083
DistanceSpacing: 1.8
BeatDivisor: 3
GridSize: 16
TimelineZoom: 2.400001

[Metadata]
Title:Hakuraku
TitleUnicode:雹落
Artist:Camellia feat. Nanahira
ArtistUnicode:かめりあ feat. ななひら
Creator:Hinsvar
Version:Hailstorm
Source:
Tags:Confetto Japanese Rock J-Rock JRock ばーさす! Versus! Meltical sugar wave Featured Artist FA Mappers' Guild MG MPG
BeatmapID:4418009
BeatmapSetID:2105591

[Difficulty]
HPDrainRate:7
CircleSize:3.3
OverallDifficulty:9.3
ApproachRate:9.5
SliderMultiplier:1.76
SliderTickRate:1

[Events]
//Background and Video events
0,0,"BG.jpg",0,0
//Break Periods
//Storyboard Layer 0 (Background)
//Storyboard Layer 1 (Fail)
//Storyboard Layer 2 (Pass)
//Storyboard Layer 3 (Foreground)
//Storyboard Layer 4 (Overlay)
//Storyboard Sound Samples

[TimingPoints]
2139,270.27027027027,7,2,1,70,1,0
9706,-100,7,2,1,80,0,0
24841,270.27027027027,4,2,1,60,1,0
24841,-200,4,2,1,60,0,0
42138,-133.333333333333,4,2,1,70,0,0
59435,-100,4,2,1,75,0,0
60786,-200,4,2,1,60,0,0
61597,-100,4,2,1,75,0,0
63219,-200,4,2,1,60,0,0
63759,-100,4,2,1,75,0,0
69435,-200,4,2,1,60,0,0
70246,-100,4,2,1,75,0,0
71597,-200,4,2,1,60,0,0
72408,-100,4,2,1,75,0,0
74840,-200,4,2,1,75,0,0
76192,-133.333333333333,4,2,1,75,0,0
76732,-80,4,2,1,85,0,1
94030,270.27027027027,7,2,1,80,1,0
109165,270.27027027027,4,2,1,60,1,0
109165,-200,4,2,1,60,0,0
126462,-133.333333333333,4,2,1,70,0,0
143759,-100,4,2,1,75,0,0
145110,-200,4,2,1,75,0,0
145921,-100,4,2,1,75,0,0
147543,-200,4,2,1,75,0,0
148083,-100,4,2,1,75,0,0
153759,-200,4,2,1,75,0,0
154570,-100,4,2,1,75,0,0
155921,-200,4,2,1,75,0,0
156732,-100,4,2,1,75,0,0
159164,-200,4,2,1,75,0,0
160516,-100,4,2,1,75,0,0
161056,-80,4,2,1,85,0,1
178354,-100,4,2,1,80,0,0
195651,-80,4,2,1,85,0,1
212948,270.27027027027,7,2,1,80,1,0
228083,-100,7,2,1,70,0,0
228893,-200,7,2,1,50,0,0

[Colours]
Combo1 : 102,135,234
Combo2 : 228,191,105
Combo3 : 106,171,242
Combo4 : 241,156,80

[HitObjects]
33,177,7679,5,2,0:0:0:0:
33,177,7747,1,2,0:0:0:0:
33,177,7814,1,2,3:2:0:0:
33,177,8355,5,0,1:0:0:0:
125,269,8490,1,2,3:2:0:0:
234,250,8625,1,0,3:0:0:0:
284,179,8760,5,0,3:0:0:0:
284,179,8828,1,0,3:0:0:0:
284,179,8895,1,2,1:2:0:0:
334,108,9030,1,0,3:0:0:0:
440,113,9166,1,2,3:2:0:0:
499,220,9301,1,0,3:0:0:0:
446,350,9436,1,2,1:2:0:0:
288,367,9571,1,0,3:0:0:0:
199,216,9706,5,4,3:2:0:0:
216,100,9841,2,0,L|225:11,1,88,2|0,0:0|3:0,0:0:0:0:
90,259,10111,2,0,L|8:295,1,88,2|0,0:0|1:0,0:0:0:0:
291,289,10382,2,0,B|346:277|367:323|367:327|384:371|447:354,1,176,2|0,0:0|3:0,0:0:0:0:
485,254,10787,5,2,0:0:0:0:
488,236,10922,1,0,1:0:0:0:
265,23,11057,5,2,1:2:0:0:
294,197,11193,1,0,3:0:0:0:
495,137,11328,5,2,0:0:0:0:
321,108,11463,2,0,P|278:111|233:123,1,88,0|0,1:0|3:0,0:0:0:0:
58,29,11733,6,0,P|76:60|142:83,1,88,2|0,0:0|3:0,0:0:0:0:
16,349,12003,2,0,P|33:317|20:249,1,88,2|0,0:0|1:0,0:0:0:0:
315,225,12274,2,0,B|266:237|264:289|265:292|264:341|201:360,1,176,2|0,0:0|3:0,0:0:0:0:
142,273,12679,5,2,0:0:0:0:
140,255,12814,1,0,1:0:0:0:
20,125,12949,5,2,1:2:0:0:
214,162,13084,1,0,3:0:0:0:
492,26,13220,5,2,1:2:0:0:
298,63,13355,2,0,P|255:58|219:18,1,88,0|0,3:0|3:0,0:0:0:0:
475,116,13625,6,0,L|462:205,1,88,2|0,0:0|3:0,0:0:0:0:
264,375,13895,2,0,L|251:287,1,88,2|0,0:0|1:0,0:0:0:0:
37,116,14166,2,0,B|69:166|32:200|29:199|-11:232|17:289,1,176,2|0,0:0|3:0,0:0:0:0:
114,362,14571,5,2,0:0:0:0:
130,356,14706,1,0,1:0:0:0:
363,209,14841,5,2,1:2:0:0:
144,188,14976,1,0,3:0:0:0:
256,38,15111,5,2,0:0:0:0:
475,17,15247,2,0,P|448:51|435:104,1,88,0|0,1:0|3:0,0:0:0:0:
429,318,15517,6,0,P|466:338|506:369,1,88,2|0,0:0|3:0,0:0:0:0:
252,275,15787,2,0,P|215:297|169:316,1,88,2|0,0:0|1:0,0:0:0:0:
377,143,16057,2,0,B|342:108|389:71|394:74|434:37|403:-13,1,176,2|0,0:0|3:0,0:0:0:0:
298,42,16463,5,2,0:0:0:0:
212,25,16598,1,0,1:0:0:0:
55,106,16733,5,6,1:2:0:0:
4,364,16868,1,0,3:0:0:0:
334,382,17003,5,2,1:2:0:0:
283,124,17138,1,0,3:0:0:0:
81,242,17274,5,4,3:2:0:0:
183,356,17409,2,0,P|226:351|272:314,1,88,2|0,0:0|3:0,0:0:0:0:
396,127,17679,2,0,P|391:84|354:38,1,88,2|0,0:0|1:0,0:0:0:0:
125,28,17949,2,0,P|135:114|209:206,1,176,2|0,0:0|3:0,0:0:0:0:
312,218,18355,5,2,0:0:0:0:
310,236,18490,1,0,1:0:0:0:
205,313,18625,5,2,1:2:0:0:
39,379,18760,1,0,3:0:0:0:
19,121,18895,5,2,0:0:0:0:
185,187,19030,2,0,P|176:147|180:96,1,88,0|0,1:0|3:0,0:0:0:0:
289,25,19301,6,0,L|378:45,1,88,2|0,0:0|3:0,0:0:0:0:
504,191,19571,2,0,L|416:194,1,88,2|0,0:0|1:0,0:0:0:0:
209,363,19841,2,0,B|264:389|293:358|291:351|327:311|381:342,1,176,2|0,0:0|3:0,0:0:0:0:
503,368,20247,5,2,0:0:0:0:
500,350,20382,1,0,1:0:0:0:
247,286,20517,5,2,1:2:0:0:
277,106,20652,1,0,3:0:0:0:
35,6,20787,5,2,1:2:0:0:
5,186,20922,2,0,P|38:163|91:172,1,88,0|0,3:0|3:0,0:0:0:0:
125,294,21193,6,0,L|72:372,1,88,2|0,0:0|3:0,0:0:0:0:
245,128,21463,2,0,L|203:43,1,88,2|0,0:0|1:0,0:0:0:0:
328,314,21733,2,0,B|393:339|412:298|408:296|428:247|496:265,1,176,2|0,0:0|3:0,0:0:0:0:
483,350,22138,5,2,0:0:0:0:
495,362,22274,1,0,1:0:0:0:
344,200,22409,5,2,1:2:0:0:
464,80,22544,1,0,3:0:0:0:
249,359,22679,5,2,0:0:0:0:
129,239,22814,2,0,P|120:186|117:149,1,88,0|0,1:0|3:0,0:0:0:0:
80,26,23084,6,0,P|115:53|165:56,1,88,2|0,0:0|3:0,0:0:0:0:
417,129,23355,2,0,P|382:102|332:99,1,88,2|0,0:0|1:0,0:0:0:0:
157,327,23625,2,0,B|211:339|235:304|232:299|263:256|316:275,1,176,2|0,0:0|3:0,0:0:0:0:
244,110,24030,5,2,0:0:0:0:
216,193,24166,1,0,1:0:0:0:
380,377,24301,5,2,1:2:0:0:
326,187,24436,1,0,3:0:0:0:
63,23,24571,5,2,1:2:0:0:
9,213,24706,1,0,3:0:0:0:
160,125,24841,5,4,3:2:0:0:
160,125,25111,2,0,P|153:78|153:28,1,88,2|0,0:0|1:0,0:0:0:0:
239,75,25516,1,0,3:0:0:0:
346,20,25651,2,0,P|349:43|349:68,1,44,2|0,0:0|3:0,0:0:0:0:
475,87,25922,5,2,0:0:0:0:
475,87,26057,2,0,L|430:97,1,44,0|0,1:0|1:0,0:0:0:0:
305,163,26327,1,0,3:0:0:0:
224,236,26462,2,0,P|262:243|305:274,1,88,2|0,0:0|3:0,0:0:0:0:
398,364,26868,1,2,0:0:0:0:
469,313,27003,6,0,P|469:273|463:221,2,88,0|2|0,3:0|0:0|1:0,0:0:0:0:
376,219,27678,2,0,P|373:197|373:175,1,44,0|0,3:0|0:0,0:0:0:0:
388,40,27949,1,2,3:2:0:0:
388,40,28219,1,2,1:2:0:0:
388,40,28354,2,0,P|361:72|313:88,1,88,0|0,1:2|0:0,0:0:0:0:
159,50,28759,2,0,P|172:33|196:25,1,44,0|0,1:0|3:0,0:0:0:0:
256,192,29030,1,0,1:0:0:0:
90,255,29165,5,0,3:0:0:0:
90,255,29435,2,0,P|93:215|94:156,1,88,2|0,0:0|1:0,0:0:0:0:
182,143,29840,1,0,3:0:0:0:
49,89,29976,2,0,P|50:69|51:39,1,44,2|0,0:0|3:0,0:0:0:0:
187,46,30246,5,2,0:0:0:0:
187,46,30381,2,0,P|207:42|233:25,1,44,0|0,1:0|1:0,0:0:0:0:
392,140,30651,1,0,3:0:0:0:
400,40,30786,2,0,P|360:48|308:82,1,88,2|0,0:0|3:0,0:0:0:0:
256,192,31192,1,2,0:0:0:0:
379,254,31327,5,0,3:0:0:0:
456,212,31462,2,0,P|465:232|467:267,1,44,2|0,0:0|0:0,0:0:0:0:
284,288,31732,2,0,P|280:327|251:383,1,88,2|0,0:0|3:0,0:0:0:0:
186,324,32138,2,0,P|187:304|202:276,2,44,2|0|0,0:0|3:0|0:0,0:0:0:0:
73,368,32543,1,0,1:0:0:0:
14,213,32678,1,0,1:0:0:0:
14,213,32949,1,2,0:0:0:0:
117,84,33084,2,0,P|126:64|128:43,1,44,0|0,1:0|3:0,0:0:0:0:
39,41,33354,1,2,0:0:0:0:
239,15,33489,5,0,3:0:0:0:
239,15,33759,2,0,P|271:42|285:87,1,88,2|0,0:0|1:0,0:0:0:0:
200,188,34165,1,0,3:0:0:0:
251,259,34300,2,0,P|270:251|293:257,1,44,2|0,0:0|3:0,0:0:0:0:
422,350,34570,5,2,0:0:0:0:
422,350,34705,2,0,L|472:359,1,44,0|0,1:0|1:0,0:0:0:0:
459,268,34976,1,0,3:0:0:0:
391,153,35111,2,0,L|409:53,1,88,2|0,0:0|3:0,0:0:0:0:
484,129,35516,1,2,0:0:0:0:
313,92,35651,6,0,P|289:53|280:6,2,88,0|2|0,3:0|0:0|1:0,0:0:0:0:
381,239,36327,2,0,P|370:259|352:274,1,44,0|0,3:0|0:0,0:0:0:0:
254,205,36597,1,2,3:2:0:0:
254,205,36868,1,2,1:2:0:0:
254,205,37003,2,0,L|166:195,1,88,0|0,1:0|0:0,0:0:0:0:
2,207,37408,2,0,L|46:212,1,44,0|0,1:0|3:0,0:0:0:0:
195,284,37678,1,0,1:0:0:0:
57,377,37813,6,0,B|65:352|45:337|43:337|23:315|31:290,2,88,0|0|0,3:0|0:0|1:0,0:0:0:0:
234,347,38489,1,0,3:0:0:0:
144,359,38624,2,0,B|153:350|148:338|147:338|144:323|154:314,1,44,2|0,0:0|3:0,0:0:0:0:
146,166,38895,5,2,0:0:0:0:
146,166,39030,2,0,L|138:109,1,44,0|0,1:0|1:0,0:0:0:0:
139,122,39435,2,0,L|153:19,1,88,2|0,0:0|3:0,0:0:0:0:
58,68,39840,1,2,0:0:0:0:
232,88,39976,5,0,3:0:0:0:
297,148,40111,2,0,P|317:141|340:138,1,44,2|0,0:0|0:0,0:0:0:0:
490,26,40381,2,0,P|449:39|404:46,2,88,2|2|0,0:0|3:2|3:2,0:0:0:0:
490,26,40989,1,0,3:0:0:0:
490,26,41057,1,0,1:0:0:0:
442,141,41192,6,0,P|448:161|452:184,1,44,0|0,1:0|3:0,0:0:0:0:
412,262,41462,1,0,3:0:0:0:
321,112,41597,2,0,P|298:151|257:174,1,88,0|0,1:0|3:0,0:0:0:0:
137,217,42003,1,0,3:0:0:0:
6,117,42138,6,0,L|105:108,1,99.0000037765504,4|0,3:2|0:0,0:0:0:0:
182,100,42408,2,0,L|176:34,1,66.0000025177003,2|0,0:0|3:0,0:0:0:0:
335,34,42678,2,0,L|330:100,1,66.0000025177003,0|0,1:0|3:0,0:0:0:0:
193,206,42949,1,2,0:0:0:0:
193,206,43084,1,0,3:0:0:0:
202,355,43219,5,2,0:0:0:0:
19,361,43354,1,0,1:0:0:0:
10,212,43489,2,0,P|62:215|102:254,1,99.0000037765504,0|0,1:0|0:0,0:0:0:0:
105,324,43759,1,2,0:0:0:0:
335,357,43895,1,0,1:0:0:0:
281,238,44030,2,0,P|315:236|348:224,1,66.0000025177003,2|0,0:0|3:0,0:0:0:0:
501,133,44300,6,0,L|513:23,1,99.0000037765504,0|0,3:0|0:0,0:0:0:0:
434,22,44570,2,0,L|360:14,1,66.0000025177003,2|0,0:0|3:0,0:0:0:0:
221,123,44840,2,0,L|294:115,1,66.0000025177003,0|0,1:0|3:0,0:0:0:0:
452,238,45111,1,2,0:0:0:0:
452,238,45246,1,0,3:0:0:0:
60,238,45516,1,2,1:2:0:0:
89,366,45651,2,0,P|136:353|173:321,1,99.0000037765504,0|0,1:0|0:0,0:0:0:0:
188,242,45922,5,0,3:0:0:0:
188,242,46057,1,0,1:0:0:0:
414,135,46192,1,0,3:0:0:0:
286,27,46327,1,0,1:0:0:0:
178,152,46462,6,0,P|176:106|163:44,1,99.0000037765504,0|0,3:0|0:0,0:0:0:0:
89,32,46732,2,0,P|63:48|31:76,1,66.0000025177003,2|0,0:0|3:0,0:0:0:0:
97,312,47003,2,0,P|111:285|125:244,1,66.0000025177003,0|0,1:0|3:0,0:0:0:0:
200,369,47273,1,2,0:0:0:0:
200,369,47408,1,0,3:0:0:0:
333,145,47543,5,2,0:0:0:0:
437,225,47678,1,0,1:0:0:0:
303,355,47813,2,0,P|296:308|331:261,1,99.0000037765504,0|0,1:0|0:0,0:0:0:0:
395,316,48084,1,2,0:0:0:0:
247,223,48219,1,0,1:0:0:0:
450,109,48354,2,0,P|454:77|430:46,1,66.0000025177003,2|0,0:0|3:0,0:0:0:0:
207,25,48624,5,0,3:0:0:0:
90,118,48759,2,0,P|121:117|157:107,1,66.0000025177003,2|0,0:0|3:0,0:0:0:0:
352,71,49030,2,0,P|320:104|292:153,1,99.0000037765504,2|0,0:0|0:0,0:0:0:0:
306,230,49300,6,0,P|296:198|279:170,1,66.0000025177003,2|0,0:0|3:0,0:0:0:0:
138,308,49570,2,0,P|147:339|164:367,1,66.0000025177003,2|0,0:0|3:0,0:0:0:0:
320,326,49840,1,0,1:0:0:0:
123,211,49976,1,2,1:2:0:0:
123,211,50246,5,2,3:2:0:0:
123,211,50381,1,0,1:0:0:0:
31,19,50516,1,0,3:0:0:0:
192,134,50651,1,2,1:2:0:0:
372,52,50786,6,0,P|418:34|473:29,1,99.0000037765504,0|0,3:0|0:0,0:0:0:0:
417,116,51057,2,0,P|391:95|370:65,1,66.0000025177003,2|0,0:0|3:0,0:0:0:0:
492,251,51327,2,0,P|487:283|471:316,1,66.0000025177003,0|0,1:0|3:0,0:0:0:0:
317,355,51597,1,2,0:0:0:0:
317,355,51732,1,0,3:0:0:0:
230,278,51868,5,2,0:0:0:0:
342,179,52003,1,0,1:0:0:0:
172,49,52138,2,0,P|118:57|68:68,1,99.0000037765504,0|0,1:0|0:0,0:0:0:0:
27,131,52408,1,2,0:0:0:0:
200,186,52543,1,0,1:0:0:0:
145,359,52678,2,0,P|134:328|140:290,1,66.0000025177003,2|0,0:0|3:0,0:0:0:0:
304,118,52949,6,0,P|320:164|311:221,1,99.0000037765504,0|0,3:0|0:0,0:0:0:0:
292,290,53219,2,0,L|338:343,1,66.0000025177003,2|0,0:0|3:0,0:0:0:0:
489,220,53489,2,0,L|475:151,1,66.0000025177003,0|0,1:0|3:0,0:0:0:0:
353,29,53759,1,2,0:0:0:0:
353,29,53895,1,0,3:0:0:0:
159,355,54165,1,2,1:2:0:0:
30,209,54300,2,0,P|81:208|125:252,1,99.0000037765504,0|0,1:0|0:0,0:0:0:0:
59,289,54570,5,0,3:0:0:0:
59,289,54705,1,0,1:0:0:0:
225,255,54840,1,0,3:0:0:0:
191,89,54976,1,0,1:0:0:0:
25,123,55111,6,0,P|26:67|86:27,2,132.000005035401,0|0|0,3:0|3:0|1:0,0:0:0:0:
125,189,55786,1,0,3:0:0:0:
289,110,55922,2,0,P|289:73|281:40,1,66.0000025177003,2|0,0:0|3:0,0:0:0:0:
493,51,56192,5,2,0:0:0:0:
384,14,56327,1,0,1:0:0:0:
242,218,56462,2,0,P|285:235|326:277,1,99.0000037765504,0|0,1:0|0:0,0:0:0:0:
299,347,56732,1,2,0:0:0:0:
385,169,56868,1,0,1:0:0:0:
512,203,57003,2,0,P|501:169|499:136,1,66.0000025177003,2|0,0:0|3:0,0:0:0:0:
256,28,57273,5,4,3:2:0:0:
108,39,57408,2,0,P|65:46|9:68,1,99.0000037765504,2|0,0:0|0:0,0:0:0:0:
32,142,57678,2,0,P|36:170|51:207,1,66.0000025177003,2|0,0:0|3:0,0:0:0:0:
248,308,57949,2,0,P|258:280|264:241,1,66.0000025177003,2|0,0:0|1:0,0:0:0:0:
166,180,58219,1,2,0:0:0:0:
480,142,58354,5,6,3:2:0:0:
385,233,58489,2,0,P|369:168|367:93,1,132.000005035401,0|0,1:0|3:0,0:0:0:0:
32,242,58895,5,6,3:2:0:0:
127,151,59030,2,0,P|142:215|144:290,1,132.000005035401,0|0,1:0|3:0,0:0:0:0:
242,373,59435,6,0,B|223:328|261:294|263:297|301:251|271:198,1,176,2|0,3:2|1:0,0:0:0:0:
432,11,59840,2,0,B|451:56|413:90|411:87|373:133|403:186,1,176,2|0,3:2|1:0,0:0:0:0:
115,175,60246,2,0,B|139:132|101:86|99:89|61:55|80:10,1,176,2|0,3:2|3:0,0:0:0:0:
79,12,60786,6,0,P|99:16|130:5,1,44,2|0,0:0|0:0,0:0:0:0:
232,62,61057,2,0,P|212:58|181:69,1,44,2|0,0:0|0:0,0:0:0:0:
42,108,61327,2,0,P|72:114|118:97,1,66,2|0,0:0|0:0,0:0:0:0:
130,183,61597,6,0,P|101:297|94:366,1,176,2|0,3:2|1:0,0:0:0:0:
342,211,62003,2,0,P|340:93|329:24,1,176,2|0,3:2|3:0,0:0:0:0:
23,96,62408,2,0,P|54:209|83:272,1,176,6|0,3:2|3:0,0:0:0:0:
82,266,63219,5,0,1:0:0:0:
82,266,63489,2,0,L|41:275,2,22,2|0|0,3:2|3:0|3:0,0:0:0:0:
261,74,63759,6,0,B|257:124|204:138|206:134|151:150|147:198,1,176,2|0,3:2|1:0,0:0:0:0:
435,177,64165,2,0,B|392:148|407:95|409:99|423:43|384:16,1,176,2|0,3:2|1:0,0:0:0:0:
258,276,64570,5,2,3:2:0:0:
258,276,64705,1,0,3:0:0:0:
258,276,64840,2,0,B|303:254|341:293|338:293|378:333|421:312,1,176,2|0,3:2|3:0,0:0:0:0:
322,176,65246,1,0,3:0:0:0:
129,354,65381,5,2,3:2:0:0:
126,224,65516,2,0,B|98:166|147:119|147:124|197:72|171:19,1,220,0|0,1:0|0:0,0:0:0:0:
93,38,65922,5,4,3:2:0:0:
314,20,66057,2,0,P|355:20|404:9,1,88,2|0,1:2|1:0,0:0:0:0:
497,101,66327,1,2,1:2:0:0:
382,234,66462,5,4,3:2:0:0:
248,121,66597,5,2,1:2:0:0:
181,64,66732,1,0,1:0:0:0:
123,131,66868,1,0,1:0:0:0:
42,361,67003,6,0,P|87:361|132:290,1,132,4|0,3:2|0:0,0:0:0:0:
65,253,67273,1,0,3:0:0:0:
65,253,67340,1,0,3:0:0:0:
65,253,67408,2,0,P|56:213|52:165,1,88,0|0,3:0|3:0,0:0:0:0:
256,83,67678,5,0,3:0:0:0:
349,23,67813,2,0,P|358:63|362:111,1,88,2|0,0:0|3:0,0:0:0:0:
147,180,68084,6,0,P|149:93|182:4,1,176,2|0,3:2|1:0,0:0:0:0:
300,292,68489,2,0,P|223:334|130:350,1,176,2|0,3:2|1:0,0:0:0:0:
320,103,68895,2,0,P|395:148|455:221,1,176,2|0,3:2|3:0,0:0:0:0:
452,216,69435,6,0,L|448:258,2,29.3333333333333,2|0|0,0:0|0:0|0:0,0:0:0:0:
456,158,69705,5,2,0:0:0:0:
503,82,69840,2,0,B|481:82|466:62|468:57|458:38|425:33,1,88,2|0,0:0|0:0,0:0:0:0:
139,201,70246,6,0,P|163:272|176:376,1,176,2|0,3:2|1:0,0:0:0:0:
372,182,70651,2,0,P|348:111|335:7,1,176,2|0,3:2|3:0,0:0:0:0:
45,182,71057,2,0,P|116:158|220:145,1,176,6|0,3:2|3:0,0:0:0:0:
215,145,71597,6,0,P|213:134|210:123,3,22,2|0|0|0,0:0|0:0|0:0|0:0,0:0:0:0:
188,46,71868,1,0,1:0:0:0:
297,239,72138,5,0,1:0:0:0:
297,249,72205,1,0,1:0:0:0:
299,259,72273,1,0,1:0:0:0:
301,271,72340,1,0,1:0:0:0:
305,281,72408,6,0,P|401:294|465:353,1,176,6|0,3:2|3:0,0:0:0:0:
199,376,72813,2,0,P|103:363|39:304,1,176,6|0,3:2|1:0,0:0:0:0:
171,260,73219,5,2,3:2:0:0:
171,260,73354,1,0,3:0:0:0:
48,30,73489,6,0,B|31:72|67:116|70:112|109:146|91:203,1,176,6|0,3:2|3:0,0:0:0:0:
234,381,73895,2,0,B|217:339|253:295|256:299|295:265|277:208,1,176,6|0,3:2|1:0,0:0:0:0:
256,93,74300,5,2,3:2:0:0:
256,93,74435,1,0,3:0:0:0:
464,30,74570,6,0,B|472:51|454:73|453:71|433:88|442:116,1,88,6|0,3:2|0:0,0:0:0:0:
490,292,74840,6,0,P|468:200|358:157,1,220,2|0,0:0|0:0,0:0:0:0:
278,192,75651,1,0,3:0:0:0:
323,268,75786,2,0,P|343:262|351:242,2,44,2|0|0,0:0|3:0|0:0,0:0:0:0:
106,292,76192,6,0,L|68:300,1,33.0000012588501,0|0,1:0|0:0,0:0:0:0:
44,373,76327,2,0,L|12:221,1,132.000005035401,2|0,0:0|0:0,0:0:0:0:
0,26,76732,6,0,P|72:163|224:109,1,330,6|0,3:2|3:0,0:0:0:0:
494,24,77273,1,0,1:0:0:0:
511,219,77408,1,2,0:0:0:0:
316,237,77543,1,0,3:0:0:0:
298,41,77678,5,0,3:0:0:0:
298,41,77746,1,0,3:0:0:0:
298,41,77813,2,0,B|309:166|226:173|226:169|134:182|144:306,1,330,2|0,3:2|3:0,0:0:0:0:
255,308,78354,1,0,1:0:0:0:
46,380,78489,1,2,0:0:0:0:
87,163,78624,1,0,3:0:0:0:
20,52,78759,5,0,3:0:0:0:
20,52,78827,1,0,3:0:0:0:
20,52,78895,2,0,P|152:65|341:6,1,330,2|0,3:2|3:0,0:0:0:0:
512,233,79435,1,0,1:0:0:0:
322,128,79570,1,2,0:0:0:0:
136,194,79705,1,0,3:0:0:0:
41,344,79840,5,0,3:0:0:0:
41,344,79908,1,0,3:0:0:0:
41,344,79976,1,2,3:2:0:0:
214,381,80111,2,0,P|215:295|238:154,1,220,0|0,1:0|0:0,0:0:0:0:
484,24,80516,1,0,1:0:0:0:
300,71,80651,2,0,P|257:70|186:59,1,110,2|0,0:0|3:0,0:0:0:0:
20,31,80922,5,0,3:0:0:0:
20,31,80989,1,0,3:0:0:0:
20,31,81057,2,0,P|117:48|139:160,1,220,2|0,3:2|3:0,0:0:0:0:
256,372,81462,2,0,P|222:279|308:204,1,220,2|0,0:0|3:0,0:0:0:0:
357,27,81868,2,0,P|323:65|274:49,1,110,2|0,0:0|3:0,0:0:0:0:
273,48,82070,1,0,3:0:0:0:
273,48,82138,6,0,B|334:34|365:92|361:92|401:159|470:126,1,220,2|0,3:2|3:0,0:0:0:0:
236,335,82543,2,0,B|177:349|146:291|150:291|110:224|49:253,1,220,2|0,0:0|3:0,0:0:0:0:
149,56,82949,1,2,0:0:0:0:
363,328,83084,5,0,3:0:0:0:
363,328,83151,1,0,3:0:0:0:
363,328,83219,2,0,P|381:195|495:20,1,330,2|0,3:2|3:0,0:0:0:0:
474,278,83759,1,0,1:0:0:0:
283,165,83895,1,2,0:0:0:0:
96,218,84030,1,0,3:0:0:0:
13,361,84165,5,0,3:0:0:0:
13,361,84232,1,0,3:0:0:0:
13,361,84300,1,2,3:2:0:0:
148,378,84435,2,0,P|195:307|176:167,1,220,0|0,1:0|3:0,0:0:0:0:
0,12,84840,5,0,1:0:0:0:
256,120,84976,1,2,3:2:0:0:
512,12,85111,1,0,3:0:0:0:
342,29,85246,5,0,3:0:0:0:
342,29,85313,1,0,3:0:0:0:
342,29,85381,2,0,B|416:41|441:151|396:170|429:270|509:286,1,330,6|0,3:2|3:0,0:0:0:0:
233,372,85922,1,4,1:2:0:0:
330,176,86057,1,2,0:0:0:0:
221,12,86192,1,0,3:0:0:0:
45,22,86327,5,0,3:0:0:0:
45,22,86395,1,0,3:0:0:0:
45,22,86462,2,0,B|40:150|107:165|110:160|169:174|153:319,1,330,2|0,3:2|3:0,0:0:0:0:
58,376,87003,1,0,1:0:0:0:
1,201,87138,1,2,0:0:0:0:
186,24,87273,1,0,3:0:0:0:
235,190,87408,5,0,3:0:0:0:
243,199,87476,1,0,3:0:0:0:
243,199,87543,2,0,P|343:84|509:27,1,330,2|0,3:2|3:0,0:0:0:0:
486,358,88084,1,0,1:0:0:0:
246,293,88219,1,2,0:0:0:0:
390,213,88354,1,0,3:0:0:0:
105,209,88489,5,0,3:0:0:0:
105,209,88557,1,0,3:0:0:0:
105,209,88624,1,2,3:2:0:0:
50,24,88759,2,0,P|112:26|189:154,1,220,0|0,1:0|3:0,0:0:0:0:
96,380,89165,1,0,1:0:0:0:
0,185,89300,2,0,P|1:154|65:115,1,110,2|0,0:0|3:0,0:0:0:0:
316,246,89570,5,0,3:0:0:0:
316,246,89638,1,0,3:0:0:0:
316,246,89705,2,0,B|329:310|397:315|395:308|466:322|479:385,1,220,2|0,3:2|3:0,0:0:0:0:
179,216,90111,2,0,B|116:196|77:252|85:254|37:309|-23:288,1,220,2|0,0:0|3:0,0:0:0:0:
280,121,90516,2,0,B|305:98|290:68|288:70|275:36|300:15,1,110,2|0,0:0|3:0,0:0:0:0:
297,18,90719,1,0,3:0:0:0:
297,18,90786,6,0,P|396:31|441:137,1,220,2|0,3:2|3:0,0:0:0:0:
214,365,91192,2,0,P|110:349|70:251,1,220,2|0,0:0|3:0,0:0:0:0:
151,18,91597,1,2,0:0:0:0:
361,366,91732,5,0,3:0:0:0:
361,366,91800,1,0,3:0:0:0:
361,366,91868,2,0,P|310:215|493:13,1,440,2|0,3:2|1:0,0:0:0:0:
475,16,92678,1,0,3:0:0:0:
256,92,92813,1,2,0:0:0:0:
37,16,92949,5,4,3:2:0:0:
185,247,93084,1,0,1:0:0:0:
180,192,93151,1,0,1:0:0:0:
175,136,93219,1,2,1:2:0:0:
1,270,93354,1,0,1:0:0:0:
6,325,93422,1,0,1:0:0:0:
11,381,93489,1,2,1:2:0:0:
149,383,93624,5,0,1:0:0:0:
310,349,93759,1,2,1:2:0:0:
476,246,93895,1,0,1:0:0:0:
512,29,94030,5,6,3:2:0:0:
256,192,94165,12,0,96192,0:0:0:0:
254,359,97002,5,2,0:0:0:0:
257,341,97138,1,0,1:0:0:0:
99,188,97273,5,2,1:2:0:0:
136,316,97408,1,0,3:0:0:0:
376,316,97543,5,2,1:2:0:0:
413,188,97678,2,0,P|456:185|496:158,1,88,0|0,3:0|3:0,0:0:0:0:
446,14,97948,6,0,L|432:109,1,88,2|0,0:0|3:0,0:0:0:0:
158,17,98219,2,0,L|253:31,1,88,2|0,0:0|1:0,0:0:0:0:
294,312,98489,2,0,L|322:122,1,176,2|0,0:0|3:0,0:0:0:0:
167,111,98894,5,2,0:0:0:0:
150,116,99030,1,0,1:0:0:0:
10,182,99165,5,2,1:2:0:0:
206,209,99300,1,0,3:0:0:0:
440,143,99435,5,2,0:0:0:0:
413,339,99570,2,0,P|376:315|349:268,1,88,0|0,1:0|3:0,0:0:0:0:
309,106,99840,6,0,L|314:17,1,88,2|0,0:0|3:0,0:0:0:0:
120,59,100111,2,0,L|115:148,1,88,2|0,0:0|1:0,0:0:0:0:
239,380,100381,2,0,B|266:336|237:297|235:297|201:249|229:204,1,176,2|0,0:0|3:0,0:0:0:0:
103,263,100786,5,2,0:0:0:0:
17,241,100921,1,0,1:0:0:0:
195,13,101057,5,6,1:2:0:0:
314,198,101192,1,0,3:0:0:0:
410,371,101327,5,2,1:2:0:0:
512,186,101462,1,0,3:0:0:0:
324,72,101597,5,4,3:2:0:0:
419,128,101732,2,0,P|422:87|433:36,1,88,2|0,0:0|3:0,0:0:0:0:
236,276,102002,2,0,P|270:299|308:334,1,88,2|0,0:0|1:0,0:0:0:0:
199,43,102273,2,0,P|159:100|58:87,1,176,2|0,0:0|3:0,0:0:0:0:
3,23,102678,5,2,0:0:0:0:
17,13,102813,1,0,1:0:0:0:
136,199,102948,5,2,1:2:0:0:
333,236,103084,1,0,3:0:0:0:
509,23,103219,5,2,0:0:0:0:
312,60,103354,2,0,P|303:105|285:145,1,88,0|0,1:0|3:0,0:0:0:0:
238,361,103624,6,0,L|226:271,1,88,2|0,0:0|3:0,0:0:0:0:
32,133,103894,2,0,L|43:45,1,88,2|0,0:0|1:0,0:0:0:0:
312,60,104165,2,0,B|359:79|393:47|390:45|423:6|495:27,1,176,2|0,0:0|3:0,0:0:0:0:
466,178,104570,5,2,0:0:0:0:
470,194,104705,1,0,1:0:0:0:
230,310,104840,5,2,1:2:0:0:
272,138,104975,1,0,3:0:0:0:
11,78,105111,5,2,1:2:0:0:
180,28,105246,2,0,P|166:72|123:97,1,88,0|0,3:0|3:0,0:0:0:0:
9,184,105516,6,0,P|53:188|100:200,1,88,2|0,0:0|3:0,0:0:0:0:
250,375,105786,2,0,P|254:330|266:284,1,88,2|0,0:0|1:0,0:0:0:0:
503,200,106057,2,0,P|414:190|321:168,1,176,2|0,0:0|3:0,0:0:0:0:
255,25,106462,5,2,0:0:0:0:
250,9,106597,1,0,1:0:0:0:
164,278,106732,5,2,1:2:0:0:
264,111,106867,1,0,3:0:0:0:
512,383,107002,5,2,0:0:0:0:
412,216,107138,2,0,P|414:176|423:127,1,88,0|0,1:0|3:0,0:0:0:0:
460,3,107408,6,0,P|431:21|377:17,1,88,2|0,0:0|3:0,0:0:0:0:
72,37,107678,2,0,P|102:53|125:101,1,88,2|0,0:0|1:0,0:0:0:0:
296,357,107948,2,0,B|264:313|290:278|296:276|319:231|283:190,1,176,2|0,0:0|3:0,0:0:0:0:
220,74,108354,5,2,0:0:0:0:
292,22,108489,1,0,3:0:0:0:
1,152,108624,5,2,1:2:0:0:
193,198,108759,1,0,3:0:0:0:
488,311,108894,5,2,1:2:0:0:
296,357,109029,1,0,3:0:0:0:
368,232,109165,5,4,3:2:0:0:
368,232,109435,2,0,P|363:189|375:138,2,88,2|8|0,0:0|0:0|0:0,0:0:0:0:
140,238,110246,2,0,P|153:173|145:108,1,132,10|0,0:0|0:0,0:0:0:0:
191,33,110786,2,0,P|148:24|104:29,1,88,10|0,0:0|0:0,0:0:0:0:
11,181,111327,5,10,0:0:0:0:
256,192,111597,1,2,0:0:0:0:
501,203,111867,2,0,L|507:252,1,44,8|0,0:0|0:0,0:0:0:0:
452,315,112137,1,2,0:0:0:0:
452,315,112273,1,2,0:0:0:0:
173,377,112543,5,2,0:0:0:0:
145,293,112678,2,0,L|155:205,1,88,0|8,3:0|0:0,0:0:0:0:
264,88,113083,2,0,L|183:122,1,88,0|0,3:0|0:0,0:0:0:0:
28,88,113489,5,2,3:2:0:0:
28,88,113759,2,0,L|98:140,2,88,2|8|0,0:0|0:0|0:0,0:0:0:0:
265,35,114570,2,0,P|332:41|411:18,1,132,10|0,0:0|0:0,0:0:0:0:
465,77,115110,2,0,P|461:121|476:174,1,88,10|0,0:0|0:0,0:0:0:0:
499,364,115651,5,10,0:0:0:0:
499,364,115786,1,2,0:0:0:0:
256,192,116056,1,2,0:0:0:0:
13,20,116327,1,2,0:0:0:0:
13,20,116462,2,0,P|42:38|42:52,1,44,2|0,0:0|0:0,0:0:0:0:
65,166,116732,2,0,P|59:145|72:128,1,44,10|0,0:0|0:0,0:0:0:0:
129,61,117002,6,0,P|166:37|211:21,1,88,0|0,1:0|3:0,0:0:0:0:
352,74,117408,2,0,P|371:83|389:99,1,44,0|0,1:0|3:0,0:0:0:0:
430,176,117678,1,0,0:0:0:0:
256,268,117813,5,4,3:2:0:0:
256,268,118083,2,0,L|256:174,2,88,2|8|0,0:0|0:0|0:0,0:0:0:0:
3,344,118894,2,0,B|-7:313|15:286|18:287|42:256|31:216,1,132,10|0,0:0|0:0,0:0:0:0:
98,131,119435,2,0,B|91:155|107:176|109:175|123:193|117:214,1,88,10|0,0:0|0:0,0:0:0:0:
335,364,119975,5,10,0:0:0:0:
502,188,120246,1,2,0:0:0:0:
326,21,120516,2,0,L|272:24,1,44,10|0,0:0|0:0,0:0:0:0:
197,28,120786,1,2,0:0:0:0:
197,28,120921,1,2,0:0:0:0:
20,194,121192,5,2,0:0:0:0:
106,199,121327,2,0,L|193:203,1,88,0|8,3:0|0:0,0:0:0:0:
328,112,121732,2,0,L|280:186,1,88,0|0,3:0|0:0,0:0:0:0:
384,365,122137,2,0,B|333:368|312:320|321:312|306:270|251:268,1,176,2|8,3:2|0:0,0:0:0:0:
252,268,122948,6,0,P|238:291|243:316,1,44,2|0,0:0|0:0,0:0:0:0:
174,382,123219,2,0,P|148:334|99:318,1,88,8|0,0:0|0:0,0:0:0:0:
132,79,123759,2,0,P|145:79|155:70,2,22,2|0|0,3:2|3:0|3:0,0:0:0:0:
21,31,124029,1,0,3:0:0:0:
355,143,124300,5,4,3:2:0:0:
428,91,124435,2,0,P|437:128|443:185,1,88,2|0,3:2|0:0,0:0:0:0:
282,195,124840,1,0,3:0:0:0:
282,195,124975,2,0,P|272:157|267:101,1,88,0|0,3:0|0:0,0:0:0:0:
336,22,125381,5,0,3:0:0:0:
336,22,125516,1,0,3:0:0:0:
421,2,125651,1,0,3:0:0:0:
480,65,125786,1,0,3:0:0:0:
441,188,125921,5,0,1:0:0:0:
272,223,126056,2,0,B|237:227|218:206|221:204|201:185|166:189,1,110,0|0,3:0|0:0,0:0:0:0:
136,262,126462,6,0,P|88:274|37:277,1,99.0000037765504,4|0,3:2|0:0,0:0:0:0:
30,198,126732,2,0,P|22:166|20:132,1,66.0000025177003,2|0,0:0|3:0,0:0:0:0:
217,35,127002,2,0,P|214:67|206:99,1,66.0000025177003,0|0,1:0|3:0,0:0:0:0:
109,62,127273,1,2,0:0:0:0:
109,62,127408,1,0,3:0:0:0:
257,196,127543,5,2,0:0:0:0:
358,140,127678,1,0,1:0:0:0:
477,376,127813,2,0,P|444:349|439:286,1,99.0000037765504,0|0,1:0|0:0,0:0:0:0:
511,270,128083,1,2,0:0:0:0:
349,235,128219,1,0,1:0:0:0:
458,111,128354,2,0,P|459:76|452:41,1,66.0000025177003,2|0,0:0|3:0,0:0:0:0:
177,8,128624,6,0,P|212:29|274:33,1,99.0000037765504,0|0,3:0|0:0,0:0:0:0:
259,113,128894,2,0,P|235:126|212:160,1,66.0000025177003,2|0,0:0|3:0,0:0:0:0:
108,284,129164,2,0,P|108:256|90:219,1,66.0000025177003,0|0,1:0|3:0,0:0:0:0:
136,100,129435,1,2,0:0:0:0:
136,100,129570,1,0,3:0:0:0:
376,284,129840,1,2,1:2:0:0:
486,361,129975,2,0,B|476:338|488:313|491:314|503:289|486:258,1,99.0000037765504,0|0,1:0|0:0,0:0:0:0:
427,212,130246,5,0,3:0:0:0:
427,212,130381,1,0,1:0:0:0:
502,11,130516,1,0,3:0:0:0:
412,118,130651,1,0,1:0:0:0:
200,19,130786,6,0,B|227:13|246:34|244:37|261:55|291:47,1,99.0000037765504,0|0,3:0|0:0,0:0:0:0:
311,124,131056,2,0,P|299:157|297:193,1,66.0000025177003,2|0,0:0|3:0,0:0:0:0:
101,219,131327,2,0,P|127:196|147:166,1,66.0000025177003,0|0,1:0|3:0,0:0:0:0:
23,17,131597,1,2,0:0:0:0:
23,17,131732,1,0,3:0:0:0:
152,93,131867,5,2,0:0:0:0:
22,167,132002,1,0,1:0:0:0:
214,357,132137,2,0,P|179:324|164:264,1,99.0000037765504,0|0,1:0|0:0,0:0:0:0:
216,216,132408,1,2,0:0:0:0:
413,284,132543,1,0,1:0:0:0:
458,178,132678,2,0,P|428:178|391:166,1,66.0000025177003,2|0,0:0|3:0,0:0:0:0:
286,20,132948,5,0,3:0:0:0:
158,52,133083,2,0,P|167:75|173:116,1,66.0000025177003,2|0,0:0|3:0,0:0:0:0:
261,304,133354,2,0,P|284:275|332:236,1,99.0000037765504,2|0,0:0|0:0,0:0:0:0:
401,195,133624,6,0,L|324:186,1,66.0000025177003,0|2,3:0|0:0,0:0:0:0:
111,189,133894,2,0,L|188:198,1,66.0000025177003,0|2,3:0|0:0,0:0:0:0:
347,97,134164,1,0,1:0:0:0:
173,295,134300,1,0,1:0:0:0:
173,295,134570,5,0,3:0:0:0:
173,295,134705,1,0,1:0:0:0:
161,101,134840,1,0,3:0:0:0:
70,204,134975,1,0,1:0:0:0:
264,192,135110,6,0,P|311:201|378:220,1,99.0000037765504,0|0,3:0|0:0,0:0:0:0:
439,197,135381,2,0,P|418:221|384:253,1,66.0000025177003,2|0,0:0|3:0,0:0:0:0:
331,93,135651,2,0,P|320:62|309:17,1,66.0000025177003,4|0,1:2|3:0,0:0:0:0:
428,45,135921,1,2,0:0:0:0:
428,45,136056,1,0,3:0:0:0:
269,164,136192,5,2,0:0:0:0:
217,26,136327,1,0,1:0:0:0:
21,101,136462,2,0,P|43:142|99:147,1,99.0000037765504,0|0,1:0|0:0,0:0:0:0:
116,74,136732,1,2,0:0:0:0:
24,232,136867,1,0,1:0:0:0:
119,346,137002,2,0,L|188:330,1,66.0000025177003,2|0,0:0|3:0,0:0:0:0:
382,362,137273,6,0,B|370:338|382:315|386:317|398:286|382:255,1,99.0000037765504,0|0,3:0|0:0,0:0:0:0:
377,186,137543,2,0,P|343:178|320:145,1,66.0000025177003,2|0,0:0|3:0,0:0:0:0:
125,210,137813,2,0,P|159:218|182:251,1,66.0000025177003,0|0,1:0|3:0,0:0:0:0:
281,374,138083,1,2,0:0:0:0:
281,374,138219,1,0,3:0:0:0:
231,10,138489,1,2,1:2:0:0:
378,27,138624,2,0,L|478:39,1,99.0000037765504,0|0,1:0|0:0,0:0:0:0:
496,121,138894,5,0,3:0:0:0:
496,121,139029,1,0,1:0:0:0:
317,144,139164,1,0,3:0:0:0:
427,288,139300,1,0,1:0:0:0:
248,311,139435,6,0,B|210:338|188:306|186:308|164:276|115:304,2,132.000005035401,0|0|0,3:0|3:0|1:0,0:0:0:0:
205,188,140110,1,0,3:0:0:0:
23,171,140246,2,0,P|43:192|88:199,1,66.0000025177003,2|0,0:0|3:0,0:0:0:0:
112,26,140516,5,2,0:0:0:0:
233,70,140651,1,0,1:0:0:0:
440,20,140786,2,0,P|436:73|419:128,1,99.0000037765504,0|0,1:0|0:0,0:0:0:0:
406,195,141056,1,2,0:0:0:0:
243,156,141192,1,0,1:0:0:0:
310,255,141327,2,0,P|276:262|245:264,1,66.0000025177003,2|0,0:0|3:0,0:0:0:0:
97,71,141597,5,4,3:2:0:0:
125,267,141732,2,0,B|113:243|132:220|130:219|151:192|138:166,1,99.0000037765504,2|0,0:0|0:0,0:0:0:0:
62,178,142002,2,0,P|46:153|13:136,1,66.0000025177003,2|0,0:0|3:0,0:0:0:0:
245,265,142273,2,0,P|261:290|294:307,1,66.0000025177003,2|0,0:0|1:0,0:0:0:0:
186,384,142543,1,2,0:0:0:0:
442,323,142678,5,6,3:2:0:0:
460,160,142813,2,0,P|457:92|436:29,1,132.000005035401,0|0,1:0|3:0,0:0:0:0:
70,61,143219,5,6,3:2:0:0:
52,224,143354,2,0,P|55:292|76:355,1,132.000005035401,0|0,1:0|3:0,0:0:0:0:
323,157,143759,6,0,B|331:113|375:97|378:101|429:80|437:25,1,176,2|0,3:2|1:0,0:0:0:0:
189,227,144164,2,0,B|180:270|136:286|133:282|82:303|74:358,1,176,2|0,3:2|1:0,0:0:0:0:
221,125,144570,2,0,B|177:116|161:72|165:69|144:18|89:10,1,176,2|0,3:2|3:0,0:0:0:0:
95,11,145110,6,0,L|53:18,2,29.3333333333333,2|0|0,0:0|0:0|0:0,0:0:0:0:
138,51,145381,6,0,L|180:58,2,29.3333333333333,2|0|0,0:0|0:0|0:0,0:0:0:0:
95,91,145651,6,0,L|53:98,2,29.3333333333333,2|0|0,0:0|0:0|0:0,0:0:0:0:
138,131,145921,6,0,P|77:156|37:253,1,176,2|0,3:2|1:0,0:0:0:0:
321,208,146327,2,0,P|329:142|265:59,1,176,2|0,3:2|3:0,0:0:0:0:
162,327,146732,2,0,P|215:366|319:353,1,176,6|0,3:2|3:0,0:0:0:0:
322,357,147543,5,0,1:0:0:0:
322,357,147813,2,0,L|328:381,2,22,2|0|0,3:2|3:0|3:0,0:0:0:0:
154,138,148083,6,0,B|166:187|210:212|215:207|251:224|264:275,1,176,2|0,3:2|1:0,0:0:0:0:
432,8,148489,2,0,B|383:-5|339:19|340:26|307:49|257:34,1,176,2|0,3:2|1:0,0:0:0:0:
405,313,148894,5,2,3:2:0:0:
405,313,149029,1,0,3:0:0:0:
405,313,149164,2,0,B|441:277|441:226|434:224|431:184|469:148,1,176,2|0,3:2|3:0,0:0:0:0:
332,154,149570,1,0,3:0:0:0:
51,29,149705,5,2,3:2:0:0:
164,165,149840,2,0,B|206:205|201:255|194:257|193:321|239:365,1,220,0|0,1:0|0:0,0:0:0:0:
298,310,150246,5,4,3:2:0:0:
88,241,150381,2,0,P|69:291|34:311,1,88,2|0,1:2|1:0,0:0:0:0:
123,382,150651,1,2,1:2:0:0:
42,151,150786,5,4,3:2:0:0:
273,70,150921,5,2,1:2:0:0:
301,151,151056,1,0,1:0:0:0:
244,215,151192,1,0,1:0:0:0:
501,358,151327,6,0,P|448:357|372:326,1,132,4|0,3:2|0:0,0:0:0:0:
404,251,151597,1,0,3:0:0:0:
404,251,151664,1,0,3:0:0:0:
404,251,151732,2,0,P|404:215|425:165,1,88,0|0,3:0|3:0,0:0:0:0:
151,87,152002,5,0,3:0:0:0:
259,104,152137,2,0,P|258:68|237:18,1,88,2|0,0:0|3:0,0:0:0:0:
20,172,152408,6,0,P|90:196|204:184,1,176,2|0,3:2|1:0,0:0:0:0:
492,212,152813,2,0,P|422:188|308:200,1,176,2|0,3:2|1:0,0:0:0:0:
42,358,153219,2,0,P|114:343|207:276,1,176,2|0,3:2|3:0,0:0:0:0:
197,287,153759,5,2,0:0:0:0:
279,332,153894,2,0,P|289:280|208:201,1,176,2|0,0:0|0:0,0:0:0:0:
88,258,154570,6,0,B|119:210|76:178|76:176|32:129|65:90,1,176,2|0,3:2|1:0,0:0:0:0:
424,14,154975,2,0,B|393:62|436:94|436:96|480:143|447:182,1,176,2|0,3:2|3:0,0:0:0:0:
246,366,155381,2,0,B|215:318|258:286|258:284|302:237|269:198,1,176,6|0,3:2|3:0,0:0:0:0:
273,203,155921,6,0,P|259:203|244:194,3,22,2|0|0|0,0:0|0:0|0:0|0:0,0:0:0:0:
178,169,156192,1,0,1:0:0:0:
401,73,156462,5,0,1:0:0:0:
394,64,156529,1,0,1:0:0:0:
389,54,156597,1,0,1:0:0:0:
386,44,156664,1,0,1:0:0:0:
384,33,156732,6,0,P|427:88|405:187,1,176,6|0,3:2|3:0,0:0:0:0:
82,125,157137,2,0,P|108:60|204:29,1,176,6|0,3:2|1:0,0:0:0:0:
200,144,157543,5,2,3:2:0:0:
200,144,157678,1,0,3:0:0:0:
313,341,157813,6,0,B|265:313|234:351|237:353|202:386|149:357,1,176,6|0,3:2|3:0,0:0:0:0:
483,199,158219,2,0,B|435:227|404:189|407:187|372:154|319:183,1,176,6|0,3:2|1:0,0:0:0:0:
193,202,158624,5,2,3:2:0:0:
193,202,158759,1,0,3:0:0:0:
20,27,158894,6,0,B|46:12|64:29|62:30|78:49|102:35,1,88,6|0,3:2|0:0,0:0:0:0:
226,15,159164,6,0,P|207:102|288:64,1,220,2|0,0:0|0:0,0:0:0:0:
373,37,159975,1,0,3:0:0:0:
479,221,160110,5,0,1:0:0:0:
349,190,160246,1,0,3:0:0:0:
250,276,160381,1,0,3:0:0:0:
250,276,160448,1,0,3:0:0:0:
250,276,160516,6,0,L|259:319,1,44,0|0,1:0|0:0,0:0:0:0:
162,281,160651,2,0,L|335:299,1,176,2|0,0:0|0:0,0:0:0:0:
496,29,161056,6,0,P|462:99|240:184,1,330,6|0,3:2|3:0,0:0:0:0:
37,24,161597,1,0,1:0:0:0:
256,51,161732,1,2,0:0:0:0:
229,270,161867,1,0,3:0:0:0:
10,243,162002,5,0,3:0:0:0:
10,243,162070,1,0,3:0:0:0:
10,243,162137,2,0,B|88:275|144:215|148:186|217:125|320:150,1,330,2|0,3:2|3:0,0:0:0:0:
446,246,162678,1,0,1:0:0:0:
256,357,162813,1,2,0:0:0:0:
52,148,162948,1,0,3:0:0:0:
242,37,163083,5,0,3:0:0:0:
242,37,163151,1,0,3:0:0:0:
242,37,163219,2,0,B|265:111|192:186|176:169|109:246|132:334,1,330,2|0,3:2|3:0,0:0:0:0:
25,364,163759,1,0,1:0:0:0:
256,255,163894,1,2,0:0:0:0:
47,110,164029,1,0,3:0:0:0:
104,248,164164,5,0,3:0:0:0:
104,248,164232,1,0,3:0:0:0:
104,248,164300,1,2,3:2:0:0:
307,183,164435,2,0,B|319:133|269:88|237:106|189:75|209:9,1,220,0|0,1:0|3:0,0:0:0:0:
497,166,164840,1,0,1:0:0:0:
451,7,164975,2,0,B|461:40|437:55|421:46|396:69|402:94,1,110,2|0,0:0|3:0,0:0:0:0:
301,298,165246,5,0,3:0:0:0:
301,298,165313,1,0,3:0:0:0:
301,298,165381,2,0,P|370:368|489:321,1,220,2|0,3:2|3:0,0:0:0:0:
155,182,165786,2,0,P|128:277|228:357,1,220,2|0,0:0|3:0,0:0:0:0:
119,62,166192,2,0,P|69:77|58:129,1,110,2|0,0:0|3:0,0:0:0:0:
58,129,166394,1,0,3:0:0:0:
58,129,166462,6,0,B|134:122|155:179|150:182|177:242|246:225,1,220,2|0,3:2|3:0,0:0:0:0:
500,20,166867,2,0,B|467:89|407:79|407:73|342:66|321:135,1,220,2|0,0:0|3:0,0:0:0:0:
367,251,167273,1,2,0:0:0:0:
15,289,167408,5,0,3:0:0:0:
15,289,167475,1,0,3:0:0:0:
15,289,167543,2,0,P|166:243|282:350,1,330,2|0,3:2|3:0,0:0:0:0:
145,354,168083,1,0,1:0:0:0:
273,197,168219,1,2,0:0:0:0:
203,10,168354,1,0,3:0:0:0:
74,164,168489,5,0,3:0:0:0:
74,164,168556,1,0,3:0:0:0:
74,164,168624,1,2,3:2:0:0:
362,272,168759,2,0,P|403:187|401:50,1,220,4|0,1:2|3:0,0:0:0:0:
108,63,169164,5,4,1:2:0:0:
256,362,169300,1,2,3:2:0:0:
10,342,169435,1,0,3:0:0:0:
309,194,169570,5,0,3:0:0:0:
309,194,169637,1,0,3:0:0:0:
309,194,169705,2,0,B|252:125|157:170|160:185|77:232|5:155,1,330,6|0,3:2|3:0,0:0:0:0:
246,20,170246,1,4,1:2:0:0:
484,162,170381,1,2,0:0:0:0:
425,330,170516,1,0,3:0:0:0:
405,230,170651,5,0,3:0:0:0:
405,230,170719,1,0,3:0:0:0:
405,230,170786,2,0,P|334:152|481:61,1,330,2|0,3:2|3:0,0:0:0:0:
502,263,171327,1,0,1:0:0:0:
328,296,171462,1,2,0:0:0:0:
184,88,171597,1,0,3:0:0:0:
10,121,171732,5,0,3:0:0:0:
10,121,171800,1,0,3:0:0:0:
10,121,171867,2,0,B|125:135|114:241|112:236|102:340|211:356,1,330,2|0,3:2|3:0,0:0:0:0:
33,353,172408,1,0,1:0:0:0:
233,256,172543,1,2,0:0:0:0:
136,56,172678,1,0,3:0:0:0:
110,200,172813,5,0,3:0:0:0:
110,200,172881,1,0,3:0:0:0:
110,200,172948,1,2,3:2:0:0:
402,200,173083,2,0,P|416:114|511:23,1,220,0|0,1:0|3:0,0:0:0:0:
303,139,173489,1,0,1:0:0:0:
57,14,173624,2,0,P|96:50|106:103,1,110,2|0,0:0|3:0,0:0:0:0:
233,296,173894,5,0,3:0:0:0:
233,296,173962,1,0,3:0:0:0:
233,296,174029,2,0,B|199:346|131:328|133:319|72:302|27:358,1,220,2|0,3:2|3:0,0:0:0:0:
281,214,174435,2,0,B|254:160|303:109|310:115|355:71|329:4,1,220,2|0,0:0|3:0,0:0:0:0:
336,304,174840,2,0,B|366:305|375:339|371:341|378:371|414:377,1,110,2|0,0:0|3:0,0:0:0:0:
410,376,175043,1,0,3:0:0:0:
410,376,175110,6,0,P|444:269|396:179,1,220,2|0,3:2|3:0,0:0:0:0:
101,7,175516,2,0,P|68:115|116:205,1,220,2|0,0:0|3:0,0:0:0:0:
350,280,175921,1,2,0:0:0:0:
170,112,176056,5,0,3:0:0:0:
170,112,176124,1,0,3:0:0:0:
170,112,176192,2,0,P|301:179|507:14,1,440,2|0,3:2|1:0,0:0:0:0:
506,15,177002,1,0,3:0:0:0:
257,55,177137,1,2,0:0:0:0:
417,251,177273,5,4,3:2:0:0:
396,115,177408,1,0,1:0:0:0:
387,60,177475,1,0,1:0:0:0:
374,7,177543,1,2,1:2:0:0:
116,269,177678,1,0,1:0:0:0:
124,323,177746,1,0,1:0:0:0:
137,376,177813,1,2,1:2:0:0:
275,370,177948,5,0,1:0:0:0:
328,199,178083,1,2,1:2:0:0:
178,37,178219,1,0,1:0:0:0:
14,186,178354,5,6,3:2:0:0:
256,192,178489,12,0,180516,0:0:0:0:
63,281,180921,5,2,0:0:0:0:
3,92,181056,2,0,P|67:93|117:197,1,176,0|0,1:0|3:0,0:0:0:0:
261,336,181462,5,0,3:0:0:0:
261,336,181529,1,0,3:0:0:0:
261,336,181597,1,2,3:2:0:0:
284,184,181732,2,0,B|288:147|260:108|250:111|224:72|238:18,1,176,0|0,1:0|3:0,0:0:0:0:
480,4,182137,2,0,P|450:34|407:50,1,88,0|0,1:0|3:0,0:0:0:0:
199,217,182408,1,2,0:0:0:0:
349,283,182543,5,0,3:0:0:0:
349,283,182610,1,0,3:0:0:0:
349,283,182678,2,0,B|404:270|428:315|421:318|451:370|502:353,1,176,2|0,3:2|3:0,0:0:0:0:
312,142,183083,1,2,0:0:0:0:
454,208,183219,2,0,P|471:168|463:125,1,88,0|0,1:0|3:0,0:0:0:0:
430,21,183489,1,2,0:0:0:0:
220,58,183624,5,0,3:0:0:0:
220,58,183692,1,0,3:0:0:0:
220,58,183759,2,0,P|133:63|60:17,1,176,2|0,3:2|3:0,0:0:0:0:
124,180,184164,1,2,0:0:0:0:
10,284,184300,2,0,P|33:320|32:363,1,88,0|0,1:0|3:0,0:0:0:0:
297,367,184570,1,2,0:0:0:0:
184,322,184705,5,0,3:0:0:0:
184,322,184773,1,0,3:0:0:0:
184,322,184840,2,0,P|223:244|299:203,1,176,2|0,3:2|3:0,0:0:0:0:
506,134,185246,2,0,L|453:122,1,44,2|0,0:0|0:0,0:0:0:0:
392,39,185381,2,0,L|434:29,1,44,2|0,0:0|0:0,0:0:0:0:
260,125,185516,2,0,P|210:94|187:20,1,132,2|0,0:0|0:0,0:0:0:0:
302,53,185786,2,0,P|301:72|283:91,1,44,2|0,0:0|0:0,0:0:0:0:
131,250,185921,6,0,B|169:188|120:135|96:145|43:85|78:12,1,264,2|0,0:0|3:0,0:0:0:0:
256,210,186462,1,2,1:2:0:0:
435,12,186597,1,0,3:0:0:0:
435,12,186664,1,0,3:0:0:0:
435,12,186732,2,0,P|456:14|480:28,1,44,2|0,3:2|0:0,0:0:0:0:
294,101,186867,5,0,3:0:0:0:
294,101,186935,1,0,3:0:0:0:
294,101,187002,2,0,P|255:118|205:110,1,88,4|0,3:2|3:0,0:0:0:0:
2,98,187273,5,2,0:0:0:0:
7,41,187363,5,2,0:0:0:0:
54,10,187453,5,2,0:0:0:0:
105,30,187543,6,0,B|151:97|105:161|98:155|57:202|105:280,1,264,4|0,1:2|3:0,0:0:0:0:
355,360,188083,6,0,P|366:322|365:268,1,88,0|0,3:0|3:0,0:0:0:0:
210,112,188354,1,2,0:0:0:0:
23,257,188489,1,0,3:0:0:0:
23,257,188556,1,0,3:0:0:0:
22,257,188624,2,0,B|69:261|90:309|86:312|106:355|156:359,1,176,2|0,1:2|3:0,0:0:0:0:
256,192,189029,1,2,0:0:0:0:
345,39,189164,6,0,P|256:36|170:4,1,176,0|0,3:0|3:0,0:0:0:0:
22,152,189570,1,0,3:0:0:0:
22,152,189637,1,0,3:0:0:0:
22,152,189705,2,0,P|80:120|148:108,1,132,2|0,1:2|0:0,0:0:0:0:
187,176,189975,2,0,L|176:277,1,88,0|0,3:0|3:0,0:0:0:0:
383,330,190246,6,0,P|405:346|408:318,2,58.6666666666667,0|0|0,3:0|0:0|0:0,0:0:0:0:
392,246,190516,5,2,3:2:0:0:
392,246,190583,1,0,3:0:0:0:
392,246,190651,2,0,L|396:202,1,44,0|0,3:0|3:0,0:0:0:0:
461,152,190786,2,0,B|474:119|453:91|452:93|429:55|441:24,1,132,2|0,1:2|0:0,0:0:0:0:
358,18,191056,2,0,B|370:48|346:86|346:85|325:113|338:145,1,132,0|0,3:0|0:0,0:0:0:0:
299,75,191327,6,0,P|226:29|45:70,1,264,2|0,3:2|3:0,0:0:0:0:
162,349,191867,2,0,P|212:322|249:204,1,176,2|0,1:2|3:0,0:0:0:0:
170,110,192273,1,2,0:0:0:0:
2,161,192408,5,0,3:0:0:0:
3,278,192543,2,0,P|1:306|43:352,2,88,2|0|0,0:0|3:0|0:0,0:0:0:0:
171,227,192948,5,0,1:0:0:0:
170,110,193083,2,0,P|171:81|129:35,1,88,2|0,0:0|3:0,0:0:0:0:
33,58,193354,5,0,3:0:0:0:
33,58,193421,1,0,3:0:0:0:
33,58,193489,1,4,1:2:0:0:
256,170,193624,1,2,0:0:0:0:
479,58,193759,2,0,P|477:37|457:15,1,44,2|0,0:0|0:0,0:0:0:0:
341,21,193894,5,0,3:0:0:0:
335,42,193962,1,0,3:0:0:0:
337,64,194029,1,0,3:0:0:0:
345,84,194097,1,0,3:0:0:0:
358,102,194164,1,0,3:0:0:0:
372,119,194232,1,0,3:0:0:0:
385,136,194300,1,0,3:0:0:0:
394,156,194367,1,0,3:0:0:0:
398,178,194435,1,0,3:0:0:0:
396,200,194502,1,0,3:0:0:0:
390,221,194570,6,0,L|394:270,1,44,0|0,3:0|3:0,0:0:0:0:
499,296,194705,2,0,L|495:247,1,44,0|0,1:0|3:0,0:0:0:0:
284,189,194840,2,0,L|288:238,3,44,2|0|0|0,3:2|3:0|3:0|3:0,0:0:0:0:
290,333,195110,5,2,1:2:0:0:
234,333,195201,5,0,1:0:0:0:
192,292,195291,5,0,1:0:0:0:
137,282,195381,6,0,B|88:293|84:319|87:321|82:347|28:354,1,132,0|0,1:0|0:0,0:0:0:0:
154,371,195651,6,0,B|208:278|154:211|121:228|53:152|95:73,1,330,6|0,3:2|3:0,0:0:0:0:
478,16,196192,1,4,1:2:0:0:
396,278,196327,1,2,0:0:0:0:
210,75,196462,1,0,3:0:0:0:
356,21,196597,5,0,3:0:0:0:
356,21,196664,1,0,3:0:0:0:
356,21,196732,2,0,P|298:166|270:346,1,330,2|0,3:2|3:0,0:0:0:0:
106,368,197273,1,0,1:0:0:0:
27,134,197408,1,2,0:0:0:0:
191,166,197543,1,0,3:0:0:0:
485,250,197678,5,0,3:0:0:0:
485,250,197746,1,0,3:0:0:0:
485,250,197813,2,0,B|391:180|332:255|346:269|262:356|189:285,1,330,2|0,3:2|3:0,0:0:0:0:
190,21,198354,1,0,1:0:0:0:
333,155,198489,1,2,0:0:0:0:
467,11,198624,1,0,3:0:0:0:
332,67,198759,5,0,3:0:0:0:
332,67,198827,1,0,3:0:0:0:
332,67,198894,1,2,3:2:0:0:
43,92,199029,2,0,P|154:123|232:199,1,220,4|0,1:2|3:0,0:0:0:0:
238,361,199435,1,0,1:0:0:0:
26,300,199570,2,0,P|11:244|25:191,1,110,2|0,0:0|3:0,0:0:0:0:
304,283,199840,5,0,3:0:0:0:
304,283,199908,1,0,3:0:0:0:
304,283,199975,2,0,L|528:197,1,220,2|0,3:2|3:0,0:0:0:0:
310,62,200381,1,0,3:0:0:0:
259,81,200448,1,0,3:0:0:0:
208,101,200516,2,0,L|-16:187,1,220,6|0,3:2|3:0,0:0:0:0:
48,26,200921,5,0,3:0:0:0:
48,26,200989,1,0,3:0:0:0:
48,26,201056,2,0,B|113:69|100:122|95:117|73:159|142:221,1,220,2|0,3:2|3:0,0:0:0:0:
503,94,201462,2,0,B|432:129|394:92|400:90|375:50|287:79,1,220,2|0,0:0|3:0,0:0:0:0:
336,283,201867,1,2,0:0:0:0:
83,374,202002,5,0,3:0:0:0:
83,374,202070,1,0,3:0:0:0:
83,374,202137,2,0,P|155:282|160:66,1,330,2|0,3:2|3:0,0:0:0:0:
6,23,202678,1,0,1:0:0:0:
81,199,202813,1,2,0:0:0:0:
286,281,202948,1,0,3:0:0:0:
483,124,203083,5,0,3:0:0:0:
483,124,203151,1,0,3:0:0:0:
483,124,203219,1,2,3:2:0:0:
360,7,203354,2,0,B|404:68|363:122|360:118|317:164|372:223,1,220,4|0,1:2|3:0,0:0:0:0:
506,376,203759,5,4,1:2:0:0:
301,302,203894,1,2,3:2:0:0:
6,8,204029,5,4,1:2:0:0:
211,82,204164,1,0,3:0:0:0:
211,82,204232,1,0,3:0:0:0:
211,82,204300,2,0,P|116:137|45:337,1,330,6|0,3:2|3:0,0:0:0:0:
345,375,204840,1,4,1:2:0:0:
321,115,204975,1,2,0:0:0:0:
203,257,205110,1,0,3:0:0:0:
463,233,205246,5,0,3:0:0:0:
463,233,205313,1,0,3:0:0:0:
463,233,205381,2,0,P|476:113|312:23,1,330,2|0,3:2|3:0,0:0:0:0:
24,95,205921,1,0,1:0:0:0:
260,167,206056,1,2,0:0:0:0:
52,238,206192,1,0,3:0:0:0:
168,368,206327,5,0,3:0:0:0:
168,368,206394,1,0,3:0:0:0:
168,368,206462,2,0,B|217:290|164:208|161:211|87:117|148:51,1,330,2|0,3:2|3:0,0:0:0:0:
499,22,207002,1,0,1:0:0:0:
493,243,207137,1,2,0:0:0:0:
272,237,207273,1,0,3:0:0:0:
278,16,207408,5,0,3:0:0:0:
278,16,207475,1,0,3:0:0:0:
278,16,207543,1,2,3:2:0:0:
491,110,207678,2,0,P|400:116|270:143,1,220,0|0,1:0|3:0,0:0:0:0:
386,287,208083,1,0,1:0:0:0:
181,371,208219,2,0,P|178:325|164:260,1,110,2|0,0:0|3:0,0:0:0:0:
10,20,208489,5,0,3:0:0:0:
10,20,208556,1,0,3:0:0:0:
10,20,208624,2,0,P|54:112|181:141,1,220,2|0,3:2|3:0,0:0:0:0:
493,356,209029,1,0,3:0:0:0:
493,356,209097,1,0,3:0:0:0:
493,356,209164,2,0,P|449:264|322:235,1,220,6|0,1:2|3:0,0:0:0:0:
218,278,209570,5,0,3:0:0:0:
218,278,209637,1,0,3:0:0:0:
218,278,209705,2,0,P|112:327|12:357,1,220,2|0,3:2|3:0,0:0:0:0:
294,106,210110,1,0,3:0:0:0:
294,106,210178,1,0,3:0:0:0:
294,106,210246,2,0,P|400:57|500:27,1,220,6|0,1:2|3:0,0:0:0:0:
431,147,210651,1,2,0:0:0:0:
210,172,210786,5,2,3:2:0:0:
186,10,210921,1,0,3:0:0:0:
82,274,211056,5,0,3:0:0:0:
58,112,211192,1,0,3:0:0:0:
362,232,211327,6,0,B|311:184|336:125|343:130|368:67|336:23,1,220,4|0,1:2|3:0,0:0:0:0:
186,10,211732,1,2,0:0:0:0:
32,192,211867,5,0,3:0:0:0:
201,347,212002,1,0,1:0:0:0:
256,341,212070,1,0,1:0:0:0:
304,335,212137,1,2,1:2:0:0:
311,37,212273,1,0,1:0:0:0:
256,43,212340,1,0,1:0:0:0:
208,49,212408,1,2,1:2:0:0:
476,196,212543,5,0,1:0:0:0:
36,196,212678,1,2,1:2:0:0:
476,196,212813,1,0,1:0:0:0:
256,192,212948,5,6,3:2:0:0:
256,192,213083,12,0,215110,0:0:0:0:
34,200,215920,5,2,0:0:0:0:
51,196,216056,1,0,1:0:0:0:
111,32,216191,5,2,1:2:0:0:
151,202,216326,1,0,3:0:0:0:
338,352,216461,5,2,1:2:0:0:
378,182,216596,2,0,P|420:176|465:140,1,88,0|0,3:0|3:0,0:0:0:0:
503,28,216866,6,0,L|413:14,1,88,2|0,0:0|3:0,0:0:0:0:
264,147,217137,2,0,L|250:237,1,88,2|0,0:0|1:0,0:0:0:0:
9,356,217407,2,0,P|90:323|113:239,1,176,2|0,0:0|3:0,0:0:0:0:
67,121,217812,5,2,0:0:0:0:
50,114,217948,1,0,1:0:0:0:
344,209,218083,5,2,1:2:0:0:
302,16,218218,1,0,3:0:0:0:
165,368,218353,5,2,0:0:0:0:
207,175,218488,2,0,P|210:131|184:93,1,88,0|0,1:0|3:0,0:0:0:0:
386,99,218758,6,0,L|478:56,1,88,2|0,0:0|3:0,0:0:0:0:
217,274,219029,2,0,L|309:317,1,88,2|0,0:0|1:0,0:0:0:0:
27,88,219299,2,0,P|88:94|164:3,1,176,2|0,0:0|3:0,0:0:0:0:
259,139,219704,5,2,0:0:0:0:
275,52,219839,1,0,3:0:0:0:
294,337,219975,5,6,1:2:0:0:
511,377,220110,1,0,3:0:0:0:
218,244,220245,5,2,1:2:0:0:
1,204,220380,1,0,3:0:0:0:
84,358,220515,5,4,3:2:0:0:
123,167,220650,2,0,P|129:121|115:76,1,88,2|0,0:0|3:0,0:0:0:0:
389,9,220920,2,0,P|383:55|397:100,1,88,2|0,0:0|1:0,0:0:0:0:
256,291,221191,2,0,B|319:285|344:329|335:327|356:367|439:349,1,176,2|0,0:0|3:0,0:0:0:0:
484,217,221596,5,2,0:0:0:0:
466,219,221731,1,0,1:0:0:0:
312,210,221866,5,2,1:2:0:0:
289,7,222002,1,0,3:0:0:0:
80,174,222137,5,2,0:0:0:0:
103,377,222272,2,0,P|83:342|38:318,1,88,0|0,1:0|3:0,0:0:0:0:
208,311,222542,6,0,P|253:320|302:321,1,88,2|0,0:0|3:0,0:0:0:0:
384,120,222812,2,0,P|339:111|290:110,1,88,2|0,0:0|1:0,0:0:0:0:
35,164,223083,2,0,P|95:237|171:204,1,176,2|0,0:0|3:0,0:0:0:0:
147,82,223488,5,2,0:0:0:0:
144,64,223623,1,0,1:0:0:0:
315,222,223758,5,2,1:2:0:0:
340,27,223893,1,0,3:0:0:0:
210,143,224029,5,2,1:2:0:0:
405,168,224164,2,0,P|446:166|494:135,1,88,0|0,3:0|3:0,0:0:0:0:
424,358,224434,6,0,L|406:272,1,88,2|0,0:0|3:0,0:0:0:0:
256,72,224704,2,0,L|255:160,1,88,2|0,0:0|1:0,0:0:0:0:
87,358,224975,2,0,B|51:310|93:271|96:278|134:236|105:188,1,176,2|0,0:0|3:0,0:0:0:0:
77,45,225380,5,2,0:0:0:0:
71,28,225515,1,0,1:0:0:0:
175,140,225650,5,2,1:2:0:0:
345,80,225785,1,0,3:0:0:0:
489,304,225920,5,2,0:0:0:0:
319,244,226056,2,0,P|320:286|296:328,1,88,0|0,1:0|3:0,0:0:0:0:
123,341,226326,6,0,L|35:320,1,88,2|0,0:0|3:0,0:0:0:0:
50,113,226596,2,0,L|71:25,1,88,2|0,0:0|1:0,0:0:0:0:
303,22,226866,2,0,L|479:64,1,176,2|0,0:0|3:0,0:0:0:0:
442,357,227272,5,2,0:0:0:0:
405,276,227407,1,0,1:0:0:0:
205,42,227542,5,2,1:2:0:0:
112,244,227677,1,0,3:0:0:0:
480,207,227812,5,2,1:2:0:0:
278,114,227947,1,0,3:0:0:0:
70,357,228083,6,0,P|133:367|189:323,1,132,4|0,3:2|0:0,0:0:0:0:
259,272,228353,2,0,P|133:292|21:204,1,264,4|0,3:2|0:0,0:0:0:0:
138,36,228893,6,0,B|199:-13|260:38|254:56|320:108|379:60,1,264,2|2,0:0|0:0,0:0:0:0:
