osu file format v14

[General]
AudioFilename: audio.mp3
AudioLeadIn: 0
PreviewTime: -1
Countdown: 1
SampleSet: Soft
StackLeniency: 0.7
Mode: 0
LetterboxInBreaks: 0
WidescreenStoryboard: 0

[Editor]
Bookmarks: 14599,14927,15583,22468,41484,45091,87229,91000,91327,92803,93623,94032,94114,94278,94442,94934,95098,95262,95426,95590,95754,96245,96655,96737,96901,97065,98049,98213,98541,98868,99442
DistanceSpacing: 0.8
BeatDivisor: 4
GridSize: 16
TimelineZoom: 1.5

[Metadata]
Title:Guance Wei Xing
TitleUnicode:觀測衞曐
Artist:Camellia feat. Nanahira
ArtistUnicode:Camellia feat. Nanahira
Creator:Antuoniz
Version:Destructive power
Source:
Tags:antuoniz camellia nanahira
BeatmapID:1929255
BeatmapSetID:923825

[Difficulty]
HPDrainRate:5.5
CircleSize:4
OverallDifficulty:8.5
ApproachRate:9.3
SliderMultiplier:2
SliderTickRate:1

[Events]
//Background and Video events
0,0,"ssaN6cp.jpg",0,0
//Break Periods
//Storyboard Layer 0 (Background)
//Storyboard Layer 1 (Fail)
//Storyboard Layer 2 (Pass)
//Storyboard Layer 3 (Foreground)
//Storyboard Sound Samples

[TimingPoints]
1164,327.868852459016,4,2,0,100,1,0
1164,-200,4,2,0,60,0,0
5091,-333.333333333333,4,2,0,60,0,0
6402,-200,4,2,0,60,0,0
7714,-333.333333333333,4,2,0,60,0,0
9025,-333.333333333333,4,2,0,60,0,0
10009,-250,4,2,0,60,0,0
10993,-333.333333333333,4,2,0,60,0,0
11648,-200,4,2,0,60,0,0
12304,-125,4,2,0,60,0,0
12632,-125,4,2,0,70,0,0
14599,-142.857142857143,4,2,0,70,0,0
14927,-166.666666666667,4,2,0,70,0,0
16566,-200,4,2,0,70,0,0
16894,-125,4,2,0,70,0,0
41812,-200,4,2,0,60,0,0
43452,-500,4,2,0,60,0,0
45747,-125,4,2,0,65,0,0
47386,-125,4,2,0,70,0,0
48697,-200,4,2,0,70,0,0
50009,-125,4,2,0,70,0,0
50665,-125,4,2,0,70,0,0
71976,-83.3333333333333,4,2,0,70,0,1
79517,-200,4,2,0,70,0,1
79845,-125,4,2,0,70,0,1
82475,-83.3333333333333,4,2,0,70,0,1
90344,-83.3333333333333,4,2,0,70,0,0
93623,-200,4,2,0,70,0,0
98049,-142.857142857143,4,2,0,70,0,0

[HitObjects]
237,231,1164,6,0,L|191:142,1,100
229,36,1655,1,0,0:0:0:0:
323,86,1819,2,0,L|377:177,1,100
441,277,2311,1,0,0:0:0:0:
244,126,2475,5,0,0:0:0:0:
244,126,2557,1,0,0:0:0:0:
244,126,2967,5,0,0:0:0:0:
169,75,3131,1,0,0:0:0:0:
64,101,3295,1,0,0:0:0:0:
39,215,3459,1,0,0:0:0:0:
136,309,3623,1,0,0:0:0:0:
136,309,3786,6,0,L|149:238,1,50
227,194,4114,2,0,L|231:134,1,50
233,300,4442,1,0,0:0:0:0:
216,315,4606,1,0,0:0:0:0:
211,361,4770,1,0,0:0:0:0:
295,362,4934,1,0,0:0:0:0:
305,354,5098,6,0,L|325:317,1,29.9999990844727
338,222,5426,2,0,L|363:189,1,29.9999990844727
372,84,5754,2,0,L|335:64,1,29.9999990844727
251,28,6082,2,0,L|219:56,1,29.9999990844727
212,166,6409,6,0,L|178:130,1,50
110,225,6737,1,0,0:0:0:0:
253,100,6901,1,0,0:0:0:0:
265,106,7065,2,0,P|293:149|283:209,1,100
187,305,7557,1,0,0:0:0:0:
176,319,7721,6,0,P|222:322|260:285,1,89.9999972534181
343,129,8377,2,0,L|324:166,1,29.9999990844727
254,295,8704,2,0,L|288:272,1,29.9999990844727
472,172,9032,6,0,L|452:109,1,59.9999981689454
414,2,9524,1,0,0:0:0:0:
325,50,9688,1,0,0:0:0:0:
224,107,9852,1,0,0:0:0:0:
208,114,10016,2,0,L|155:133,1,40
106,192,10344,5,0,0:0:0:0:
139,283,10508,1,0,0:0:0:0:
252,331,10672,1,0,0:0:0:0:
408,291,10836,1,0,0:0:0:0:
427,104,11000,2,0,P|389:71|352:64,1,89.9999972534181
135,151,11655,6,0,L|96:205,1,50
335,273,11983,2,0,L|361:224,1,50
299,48,12311,2,0,L|253:125,1,80
177,258,12639,2,0,P|210:287|232:347,1,80
132,346,12967,5,0,0:0:0:0:
332,137,13131,1,0,0:0:0:0:
112,76,13623,5,0,0:0:0:0:
312,285,13786,1,0,0:0:0:0:
463,146,14114,1,0,0:0:0:0:
463,146,14196,1,0,0:0:0:0:
463,146,14278,6,0,L|484:106,4,40
343,196,14688,2,0,L|367:139,2,34.9999989318848
252,239,14934,2,0,L|240:267,4,29.9999990844727
263,215,15344,1,0,0:0:0:0:
269,186,15425,1,0,0:0:0:0:
259,158,15507,1,0,0:0:0:0:
134,82,15590,5,0,0:0:0:0:
463,67,15754,1,0,0:0:0:0:
147,214,16245,5,0,0:0:0:0:
447,62,16409,1,0,0:0:0:0:
134,82,16573,2,0,L|185:110,1,50
342,182,16901,5,0,0:0:0:0:
237,384,17229,5,0,0:0:0:0:
433,264,17557,5,0,0:0:0:0:
433,264,17885,5,0,0:0:0:0:
296,313,18049,1,0,0:0:0:0:
196,171,18213,1,0,0:0:0:0:
491,175,18377,1,0,0:0:0:0:
331,80,18868,5,0,0:0:0:0:
38,161,19031,1,0,0:0:0:0:
38,161,19360,1,0,0:0:0:0:
38,161,19442,1,0,0:0:0:0:
38,161,19524,6,0,L|82:127,3,40
185,132,19852,2,0,L|224:106,3,40
395,33,20180,5,0,0:0:0:0:
434,34,20261,1,0,0:0:0:0:
466,57,20343,1,0,0:0:0:0:
479,94,20425,1,0,0:0:0:0:
468,132,20507,1,0,0:0:0:0:
439,158,20589,1,0,0:0:0:0:
399,162,20671,1,0,0:0:0:0:
365,143,20753,1,0,0:0:0:0:
287,40,20836,5,0,0:0:0:0:
303,328,21000,1,0,0:0:0:0:
293,131,21491,5,0,0:0:0:0:
0,292,21655,1,0,0:0:0:0:
35,218,21819,1,0,0:0:0:0:
63,190,21900,1,0,0:0:0:0:
99,172,21982,1,0,0:0:0:0:
138,166,22064,1,0,0:0:0:0:
179,162,22147,6,0,P|235:174|302:255,1,160
331,330,22639,1,0,0:0:0:0:
331,330,22721,1,0,0:0:0:0:
331,330,22803,1,0,0:0:0:0:
392,169,22967,1,0,0:0:0:0:
188,276,23131,1,0,0:0:0:0:
382,169,23295,2,0,L|327:219,1,40
188,276,23459,6,0,L|100:243,1,80
98,243,23704,1,0,0:0:0:0:
89,234,23786,1,0,0:0:0:0:
122,120,23950,5,0,0:0:0:0:
160,128,24031,1,0,0:0:0:0:
195,147,24113,1,0,0:0:0:0:
224,175,24195,1,0,0:0:0:0:
315,373,24278,2,0,L|289:315,1,40
319,222,24442,2,0,L|355:288,1,40
447,295,24606,2,0,L|411:238,1,40
373,132,24770,6,0,P|333:81|276:73,1,120
195,147,25098,2,0,P|242:166|302:147,1,80
352,40,25426,2,0,P|305:52|266:95,1,80
139,227,25754,2,0,P|124:286|96:315,1,80
43,231,26082,6,0,P|48:161|99:129,1,120
183,142,26409,2,0,P|213:184|219:234,1,80
179,291,26737,2,0,P|145:257|139:220,1,80
214,78,27065,1,0,0:0:0:0:
300,57,27229,1,0,0:0:0:0:
445,22,27393,6,0,P|398:50|338:45,1,80
210,1,27721,2,0,P|221:44|200:105,1,80
156,217,28049,1,0,0:0:0:0:
229,356,28213,1,0,0:0:0:0:
47,327,28377,1,0,0:0:0:0:
151,298,28541,1,0,0:0:0:0:
22,245,28704,6,0,P|49:216|102:195,1,80
248,287,29032,1,0,0:0:0:0:
170,152,29196,1,0,0:0:0:0:
338,217,29360,2,0,L|311:174,2,40
412,310,29688,1,0,0:0:0:0:
450,209,29852,1,0,0:0:0:0:
474,112,30016,6,0,L|328:112,1,120
236,183,30344,2,0,L|344:183,1,80
313,37,30672,2,0,L|199:36,1,80
73,115,31000,2,0,L|169:116,1,80
300,229,31327,6,0,P|361:237|422:187,1,120
342,159,31655,2,0,P|281:151|220:201,1,120
69,277,31983,2,0,P|115:224|115:159,1,120
42,53,32311,1,0,0:0:0:0:
37,197,32475,1,0,0:0:0:0:
242,47,32639,5,0,0:0:0:0:
179,257,32803,1,0,0:0:0:0:
122,105,32967,1,0,0:0:0:0:
297,210,33131,1,0,0:0:0:0:
193,108,33295,1,0,0:0:0:0:
252,269,33459,1,0,0:0:0:0:
364,326,33623,1,0,0:0:0:0:
467,329,33786,1,0,0:0:0:0:
421,156,33950,6,0,P|434:203|453:132,1,200
436,137,34442,1,0,0:0:0:0:
421,156,34524,1,0,0:0:0:0:
409,173,34606,6,0,P|372:213|278:126,1,200
277,127,35098,1,0,0:0:0:0:
287,123,35180,1,0,0:0:0:0:
298,130,35262,5,0,0:0:0:0:
200,286,35426,1,0,0:0:0:0:
219,188,35590,1,0,0:0:0:0:
268,336,35754,1,0,0:0:0:0:
119,327,35918,5,0,0:0:0:0:
85,306,35999,1,0,0:0:0:0:
60,274,36081,1,0,0:0:0:0:
47,237,36163,1,0,0:0:0:0:
49,197,36245,1,0,0:0:0:0:
64,160,36327,1,0,0:0:0:0:
90,131,36409,1,0,0:0:0:0:
126,112,36491,1,0,0:0:0:0:
159,103,36573,6,0,P|214:103|256:126,1,80
337,184,36901,1,0,0:0:0:0:
475,63,37229,1,0,0:0:0:0:
311,33,37557,1,0,0:0:0:0:
411,240,37885,5,0,0:0:0:0:
245,79,38213,1,0,0:0:0:0:
384,254,38541,1,0,0:0:0:0:
280,57,38868,1,0,0:0:0:0:
431,154,39196,5,0,0:0:0:0:
274,132,39524,1,0,0:0:0:0:
157,30,39852,1,0,0:0:0:0:
192,185,40180,1,0,0:0:0:0:
47,239,40508,5,0,0:0:0:0:
123,109,40836,1,0,0:0:0:0:
263,59,41163,1,0,0:0:0:0:
234,326,41491,1,0,0:0:0:0:
344,147,41655,1,0,0:0:0:0:
447,330,41819,6,0,P|464:293|465:268,1,50
428,113,42147,1,0,0:0:0:0:
377,258,42475,1,0,0:0:0:0:
234,326,42803,1,0,0:0:0:0:
300,173,43131,5,0,0:0:0:0:
440,36,43459,2,0,L|421:54,1,20
213,53,43786,2,0,L|235:66,1,20
401,144,44114,1,0,0:0:0:0:
306,26,44442,5,0,0:0:0:0:
169,135,44770,1,0,0:0:0:0:
329,119,45098,1,0,0:0:0:0:
402,6,45262,1,0,0:0:0:0:
488,114,45426,1,0,0:0:0:0:
296,206,45590,1,0,0:0:0:0:
285,223,45672,1,0,0:0:0:0:
276,241,45754,6,0,P|265:283|305:340,1,80
180,181,46082,2,0,L|170:219,1,40
63,120,46245,1,0,0:0:0:0:
63,120,46409,2,0,P|36:188|55:248,1,120
58,261,46737,1,0,0:0:0:0:
87,287,46818,1,0,0:0:0:0:
123,304,46900,1,0,0:0:0:0:
163,310,46982,1,0,0:0:0:0:
197,311,47065,5,0,0:0:0:0:
210,48,47393,2,0,P|226:106|196:154,1,120
106,192,47721,2,0,P|141:222|201:236,2,80
13,27,48213,6,0,L|90:47,1,80
223,158,48541,1,0,0:0:0:0:
22,112,48704,2,0,L|91:128,1,50
292,113,49032,1,0,0:0:0:0:
292,113,49114,1,0,0:0:0:0:
372,270,49360,2,0,P|338:246|326:225,1,50
410,34,49688,6,0,L|477:34,1,50
439,144,50016,2,0,P|401:164|379:202,1,80
372,270,50344,1,0,0:0:0:0:
290,333,50508,1,0,0:0:0:0:
151,288,50672,2,0,P|192:279|231:231,1,80
168,89,51000,6,0,P|138:134|141:179,1,80
220,255,51327,1,0,0:0:0:0:
420,194,51491,1,0,0:0:0:0:
264,60,51655,2,0,L|263:130,1,40
402,279,51819,1,0,0:0:0:0:
297,170,51983,1,0,0:0:0:0:
307,257,52147,1,0,0:0:0:0:
263,321,52311,6,0,P|188:331|147:273,1,120
94,170,52639,1,0,0:0:0:0:
182,73,52803,2,0,L|157:34,2,40
216,192,53131,1,0,0:0:0:0:
158,304,53295,1,0,0:0:0:0:
20,40,53459,2,0,P|56:75|83:117,1,80
85,256,53786,5,0,0:0:0:0:
307,331,53950,1,0,0:0:0:0:
406,317,54114,1,0,0:0:0:0:
438,233,54278,1,0,0:0:0:0:
509,185,54442,1,0,0:0:0:0:
486,343,54606,1,0,0:0:0:0:
510,261,54770,1,0,0:0:0:0:
431,150,54934,6,0,P|390:162|355:208,1,80
307,331,55262,1,0,0:0:0:0:
215,252,55426,1,0,0:0:0:0:
147,354,55590,2,0,P|114:315|116:257,1,80
155,152,55918,1,0,0:0:0:0:
274,67,56082,1,0,0:0:0:0:
274,67,56163,1,0,0:0:0:0:
274,67,56245,5,0,0:0:0:0:
296,199,56409,1,0,0:0:0:0:
154,151,56573,1,0,0:0:0:0:
49,254,56737,2,0,P|88:179|183:153,1,160
173,151,57147,1,0,0:0:0:0:
202,177,57228,1,0,0:0:0:0:
210,215,57310,1,0,0:0:0:0:
195,252,57392,1,0,0:0:0:0:
32,350,57557,6,0,L|140:351,1,80
276,280,57885,1,0,0:0:0:0:
345,221,58049,1,0,0:0:0:0:
403,95,58213,1,0,0:0:0:0:
435,301,58377,1,0,0:0:0:0:
437,330,58541,1,0,0:0:0:0:
437,354,58704,6,0,L|359:280,2,80
225,142,59196,1,0,0:0:0:0:
332,250,59360,2,0,L|271:189,2,80
437,354,59852,2,0,L|462:248,1,80
504,85,60180,5,0,0:0:0:0:
339,170,60344,1,0,0:0:0:0:
159,59,60508,2,0,P|207:92|228:136,1,80
274,340,60836,1,0,0:0:0:0:
39,231,61000,1,0,0:0:0:0:
22,36,61163,2,0,P|71:56|94:90,1,80
155,340,61491,6,0,P|180:279|175:252,1,80
171,245,61737,1,0,0:0:0:0:
162,227,61819,1,0,0:0:0:0:
26,247,61983,1,0,0:0:0:0:
26,247,62147,5,0,0:0:0:0:
45,212,62228,1,0,0:0:0:0:
74,184,62310,1,0,0:0:0:0:
109,166,62392,1,0,0:0:0:0:
148,158,62474,1,0,0:0:0:0:
76,328,62639,2,0,L|107:273,1,40
234,179,62803,5,0,0:0:0:0:
374,310,62967,1,0,0:0:0:0:
311,143,63131,2,0,P|318:189|291:244,1,80
236,313,63459,1,0,0:0:0:0:
228,69,63623,1,0,0:0:0:0:
388,234,63786,2,0,P|387:287|358:324,1,80
47,283,64114,5,0,0:0:0:0:
278,241,64278,1,0,0:0:0:0:
69,183,64442,1,0,0:0:0:0:
236,313,64606,1,0,0:0:0:0:
278,241,64770,2,0,P|310:278|317:337,1,80
276,20,65098,2,0,P|244:52|230:92,1,80
394,271,65426,5,0,0:0:0:0:
448,196,65590,1,0,0:0:0:0:
369,195,65754,1,0,0:0:0:0:
474,272,65918,1,0,0:0:0:0:
306,151,66082,1,0,0:0:0:0:
247,342,66245,1,0,0:0:0:0:
249,94,66409,1,0,0:0:0:0:
325,346,66573,1,0,0:0:0:0:
182,189,66737,5,0,0:0:0:0:
445,54,66901,1,0,0:0:0:0:
182,189,67065,1,0,0:0:0:0:
297,36,67557,5,0,0:0:0:0:
386,265,67721,1,0,0:0:0:0:
297,36,67885,1,0,0:0:0:0:
215,165,68213,1,0,0:0:0:0:
123,105,68377,1,0,0:0:0:0:
123,105,68541,2,0,L|121:210,1,80
117,333,68868,1,0,0:0:0:0:
174,241,69032,1,0,0:0:0:0:
66,252,69196,1,0,0:0:0:0:
184,44,69360,5,0,0:0:0:0:
377,176,69524,1,0,0:0:0:0:
184,44,69688,1,0,0:0:0:0:
261,253,70180,5,0,0:0:0:0:
304,37,70344,1,0,0:0:0:0:
261,253,70508,1,0,0:0:0:0:
401,84,71491,1,0,0:0:0:0:
406,109,71573,1,0,0:0:0:0:
401,137,71655,2,0,P|387:184|331:214,1,80
310,90,71983,6,0,P|249:130|251:240,1,179.999994506836
337,346,72311,2,0,P|347:223|318:172,1,179.999994506836
209,54,72639,1,0,0:0:0:0:
244,229,72803,1,0,0:0:0:0:
91,123,72967,2,0,L|137:257,1,119.999996337891
169,365,73295,5,0,0:0:0:0:
35,217,73459,1,0,0:0:0:0:
182,91,73623,2,0,L|156:227,1,119.999996337891
35,298,73950,2,0,L|36:363,2,59.9999981689454
35,127,74278,1,0,0:0:0:0:
29,29,74442,5,0,0:0:0:0:
50,39,74524,1,0,0:0:0:0:
69,49,74606,2,0,L|186:92,1,119.999996337891
358,173,74934,1,0,0:0:0:0:
184,269,75098,5,0,0:0:0:0:
163,279,75180,1,0,0:0:0:0:
147,289,75262,2,0,L|22:341,1,119.999996337891
241,128,75590,1,0,0:0:0:0:
322,280,75754,1,0,0:0:0:0:
166,159,75918,6,0,P|227:208|302:177,1,119.999996337891
418,113,76245,2,0,B|342:106|312:23,1,119.999996337891
412,9,76573,1,0,0:0:0:0:
265,118,76737,1,0,0:0:0:0:
322,280,76901,1,0,0:0:0:0:
495,192,77065,5,0,0:0:0:0:
487,201,77229,2,0,B|420:242|420:242|351:186,1,119.999996337891
265,118,77557,1,0,0:0:0:0:
128,9,77721,1,0,0:0:0:0:
119,17,77885,2,0,B|78:84|78:84|129:141,1,119.999996337891
193,205,78213,1,0,0:0:0:0:
353,325,78377,5,0,0:0:0:0:
331,326,78541,2,0,L|206:325,1,119.999996337891
29,198,78868,2,0,P|85:224|117:295,1,119.999996337891
130,370,79196,1,0,0:0:0:0:
130,370,79278,1,0,0:0:0:0:
160,192,79524,6,0,L|161:124,1,50
238,80,79852,2,0,P|184:48|141:48,1,80
36,180,80180,1,0,0:0:0:0:
36,180,80344,1,0,0:0:0:0:
160,192,80508,2,0,P|144:136|105:102,1,80
29,34,80836,2,0,L|138:35,1,80
301,171,81163,6,0,L|371:172,1,40
365,174,81327,1,0,0:0:0:0:
386,175,81409,1,0,0:0:0:0:
407,176,81491,1,0,0:0:0:0:
461,309,81655,5,0,0:0:0:0:
425,324,81736,1,0,0:0:0:0:
386,332,81818,1,0,0:0:0:0:
346,333,81900,1,0,0:0:0:0:
307,326,81982,1,0,0:0:0:0:
269,312,82064,1,0,0:0:0:0:
209,198,82147,5,0,0:0:0:0:
247,190,82228,1,0,0:0:0:0:
286,198,82310,1,0,0:0:0:0:
318,222,82392,1,0,0:0:0:0:
344,252,82475,6,0,B|389:268|389:268|448:135,1,179.999994506836
489,29,82803,1,0,0:0:0:0:
360,40,82967,5,0,0:0:0:0:
321,47,83049,1,0,0:0:0:0:
288,62,83131,2,0,B|214:93|214:93|127:164,1,179.999994506836
49,244,83459,1,0,0:0:0:0:
167,384,83623,5,0,0:0:0:0:
190,356,83704,1,0,0:0:0:0:
203,322,83786,2,0,B|180:238|180:238|133:150,1,179.999994506836
26,41,84114,2,0,P|94:32|171:73,1,119.999996337891
338,186,84442,2,0,B|282:70|282:70|239:139,1,179.999994506836
201,216,84770,1,0,0:0:0:0:
455,336,84934,5,0,0:0:0:0:
421,335,85016,1,0,0:0:0:0:
384,332,85098,2,0,B|310:330|310:330|266:206,1,179.999994506836
232,100,85426,1,0,0:0:0:0:
57,215,85590,5,0,0:0:0:0:
69,178,85672,1,0,0:0:0:0:
88,140,85754,2,0,P|124:73|239:21,1,179.999994506836
420,75,86082,6,0,L|421:257,1,179.999994506836
279,384,86409,2,0,L|280:175,1,179.999994506836
276,23,86737,5,0,0:0:0:0:
216,20,86818,1,0,0:0:0:0:
160,42,86900,1,0,0:0:0:0:
118,84,86982,1,0,0:0:0:0:
96,139,87064,1,0,0:0:0:0:
97,199,87146,1,0,0:0:0:0:
167,336,87229,2,0,L|168:266,1,59.9999981689454
171,141,87393,2,0,B|234:210,1,59.9999981689454
321,334,87557,5,0,0:0:0:0:
345,302,87639,1,0,0:0:0:0:
361,263,87721,2,0,B|353:173|353:173|273:280,1,179.999994506836
218,353,88049,2,0,B|202:276|239:279|210:193,1,119.999996337891
186,88,88377,1,0,0:0:0:0:
79,218,88541,1,0,0:0:0:0:
80,195,88623,1,0,0:0:0:0:
78,175,88704,2,0,B|77:107|77:107|158:190,1,179.999994506836
245,278,89032,5,0,0:0:0:0:
309,123,89196,1,0,0:0:0:0:
161,163,89360,1,0,0:0:0:0:
321,226,89524,1,0,0:0:0:0:
145,300,89688,1,0,0:0:0:0:
50,166,89852,1,0,0:0:0:0:
50,166,89934,1,0,0:0:0:0:
50,166,90016,2,0,L|48:311,1,119.999996337891
159,54,90344,5,0,0:0:0:0:
361,281,90508,1,0,0:0:0:0:
357,52,90672,1,0,0:0:0:0:
151,238,90836,1,0,0:0:0:0:
267,19,91000,2,0,P|275:103|416:131,1,239.999992675781
151,238,91655,5,0,0:0:0:0:
408,135,91819,1,0,0:0:0:0:
110,26,92311,5,0,0:0:0:0:
319,213,92475,1,0,0:0:0:0:
205,248,92803,5,0,0:0:0:0:
209,188,92884,1,0,0:0:0:0:
242,140,92966,1,0,0:0:0:0:
296,115,93048,1,0,0:0:0:0:
355,122,93130,1,0,0:0:0:0:
402,157,93212,1,0,0:0:0:0:
425,212,93294,1,0,0:0:0:0:
416,271,93376,1,0,0:0:0:0:
378,316,93458,1,0,0:0:0:0:
323,337,93540,1,0,0:0:0:0:
264,325,93623,5,0,0:0:0:0:
275,303,93704,1,0,0:0:0:0:
286,280,93786,1,0,0:0:0:0:
297,258,93868,1,0,0:0:0:0:
308,235,93950,1,0,0:0:0:0:
319,213,94032,1,0,0:0:0:0:
398,41,94278,5,0,0:0:0:0:
123,183,94442,1,0,0:0:0:0:
213,1,94934,5,0,0:0:0:0:
319,213,95098,1,0,0:0:0:0:
202,310,95262,2,0,L|204:265,1,25
211,174,95426,1,0,0:0:0:0:
112,66,95590,2,0,L|145:102,1,25
211,174,95754,5,0,0:0:0:0:
186,168,95835,1,0,0:0:0:0:
162,171,95917,1,0,0:0:0:0:
139,182,95999,1,0,0:0:0:0:
122,200,96081,1,0,0:0:0:0:
112,222,96163,1,0,0:0:0:0:
113,241,96245,5,0,0:0:0:0:
96,260,96326,1,0,0:0:0:0:
80,279,96408,1,0,0:0:0:0:
74,299,96490,1,0,0:0:0:0:
84,322,96572,1,0,0:0:0:0:
94,345,96654,1,0,0:0:0:0:
104,370,96737,2,0,L|136:344,1,25
267,237,96901,5,0,0:0:0:0:
66,64,97065,1,0,0:0:0:0:
42,275,97557,5,0,0:0:0:0:
242,90,97721,1,0,0:0:0:0:
219,206,98049,5,0,0:0:0:0:
217,240,98130,1,0,0:0:0:0:
241,269,98212,1,0,0:0:0:0:
247,302,98294,1,0,0:0:0:0:
255,333,98376,1,0,0:0:0:0:
268,363,98459,1,0,0:0:0:0:
294,383,98540,5,0,0:0:0:0:
328,384,98622,1,0,0:0:0:0:
362,376,98704,1,0,0:0:0:0:
393,359,98786,1,0,0:0:0:0:
433,350,98868,5,0,0:0:0:0:
451,320,98950,1,0,0:0:0:0:
461,286,99032,1,0,0:0:0:0:
468,250,99114,1,0,0:0:0:0:
468,214,99196,1,0,0:0:0:0:
460,183,99278,1,0,0:0:0:0:
448,153,99360,1,0,0:0:0:0:
427,129,99442,1,0,0:0:0:0:
364,92,99524,5,0,0:0:0:0:
90,208,99688,1,0,0:0:0:0:
204,15,100180,5,0,0:0:0:0:
274,243,100344,1,0,0:0:0:0:
347,3,100508,1,0,0:0:0:0:
374,104,100672,1,0,0:0:0:0:
374,104,100753,1,0,0:0:0:0:
374,104,100836,6,0,P|287:136|156:110,1,209.999993591309
57,41,101491,1,0,0:0:0:0:
132,272,102147,5,0,0:0:0:0:
132,272,102229,1,0,0:0:0:0:
332,159,102475,5,0,0:0:0:0:
332,159,102557,1,0,0:0:0:0:
351,326,102803,2,0,P|391:296|420:235,1,104.999996795654
380,98,103131,2,0,P|292:87|327:234,1,279.999991455078
14,21,107885,5,0,0:0:0:0:
82,57,108049,1,0,0:0:0:0:
167,106,108213,1,0,0:0:0:0:
268,160,108377,1,0,0:0:0:0:
386,225,108541,1,0,0:0:0:0:
497,294,108704,6,0,P|467:325|377:328,1,104.999996795654
408,337,109032,1,0,0:0:0:0:
310,295,109196,1,0,0:0:0:0:
202,244,109360,2,0,L|202:337,1,69.9999978637696
128,241,109688,2,0,L|128:156,1,69.9999978637696
