osu file format v14

[General]
AudioFilename: audio.mp3
AudioLeadIn: 0
PreviewTime: 66824
Countdown: 0
SampleSet: Normal
StackLeniency: 0.7
Mode: 1
LetterboxInBreaks: 0
WidescreenStoryboard: 0

[Editor]
Bookmarks: 68014,77069,87258,96315,105371,178956,197069
DistanceSpacing: 0.8
BeatDivisor: 6
GridSize: 16
TimelineZoom: 2.1

[Metadata]
Title:Force!
TitleUnicode:ふぉーす!
Artist:Camellia feat. Nanahira
ArtistUnicode:かめりあ feat. ななひら
Creator:Faputa
Version:Magical Force!
Source:osu!
Tags:Cynp-zy cynplytholowazy -GN Junior Jr. Marathon Electronic 4orce! Featured Artist FA Mappers' Guild MG loli cute girl cametek 大箭将也 masaya oya kamelcamellia female voice kawaii Japanese dnb drum n' and bass
BeatmapID:1877830
BeatmapSetID:898932

[Difficulty]
HPDrainRate:5
CircleSize:5
OverallDifficulty:6
ApproachRate:5
SliderMultiplier:1.4
SliderTickRate:1

[Events]
//Background and Video events
0,0,"BG.jpg",0,50
//Break Periods
//Storyboard Layer 0 (Background)
//Storyboard Layer 1 (Fail)
//Storyboard Layer 2 (Pass)
//Storyboard Layer 3 (Foreground)
//Storyboard Layer 4 (Overlay)
//Storyboard Sound Samples

[TimingPoints]
380,560.747663551402,4,1,0,20,1,0
380,-62.5,4,1,0,20,0,0
14958,-62.5,4,1,0,75,0,0
15380,-60.2409638554217,4,1,0,75,0,0
15660,-58.1395348837209,4,1,0,75,0,0
16080,500,4,1,0,75,1,0
16080,-62.5,4,1,0,75,0,0
20080,495.867768595041,4,1,0,75,1,0
20080,-62.8930817610063,4,1,0,75,0,0
22063,504.201680672269,4,1,0,75,1,0
22063,-62.111801242236,4,1,0,75,0,0
24079,500,4,1,0,75,1,0
24079,-62.5,4,1,0,75,0,0
28079,495.867768595041,4,1,0,75,1,0
28079,-62.8930817610063,4,1,0,75,0,0
29070,504.201680672269,4,1,0,75,1,8
29070,-62.111801242236,4,1,0,75,0,0
29574,491.803278688525,4,1,0,75,1,8
29574,-63.2911392405063,4,1,0,75,0,0
30065,524.017467248908,4,1,0,75,1,0
30065,-59.8802395209581,4,1,0,75,0,0
34065,283.018867924528,4,1,0,80,1,0
52248,-100,4,1,0,40,0,0
56635,-133.333333333333,4,1,0,80,0,0
57272,-114.942528735632,4,1,0,80,0,0
57838,-100,4,1,0,80,0,0
58404,-89.2857142857143,4,1,0,80,0,0
58970,-133.333333333333,4,1,0,80,0,0
61234,-100,4,1,0,80,0,0
61800,-89.2857142857143,4,1,0,80,0,0
62366,-80,4,1,0,80,0,0
62932,-72.992700729927,4,1,0,80,0,0
63498,-100,4,1,0,80,0,0
65480,-96.1538461538461,4,1,0,80,0,0
65574,-91.743119266055,4,1,0,80,0,0
65668,-86.9565217391304,4,1,0,80,0,0
65692,-81.9672131147541,4,1,0,100,0,0
66046,-100,4,1,0,100,0,0
67461,-99.009900990099,4,1,0,100,0,0
67531,-98.0392156862745,4,1,0,100,0,0
67602,-97.0873786407767,4,1,0,100,0,0
67673,-96.1538461538461,4,1,0,100,0,0
67744,-95.2380952380952,4,1,0,100,0,0
67791,-94.3396226415094,4,1,0,100,0,0
67838,-93.4579439252336,4,1,0,100,0,0
67885,-92.5925925925926,4,1,0,100,0,0
68027,-90.9090909090909,4,1,0,100,0,0
68168,-100,4,1,0,100,0,0
71918,-99.009900990099,4,1,0,100,0,0
71989,-98.0392156862745,4,1,0,100,0,0
72060,-97.0873786407767,4,1,0,100,0,0
72131,-96.1538461538461,4,1,0,100,0,0
72201,-95.2380952380952,4,1,0,100,0,0
72272,-94.3396226415094,4,1,0,100,0,0
72343,-93.4579439252336,4,1,0,100,0,0
72414,-92.5925925925926,4,1,0,100,0,0
72484,-91.743119266055,4,1,0,100,0,0
72555,-90.9090909090909,4,1,0,100,0,0
72697,-100,4,1,0,100,0,0
76659,-83.3333333333333,4,1,0,100,0,0
77013,-90.9090909090909,4,1,0,100,0,0
77225,-100,4,1,0,100,0,0
80975,-99.009900990099,4,1,0,100,0,0
81046,-98.0392156862745,4,1,0,100,0,0
81116,-97.0873786407767,4,1,0,100,0,0
81187,-96.1538461538461,4,1,0,100,0,0
81258,-95.2380952380952,4,1,0,100,0,0
81329,-94.3396226415094,4,1,0,100,0,0
81399,-93.4579439252336,4,1,0,100,0,0
81470,-92.5925925925926,4,1,0,100,0,0
81541,-91.743119266055,4,1,0,100,0,0
81612,-90.9090909090909,4,1,0,100,0,0
81753,-100,4,1,0,100,0,0
84654,-99.009900990099,4,1,0,100,0,0
84725,-98.0392156862745,4,1,0,100,0,0
84866,-97.0873786407767,4,1,0,100,0,0
85008,-95.2380952380952,4,1,0,100,0,0
85291,-94.3396226415094,4,1,0,100,0,0
85432,-92.5925925925926,4,1,0,100,0,0
85574,-90.9090909090909,4,1,0,100,0,0
85857,-90.0900900900901,4,1,0,100,0,0
85928,-89.2857142857143,4,1,0,100,0,0
85998,-88.4955752212389,4,1,0,100,0,0
86069,-87.719298245614,4,1,0,100,0,0
86140,-86.9565217391304,4,1,0,100,0,0
86423,-85.4700854700855,4,1,0,100,0,0
86706,-84.0336134453781,4,1,0,100,0,0
86895,-80.6451612903226,4,1,0,100,0,0
86989,-82.6446280991736,4,1,0,100,0,0
87083,-84.7457627118644,4,1,0,100,0,0
87178,-86.9565217391304,4,1,0,100,0,0
87272,-89.2857142857143,4,1,0,100,0,0
87414,-90.9090909090909,4,1,0,100,0,0
87697,-92.5925925925926,4,1,0,100,0,0
87980,-94.3396226415094,4,1,0,100,0,0
88263,-95.2380952380952,4,1,0,100,0,0
88404,-96.1538461538461,4,1,0,100,0,0
88546,-98.0392156862745,4,1,0,100,0,0
88829,-100,4,1,0,100,0,0
135385,-95.2380952380952,4,1,0,100,0,0
135574,-90.0900900900901,4,1,0,100,0,0
135763,-84.7457627118644,4,1,0,100,0,0
135951,-79.3650793650794,4,1,0,100,0,0
136517,-96.1538461538461,4,1,0,100,0,0
136706,-91.743119266055,4,1,0,100,0,0
136895,-86.9565217391304,4,1,0,100,0,0
137083,-81.9672131147541,4,1,0,100,0,0
137366,-100,4,1,0,100,0,0
140621,-90.9090909090909,4,1,0,100,0,0
140904,-83.3333333333333,4,1,0,100,0,0
141046,-80,4,1,0,100,0,0
141329,-133.333333333333,4,1,0,100,0,0
141612,-86.9565217391304,4,1,0,100,0,1
141753,-95.2380952380952,4,1,0,100,0,1
148404,-95.2380952380952,4,1,0,100,0,0
149678,-90.9090909090909,4,1,0,100,0,0
149961,-83.3333333333333,4,1,0,100,0,0
150102,-80,4,1,0,100,0,0
150385,-100,4,1,0,100,0,0
150668,-86.9565217391304,4,1,0,100,0,1
150810,-95.2380952380952,4,1,0,100,0,1
157461,-95.2380952380952,4,1,0,100,0,0
159442,-96.1538461538461,4,1,0,100,0,0
159583,-98.0392156862745,4,1,0,100,0,0
159725,-100,4,1,0,100,0,0
161989,-83.3333333333333,4,1,0,100,0,1
164253,-83.3333333333333,4,1,0,100,0,0
164324,-100,4,1,0,100,0,0
165951,-98.0392156862745,4,1,0,100,0,0
166046,-96.1538461538461,4,1,0,100,0,0
166140,-94.3396226415094,4,1,0,100,0,0
166234,-91.743119266055,4,1,0,100,0,0
166329,-89.2857142857143,4,1,0,100,0,0
166423,-86.2068965517241,4,1,0,100,0,0
166517,-83.3333333333333,4,1,0,100,0,1
168404,-66.6666666666667,4,1,0,100,0,1
168781,-90.9090909090909,4,1,0,100,0,0
168923,-100,4,1,0,100,0,0
172673,-99.009900990099,4,1,0,100,0,0
172744,-98.0392156862745,4,1,0,100,0,0
172814,-97.0873786407767,4,1,0,100,0,0
172885,-96.1538461538461,4,1,0,100,0,0
172956,-95.2380952380952,4,1,0,100,0,0
173027,-94.3396226415094,4,1,0,100,0,0
173098,-93.4579439252336,4,1,0,100,0,0
173168,-92.5925925925926,4,1,0,100,0,0
173239,-91.743119266055,4,1,0,100,0,0
173310,-90.9090909090909,4,1,0,100,0,0
173451,-100,4,1,0,100,0,0
176352,-99.009900990099,4,1,0,100,0,0
176423,-98.0392156862745,4,1,0,100,0,0
176564,-97.0873786407767,4,1,0,100,0,0
176706,-95.2380952380952,4,1,0,100,0,0
176989,-94.3396226415094,4,1,0,100,0,0
177131,-92.5925925925926,4,1,0,100,0,0
177272,-90.9090909090909,4,1,0,100,0,0
177555,-90.0900900900901,4,1,0,100,0,0
177626,-89.2857142857143,4,1,0,100,0,0
177697,-88.4955752212389,4,1,0,100,0,0
177767,-87.719298245614,4,1,0,100,0,0
177838,-86.9565217391304,4,1,0,100,0,0
178121,-85.4700854700855,4,1,0,100,0,0
178404,-84.0336134453781,4,1,0,100,0,0
178593,-80.6451612903226,4,1,0,100,0,0
178687,-82.6446280991736,4,1,0,100,0,0
178781,-84.7457627118644,4,1,0,100,0,0
178876,-86.9565217391304,4,1,0,100,0,0
178970,-89.2857142857143,4,1,0,100,0,0
179253,-90.9090909090909,4,1,0,100,0,0
179536,-92.5925925925926,4,1,0,100,0,0
179819,-94.3396226415094,4,1,0,100,0,0
180102,-96.1538461538461,4,1,0,100,0,0
180385,-98.0392156862745,4,1,0,100,0,0
180668,-100,4,1,0,100,0,0
197932,-200,4,1,0,80,0,0
206706,-188.679245283019,4,1,0,80,0,0
206848,-178.571428571429,4,1,0,80,0,0
207131,-169.491525423729,4,1,0,80,0,0
207272,-161.290322580645,4,1,0,80,0,0
214631,-156.25,4,1,0,80,0,0
214772,-151.515151515152,4,1,0,80,0,0
214914,-144.927536231884,4,1,0,80,0,0
215055,-138.888888888889,4,1,0,80,0,0
215197,-133.333333333333,4,1,0,80,0,0
215763,-114.942528735632,4,1,0,80,0,0
216329,-100,4,1,0,80,0,0
216895,-89.2857142857143,4,1,0,80,0,0
217461,-133.333333333333,4,1,0,80,0,0
219725,-100,4,1,0,80,0,0
220291,-89.2857142857143,4,1,0,80,0,0
220857,-80,4,1,0,80,0,0
221423,-72.992700729927,4,1,0,80,0,0
221989,-100,4,1,0,80,0,0
224112,-81.9672131147541,4,1,0,100,0,0
224536,-100,4,1,0,100,0,0
225951,-99.009900990099,4,1,0,100,0,0
226022,-98.0392156862745,4,1,0,100,0,0
226093,-97.0873786407767,4,1,0,100,0,0
226164,-96.1538461538461,4,1,0,100,0,0
226234,-95.2380952380952,4,1,0,100,0,0
226281,-94.3396226415094,4,1,0,100,0,0
226329,-93.4579439252336,4,1,0,100,0,0
226376,-92.5925925925926,4,1,0,100,0,0
226517,-90.9090909090909,4,1,0,100,0,0
226659,-100,4,1,0,100,0,0
256517,-95.2380952380952,4,1,0,100,0,0
256706,-90.0900900900901,4,1,0,100,0,0
256895,-84.7457627118644,4,1,0,100,0,0
257083,-79.3650793650794,4,1,0,100,0,0
257649,-96.1538461538461,4,1,0,100,0,0
257838,-91.743119266055,4,1,0,100,0,0
258027,-86.9565217391304,4,1,0,100,0,0
258215,-81.9672131147541,4,1,0,100,0,0
258498,-100,4,1,0,100,0,0
261706,-90.9090909090909,4,1,0,100,0,0
262036,-83.3333333333333,4,1,0,100,0,0
262178,-80,4,1,0,100,0,0
262461,-133.333333333333,4,1,0,80,0,0
264866,-100,4,1,0,100,0,0
265432,-95.2380952380952,4,1,0,100,0,0
265857,-90.9090909090909,4,1,0,100,0,0
266281,-86.9565217391304,4,1,0,100,0,0
266423,-86.2068965517241,4,1,0,100,0,0
266494,-85.4700854700855,4,1,0,100,0,0
266564,-84.7457627118644,4,1,0,100,0,0
266635,-84.0336134453781,4,1,0,100,0,0
266706,-83.3333333333333,4,1,0,100,0,0
266777,-82.6446280991736,4,1,0,100,0,0
266848,-81.9672131147541,4,1,0,100,0,0
266918,-81.3008130081301,4,1,0,100,0,0
266989,-80.6451612903226,4,1,0,100,0,0
267060,-80,4,1,0,100,0,0
267131,-79.3650793650794,4,1,0,100,0,0
267272,-78.125,4,1,0,100,0,0
267555,-76.9230769230769,4,1,0,100,0,0
267838,-75.7575757575758,4,1,0,100,0,0
268121,-74.6268656716418,4,1,0,100,0,0
268404,-73.5294117647059,4,1,0,100,0,0
268687,-72.463768115942,4,1,0,100,0,0
268970,-71.4285714285714,4,1,0,100,0,0
269253,-133.333333333333,4,1,0,100,0,0
269536,-90.9090909090909,4,1,0,100,0,1
276329,-90.9090909090909,4,1,0,100,0,0
278593,-90.9090909090909,4,1,0,100,0,1
285385,-90.9090909090909,4,1,0,100,0,0
287366,-92.5925925925926,4,1,0,100,0,0
287508,-94.3396226415094,4,1,0,100,0,0
287649,-96.1538461538461,4,1,0,100,0,0
289914,-76.9230769230769,4,1,0,100,0,1
292178,-76.9230769230769,4,1,0,100,0,0
292248,-96.1538461538461,4,1,0,100,0,0
293593,-90.9090909090909,4,1,0,100,0,0
293876,-89.2857142857143,4,1,0,100,0,0
293970,-87.719298245614,4,1,0,100,0,0
294064,-86.2068965517241,4,1,0,100,0,0
294159,-84.0336134453781,4,1,0,100,0,0
294253,-81.9672131147541,4,1,0,100,0,0
294348,-79.3650793650794,4,1,0,100,0,0
294442,-76.9230769230769,4,1,0,100,0,1
296329,-66.6666666666667,4,1,0,100,0,1
296706,-90.9090909090909,4,1,0,100,0,0
298687,-66.6666666666667,4,1,0,100,0,1
298829,-50,4,1,0,100,0,1
299253,-66.6666666666667,4,1,0,100,0,1
300951,-90.9090909090909,4,1,0,100,0,0
301234,-74.0740740740741,4,1,0,100,0,1
303121,-58.8235294117647,4,1,0,100,0,1
303357,-41.6666666666667,4,1,0,100,0,1
304489,-90.9090909090909,4,1,0,100,0,0

[HitObjects]
256,192,380,8,0,14679,0:0:0:0:
253,188,15239,5,0,0:0:0:0:
253,188,15519,1,0,0:0:0:0:
253,188,15800,1,8,0:0:0:0:
253,188,16080,1,12,0:0:0:0:
253,188,16580,1,8,0:0:0:0:
253,188,16746,1,8,0:0:0:0:
253,188,16913,1,8,0:0:0:0:
253,188,17080,1,4,0:0:0:0:
253,188,17580,1,0,0:0:0:0:
253,188,17830,1,0,0:0:0:0:
253,188,17913,1,0,0:0:0:0:
253,188,17996,1,0,0:0:0:0:
253,188,18080,1,0,0:0:0:0:
253,188,18330,1,8,0:0:0:0:
253,188,18580,1,8,0:0:0:0:
253,188,18746,1,8,0:0:0:0:
253,188,18913,1,8,0:0:0:0:
253,188,19080,1,4,0:0:0:0:
253,188,19330,1,8,0:0:0:0:
253,188,19413,1,8,0:0:0:0:
253,188,19496,1,8,0:0:0:0:
253,188,19580,1,0,0:0:0:0:
253,188,19830,1,8,0:0:0:0:
253,188,19913,1,0,0:0:0:0:
253,188,19996,1,0,0:0:0:0:
253,188,20080,1,8,0:0:0:0:
253,188,20575,1,0,0:0:0:0:
253,188,20741,1,8,0:0:0:0:
253,188,20906,1,0,0:0:0:0:
253,188,21071,1,12,0:0:0:0:
253,188,21567,1,0,0:0:0:0:
253,188,21815,1,0,0:0:0:0:
253,188,21898,1,0,0:0:0:0:
253,188,21980,1,0,0:0:0:0:
253,188,22063,1,8,0:0:0:0:
253,188,22231,1,0,0:0:0:0:
253,188,22399,1,8,0:0:0:0:
253,188,22567,1,12,0:0:0:0:
256,192,22735,8,0,23827,0:0:0:0:
256,192,24079,5,12,0:0:0:0:
256,192,24579,1,8,0:0:0:0:
256,192,24745,1,8,0:0:0:0:
256,192,24912,1,8,0:0:0:0:
256,192,25079,1,4,0:0:0:0:
256,192,25579,1,0,0:0:0:0:
256,192,25829,1,0,0:0:0:0:
256,192,25912,1,0,0:0:0:0:
256,192,25995,1,0,0:0:0:0:
256,192,26079,1,0,0:0:0:0:
256,192,26329,1,8,0:0:0:0:
256,192,26579,1,0,0:0:0:0:
256,192,26745,1,8,0:0:0:0:
256,192,26912,1,8,0:0:0:0:
256,192,27079,1,4,0:0:0:0:
256,192,27329,1,0,0:0:0:0:
256,192,27412,1,0,0:0:0:0:
256,192,27495,1,0,0:0:0:0:
256,192,27579,1,8,0:0:0:0:
256,192,27829,1,8,0:0:0:0:
256,192,27912,1,0,0:0:0:0:
256,192,27995,1,0,0:0:0:0:
256,192,28079,1,8,0:0:0:0:
256,192,28574,1,0,0:0:0:0:
256,192,28740,1,8,0:0:0:0:
256,192,28905,1,0,0:0:0:0:
256,192,29070,1,12,0:0:0:0:
256,192,29574,1,12,0:0:0:0:
256,192,29819,1,0,0:0:0:0:
256,192,29901,1,0,0:0:0:0:
256,192,29983,1,0,0:0:0:0:
256,192,30065,1,12,0:0:0:0:
256,192,30239,1,4,0:0:0:0:
256,192,30414,1,12,0:0:0:0:
256,192,30589,1,12,0:0:0:0:
256,192,30763,8,12,33733,0:0:0:0:
256,188,34065,5,12,0:0:0:0:
256,188,34631,1,8,0:0:0:0:
256,188,34819,1,8,0:0:0:0:
256,188,35008,1,8,0:0:0:0:
256,188,35197,1,0,0:0:0:0:
256,188,35763,1,8,0:0:0:0:
256,188,36046,1,0,0:0:0:0:
256,188,36116,1,0,0:0:0:0:
256,188,36187,1,0,0:0:0:0:
256,188,36258,1,0,0:0:0:0:
256,188,36329,1,8,0:0:0:0:
256,188,36895,1,0,0:0:0:0:
256,188,37083,1,0,0:0:0:0:
256,188,37272,1,0,0:0:0:0:
256,188,37461,1,8,0:0:0:0:
256,188,37744,1,8,0:0:0:0:
256,188,37885,1,0,0:0:0:0:
256,188,38027,1,0,0:0:0:0:
256,188,38310,1,8,0:0:0:0:
256,188,38381,1,8,0:0:0:0:
256,188,38451,1,8,0:0:0:0:
256,188,38522,1,8,0:0:0:0:
256,188,38593,1,0,0:0:0:0:
256,188,39159,1,8,0:0:0:0:
256,188,39348,1,8,0:0:0:0:
256,188,39536,1,8,0:0:0:0:
256,188,39725,1,0,0:0:0:0:
256,188,40291,1,8,0:0:0:0:
256,188,40574,1,0,0:0:0:0:
256,188,40645,1,0,0:0:0:0:
256,188,40715,1,0,0:0:0:0:
256,188,40786,1,0,0:0:0:0:
256,188,40857,1,8,0:0:0:0:
256,188,41423,1,0,0:0:0:0:
256,188,41612,1,0,0:0:0:0:
256,188,41800,1,0,0:0:0:0:
256,188,41989,1,8,0:0:0:0:
256,188,42272,1,8,0:0:0:0:
256,188,42414,1,0,0:0:0:0:
256,188,42555,1,8,0:0:0:0:
256,188,42838,1,0,0:0:0:0:
256,188,42909,1,0,0:0:0:0:
256,188,42980,1,0,0:0:0:0:
256,188,43121,1,12,0:0:0:0:
256,188,43687,1,8,0:0:0:0:
256,188,43876,1,8,0:0:0:0:
256,188,44064,1,8,0:0:0:0:
256,188,44253,1,0,0:0:0:0:
256,188,44819,1,8,0:0:0:0:
256,188,45102,1,0,0:0:0:0:
256,188,45173,1,0,0:0:0:0:
256,188,45244,1,0,0:0:0:0:
256,188,45314,1,0,0:0:0:0:
256,188,45385,1,8,0:0:0:0:
256,188,45668,1,8,0:0:0:0:
256,188,45951,1,0,0:0:0:0:
256,188,46140,1,0,0:0:0:0:
256,188,46329,1,0,0:0:0:0:
256,188,46517,1,8,0:0:0:0:
256,188,46800,1,8,0:0:0:0:
256,188,46942,1,0,0:0:0:0:
256,188,47083,1,8,0:0:0:0:
256,188,47366,1,8,0:0:0:0:
256,188,47437,1,8,0:0:0:0:
256,188,47508,1,8,0:0:0:0:
256,188,47579,1,8,0:0:0:0:
256,188,47649,1,0,0:0:0:0:
256,188,47932,1,8,0:0:0:0:
256,188,48074,1,8,0:0:0:0:
256,188,48215,1,0,0:0:0:0:
256,188,48404,1,0,0:0:0:0:
256,188,48593,1,8,0:0:0:0:
256,188,48781,1,0,0:0:0:0:
256,188,49064,1,8,0:0:0:0:
256,188,49206,1,8,0:0:0:0:
256,188,49348,1,0,0:0:0:0:
256,188,49631,1,0,0:0:0:0:
256,188,49701,1,0,0:0:0:0:
256,188,49772,1,0,0:0:0:0:
256,188,49843,1,0,0:0:0:0:
256,188,49914,1,8,0:0:0:0:
256,188,50197,1,0,0:0:0:0:
256,188,50480,1,8,0:0:0:0:
256,188,50668,1,8,0:0:0:0:
256,188,50857,1,8,0:0:0:0:
256,188,51046,1,0,0:0:0:0:
256,188,51329,1,8,0:0:0:0:
256,188,51470,1,8,0:0:0:0:
256,188,51612,1,0,0:0:0:0:
256,188,51895,1,8,0:0:0:0:
256,188,51965,1,8,0:0:0:0:
256,188,52036,1,8,0:0:0:0:
256,188,52178,1,12,0:0:0:0:
256,192,52319,8,12,56564,0:0:0:0:
254,193,56706,5,4,0:0:0:0:
254,193,57272,1,4,0:0:0:0:
254,193,57838,1,12,0:0:0:0:
254,193,58404,1,12,0:0:0:0:
96,135,58970,2,4,L|206:153,6,105.000004005432
254,190,61234,1,12,0:0:0:0:
254,190,61800,1,4,0:0:0:0:
254,190,62366,1,12,0:0:0:0:
254,190,62932,1,12,0:0:0:0:
43,116,63498,2,4,L|195:137,6,140
254,190,65480,1,0,0:0:0:0:
254,190,65574,1,0,0:0:0:0:
254,190,65668,1,0,0:0:0:0:
254,190,65763,1,12,0:0:0:0:
254,190,65904,1,12,0:0:0:0:
254,190,66329,1,0,0:0:0:0:
254,190,66399,1,8,0:0:0:0:
254,190,66470,1,0,0:0:0:0:
254,190,66541,1,8,0:0:0:0:
254,190,66612,1,8,0:0:0:0:
254,190,66682,1,0,0:0:0:0:
254,190,66753,1,8,0:0:0:0:
254,190,66824,1,8,0:0:0:0:
254,190,66895,1,0,0:0:0:0:
254,190,66965,1,0,0:0:0:0:
254,190,67036,1,8,0:0:0:0:
254,190,67107,1,0,0:0:0:0:
254,190,67178,1,8,0:0:0:0:
254,190,67319,1,0,0:0:0:0:
254,190,67461,1,8,0:0:0:0:
254,190,67531,1,0,0:0:0:0:
254,190,67602,1,0,0:0:0:0:
254,190,67673,1,0,0:0:0:0:
254,190,67744,1,8,0:0:0:0:
254,190,67791,1,8,0:0:0:0:
254,190,67838,1,8,0:0:0:0:
254,190,67885,1,0,0:0:0:0:
254,190,68027,1,12,0:0:0:0:
254,190,68168,1,0,0:0:0:0:
254,190,68239,1,0,0:0:0:0:
254,190,68310,1,8,0:0:0:0:
254,190,68381,1,8,0:0:0:0:
254,190,68451,1,0,0:0:0:0:
254,190,68593,1,8,0:0:0:0:
254,190,68734,1,8,0:0:0:0:
254,190,68805,1,0,0:0:0:0:
254,190,68876,1,8,0:0:0:0:
254,190,69017,1,8,0:0:0:0:
254,190,69159,1,0,0:0:0:0:
254,190,69230,1,0,0:0:0:0:
254,190,69300,1,8,0:0:0:0:
254,190,69371,1,0,0:0:0:0:
254,190,69442,1,8,0:0:0:0:
254,190,69583,1,8,0:0:0:0:
254,190,69654,1,0,0:0:0:0:
254,190,69725,1,0,0:0:0:0:
254,190,69866,1,8,0:0:0:0:
254,190,69937,1,0,0:0:0:0:
254,190,70008,1,8,0:0:0:0:
254,190,70149,1,8,0:0:0:0:
254,190,70291,1,0,0:0:0:0:
254,190,70432,1,8,0:0:0:0:
254,190,70503,1,0,0:0:0:0:
254,190,70574,1,8,0:0:0:0:
254,190,70645,1,8,0:0:0:0:
254,190,70715,1,0,0:0:0:0:
254,190,70857,1,8,0:0:0:0:
254,190,70998,1,8,0:0:0:0:
254,190,71069,1,0,0:0:0:0:
254,190,71140,1,8,0:0:0:0:
254,190,71281,1,8,0:0:0:0:
254,190,71423,1,0,0:0:0:0:
254,190,71494,1,0,0:0:0:0:
254,190,71564,1,8,0:0:0:0:
254,190,71635,1,8,0:0:0:0:
254,190,71706,1,0,0:0:0:0:
254,190,71777,1,0,0:0:0:0:
254,190,71848,1,8,0:0:0:0:
254,190,71918,1,8,0:0:0:0:
254,190,71989,1,0,0:0:0:0:
254,190,72060,1,0,0:0:0:0:
254,190,72131,1,8,0:0:0:0:
254,190,72201,1,0,0:0:0:0:
254,190,72272,1,8,0:0:0:0:
254,190,72343,1,8,0:0:0:0:
254,190,72414,1,0,0:0:0:0:
254,190,72484,1,0,0:0:0:0:
254,190,72555,1,12,0:0:0:0:
254,190,72697,1,0,0:0:0:0:
254,190,72767,1,0,0:0:0:0:
254,190,72838,1,8,0:0:0:0:
254,190,72909,1,0,0:0:0:0:
254,190,72980,1,0,0:0:0:0:
254,190,73121,1,8,0:0:0:0:
254,190,73263,1,8,0:0:0:0:
254,190,73333,1,0,0:0:0:0:
254,190,73404,1,8,0:0:0:0:
254,190,73546,1,8,0:0:0:0:
254,190,73687,1,0,0:0:0:0:
254,190,73758,1,8,0:0:0:0:
254,190,73829,1,0,0:0:0:0:
254,190,73899,1,0,0:0:0:0:
254,190,73970,1,8,0:0:0:0:
254,190,74112,1,0,0:0:0:0:
254,190,74182,1,0,0:0:0:0:
254,190,74253,1,8,0:0:0:0:
254,190,74395,1,8,0:0:0:0:
254,190,74465,1,0,0:0:0:0:
254,190,74536,1,8,0:0:0:0:
254,190,74678,1,8,0:0:0:0:
254,190,74819,1,0,0:0:0:0:
254,190,74961,1,0,0:0:0:0:
254,190,75031,1,8,0:0:0:0:
254,190,75102,1,8,0:0:0:0:
254,190,75173,1,0,0:0:0:0:
254,190,75244,1,0,0:0:0:0:
254,190,75385,1,8,0:0:0:0:
254,190,75527,1,8,0:0:0:0:
254,190,75598,1,0,0:0:0:0:
254,190,75668,1,8,0:0:0:0:
254,190,75810,1,8,0:0:0:0:
254,190,75951,1,0,0:0:0:0:
254,190,76022,1,0,0:0:0:0:
254,190,76093,1,0,0:0:0:0:
254,190,76164,1,0,0:0:0:0:
254,190,76234,1,8,0:0:0:0:
254,190,76305,1,8,0:0:0:0:
254,190,76376,1,8,0:0:0:0:
254,190,76447,1,8,0:0:0:0:
254,190,76517,1,0,0:0:0:0:
254,190,76659,1,12,0:0:0:0:
254,190,77083,1,12,0:0:0:0:
254,190,77225,1,0,0:0:0:0:
254,190,77296,1,0,0:0:0:0:
254,190,77366,1,8,0:0:0:0:
254,190,77437,1,8,0:0:0:0:
254,190,77508,1,0,0:0:0:0:
254,190,77649,1,8,0:0:0:0:
254,190,77791,1,8,0:0:0:0:
254,190,77862,1,0,0:0:0:0:
254,190,77932,1,8,0:0:0:0:
254,190,78074,1,8,0:0:0:0:
254,190,78215,1,0,0:0:0:0:
254,190,78286,1,0,0:0:0:0:
254,190,78357,1,8,0:0:0:0:
254,190,78428,1,0,0:0:0:0:
254,190,78498,1,8,0:0:0:0:
254,190,78640,1,0,0:0:0:0:
254,190,78711,1,0,0:0:0:0:
254,190,78781,1,8,0:0:0:0:
254,190,78923,1,8,0:0:0:0:
254,190,78994,1,0,0:0:0:0:
254,190,79064,1,8,0:0:0:0:
254,190,79206,1,8,0:0:0:0:
254,190,79348,1,0,0:0:0:0:
254,190,79489,1,8,0:0:0:0:
254,190,79560,1,0,0:0:0:0:
254,190,79631,1,8,0:0:0:0:
254,190,79701,1,8,0:0:0:0:
254,190,79772,1,0,0:0:0:0:
254,190,79914,1,8,0:0:0:0:
254,190,80055,1,8,0:0:0:0:
254,190,80126,1,0,0:0:0:0:
254,190,80197,1,8,0:0:0:0:
254,190,80338,1,8,0:0:0:0:
254,190,80480,1,0,0:0:0:0:
254,190,80550,1,0,0:0:0:0:
254,190,80621,1,8,0:0:0:0:
254,190,80692,1,8,0:0:0:0:
254,190,80763,1,0,0:0:0:0:
254,190,80833,1,0,0:0:0:0:
254,190,80904,1,8,0:0:0:0:
254,190,80975,1,8,0:0:0:0:
254,190,81046,1,0,0:0:0:0:
254,190,81116,1,0,0:0:0:0:
254,190,81187,1,8,0:0:0:0:
254,190,81258,1,0,0:0:0:0:
254,190,81329,1,8,0:0:0:0:
254,190,81399,1,8,0:0:0:0:
254,190,81470,1,0,0:0:0:0:
254,190,81541,1,0,0:0:0:0:
254,190,81612,1,12,0:0:0:0:
254,190,81753,1,0,0:0:0:0:
254,190,81824,1,0,0:0:0:0:
254,190,81895,1,8,0:0:0:0:
254,190,81965,1,8,0:0:0:0:
254,190,82036,1,8,0:0:0:0:
254,190,82178,1,8,0:0:0:0:
254,190,82319,1,0,0:0:0:0:
254,190,82390,1,8,0:0:0:0:
254,190,82461,1,0,0:0:0:0:
254,190,82602,1,0,0:0:0:0:
254,190,82744,1,8,0:0:0:0:
254,190,82814,1,8,0:0:0:0:
254,190,82885,1,0,0:0:0:0:
254,190,82956,1,0,0:0:0:0:
254,190,83027,1,8,0:0:0:0:
254,190,83168,1,0,0:0:0:0:
254,190,83239,1,8,0:0:0:0:
254,190,83310,1,8,0:0:0:0:
254,190,83451,1,0,0:0:0:0:
254,190,83522,1,8,0:0:0:0:
254,190,83593,1,0,0:0:0:0:
254,190,83734,1,0,0:0:0:0:
254,190,83876,1,8,0:0:0:0:
254,190,84017,1,0,0:0:0:0:
254,190,84088,1,8,0:0:0:0:
254,190,84159,1,8,0:0:0:0:
254,190,84230,1,0,0:0:0:0:
254,190,84300,1,8,0:0:0:0:
254,190,84442,1,8,0:0:0:0:
254,190,84583,1,0,0:0:0:0:
254,190,84654,1,8,0:0:0:0:
254,190,84725,1,0,0:0:0:0:
254,190,84866,1,0,0:0:0:0:
254,190,85008,1,12,0:0:0:0:
254,190,85291,1,0,0:0:0:0:
254,190,85432,1,0,0:0:0:0:
254,190,85574,1,12,0:0:0:0:
254,190,85857,1,0,0:0:0:0:
254,190,85928,1,0,0:0:0:0:
254,190,85998,1,0,0:0:0:0:
254,190,86069,1,0,0:0:0:0:
254,190,86140,1,12,0:0:0:0:
254,190,86423,1,8,0:0:0:0:
254,190,86706,1,4,0:0:0:0:
254,190,86895,1,8,0:0:0:0:
254,190,86989,1,8,0:0:0:0:
254,190,87083,1,0,0:0:0:0:
254,190,87178,1,0,0:0:0:0:
254,190,87272,1,12,0:0:0:0:
254,190,87555,1,0,0:0:0:0:
254,190,87838,1,0,0:0:0:0:
254,190,88121,1,0,0:0:0:0:
254,190,88263,1,0,0:0:0:0:
254,190,88404,1,8,0:0:0:0:
254,190,88687,1,0,0:0:0:0:
254,190,88970,1,0,0:0:0:0:
254,190,89112,1,8,0:0:0:0:
254,190,89182,1,8,0:0:0:0:
254,190,89253,1,0,0:0:0:0:
254,190,89395,1,8,0:0:0:0:
254,190,89536,1,0,0:0:0:0:
254,190,89819,1,0,0:0:0:0:
254,190,89961,1,8,0:0:0:0:
254,190,90102,1,0,0:0:0:0:
254,190,90244,1,0,0:0:0:0:
254,190,90385,1,8,0:0:0:0:
254,190,90527,1,0,0:0:0:0:
254,190,90668,1,8,0:0:0:0:
254,190,90810,1,0,0:0:0:0:
254,190,90881,1,0,0:0:0:0:
254,190,90951,1,0,0:0:0:0:
254,190,91093,1,0,0:0:0:0:
254,190,91234,1,8,0:0:0:0:
254,190,91305,1,8,0:0:0:0:
254,190,91376,1,0,0:0:0:0:
254,190,91447,1,0,0:0:0:0:
254,190,91517,1,8,0:0:0:0:
254,190,91588,1,0,0:0:0:0:
254,190,91659,1,8,0:0:0:0:
254,190,91800,1,8,0:0:0:0:
254,190,91942,1,0,0:0:0:0:
254,190,92013,1,0,0:0:0:0:
254,190,92083,1,0,0:0:0:0:
254,190,92225,1,0,0:0:0:0:
254,190,92366,1,8,0:0:0:0:
254,190,92437,1,8,0:0:0:0:
254,190,92508,1,0,0:0:0:0:
254,190,92579,1,0,0:0:0:0:
254,190,92649,1,8,0:0:0:0:
254,190,92791,1,0,0:0:0:0:
254,190,92932,1,8,0:0:0:0:
254,190,93074,1,0,0:0:0:0:
254,190,93145,1,0,0:0:0:0:
254,190,93215,1,8,0:0:0:0:
254,190,93357,1,0,0:0:0:0:
254,190,93498,1,8,0:0:0:0:
254,190,93569,1,8,0:0:0:0:
254,190,93640,1,0,0:0:0:0:
254,190,93711,1,8,0:0:0:0:
254,190,93781,1,0,0:0:0:0:
254,190,93923,1,0,0:0:0:0:
254,190,94064,1,8,0:0:0:0:
254,190,94206,1,0,0:0:0:0:
254,190,94277,1,8,0:0:0:0:
254,190,94348,1,8,0:0:0:0:
254,190,94489,1,0,0:0:0:0:
254,190,94560,1,0,0:0:0:0:
254,190,94631,1,8,0:0:0:0:
254,190,94772,1,8,0:0:0:0:
254,190,94914,1,8,0:0:0:0:
254,190,95055,1,8,0:0:0:0:
254,190,95197,1,0,0:0:0:0:
254,190,95480,1,8,0:0:0:0:
254,190,95763,1,0,0:0:0:0:
254,190,96046,1,8,0:0:0:0:
254,190,96329,1,4,0:0:0:0:
254,190,96470,1,8,0:0:0:0:
254,190,96541,1,8,0:0:0:0:
254,190,96612,1,0,0:0:0:0:
254,190,96753,1,8,0:0:0:0:
254,190,96895,1,0,0:0:0:0:
254,190,97036,1,0,0:0:0:0:
254,190,97178,1,8,0:0:0:0:
254,190,97319,1,0,0:0:0:0:
254,190,97602,1,0,0:0:0:0:
254,190,97673,1,0,0:0:0:0:
254,190,97744,1,8,0:0:0:0:
254,190,97814,1,8,0:0:0:0:
254,190,97885,1,0,0:0:0:0:
254,190,98027,1,8,0:0:0:0:
254,190,98168,1,0,0:0:0:0:
254,190,98239,1,0,0:0:0:0:
254,190,98310,1,8,0:0:0:0:
254,190,98451,1,0,0:0:0:0:
254,190,98593,1,8,0:0:0:0:
254,190,98734,1,0,0:0:0:0:
254,190,98805,1,0,0:0:0:0:
254,190,98876,1,8,0:0:0:0:
254,190,99159,1,8,0:0:0:0:
254,190,99300,1,8,0:0:0:0:
254,190,99442,1,0,0:0:0:0:
254,190,99513,1,0,0:0:0:0:
254,190,99583,1,8,0:0:0:0:
254,190,99725,1,0,0:0:0:0:
254,190,99866,1,8,0:0:0:0:
254,190,99937,1,0,0:0:0:0:
254,190,100008,1,0,0:0:0:0:
254,190,100149,1,8,0:0:0:0:
254,190,100291,1,0,0:0:0:0:
254,190,100362,1,0,0:0:0:0:
254,190,100432,1,8,0:0:0:0:
254,190,100503,1,8,0:0:0:0:
254,190,100574,1,0,0:0:0:0:
254,190,100645,1,8,0:0:0:0:
254,190,100715,1,0,0:0:0:0:
254,190,100857,1,8,0:0:0:0:
254,190,100998,1,0,0:0:0:0:
254,190,101069,1,0,0:0:0:0:
254,190,101140,1,8,0:0:0:0:
254,190,101281,1,0,0:0:0:0:
254,190,101423,1,8,0:0:0:0:
254,190,101564,1,8,0:0:0:0:
254,190,101706,1,0,0:0:0:0:
254,190,101848,1,8,0:0:0:0:
254,190,102131,1,0,0:0:0:0:
254,190,102201,1,0,0:0:0:0:
279,201,102272,1,8,0:0:0:0:
254,190,102343,1,8,0:0:0:0:
254,190,102414,1,0,0:0:0:0:
254,190,102555,1,0,0:0:0:0:
254,190,102697,1,8,0:0:0:0:
254,190,102767,1,8,0:0:0:0:
254,190,102838,1,8,0:0:0:0:
254,190,102980,1,8,0:0:0:0:
254,190,103121,1,0,0:0:0:0:
254,190,103263,1,8,0:0:0:0:
254,190,103333,1,0,0:0:0:0:
254,190,103404,1,0,0:0:0:0:
254,190,103546,1,8,0:0:0:0:
254,190,103687,1,0,0:0:0:0:
254,190,103758,1,0,0:0:0:0:
254,190,103899,1,8,0:0:0:0:
254,190,103970,1,0,0:0:0:0:
254,190,104112,1,8,0:0:0:0:
254,190,104253,1,0,0:0:0:0:
254,190,104536,1,8,0:0:0:0:
254,190,104819,1,0,0:0:0:0:
254,190,105102,1,8,0:0:0:0:
254,190,105244,1,4,0:0:0:0:
254,190,105527,1,8,0:0:0:0:
254,190,105668,1,8,0:0:0:0:
254,190,105810,1,0,0:0:0:0:
254,190,105881,1,0,0:0:0:0:
254,190,105951,1,8,0:0:0:0:
254,190,106022,1,8,0:0:0:0:
254,190,106093,1,0,0:0:0:0:
254,190,106234,1,8,0:0:0:0:
254,190,106376,1,0,0:0:0:0:
254,190,106517,1,8,0:0:0:0:
254,190,106659,1,0,0:0:0:0:
254,190,106730,1,0,0:0:0:0:
254,190,106800,1,0,0:0:0:0:
254,190,106942,1,8,0:0:0:0:
254,190,107225,1,0,0:0:0:0:
254,190,107366,1,8,0:0:0:0:
254,190,107508,1,8,0:0:0:0:
254,190,107649,1,0,0:0:0:0:
254,190,107720,1,0,0:0:0:0:
254,190,107791,1,8,0:0:0:0:
254,190,107862,1,0,0:0:0:0:
254,190,107932,1,8,0:0:0:0:
254,190,108074,1,0,0:0:0:0:
254,190,108215,1,8,0:0:0:0:
254,190,108286,1,8,0:0:0:0:
254,190,108357,1,8,0:0:0:0:
254,190,108498,1,0,0:0:0:0:
254,190,108640,1,8,0:0:0:0:
254,190,108781,1,0,0:0:0:0:
254,190,108923,1,0,0:0:0:0:
254,190,109064,1,8,0:0:0:0:
254,190,109206,1,0,0:0:0:0:
254,190,109277,1,0,0:0:0:0:
254,190,109348,1,8,0:0:0:0:
254,190,109418,1,8,0:0:0:0:
254,190,109489,1,0,0:0:0:0:
254,190,109560,1,8,0:0:0:0:
254,190,109631,1,0,0:0:0:0:
254,190,109772,1,0,0:0:0:0:
254,190,109914,1,12,0:0:0:0:
254,190,110055,1,12,0:0:0:0:
254,190,110197,1,4,0:0:0:0:
254,190,110480,1,8,0:0:0:0:
254,190,110621,1,8,0:0:0:0:
254,190,110692,1,8,0:0:0:0:
254,190,110763,1,8,0:0:0:0:
254,190,110904,1,8,0:0:0:0:
254,190,111046,1,4,0:0:0:0:
254,190,111187,1,4,0:0:0:0:
254,190,111329,1,12,0:0:0:0:
254,190,111612,1,8,0:0:0:0:
254,190,111753,1,8,0:0:0:0:
254,190,111895,1,8,0:0:0:0:
254,190,111965,1,8,0:0:0:0:
254,190,112036,1,8,0:0:0:0:
254,190,112178,1,4,0:0:0:0:
254,190,112461,1,8,0:0:0:0:
254,190,112602,1,0,0:0:0:0:
254,190,112673,1,8,0:0:0:0:
254,190,112814,1,0,0:0:0:0:
254,190,112885,1,0,0:0:0:0:
254,190,113027,1,8,0:0:0:0:
254,190,113168,1,0,0:0:0:0:
254,190,113310,1,8,0:0:0:0:
254,190,113451,1,0,0:0:0:0:
254,190,113593,1,8,0:0:0:0:
254,190,113734,1,8,0:0:0:0:
254,190,113805,1,0,0:0:0:0:
254,190,113947,1,8,0:0:0:0:
254,190,114017,1,8,0:0:0:0:
254,190,114159,1,0,0:0:0:0:
254,190,114300,1,8,0:0:0:0:
254,190,114442,1,0,0:0:0:0:
254,190,114513,1,0,0:0:0:0:
254,190,114583,1,0,0:0:0:0:
254,190,114725,1,8,0:0:0:0:
254,190,114866,1,0,0:0:0:0:
254,190,114937,1,8,0:0:0:0:
254,190,115079,1,0,0:0:0:0:
254,190,115149,1,0,0:0:0:0:
254,190,115291,1,8,0:0:0:0:
254,190,115432,1,0,0:0:0:0:
254,190,115574,1,8,0:0:0:0:
254,190,115645,1,0,0:0:0:0:
254,190,115715,1,0,0:0:0:0:
254,190,115786,1,8,0:0:0:0:
254,190,115857,1,8,0:0:0:0:
254,190,115928,1,0,0:0:0:0:
254,190,115998,1,8,0:0:0:0:
254,190,116069,1,8,0:0:0:0:
254,190,116140,1,0,0:0:0:0:
254,190,116423,1,0,0:0:0:0:
254,190,116706,1,12,0:0:0:0:
254,190,116848,1,0,0:0:0:0:
254,190,116918,1,8,0:0:0:0:
254,190,116989,1,8,0:0:0:0:
254,190,117131,1,8,0:0:0:0:
254,190,117272,1,8,0:0:0:0:
254,190,117343,1,0,0:0:0:0:
254,190,117484,1,0,0:0:0:0:
254,190,117555,1,8,0:0:0:0:
350,133,117838,1,8,0:0:0:0:
254,190,117909,1,8,0:0:0:0:
254,190,117980,1,0,0:0:0:0:
254,190,118050,1,8,0:0:0:0:
254,190,118121,1,8,0:0:0:0:
254,190,118192,1,0,0:0:0:0:
254,190,118263,1,8,0:0:0:0:
254,190,118404,1,0,0:0:0:0:
254,190,118475,1,8,0:0:0:0:
254,190,118546,1,8,0:0:0:0:
254,190,118616,1,0,0:0:0:0:
254,190,118687,1,8,0:0:0:0:
254,190,118970,1,0,0:0:0:0:
254,190,119112,1,8,0:0:0:0:
254,190,119182,1,0,0:0:0:0:
254,190,119253,1,0,0:0:0:0:
254,190,119395,1,0,0:0:0:0:
254,190,119536,1,0,0:0:0:0:
254,190,119607,1,8,0:0:0:0:
254,190,119748,1,8,0:0:0:0:
254,190,119819,1,0,0:0:0:0:
254,190,120102,1,0,0:0:0:0:
254,190,120173,1,0,0:0:0:0:
254,190,120244,1,8,0:0:0:0:
254,190,120314,1,0,0:0:0:0:
254,190,120385,1,0,0:0:0:0:
254,190,120456,1,8,0:0:0:0:
254,190,120527,1,0,0:0:0:0:
254,190,120668,1,8,0:0:0:0:
254,190,120951,1,8,0:0:0:0:
254,190,121234,1,4,0:0:0:0:
254,190,123074,1,0,0:0:0:0:
254,190,123215,1,0,0:0:0:0:
254,190,123357,1,0,0:0:0:0:
254,190,123498,1,12,0:0:0:0:
254,190,125338,1,8,0:0:0:0:
254,190,125480,1,8,0:0:0:0:
254,190,125621,1,8,0:0:0:0:
254,190,125763,1,4,0:0:0:0:
254,190,126753,1,0,0:0:0:0:
254,190,126895,1,8,0:0:0:0:
254,190,127178,1,8,0:0:0:0:
254,190,127461,1,0,0:0:0:0:
254,190,127744,1,8,0:0:0:0:
254,190,128027,1,0,0:0:0:0:
254,190,128310,1,12,0:0:0:0:
254,190,128593,1,0,0:0:0:0:
254,190,128876,1,12,0:0:0:0:
254,190,129159,1,0,0:0:0:0:
254,190,129442,1,12,0:0:0:0:
254,190,129725,1,0,0:0:0:0:
254,190,130008,1,8,0:0:0:0:
254,190,130079,1,8,0:0:0:0:
254,190,130149,1,8,0:0:0:0:
254,190,130220,1,8,0:0:0:0:
254,190,130291,1,0,0:0:0:0:
254,190,130432,1,8,0:0:0:0:
254,190,130574,1,0,0:0:0:0:
254,190,130645,1,0,0:0:0:0:
254,190,130715,1,8,0:0:0:0:
254,190,130786,1,0,0:0:0:0:
254,190,130857,1,0,0:0:0:0:
254,190,130998,1,8,0:0:0:0:
254,190,131140,1,8,0:0:0:0:
254,190,131211,1,0,0:0:0:0:
254,190,131281,1,0,0:0:0:0:
254,190,131423,1,8,0:0:0:0:
254,190,131564,1,0,0:0:0:0:
254,190,131635,1,8,0:0:0:0:
254,190,131706,1,0,0:0:0:0:
254,190,131848,1,0,0:0:0:0:
254,190,131989,1,8,0:0:0:0:
254,190,132060,1,8,0:0:0:0:
254,190,132131,1,0,0:0:0:0:
254,190,132272,1,8,0:0:0:0:
254,190,132414,1,0,0:0:0:0:
254,190,132555,1,8,0:0:0:0:
254,190,132697,1,0,0:0:0:0:
254,190,132767,1,8,0:0:0:0:
254,190,132838,1,8,0:0:0:0:
258,217,132909,1,0,0:0:0:0:
254,190,132980,1,8,0:0:0:0:
254,190,133121,1,8,0:0:0:0:
254,190,133263,1,0,0:0:0:0:
254,190,133333,1,0,0:0:0:0:
254,190,133404,1,0,0:0:0:0:
254,190,133546,1,8,0:0:0:0:
254,190,133616,1,8,0:0:0:0:
254,190,133687,1,0,0:0:0:0:
254,190,133829,1,0,0:0:0:0:
254,190,133899,1,8,0:0:0:0:
254,190,133970,1,0,0:0:0:0:
254,190,134112,1,0,0:0:0:0:
254,190,134253,1,8,0:0:0:0:
254,190,134324,1,8,0:0:0:0:
254,190,134395,1,0,0:0:0:0:
254,190,134465,1,0,0:0:0:0:
254,190,134536,1,8,0:0:0:0:
254,190,134607,1,0,0:0:0:0:
254,190,134678,1,0,0:0:0:0:
254,190,134819,1,12,0:0:0:0:
254,190,135385,1,4,0:0:0:0:
254,190,135574,1,4,0:0:0:0:
254,190,135763,1,4,0:0:0:0:
254,190,135951,1,12,0:0:0:0:
254,190,136517,1,12,0:0:0:0:
254,190,136706,1,12,0:0:0:0:
254,190,136895,1,12,0:0:0:0:
254,190,137083,1,4,0:0:0:0:
256,192,137272,8,8,140480,0:0:0:0:
267,191,140621,5,12,0:0:0:0:
267,191,140904,1,12,0:0:0:0:
267,191,141046,1,12,0:0:0:0:
345,221,141329,2,0,L|320:154,1,52.5000020027161
267,191,141612,1,12,0:0:0:0:
267,191,141753,1,0,0:0:0:0:
267,191,141824,1,0,0:0:0:0:
267,191,141895,1,8,0:0:0:0:
267,191,142036,1,8,0:0:0:0:
267,191,142107,1,8,0:0:0:0:
267,191,142178,1,0,0:0:0:0:
267,191,142248,1,0,0:0:0:0:
267,191,142319,1,0,0:0:0:0:
267,191,142390,1,0,0:0:0:0:
267,191,142461,1,8,0:0:0:0:
267,191,142602,1,0,0:0:0:0:
267,191,142744,1,8,0:0:0:0:
267,191,142814,1,8,0:0:0:0:
267,191,142885,1,0,0:0:0:0:
267,191,143027,1,8,0:0:0:0:
267,191,143168,1,0,0:0:0:0:
267,191,143239,1,0,0:0:0:0:
267,191,143310,1,8,0:0:0:0:
267,191,143381,1,0,0:0:0:0:
267,191,143451,1,0,0:0:0:0:
267,191,143522,1,0,0:0:0:0:
267,191,143593,1,8,0:0:0:0:
213,174,143734,1,0,0:0:0:0:
267,191,143876,1,8,0:0:0:0:
267,191,144017,1,0,0:0:0:0:
267,191,144088,1,8,0:0:0:0:
267,191,144159,1,0,0:0:0:0:
267,191,144300,1,8,0:0:0:0:
267,191,144371,1,8,0:0:0:0:
267,191,144442,1,0,0:0:0:0:
267,191,144513,1,0,0:0:0:0:
267,191,144583,1,0,0:0:0:0:
267,191,144654,1,8,0:0:0:0:
267,191,144725,1,0,0:0:0:0:
267,191,144866,1,8,0:0:0:0:
267,191,145008,1,8,0:0:0:0:
267,191,145079,1,0,0:0:0:0:
267,191,145149,1,8,0:0:0:0:
267,191,145291,1,0,0:0:0:0:
267,191,145432,1,0,0:0:0:0:
267,191,145503,1,0,0:0:0:0:
267,191,145574,1,8,0:0:0:0:
267,191,145645,1,0,0:0:0:0:
267,191,145715,1,0,0:0:0:0:
267,191,145786,1,8,0:0:0:0:
267,191,145857,1,0,0:0:0:0:
267,191,145998,1,8,0:0:0:0:
267,191,146069,1,0,0:0:0:0:
267,191,146140,1,8,0:0:0:0:
267,191,146281,1,8,0:0:0:0:
267,191,146352,1,8,0:0:0:0:
267,191,146423,1,0,0:0:0:0:
267,191,146494,1,8,0:0:0:0:
267,191,146564,1,0,0:0:0:0:
267,191,146706,1,8,0:0:0:0:
267,191,146777,1,0,0:0:0:0:
267,191,146848,1,0,0:0:0:0:
267,191,146989,1,8,0:0:0:0:
267,191,147131,1,8,0:0:0:0:
267,191,147201,1,8,0:0:0:0:
267,191,147272,1,0,0:0:0:0:
267,191,147414,1,0,0:0:0:0:
267,191,147484,1,8,0:0:0:0:
267,191,147555,1,0,0:0:0:0:
267,191,147697,1,8,0:0:0:0:
267,191,147767,1,0,0:0:0:0:
267,191,147838,1,0,0:0:0:0:
267,191,147909,1,8,0:0:0:0:
267,191,147980,1,0,0:0:0:0:
211,182,148121,1,8,0:0:0:0:
267,191,148263,1,0,0:0:0:0:
221,192,148404,1,12,0:0:0:0:
221,192,148970,1,12,0:0:0:0:
221,192,149678,1,4,0:0:0:0:
221,192,149961,1,4,0:0:0:0:
221,192,150102,1,12,0:0:0:0:
221,192,150385,1,0,0:0:0:0:
267,191,150668,1,12,0:0:0:0:
267,191,150810,1,0,0:0:0:0:
267,191,150881,1,0,0:0:0:0:
267,191,150951,1,8,0:0:0:0:
267,191,151093,1,8,0:0:0:0:
267,191,151164,1,8,0:0:0:0:
267,191,151234,1,0,0:0:0:0:
267,191,151305,1,0,0:0:0:0:
267,191,151376,1,8,0:0:0:0:
267,191,151447,1,0,0:0:0:0:
267,191,151517,1,8,0:0:0:0:
267,191,151588,1,8,0:0:0:0:
267,191,151659,1,0,0:0:0:0:
267,191,151800,1,8,0:0:0:0:
267,191,151871,1,8,0:0:0:0:
267,191,151942,1,0,0:0:0:0:
267,191,152083,1,8,0:0:0:0:
267,191,152154,1,0,0:0:0:0:
267,191,152225,1,0,0:0:0:0:
267,191,152296,1,0,0:0:0:0:
267,191,152366,1,8,0:0:0:0:
267,191,152437,1,0,0:0:0:0:
267,191,152508,1,0,0:0:0:0:
267,191,152579,1,0,0:0:0:0:
267,191,152649,1,8,0:0:0:0:
213,174,152791,1,0,0:0:0:0:
267,191,152932,1,8,0:0:0:0:
267,191,153074,1,0,0:0:0:0:
267,191,153145,1,8,0:0:0:0:
267,191,153215,1,0,0:0:0:0:
267,191,153357,1,8,0:0:0:0:
267,191,153428,1,8,0:0:0:0:
267,191,153498,1,0,0:0:0:0:
267,191,153569,1,0,0:0:0:0:
267,191,153640,1,8,0:0:0:0:
267,191,153711,1,8,0:0:0:0:
267,191,153781,1,0,0:0:0:0:
267,191,153852,1,0,0:0:0:0:
267,191,153923,1,8,0:0:0:0:
267,191,154064,1,8,0:0:0:0:
267,191,154135,1,0,0:0:0:0:
267,191,154206,1,8,0:0:0:0:
267,191,154348,1,0,0:0:0:0:
267,191,154489,1,0,0:0:0:0:
267,191,154560,1,0,0:0:0:0:
267,191,154631,1,8,0:0:0:0:
267,191,154701,1,0,0:0:0:0:
267,191,154772,1,0,0:0:0:0:
267,191,154843,1,8,0:0:0:0:
267,191,154914,1,0,0:0:0:0:
267,191,154984,1,0,0:0:0:0:
267,191,155055,1,8,0:0:0:0:
267,191,155197,1,8,0:0:0:0:
267,191,155338,1,0,0:0:0:0:
267,191,155409,1,0,0:0:0:0:
267,191,155480,1,8,0:0:0:0:
267,191,155621,1,8,0:0:0:0:
267,191,155763,1,0,0:0:0:0:
267,191,155833,1,8,0:0:0:0:
267,191,155904,1,8,0:0:0:0:
267,191,155975,1,0,0:0:0:0:
267,191,156046,1,8,0:0:0:0:
267,191,156116,1,0,0:0:0:0:
267,191,156187,1,0,0:0:0:0:
267,191,156329,1,8,0:0:0:0:
267,191,156470,1,0,0:0:0:0:
267,191,156541,1,0,0:0:0:0:
267,191,156612,1,8,0:0:0:0:
267,191,156753,1,8,0:0:0:0:
267,191,156895,1,0,0:0:0:0:
267,191,156965,1,8,0:0:0:0:
267,191,157036,1,0,0:0:0:0:
211,182,157107,1,0,0:0:0:0:
211,182,157178,1,8,0:0:0:0:
211,182,157248,1,8,0:0:0:0:
267,191,157319,1,0,0:0:0:0:
221,192,157461,1,12,0:0:0:0:
221,192,158027,1,4,0:0:0:0:
221,192,158593,1,8,0:0:0:0:
221,192,158664,1,8,0:0:0:0:
221,192,158734,1,8,0:0:0:0:
221,192,158805,1,8,0:0:0:0:
221,192,158876,1,0,0:0:0:0:
221,192,158947,1,0,0:0:0:0:
221,192,159017,1,0,0:0:0:0:
221,192,159088,1,0,0:0:0:0:
221,192,159159,1,8,0:0:0:0:
221,192,159442,1,0,0:0:0:0:
221,192,159583,1,0,0:0:0:0:
221,192,159725,1,12,0:0:0:0:
221,192,160291,1,8,0:0:0:0:
221,192,160432,1,0,0:0:0:0:
221,192,160503,1,0,0:0:0:0:
221,192,160574,1,0,0:0:0:0:
221,192,160715,1,0,0:0:0:0:
221,192,160857,1,12,0:0:0:0:
254,190,161281,1,0,0:0:0:0:
254,190,161423,1,8,0:0:0:0:
254,190,161564,1,0,0:0:0:0:
254,190,161635,1,0,0:0:0:0:
254,190,161706,1,0,0:0:0:0:
254,190,161848,1,8,0:0:0:0:
254,190,161989,1,0,0:0:0:0:
254,190,162060,1,0,0:0:0:0:
254,190,162131,1,8,0:0:0:0:
254,190,162201,1,8,0:0:0:0:
254,190,162272,1,0,0:0:0:0:
254,190,162343,1,8,0:0:0:0:
254,190,162414,1,0,0:0:0:0:
254,190,162484,1,0,0:0:0:0:
254,190,162555,1,8,0:0:0:0:
254,190,162626,1,8,0:0:0:0:
254,190,162697,1,0,0:0:0:0:
254,190,162767,1,0,0:0:0:0:
254,190,162838,1,8,0:0:0:0:
254,190,162909,1,0,0:0:0:0:
254,190,162980,1,8,0:0:0:0:
254,190,163050,1,8,0:0:0:0:
254,190,163121,1,0,0:0:0:0:
254,190,163192,1,0,0:0:0:0:
254,190,163263,1,8,0:0:0:0:
254,190,163333,1,8,0:0:0:0:
254,190,163404,1,0,0:0:0:0:
254,190,163475,1,8,0:0:0:0:
254,190,163546,1,0,0:0:0:0:
254,190,163616,1,0,0:0:0:0:
254,190,163687,1,8,0:0:0:0:
254,190,163758,1,8,0:0:0:0:
254,190,163829,1,0,0:0:0:0:
254,190,163899,1,0,0:0:0:0:
254,190,163970,1,8,0:0:0:0:
254,190,164041,1,0,0:0:0:0:
254,190,164112,1,8,0:0:0:0:
254,190,164253,1,12,0:0:0:0:
254,190,164819,1,8,0:0:0:0:
254,190,165102,1,8,0:0:0:0:
254,190,165314,1,0,0:0:0:0:
254,190,165385,1,0,0:0:0:0:
254,190,165810,1,8,0:0:0:0:
254,190,165951,1,0,0:0:0:0:
254,190,166046,1,0,0:0:0:0:
254,190,166140,1,0,0:0:0:0:
254,190,166234,1,8,0:0:0:0:
254,190,166329,1,0,0:0:0:0:
254,190,166423,1,0,0:0:0:0:
254,190,166517,1,12,0:0:0:0:
254,190,166942,1,12,0:0:0:0:
254,190,167083,1,12,0:0:0:0:
254,190,167225,1,4,0:0:0:0:
254,190,167366,1,4,0:0:0:0:
254,190,167791,1,12,0:0:0:0:
254,190,167932,1,12,0:0:0:0:
254,190,168074,1,4,0:0:0:0:
254,190,168215,1,4,0:0:0:0:
254,190,168498,1,12,0:0:0:0:
254,190,168781,1,12,0:0:0:0:
254,190,168923,1,0,0:0:0:0:
254,190,168994,1,0,0:0:0:0:
254,190,169064,1,8,0:0:0:0:
254,190,169135,1,8,0:0:0:0:
254,190,169206,1,0,0:0:0:0:
254,190,169348,1,8,0:0:0:0:
254,190,169489,1,8,0:0:0:0:
254,190,169560,1,0,0:0:0:0:
254,190,169631,1,8,0:0:0:0:
254,190,169772,1,8,0:0:0:0:
254,190,169914,1,0,0:0:0:0:
254,190,169984,1,0,0:0:0:0:
254,190,170055,1,8,0:0:0:0:
254,190,170126,1,0,0:0:0:0:
254,190,170197,1,8,0:0:0:0:
254,190,170338,1,0,0:0:0:0:
254,190,170409,1,0,0:0:0:0:
254,190,170480,1,8,0:0:0:0:
254,190,170621,1,8,0:0:0:0:
254,190,170692,1,0,0:0:0:0:
254,190,170763,1,8,0:0:0:0:
254,190,170904,1,8,0:0:0:0:
254,190,171046,1,0,0:0:0:0:
254,190,171187,1,8,0:0:0:0:
254,190,171258,1,0,0:0:0:0:
254,190,171329,1,8,0:0:0:0:
254,190,171399,1,8,0:0:0:0:
254,190,171470,1,0,0:0:0:0:
254,190,171612,1,8,0:0:0:0:
254,190,171753,1,8,0:0:0:0:
254,190,171824,1,0,0:0:0:0:
254,190,171895,1,8,0:0:0:0:
254,190,172036,1,8,0:0:0:0:
254,190,172178,1,0,0:0:0:0:
254,190,172248,1,0,0:0:0:0:
254,190,172319,1,8,0:0:0:0:
254,190,172390,1,8,0:0:0:0:
254,190,172461,1,0,0:0:0:0:
254,190,172531,1,0,0:0:0:0:
254,190,172602,1,8,0:0:0:0:
254,190,172673,1,8,0:0:0:0:
254,190,172744,1,0,0:0:0:0:
254,190,172814,1,0,0:0:0:0:
254,190,172885,1,8,0:0:0:0:
254,190,172956,1,0,0:0:0:0:
254,190,173027,1,8,0:0:0:0:
254,190,173098,1,8,0:0:0:0:
254,190,173168,1,0,0:0:0:0:
254,190,173239,1,0,0:0:0:0:
254,190,173310,1,12,0:0:0:0:
254,190,173451,1,0,0:0:0:0:
254,190,173522,1,0,0:0:0:0:
254,190,173593,1,8,0:0:0:0:
254,190,173664,1,8,0:0:0:0:
254,190,173734,1,8,0:0:0:0:
254,190,173876,1,8,0:0:0:0:
254,190,174017,1,0,0:0:0:0:
254,190,174088,1,8,0:0:0:0:
254,190,174159,1,0,0:0:0:0:
254,190,174300,1,0,0:0:0:0:
254,190,174442,1,8,0:0:0:0:
254,190,174513,1,8,0:0:0:0:
254,190,174583,1,0,0:0:0:0:
254,190,174654,1,0,0:0:0:0:
254,190,174725,1,8,0:0:0:0:
254,190,174866,1,0,0:0:0:0:
254,190,174937,1,8,0:0:0:0:
254,190,175008,1,8,0:0:0:0:
254,190,175149,1,0,0:0:0:0:
254,190,175220,1,8,0:0:0:0:
254,190,175291,1,0,0:0:0:0:
254,190,175432,1,0,0:0:0:0:
254,190,175574,1,8,0:0:0:0:
254,190,175715,1,0,0:0:0:0:
254,190,175786,1,8,0:0:0:0:
254,190,175857,1,8,0:0:0:0:
254,190,175928,1,0,0:0:0:0:
254,190,175998,1,8,0:0:0:0:
254,190,176140,1,8,0:0:0:0:
254,190,176281,1,0,0:0:0:0:
254,190,176352,1,8,0:0:0:0:
254,190,176423,1,0,0:0:0:0:
254,190,176564,1,0,0:0:0:0:
254,190,176706,1,12,0:0:0:0:
254,190,176989,1,0,0:0:0:0:
254,190,177131,1,0,0:0:0:0:
254,190,177272,1,12,0:0:0:0:
254,190,177555,1,0,0:0:0:0:
254,190,177626,1,0,0:0:0:0:
254,190,177697,1,0,0:0:0:0:
254,190,177767,1,0,0:0:0:0:
254,190,177838,1,12,0:0:0:0:
254,190,178121,1,8,0:0:0:0:
254,190,178404,1,4,0:0:0:0:
254,190,178593,1,8,0:0:0:0:
254,190,178687,1,8,0:0:0:0:
254,190,178781,1,0,0:0:0:0:
254,190,178876,1,0,0:0:0:0:
254,190,178970,1,12,0:0:0:0:
254,190,179253,1,0,0:0:0:0:
254,190,179536,1,0,0:0:0:0:
254,190,179819,1,0,0:0:0:0:
254,190,180102,1,8,0:0:0:0:
254,190,180385,1,0,0:0:0:0:
254,190,180668,1,0,0:0:0:0:
254,190,180951,1,0,0:0:0:0:
254,190,181093,1,0,0:0:0:0:
254,190,181234,1,8,0:0:0:0:
254,190,181517,1,0,0:0:0:0:
254,190,181659,1,0,0:0:0:0:
254,190,181800,1,0,0:0:0:0:
254,190,182083,1,0,0:0:0:0:
254,190,182366,1,8,0:0:0:0:
254,190,182508,1,8,0:0:0:0:
254,190,182649,1,0,0:0:0:0:
254,190,182791,1,8,0:0:0:0:
254,190,182932,1,0,0:0:0:0:
254,190,183215,1,0,0:0:0:0:
254,190,183498,1,8,0:0:0:0:
254,190,183781,1,0,0:0:0:0:
254,190,183923,1,0,0:0:0:0:
254,190,184206,1,0,0:0:0:0:
254,190,184489,1,0,0:0:0:0:
254,190,184631,1,8,0:0:0:0:
254,190,184772,1,8,0:0:0:0:
254,190,185055,1,0,0:0:0:0:
254,190,185338,1,0,0:0:0:0:
254,190,185621,1,0,0:0:0:0:
254,190,185763,1,8,0:0:0:0:
254,190,185904,1,8,0:0:0:0:
254,190,186187,1,8,0:0:0:0:
254,190,186329,1,0,0:0:0:0:
254,190,186470,1,8,0:0:0:0:
254,190,186753,1,8,0:0:0:0:
254,190,186895,1,0,0:0:0:0:
254,190,187036,1,8,0:0:0:0:
254,190,187319,1,8,0:0:0:0:
254,190,187461,1,8,0:0:0:0:
254,190,187602,1,8,0:0:0:0:
254,190,187885,1,8,0:0:0:0:
254,190,188027,1,0,0:0:0:0:
254,190,188168,1,8,0:0:0:0:
254,190,188310,1,0,0:0:0:0:
254,190,188451,1,8,0:0:0:0:
254,190,188522,1,8,0:0:0:0:
254,190,188593,1,0,0:0:0:0:
254,190,188734,1,0,0:0:0:0:
254,190,188876,1,8,0:0:0:0:
254,190,189159,1,8,0:0:0:0:
254,190,189300,1,0,0:0:0:0:
254,190,189442,1,8,0:0:0:0:
254,190,189583,1,0,0:0:0:0:
254,190,189654,1,0,0:0:0:0:
254,190,189725,1,0,0:0:0:0:
254,190,189866,1,8,0:0:0:0:
254,190,190008,1,8,0:0:0:0:
254,190,190291,1,0,0:0:0:0:
254,190,190432,1,8,0:0:0:0:
254,190,190574,1,0,0:0:0:0:
254,190,190715,1,8,0:0:0:0:
254,190,190786,1,8,0:0:0:0:
254,190,190857,1,0,0:0:0:0:
254,190,190998,1,0,0:0:0:0:
254,190,191140,1,8,0:0:0:0:
254,190,191423,1,8,0:0:0:0:
254,190,191564,1,0,0:0:0:0:
254,190,191706,1,8,0:0:0:0:
254,190,191848,1,0,0:0:0:0:
254,190,191918,1,0,0:0:0:0:
254,190,191989,1,0,0:0:0:0:
254,190,192131,1,8,0:0:0:0:
254,190,192272,1,8,0:0:0:0:
254,190,192414,1,0,0:0:0:0:
254,190,192555,1,8,0:0:0:0:
254,190,192838,1,0,0:0:0:0:
254,190,192909,1,0,0:0:0:0:
254,190,192980,1,8,0:0:0:0:
254,190,193121,1,0,0:0:0:0:
254,190,193263,1,8,0:0:0:0:
254,190,193333,1,8,0:0:0:0:
254,190,193404,1,0,0:0:0:0:
254,190,193546,1,8,0:0:0:0:
254,190,193687,1,0,0:0:0:0:
254,190,193970,1,8,0:0:0:0:
254,190,194041,1,8,0:0:0:0:
254,190,194112,1,0,0:0:0:0:
254,190,194253,1,8,0:0:0:0:
254,190,194395,1,0,0:0:0:0:
254,190,194465,1,0,0:0:0:0:
254,190,194536,1,8,0:0:0:0:
254,190,194678,1,0,0:0:0:0:
254,190,194819,1,8,0:0:0:0:
254,190,195102,1,0,0:0:0:0:
254,190,195173,1,8,0:0:0:0:
254,190,195244,1,8,0:0:0:0:
254,190,195385,1,0,0:0:0:0:
254,190,195527,1,8,0:0:0:0:
254,190,195598,1,0,0:0:0:0:
254,190,195668,1,0,0:0:0:0:
254,190,195810,1,8,0:0:0:0:
254,190,195951,1,0,0:0:0:0:
254,190,196234,1,8,0:0:0:0:
254,190,196305,1,0,0:0:0:0:
254,190,196376,1,0,0:0:0:0:
254,190,196517,1,8,0:0:0:0:
254,190,196659,1,0,0:0:0:0:
254,190,196730,1,8,0:0:0:0:
254,190,196800,1,8,0:0:0:0:
254,190,196942,1,0,0:0:0:0:
254,190,197083,1,8,0:0:0:0:
254,190,198215,1,8,0:0:0:0:
254,190,198640,1,8,0:0:0:0:
254,190,199064,1,0,0:0:0:0:
254,190,199348,1,0,0:0:0:0:
254,190,200338,1,0,0:0:0:0:
254,190,200480,1,8,0:0:0:0:
254,190,200904,1,8,0:0:0:0:
254,190,201329,1,0,0:0:0:0:
254,190,201612,1,8,0:0:0:0:
254,190,201895,1,0,0:0:0:0:
254,190,202178,1,8,0:0:0:0:
254,190,202461,1,0,0:0:0:0:
254,190,202744,1,8,0:0:0:0:
254,190,203168,1,8,0:0:0:0:
254,190,203593,1,0,0:0:0:0:
254,190,203876,1,0,0:0:0:0:
254,190,204725,1,8,0:0:0:0:
254,190,204866,1,0,0:0:0:0:
254,190,205008,1,8,0:0:0:0:
256,192,206140,5,8,0:0:0:0:
256,192,206706,1,0,0:0:0:0:
256,192,206848,1,0,0:0:0:0:
256,192,207131,1,8,0:0:0:0:
263,191,207272,1,12,0:0:0:0:
263,191,208121,1,0,0:0:0:0:
263,191,208263,1,0,0:0:0:0:
263,191,208970,1,8,0:0:0:0:
263,191,209253,1,0,0:0:0:0:
263,191,209395,1,0,0:0:0:0:
263,191,209536,1,8,0:0:0:0:
263,191,210385,1,8,0:0:0:0:
263,191,210527,1,8,0:0:0:0:
263,191,211234,1,8,0:0:0:0:
263,191,211517,1,0,0:0:0:0:
263,191,211800,1,8,0:0:0:0:
263,191,212083,1,0,0:0:0:0:
263,191,212932,1,0,0:0:0:0:
263,191,213498,1,8,0:0:0:0:
263,191,214064,1,0,0:0:0:0:
263,191,214631,1,8,0:0:0:0:
263,191,214772,1,0,0:0:0:0:
263,191,214914,1,8,0:0:0:0:
263,191,215055,1,8,0:0:0:0:
254,193,215197,1,4,0:0:0:0:
254,193,215763,1,4,0:0:0:0:
254,193,216329,1,12,0:0:0:0:
254,193,216895,1,12,0:0:0:0:
96,135,217461,2,4,L|206:153,6,105.000004005432
254,190,219725,1,12,0:0:0:0:
254,190,220291,1,4,0:0:0:0:
254,190,220857,1,12,0:0:0:0:
254,190,221423,1,12,0:0:0:0:
43,116,221989,2,4,L|195:137,6,140
254,190,224253,1,12,0:0:0:0:
254,190,224395,1,12,0:0:0:0:
254,190,224819,1,0,0:0:0:0:
254,190,224890,1,8,0:0:0:0:
254,190,224961,1,0,0:0:0:0:
254,190,225031,1,8,0:0:0:0:
254,190,225102,1,8,0:0:0:0:
254,190,225173,1,0,0:0:0:0:
254,190,225244,1,8,0:0:0:0:
254,190,225314,1,8,0:0:0:0:
254,190,225385,1,0,0:0:0:0:
254,190,225456,1,0,0:0:0:0:
254,190,225527,1,8,0:0:0:0:
254,190,225598,1,0,0:0:0:0:
254,190,225668,1,8,0:0:0:0:
254,190,225810,1,0,0:0:0:0:
254,190,225951,1,8,0:0:0:0:
254,190,226022,1,0,0:0:0:0:
254,190,226093,1,0,0:0:0:0:
254,190,226164,1,0,0:0:0:0:
254,190,226234,1,8,0:0:0:0:
254,190,226281,1,8,0:0:0:0:
254,190,226329,1,8,0:0:0:0:
254,190,226376,1,0,0:0:0:0:
254,190,226517,1,12,0:0:0:0:
254,190,226659,1,8,0:0:0:0:
254,190,226730,1,8,0:0:0:0:
254,190,226800,1,0,0:0:0:0:
254,190,226942,1,8,0:0:0:0:
254,190,227083,1,0,0:0:0:0:
254,190,227225,1,0,0:0:0:0:
254,190,227366,1,8,0:0:0:0:
254,190,227508,1,0,0:0:0:0:
254,190,227791,1,0,0:0:0:0:
254,190,227862,1,0,0:0:0:0:
254,190,227932,1,8,0:0:0:0:
254,190,228003,1,8,0:0:0:0:
254,190,228074,1,0,0:0:0:0:
254,190,228215,1,8,0:0:0:0:
254,190,228357,1,0,0:0:0:0:
254,190,228428,1,0,0:0:0:0:
254,190,228498,1,8,0:0:0:0:
254,190,228640,1,0,0:0:0:0:
254,190,228781,1,8,0:0:0:0:
254,190,228923,1,0,0:0:0:0:
254,190,228994,1,0,0:0:0:0:
254,190,229064,1,8,0:0:0:0:
254,190,229348,1,8,0:0:0:0:
254,190,229489,1,8,0:0:0:0:
254,190,229631,1,0,0:0:0:0:
254,190,229701,1,0,0:0:0:0:
254,190,229772,1,8,0:0:0:0:
254,190,229914,1,0,0:0:0:0:
254,190,230055,1,8,0:0:0:0:
254,190,230126,1,0,0:0:0:0:
254,190,230197,1,0,0:0:0:0:
254,190,230338,1,8,0:0:0:0:
254,190,230480,1,0,0:0:0:0:
254,190,230550,1,0,0:0:0:0:
254,190,230621,1,8,0:0:0:0:
254,190,230692,1,8,0:0:0:0:
254,190,230763,1,0,0:0:0:0:
254,190,230833,1,8,0:0:0:0:
254,190,230904,1,0,0:0:0:0:
254,190,231046,1,12,0:0:0:0:
254,190,231187,1,12,0:0:0:0:
254,190,231329,1,4,0:0:0:0:
254,190,231612,1,8,0:0:0:0:
254,190,231753,1,8,0:0:0:0:
254,190,231824,1,8,0:0:0:0:
254,190,231895,1,8,0:0:0:0:
254,190,232036,1,8,0:0:0:0:
254,190,232178,1,4,0:0:0:0:
254,190,232319,1,4,0:0:0:0:
254,190,232461,1,12,0:0:0:0:
254,190,232744,1,8,0:0:0:0:
254,190,232885,1,8,0:0:0:0:
254,190,233027,1,8,0:0:0:0:
254,190,233098,1,8,0:0:0:0:
254,190,233168,1,8,0:0:0:0:
254,190,233310,1,4,0:0:0:0:
254,190,233593,1,8,0:0:0:0:
254,190,233734,1,0,0:0:0:0:
254,190,233805,1,8,0:0:0:0:
254,190,233947,1,0,0:0:0:0:
254,190,234017,1,0,0:0:0:0:
254,190,234159,1,8,0:0:0:0:
254,190,234300,1,0,0:0:0:0:
254,190,234442,1,8,0:0:0:0:
254,190,234583,1,0,0:0:0:0:
254,190,234725,1,8,0:0:0:0:
254,190,234866,1,8,0:0:0:0:
254,190,234937,1,0,0:0:0:0:
254,190,235079,1,8,0:0:0:0:
254,190,235149,1,8,0:0:0:0:
254,190,235291,1,0,0:0:0:0:
254,190,235432,1,8,0:0:0:0:
254,190,235574,1,0,0:0:0:0:
254,190,235645,1,0,0:0:0:0:
254,190,235715,1,0,0:0:0:0:
254,190,235857,1,8,0:0:0:0:
254,190,235998,1,0,0:0:0:0:
254,190,236069,1,8,0:0:0:0:
254,190,236211,1,0,0:0:0:0:
254,190,236281,1,0,0:0:0:0:
254,190,236423,1,8,0:0:0:0:
254,190,236564,1,0,0:0:0:0:
254,190,236706,1,8,0:0:0:0:
254,190,236777,1,0,0:0:0:0:
254,190,236848,1,0,0:0:0:0:
254,190,236918,1,8,0:0:0:0:
254,190,236989,1,8,0:0:0:0:
254,190,237060,1,0,0:0:0:0:
254,190,237131,1,8,0:0:0:0:
254,190,237201,1,8,0:0:0:0:
254,190,237272,1,0,0:0:0:0:
254,190,237555,1,0,0:0:0:0:
254,190,237838,1,12,0:0:0:0:
254,190,237980,1,0,0:0:0:0:
254,190,238050,1,8,0:0:0:0:
254,190,238121,1,8,0:0:0:0:
254,190,238263,1,8,0:0:0:0:
254,190,238404,1,8,0:0:0:0:
254,190,238475,1,0,0:0:0:0:
254,190,238616,1,0,0:0:0:0:
254,190,238687,1,8,0:0:0:0:
350,133,238970,1,8,0:0:0:0:
254,190,239041,1,8,0:0:0:0:
254,190,239112,1,0,0:0:0:0:
254,190,239182,1,8,0:0:0:0:
254,190,239253,1,8,0:0:0:0:
254,190,239324,1,0,0:0:0:0:
254,190,239395,1,8,0:0:0:0:
254,190,239536,1,0,0:0:0:0:
254,190,239607,1,8,0:0:0:0:
254,190,239678,1,8,0:0:0:0:
254,190,239748,1,0,0:0:0:0:
254,190,239819,1,8,0:0:0:0:
254,190,240102,1,0,0:0:0:0:
254,190,240244,1,8,0:0:0:0:
254,190,240314,1,0,0:0:0:0:
254,190,240385,1,0,0:0:0:0:
254,190,240527,1,0,0:0:0:0:
254,190,240668,1,0,0:0:0:0:
254,190,240739,1,8,0:0:0:0:
254,190,240881,1,8,0:0:0:0:
254,190,240951,1,0,0:0:0:0:
254,190,241234,1,0,0:0:0:0:
254,190,241305,1,0,0:0:0:0:
254,190,241376,1,8,0:0:0:0:
254,190,241447,1,0,0:0:0:0:
254,190,241517,1,0,0:0:0:0:
254,190,241588,1,8,0:0:0:0:
254,190,241659,1,0,0:0:0:0:
254,190,241800,1,8,0:0:0:0:
254,190,242083,1,8,0:0:0:0:
254,190,242366,1,4,0:0:0:0:
254,190,244206,1,0,0:0:0:0:
254,190,244348,1,0,0:0:0:0:
254,190,244489,1,0,0:0:0:0:
254,190,244631,1,12,0:0:0:0:
254,190,246470,1,8,0:0:0:0:
254,190,246612,1,8,0:0:0:0:
254,190,246753,1,8,0:0:0:0:
254,190,246895,1,4,0:0:0:0:
254,190,247885,1,0,0:0:0:0:
254,190,248027,1,8,0:0:0:0:
254,190,248310,1,8,0:0:0:0:
254,190,248593,1,0,0:0:0:0:
254,190,248876,1,8,0:0:0:0:
254,190,249159,1,0,0:0:0:0:
254,190,249442,1,12,0:0:0:0:
254,190,249725,1,0,0:0:0:0:
254,190,250008,1,12,0:0:0:0:
254,190,250291,1,0,0:0:0:0:
254,190,250574,1,12,0:0:0:0:
254,190,250857,1,0,0:0:0:0:
254,190,251140,1,8,0:0:0:0:
254,190,251211,1,8,0:0:0:0:
254,190,251281,1,8,0:0:0:0:
254,190,251352,1,8,0:0:0:0:
254,190,251423,1,0,0:0:0:0:
254,190,251564,1,8,0:0:0:0:
254,190,251706,1,0,0:0:0:0:
254,190,251777,1,0,0:0:0:0:
254,190,251848,1,8,0:0:0:0:
254,190,251918,1,0,0:0:0:0:
254,190,251989,1,0,0:0:0:0:
254,190,252131,1,8,0:0:0:0:
254,190,252272,1,8,0:0:0:0:
254,190,252343,1,0,0:0:0:0:
254,190,252414,1,0,0:0:0:0:
254,190,252555,1,8,0:0:0:0:
254,190,252697,1,0,0:0:0:0:
254,190,252767,1,8,0:0:0:0:
254,190,252838,1,0,0:0:0:0:
254,190,252980,1,0,0:0:0:0:
254,190,253121,1,8,0:0:0:0:
254,190,253192,1,8,0:0:0:0:
254,190,253263,1,0,0:0:0:0:
254,190,253404,1,8,0:0:0:0:
254,190,253546,1,0,0:0:0:0:
254,190,253687,1,8,0:0:0:0:
254,190,253829,1,0,0:0:0:0:
254,190,253899,1,8,0:0:0:0:
254,190,253970,1,8,0:0:0:0:
258,217,254041,1,0,0:0:0:0:
254,190,254112,1,8,0:0:0:0:
254,190,254253,1,8,0:0:0:0:
254,190,254395,1,0,0:0:0:0:
254,190,254465,1,0,0:0:0:0:
254,190,254536,1,0,0:0:0:0:
254,190,254678,1,8,0:0:0:0:
254,190,254748,1,8,0:0:0:0:
254,190,254819,1,0,0:0:0:0:
254,190,254961,1,0,0:0:0:0:
254,190,255031,1,8,0:0:0:0:
254,190,255102,1,0,0:0:0:0:
254,190,255244,1,0,0:0:0:0:
254,190,255385,1,8,0:0:0:0:
254,190,255456,1,8,0:0:0:0:
254,190,255527,1,0,0:0:0:0:
254,190,255598,1,0,0:0:0:0:
254,190,255668,1,8,0:0:0:0:
254,190,255739,1,0,0:0:0:0:
254,190,255810,1,0,0:0:0:0:
254,190,255951,1,12,0:0:0:0:
254,190,256517,1,4,0:0:0:0:
254,190,256706,1,4,0:0:0:0:
254,190,256895,1,4,0:0:0:0:
254,190,257083,1,12,0:0:0:0:
254,190,257649,1,12,0:0:0:0:
254,190,257838,1,12,0:0:0:0:
254,190,258027,1,12,0:0:0:0:
254,190,258215,1,4,0:0:0:0:
256,192,258404,8,8,261612,0:0:0:0:
255,182,261753,5,12,0:0:0:0:
255,182,262036,1,12,0:0:0:0:
255,182,262178,1,12,0:0:0:0:
255,182,262744,1,0,0:0:0:0:
255,182,263593,1,8,0:0:0:0:
255,182,263734,1,8,0:0:0:0:
255,182,263876,1,8,0:0:0:0:
255,182,264442,1,8,0:0:0:0:
255,182,265008,1,12,0:0:0:0:
255,182,265149,1,0,0:0:0:0:
255,182,265220,1,0,0:0:0:0:
255,182,265291,1,0,0:0:0:0:
255,182,265432,1,12,0:0:0:0:
255,182,265574,1,0,0:0:0:0:
255,182,265645,1,0,0:0:0:0:
255,182,265715,1,0,0:0:0:0:
255,182,265857,1,12,0:0:0:0:
255,182,265998,1,0,0:0:0:0:
255,182,266069,1,0,0:0:0:0:
255,182,266140,1,0,0:0:0:0:
255,182,266281,1,12,0:0:0:0:
255,182,266423,1,0,0:0:0:0:
255,182,266494,1,0,0:0:0:0:
255,182,266564,1,0,0:0:0:0:
255,182,266635,1,0,0:0:0:0:
255,182,266706,1,8,0:0:0:0:
255,182,266777,1,8,0:0:0:0:
255,182,266848,1,0,0:0:0:0:
255,182,266918,1,0,0:0:0:0:
255,182,266989,1,8,0:0:0:0:
255,182,267060,1,0,0:0:0:0:
255,182,267131,1,0,0:0:0:0:
255,182,267272,1,12,0:0:0:0:
255,182,267555,1,4,0:0:0:0:
255,182,267838,1,12,0:0:0:0:
255,182,268121,1,12,0:0:0:0:
255,182,268404,1,4,0:0:0:0:
255,182,268687,1,4,0:0:0:0:
255,182,268970,1,4,0:0:0:0:
255,182,269253,2,0,L|328:186,1,52.5000020027161
267,191,269536,5,12,0:0:0:0:
267,191,269678,1,0,0:0:0:0:
267,191,269748,1,0,0:0:0:0:
267,191,269819,1,8,0:0:0:0:
267,191,269961,1,8,0:0:0:0:
267,191,270031,1,8,0:0:0:0:
267,191,270102,1,0,0:0:0:0:
267,191,270173,1,0,0:0:0:0:
267,191,270244,1,0,0:0:0:0:
267,191,270314,1,0,0:0:0:0:
267,191,270385,1,8,0:0:0:0:
267,191,270456,1,8,0:0:0:0:
267,191,270527,1,0,0:0:0:0:
267,191,270668,1,8,0:0:0:0:
267,191,270739,1,8,0:0:0:0:
267,191,270810,1,0,0:0:0:0:
267,191,270951,1,8,0:0:0:0:
267,191,271093,1,0,0:0:0:0:
267,191,271164,1,0,0:0:0:0:
267,191,271234,1,8,0:0:0:0:
267,191,271305,1,0,0:0:0:0:
267,191,271376,1,0,0:0:0:0:
267,191,271447,1,0,0:0:0:0:
267,191,271517,1,8,0:0:0:0:
267,191,271588,1,8,0:0:0:0:
213,174,271659,1,0,0:0:0:0:
267,191,271800,1,8,0:0:0:0:
267,191,271942,1,0,0:0:0:0:
267,191,272013,1,8,0:0:0:0:
267,191,272083,1,0,0:0:0:0:
267,191,272225,1,8,0:0:0:0:
267,191,272296,1,8,0:0:0:0:
267,191,272366,1,0,0:0:0:0:
267,191,272437,1,0,0:0:0:0:
267,191,272508,1,0,0:0:0:0:
267,191,272579,1,8,0:0:0:0:
267,191,272649,1,0,0:0:0:0:
267,191,272720,1,0,0:0:0:0:
267,191,272791,1,8,0:0:0:0:
267,191,272932,1,8,0:0:0:0:
267,191,273003,1,0,0:0:0:0:
267,191,273074,1,8,0:0:0:0:
267,191,273215,1,0,0:0:0:0:
267,191,273357,1,0,0:0:0:0:
267,191,273428,1,0,0:0:0:0:
267,191,273498,1,8,0:0:0:0:
267,191,273569,1,0,0:0:0:0:
267,191,273640,1,0,0:0:0:0:
267,191,273711,1,8,0:0:0:0:
267,191,273781,1,0,0:0:0:0:
267,191,273852,1,0,0:0:0:0:
267,191,273923,1,8,0:0:0:0:
267,191,273994,1,0,0:0:0:0:
267,191,274064,1,8,0:0:0:0:
267,191,274206,1,8,0:0:0:0:
267,191,274277,1,8,0:0:0:0:
267,191,274348,1,0,0:0:0:0:
267,191,274418,1,8,0:0:0:0:
267,191,274489,1,0,0:0:0:0:
267,191,274631,1,8,0:0:0:0:
267,191,274701,1,0,0:0:0:0:
267,191,274772,1,0,0:0:0:0:
267,191,274843,1,0,0:0:0:0:
267,191,274914,1,8,0:0:0:0:
267,191,274984,1,0,0:0:0:0:
267,191,275055,1,8,0:0:0:0:
267,191,275126,1,8,0:0:0:0:
267,191,275197,1,0,0:0:0:0:
267,191,275338,1,0,0:0:0:0:
267,191,275409,1,8,0:0:0:0:
267,191,275480,1,0,0:0:0:0:
267,191,275621,1,8,0:0:0:0:
267,191,275692,1,0,0:0:0:0:
267,191,275763,1,0,0:0:0:0:
267,191,275833,1,8,0:0:0:0:
267,191,275904,1,0,0:0:0:0:
211,182,276046,1,8,0:0:0:0:
267,191,276187,1,0,0:0:0:0:
221,192,276329,1,12,0:0:0:0:
221,192,276895,1,12,0:0:0:0:
221,192,277602,1,4,0:0:0:0:
221,192,277885,1,4,0:0:0:0:
221,192,278027,1,12,0:0:0:0:
221,192,278310,1,0,0:0:0:0:
267,191,278593,1,12,0:0:0:0:
267,191,278734,1,0,0:0:0:0:
267,191,278805,1,0,0:0:0:0:
267,191,278876,1,8,0:0:0:0:
267,191,278947,1,0,0:0:0:0:
267,191,279017,1,8,0:0:0:0:
267,191,279088,1,8,0:0:0:0:
267,191,279159,1,0,0:0:0:0:
267,191,279230,1,0,0:0:0:0:
267,191,279300,1,8,0:0:0:0:
267,191,279371,1,0,0:0:0:0:
267,191,279442,1,8,0:0:0:0:
267,191,279513,1,8,0:0:0:0:
267,191,279583,1,0,0:0:0:0:
267,191,279725,1,8,0:0:0:0:
267,191,279796,1,8,0:0:0:0:
267,191,279866,1,0,0:0:0:0:
267,191,279937,1,0,0:0:0:0:
267,191,280008,1,8,0:0:0:0:
267,191,280079,1,0,0:0:0:0:
267,191,280149,1,0,0:0:0:0:
267,191,280220,1,0,0:0:0:0:
267,191,280291,1,8,0:0:0:0:
267,191,280362,1,0,0:0:0:0:
267,191,280432,1,0,0:0:0:0:
267,191,280503,1,0,0:0:0:0:
267,191,280574,1,8,0:0:0:0:
213,174,280715,1,0,0:0:0:0:
267,191,280857,1,8,0:0:0:0:
267,191,280998,1,0,0:0:0:0:
267,191,281069,1,8,0:0:0:0:
267,191,281140,1,0,0:0:0:0:
267,191,281211,1,0,0:0:0:0:
267,191,281281,1,8,0:0:0:0:
267,191,281352,1,8,0:0:0:0:
267,191,281423,1,0,0:0:0:0:
267,191,281494,1,0,0:0:0:0:
267,191,281564,1,8,0:0:0:0:
267,191,281635,1,8,0:0:0:0:
267,191,281706,1,0,0:0:0:0:
267,191,281777,1,0,0:0:0:0:
267,191,281848,1,8,0:0:0:0:
267,191,281989,1,8,0:0:0:0:
267,191,282060,1,0,0:0:0:0:
267,191,282131,1,8,0:0:0:0:
267,191,282201,1,8,0:0:0:0:
267,191,282272,1,0,0:0:0:0:
267,191,282343,1,0,0:0:0:0:
267,191,282414,1,0,0:0:0:0:
267,191,282484,1,0,0:0:0:0:
267,191,282555,1,8,0:0:0:0:
267,191,282626,1,0,0:0:0:0:
267,191,282697,1,0,0:0:0:0:
267,191,282767,1,8,0:0:0:0:
267,191,282838,1,0,0:0:0:0:
267,191,282909,1,0,0:0:0:0:
267,191,282980,1,8,0:0:0:0:
267,191,283121,1,8,0:0:0:0:
267,191,283263,1,0,0:0:0:0:
267,191,283333,1,0,0:0:0:0:
267,191,283404,1,8,0:0:0:0:
294,187,283475,1,0,0:0:0:0:
267,191,283546,1,8,0:0:0:0:
267,191,283616,1,8,0:0:0:0:
267,191,283687,1,0,0:0:0:0:
267,191,283758,1,8,0:0:0:0:
267,191,283829,1,8,0:0:0:0:
267,191,283899,1,0,0:0:0:0:
267,191,283970,1,8,0:0:0:0:
267,191,284041,1,0,0:0:0:0:
267,191,284112,1,0,0:0:0:0:
267,191,284253,1,8,0:0:0:0:
267,191,284395,1,0,0:0:0:0:
267,191,284465,1,0,0:0:0:0:
267,191,284536,1,8,0:0:0:0:
267,191,284607,1,0,0:0:0:0:
267,191,284678,1,8,0:0:0:0:
267,191,284748,1,0,0:0:0:0:
267,191,284819,1,0,0:0:0:0:
267,191,284890,1,8,0:0:0:0:
267,191,284961,1,0,0:0:0:0:
211,182,285031,1,0,0:0:0:0:
211,182,285102,1,8,0:0:0:0:
211,182,285173,1,8,0:0:0:0:
267,191,285244,1,0,0:0:0:0:
271,164,285314,1,0,0:0:0:0:
221,192,285385,1,12,0:0:0:0:
221,192,285951,1,4,0:0:0:0:
221,192,286517,1,8,0:0:0:0:
221,192,286588,1,8,0:0:0:0:
221,192,286659,1,8,0:0:0:0:
221,192,286730,1,8,0:0:0:0:
221,192,286800,1,0,0:0:0:0:
221,192,286871,1,0,0:0:0:0:
221,192,286942,1,0,0:0:0:0:
221,192,287013,1,0,0:0:0:0:
221,192,287083,1,8,0:0:0:0:
221,192,287366,1,0,0:0:0:0:
221,192,287508,1,0,0:0:0:0:
221,192,287649,1,12,0:0:0:0:
221,192,288215,1,8,0:0:0:0:
221,192,288357,1,0,0:0:0:0:
221,192,288428,1,0,0:0:0:0:
221,192,288498,1,0,0:0:0:0:
221,192,288640,1,0,0:0:0:0:
221,192,288781,1,12,0:0:0:0:
254,190,289206,1,0,0:0:0:0:
254,190,289348,1,8,0:0:0:0:
254,190,289489,1,0,0:0:0:0:
254,190,289560,1,0,0:0:0:0:
254,190,289631,1,0,0:0:0:0:
254,190,289772,1,8,0:0:0:0:
254,190,289914,1,0,0:0:0:0:
254,190,289984,1,0,0:0:0:0:
254,190,290055,1,8,0:0:0:0:
254,190,290126,1,8,0:0:0:0:
254,190,290197,1,0,0:0:0:0:
254,190,290267,1,8,0:0:0:0:
254,190,290338,1,0,0:0:0:0:
254,190,290409,1,0,0:0:0:0:
254,190,290480,1,8,0:0:0:0:
254,190,290550,1,8,0:0:0:0:
254,190,290621,1,0,0:0:0:0:
254,190,290692,1,0,0:0:0:0:
254,190,290763,1,8,0:0:0:0:
254,190,290833,1,0,0:0:0:0:
254,190,290904,1,8,0:0:0:0:
254,190,290975,1,8,0:0:0:0:
254,190,291046,1,0,0:0:0:0:
254,190,291116,1,0,0:0:0:0:
254,190,291187,1,8,0:0:0:0:
254,190,291258,1,8,0:0:0:0:
254,190,291329,1,0,0:0:0:0:
254,190,291399,1,8,0:0:0:0:
254,190,291470,1,0,0:0:0:0:
254,190,291541,1,0,0:0:0:0:
254,190,291612,1,8,0:0:0:0:
254,190,291682,1,8,0:0:0:0:
254,190,291753,1,0,0:0:0:0:
254,190,291824,1,0,0:0:0:0:
254,190,291895,1,8,0:0:0:0:
254,190,291965,1,0,0:0:0:0:
254,190,292036,1,8,0:0:0:0:
254,190,292178,1,12,0:0:0:0:
254,190,292744,1,8,0:0:0:0:
254,190,293027,1,8,0:0:0:0:
254,190,293239,1,0,0:0:0:0:
254,190,293310,1,0,0:0:0:0:
254,190,293734,1,8,0:0:0:0:
254,190,293876,1,0,0:0:0:0:
254,190,293970,1,0,0:0:0:0:
254,190,294064,1,0,0:0:0:0:
254,190,294159,1,8,0:0:0:0:
254,190,294253,1,0,0:0:0:0:
254,190,294348,1,0,0:0:0:0:
254,190,294442,1,12,0:0:0:0:
254,190,294866,1,12,0:0:0:0:
254,190,295008,1,12,0:0:0:0:
254,190,295149,1,4,0:0:0:0:
254,190,295291,1,4,0:0:0:0:
254,190,295715,1,12,0:0:0:0:
254,190,295857,1,12,0:0:0:0:
254,190,295998,1,4,0:0:0:0:
254,190,296140,1,4,0:0:0:0:
254,190,296423,1,12,0:0:0:0:
254,190,298687,1,12,0:0:0:0:
256,192,298829,8,0,300951,0:0:0:0:
253,189,301234,5,12,0:0:0:0:
253,189,301659,1,12,0:0:0:0:
253,189,301800,1,4,0:0:0:0:
253,189,301942,1,12,0:0:0:0:
253,189,302083,1,12,0:0:0:0:
253,189,302508,1,12,0:0:0:0:
253,189,302649,1,4,0:0:0:0:
253,189,302791,1,12,0:0:0:0:
253,189,302932,1,12,0:0:0:0:
253,189,303215,1,12,0:0:0:0:
256,192,303357,8,12,304489,0:0:0:0:
