osu file format v14

[General]
AudioFilename: Camellia feat Nanahira - Energy Drink Girl Fein-chan!.mp3
AudioLeadIn: 0
PreviewTime: 152167
Countdown: 0
SampleSet: Normal
StackLeniency: 0.7
Mode: 0
LetterboxInBreaks: 0
WidescreenStoryboard: 1

[Editor]
Bookmarks: 37611
DistanceSpacing: 0.1
BeatDivisor: 4
GridSize: 4
TimelineZoom: 2.5

[Metadata]
Title:Energy Drinko Fein-chan!
TitleUnicode:エナジー*ドリン娘◎ふぇいんちゃん!
Artist:Camellia feat. Nanahira
ArtistUnicode:かめりあ feat. ななひら
Creator:Spectator
Version:RLC's Extra
Source:
Tags:My Angel RangE RLC xlni りぷれい! りぷれい! Replay Confetto KCCD-003 Electronic Japanese Dubstep
BeatmapID:596595
BeatmapSetID:257407

[Difficulty]
HPDrainRate:6.5
CircleSize:4
OverallDifficulty:8.1
ApproachRate:9.3
SliderMultiplier:1.9
SliderTickRate:2

[Events]
//Background and Video events
0,0,"fein.jpg",0,0
//Break Periods
//Storyboard Layer 0 (Background)
//Storyboard Layer 1 (Fail)
//Storyboard Layer 2 (Pass)
//Storyboard Layer 3 (Foreground)
//Storyboard Layer 4 (Overlay)
//Storyboard Sound Samples

[TimingPoints]
2839,272.727272727273,4,1,2,80,1,0
3247,-200,4,1,2,80,0,0
7202,-100,4,1,2,80,0,0
7475,-200,4,1,2,80,0,0
8020,-133.333333333333,4,1,2,80,0,0
10475,-100,4,1,1,80,0,0
20293,-133.333333333333,4,1,1,80,0,0
20565,-76.9230769230769,4,1,1,80,0,0
20838,-100,4,1,1,80,0,0
29020,-111.111111111111,4,1,1,80,0,0
43202,-100,4,1,1,80,0,0
43475,-80,4,2,1,80,0,0
43747,-111.111111111111,4,2,1,80,0,0
44293,-100,4,1,1,80,0,0
46202,-200,4,1,1,80,0,0
46475,-100,4,1,1,80,0,0
58475,-133.333333333333,4,2,1,80,0,0
62838,-200,4,2,1,80,0,0
63384,-200,4,2,2,80,0,0
65020,-200,4,2,1,60,0,0
65566,-200,4,2,1,70,0,0
66111,-133.333333333333,4,2,1,80,0,0
66384,-117.647058823529,4,2,1,80,0,0
66657,-117.647058823529,4,2,1,80,0,0
67202,-100,4,1,1,80,0,1
75929,-200,4,1,2,80,0,0
76202,-100,4,1,1,80,0,1
86839,-76.9230769230769,4,2,2,80,0,0
87384,-76.9230769230769,4,2,2,85,0,0
88475,-76.9230769230769,4,2,2,90,0,0
88884,-133.333333333333,4,2,2,80,0,0
89566,-133.333333333333,4,2,1,80,0,0
90111,-200,4,2,1,80,0,0
90384,-200,4,2,2,80,0,0
90929,-100,4,1,1,80,0,0
110565,-200,4,2,1,80,0,0
111384,-133.333333333333,4,2,1,80,0,0
111929,-100,4,2,1,80,0,0
113020,-100,4,2,1,80,0,1
113566,-100,4,2,1,80,0,0
114111,-80,4,2,1,80,0,0
114929,-66.6666666666667,4,2,1,80,0,1
115202,-100,4,2,1,80,0,0
116020,-66.6666666666667,4,2,1,80,0,0
116293,-100,4,2,1,80,0,0
116565,-66.6666666666667,4,2,1,80,0,0
116838,-83.3333333333333,4,2,1,80,0,0
117384,-100,4,2,1,80,0,0
117657,-100,4,2,1,80,0,1
117929,-100,4,2,1,80,0,0
118202,-133.333333333333,4,2,1,80,0,0
118475,-100,4,2,1,80,0,0
119293,-66.6666666666667,4,2,1,80,0,1
119566,-100,4,2,1,80,0,0
120315,-66.6666666666667,4,2,1,80,0,0
120656,-100,4,2,1,80,0,0
121747,-76.9230769230769,4,2,1,80,0,0
122020,-100,4,2,1,80,0,1
122293,-100,4,2,1,80,0,0
123657,-66.6666666666667,4,2,1,80,0,1
123929,-100,4,2,1,80,0,0
124747,-66.6666666666667,4,2,1,80,0,0
125020,-100,4,2,1,80,0,0
125293,-66.6666666666667,4,2,1,80,0,0
125565,-100,4,2,1,80,0,0
127202,-100,4,2,1,80,0,1
128293,-100,4,1,1,80,0,0
143565,-133.333333333333,4,2,2,80,0,0
147929,-200,4,2,1,80,0,0
148202,-200,4,2,2,80,0,0
150111,-200,4,2,1,80,0,0
151202,-133.333333333333,4,2,1,80,0,0
151475,-117.647058823529,4,2,1,80,0,0
151747,-100,4,2,1,80,0,0
152293,-100,4,1,1,80,0,1
161020,-200,4,1,1,80,0,0
161293,-100,4,1,1,80,0,1
171929,-76.9230769230769,4,2,1,80,0,0
173975,-133.333333333333,4,2,1,80,0,0
176020,-100,4,2,1,80,0,0
176293,-100,4,1,1,80,0,0
191565,-133.333333333333,4,2,1,80,0,0
195929,-200,4,2,1,70,0,0
197020,-200,4,2,1,60,0,0
197566,-200,4,2,1,80,0,0
198111,-200,4,2,1,80,0,0
198657,-200,4,2,2,80,0,0
199202,-133.333333333333,4,2,1,80,0,0
199475,-100,4,2,1,80,0,0
200293,-100,4,1,1,80,0,1
209020,-200,4,2,2,80,0,1
209293,-100,4,1,1,80,0,1
219929,-76.9230769230769,4,2,2,80,0,0
221975,-133.333333333333,4,2,1,80,0,0
225111,-100,4,1,1,70,0,0
225384,-100,4,1,1,80,0,0

[Colours]
Combo1 : 247,214,113
Combo2 : 174,242,123
Combo3 : 242,140,204
Combo4 : 102,186,236

[HitObjects]
40,307,2839,6,0,L|231:295,1,190,4|2,0:0|2:0,0:0:0:0:
489,318,3248,1,2,2:0:0:0:
489,318,3384,2,0,L|389:324,1,95,2|0,2:0|2:0,0:0:0:0:
394,323,3929,6,0,L|409:225,1,95,2|0,2:0|2:0,0:0:0:0:
304,62,4338,2,0,L|313:173,1,95,2|0,2:0|2:0,0:0:0:0:
274,248,4748,1,2,2:0:0:0:
192,179,4884,1,4,1:0:0:0:
89,200,5020,1,4,1:0:0:0:
79,203,5293,6,0,P|59:252|55:307,1,95,2|0,2:0|2:0,2:0:0:0:
151,261,5702,2,0,P|145:310|154:362,1,95,2|0,2:0|2:0,2:0:0:0:
253,353,6111,1,2,2:0:0:0:
274,248,6247,1,4,2:1:0:0:
296,142,6384,1,4,2:1:0:0:
462,200,6520,6,0,L|359:210,1,95,4|0,1:1|1:0,0:0:0:0:
324,60,6929,2,0,L|392:69,1,47.5,4|0,1:0|1:0,1:0:0:0:
241,72,7202,6,0,P|190:57|73:155,1,190,4|2,1:2|2:0,0:0:0:0:
77,342,7611,1,0,2:0:0:0:
77,342,7748,2,0,L|63:240,1,95,2|0,2:0|2:0,0:0:0:0:
190,163,8157,1,0,2:0:0:0:
190,163,8293,2,0,L|181:246,1,71.2500027179719,2|0,2:0|2:0,0:0:0:0:
57,211,8565,5,4,0:0:0:0:
175,334,8702,2,0,P|220:348|309:295,1,142.500005435944,4|4,2:2|0:0,0:0:0:0:
388,271,9111,2,0,L|381:359,1,71.2500027179719,4|4,0:0|0:0,0:0:0:0:
410,20,9384,5,4,1:2:0:0:
410,20,10065,1,0,0:0:0:0:
411,34,10134,1,0,0:0:0:0:
412,48,10202,2,0,L|420:136,1,71.2500027179719
340,168,10475,5,4,0:0:0:0:
501,268,10611,1,4,0:0:0:0:
334,357,10747,1,4,0:0:0:0:
501,268,10884,1,4,0:0:0:0:
298,249,11020,6,0,L|354:269,1,47.5,4|0,0:0|0:0,0:0:0:0:
440,347,11157,2,0,L|420:285,1,47.5,4|0,0:0|0:0,0:0:0:0:
452,177,11293,2,0,L|405:230,1,47.5,4|0,0:0|0:0,0:0:0:0:
138,343,11429,1,4,0:0:0:0:
138,343,11497,1,4,0:0:0:0:
138,343,11566,6,0,L|131:279,1,47.5,4|0,0:2|2:0,0:0:0:0:
171,120,11702,2,0,L|184:237,1,95,0|10,2:0|0:0,0:0:0:0:
205,240,11906,1,0,0:0:0:0:
205,240,11975,1,0,0:0:0:0:
86,111,12111,5,6,0:0:0:0:
266,175,12247,1,0,0:0:0:0:
266,175,12315,1,0,0:0:0:0:
266,175,12384,1,10,0:0:0:0:
113,261,12520,6,0,L|60:256,1,47.5
219,323,12656,2,0,L|328:333,1,95,6|0,0:0|0:0,0:0:0:0:
444,59,12929,1,10,0:0:0:0:
497,255,13065,2,0,B|424:274|424:274|360:238,1,142.5,0|0,0:0|2:0,0:0:0:0:
346,219,13338,5,2,0:0:0:0:
358,135,13475,1,10,0:0:0:0:
370,53,13611,1,2,0:0:0:0:
266,43,13747,6,0,L|272:115,1,47.5,6|0,0:0|0:0,0:0:0:0:
358,135,13884,2,0,L|474:121,1,95,0|10,0:0|0:0,0:0:0:0:
489,117,14089,1,0,0:0:0:0:
489,117,14156,1,2,0:0:0:0:
215,227,14293,5,6,0:0:0:0:
161,85,14429,1,0,0:0:0:0:
161,85,14497,1,0,0:0:0:0:
161,85,14565,1,10,0:0:0:0:
86,217,14702,2,0,L|80:273,1,47.5
40,147,14838,5,6,0:0:0:0:
121,346,14975,2,0,L|282:335,1,142.5,0|0,0:0|2:0,0:0:0:0:
263,336,15247,1,4,0:0:0:0:
464,216,15384,2,0,B|471:264|471:264|451:308,1,95,6|0,0:0|0:0,0:0:0:0:
251,149,15656,2,0,B|244:101|244:101|264:57,1,95,10|0,0:0|0:0,0:0:0:0:
354,43,15929,5,6,0:0:0:0:
369,278,16065,1,0,0:0:0:0:
429,112,16202,2,0,L|487:97,2,47.5,10|0|0,0:0|0:0|0:0,0:0:0:0:
251,149,16475,1,6,0:0:0:0:
333,188,16611,1,0,0:0:0:0:
356,192,16679,1,0,0:0:0:0:
379,190,16747,1,10,0:0:0:0:
269,288,16884,6,0,L|262:234,1,47.5
251,149,17020,2,0,P|204:145|144:136,1,95,6|0,0:0|0:0,0:0:0:0:
45,254,17293,1,10,0:0:0:0:
138,380,17429,2,0,P|143:330|154:228,1,142.5,0|0,0:0|2:0,0:0:0:0:
160,207,17702,5,0,0:0:0:0:
94,146,17838,1,10,0:0:0:0:
10,165,17975,1,0,0:0:0:0:
267,57,18111,5,6,0:0:0:0:
267,57,18248,2,0,L|278:155,1,95,0|10,0:0|0:0,0:0:0:0:
246,197,18452,2,0,L|252:135,1,47.5
358,70,18656,5,6,0:0:0:0:
176,117,18793,1,0,0:0:0:0:
176,117,18861,1,0,0:0:0:0:
176,117,18929,1,10,0:0:0:0:
371,162,19065,1,0,0:0:0:0:
334,292,19202,5,6,0:0:0:0:
303,313,19270,1,0,0:0:0:0:
265,319,19338,1,0,0:0:0:0:
229,305,19406,1,0,0:0:0:0:
203,279,19475,5,10,0:0:0:0:
162,254,19543,1,0,0:0:0:0:
114,257,19611,1,0,0:0:0:0:
72,279,19679,1,0,0:0:0:0:
47,319,19747,6,4,L|33:236,1,47.5,6|0,0:0|2:0,0:0:0:0:
176,117,19884,6,0,L|162:200,1,47.5,4|0,0:0|2:0,0:0:0:0:
134,384,20020,6,0,L|141:312,1,47.5,6|0,0:0|2:0,0:0:0:0:
271,180,20157,6,4,L|278:244,1,47.5
334,292,20293,6,0,L|452:284,1,106.875004076958,6|0,1:1|2:0,0:0:0:0:
372,204,20565,6,0,B|309:209|309:209|262:246|262:246|189:252,1,185.249991519928,4|0,1:2|2:0,0:0:0:0:
55,190,20838,1,4,0:0:0:0:
182,22,20975,1,0,0:0:0:0:
182,22,21043,1,0,0:0:0:0:
182,22,21111,2,0,L|176:117,1,95,10|0,0:0|0:0,0:0:0:0:
169,228,21384,5,6,0:0:0:0:
92,55,21520,1,0,0:0:0:0:
55,190,21657,1,10,0:0:0:0:
303,84,21793,1,0,0:0:0:0:
303,84,22065,5,0,0:0:0:0:
292,203,22202,1,10,0:0:0:0:
278,326,22338,1,0,0:0:0:0:
179,249,22475,5,6,0:0:0:0:
384,278,22611,2,0,P|447:284|484:287,1,95,0|10,0:0|0:0,0:0:0:0:
478,286,22815,1,0,0:0:0:0:
478,286,22884,1,0,0:0:0:0:
230,74,23020,2,0,B|213:120|213:120|231:169,1,95,6|0,0:0|0:0,0:0:0:0:
292,203,23225,1,0,0:0:0:0:
301,187,23293,1,10,0:0:0:0:
149,294,23429,2,0,L|140:350,1,47.5
107,221,23565,5,6,0:0:0:0:
307,119,23702,2,0,L|423:108,1,95,0|10,0:0|0:0,0:0:0:0:
256,274,23975,1,0,0:0:0:0:
187,167,24111,2,0,L|46:150,1,142.5,6|0,0:0|2:0,0:0:0:0:
30,131,24384,2,0,B|15:178|15:178|34:226,1,95,10|0,0:0|0:0,0:0:0:0:
247,369,24656,6,0,L|256:274,1,95,6|0,0:0|0:0,0:0:0:0:
384,161,24929,1,10,0:0:0:0:
385,179,24997,1,0,0:0:0:0:
385,197,25065,1,0,0:0:0:0:
170,271,25202,5,6,0:0:0:0:
346,291,25338,1,0,0:0:0:0:
364,294,25406,1,0,0:0:0:0:
382,297,25475,1,10,0:0:0:0:
91,329,25611,1,0,0:0:0:0:
91,329,25679,1,0,0:0:0:0:
91,329,25748,6,0,P|77:282|84:228,1,95,6|0,0:0|0:0,0:0:0:0:
190,51,26020,1,10,0:0:0:0:
28,162,26156,2,0,P|90:184|161:157,1,142.5,0|0,0:0|2:0,0:0:0:0:
229,123,26429,6,0,L|246:177,1,47.5,0|0,0:0|2:0,0:0:0:0:
170,271,26566,2,0,L|208:229,1,47.5,10|0,0:0|2:0,0:0:0:0:
325,248,26702,2,0,L|269:235,1,47.5,4|0,0:0|2:0,0:0:0:0:
317,128,26838,5,4,0:2:0:0:
423,302,26975,2,0,B|439:257|439:257|421:199,1,95,0|10,0:0|0:0,0:0:0:0:
380,181,27179,2,0,B|425:197|425:197|483:179,1,95
429,59,27384,1,6,0:0:0:0:
429,59,27452,1,0,0:0:0:0:
429,59,27520,2,0,L|422:135,1,47.5
340,341,27656,2,0,L|325:248,1,95,10|0,0:0|0:0,0:0:0:0:
151,170,27929,5,4,0:0:0:0:
325,248,28065,1,0,0:0:0:0:
173,362,28202,1,10,0:0:0:0:
233,124,28338,5,0,0:0:0:0:
233,124,28406,1,0,0:0:0:0:
233,124,28475,1,10,0:0:0:0:
245,265,28611,2,0,L|253:363,1,95,0|10,0:0|0:0,0:0:0:0:
324,163,28884,1,0,0:0:0:0:
155,269,29020,6,0,P|96:275|21:198,2,170.999994781494,4|8|4,0:2|0:0|0:0,0:0:0:0:
325,248,29702,2,0,P|339:302|344:348,1,85.4999973907472,0|8,0:0|0:0,0:0:0:0:
123,173,29975,1,0,0:0:0:0:
314,77,30111,1,4,0:0:0:0:
314,77,30384,1,8,0:0:0:0:
123,173,30520,2,0,L|19:163,1,85.4999973907472,0|4,0:0|0:0,0:0:0:0:
218,313,30793,5,0,0:0:0:0:
343,251,30929,1,8,0:0:0:0:
237,148,31065,5,0,0:0:0:0:
365,254,31202,2,0,P|371:210|362:158,1,85.4999973907472,4|0,0:0|0:0,0:0:0:0:
309,340,31475,2,0,L|491:332,1,170.999994781494,8|4,0:0|0:0,0:0:0:0:
207,289,31884,2,0,P|201:333|210:385,1,85.4999973907472,0|8,0:0|0:0,0:0:0:0:
271,229,32156,1,0,0:0:0:0:
70,333,32293,5,4,0:0:0:0:
104,131,32429,1,0,0:0:0:0:
207,289,32565,1,8,0:0:0:0:
19,241,32702,2,0,P|13:199|9:146,1,85.4999973907472,0|4,0:0|0:0,0:0:0:0:
273,114,32975,1,0,0:0:0:0:
273,114,33043,1,0,0:0:0:0:
273,114,33111,1,8,0:0:0:0:
115,224,33247,1,0,0:0:0:0:
283,319,33384,6,0,P|338:338|429:272,2,170.999994781494,4|8|4,0:0|0:0|0:0,0:0:0:0:
492,205,34065,2,0,P|512:251|511:296,1,85.4999973907472,0|8,0:0|0:0,0:0:0:0:
339,237,34338,1,0,0:0:0:0:
326,60,34475,1,4,0:0:0:0:
326,60,34747,1,8,0:0:0:0:
339,237,34884,2,0,L|346:139,1,85.4999973907472,0|4,0:0|0:0,0:0:0:0:
205,46,35156,5,0,0:0:0:0:
96,132,35293,1,8,0:0:0:0:
222,173,35429,5,0,0:0:0:0:
75,134,35566,2,0,P|73:183|76:226,1,85.4999973907472,4|0,0:0|0:0,0:0:0:0:
203,353,35839,2,0,P|205:304|202:261,1,85.4999973907472,8|0,0:0|0:0,0:0:0:0:
30,177,36111,6,0,P|28:226|31:269,1,85.4999973907472,4|0,0:0|0:0,0:0:0:0:
234,314,36384,2,0,P|236:265|233:222,1,85.4999973907472,8|0,0:0|0:0,0:0:0:0:
168,175,36588,5,0,0:0:0:0:
168,175,36656,1,4,0:0:0:0:
30,262,36793,1,0,0:0:0:0:
72,46,36929,1,8,0:0:0:0:
179,195,37065,5,0,0:0:0:0:
19,163,37202,1,8,0:0:0:0:
79,338,37338,2,0,L|168:326,1,85.4999973907472,4|0,0:2|0:0,0:0:0:0:
506,216,37611,6,0,B|422:194|427:254|336:228,1,170.999994781494,4|2,0:2|0:0,0:0:0:0:
370,58,38020,2,0,P|380:108|367:155,1,85.4999973907472,8|2,0:0|0:0,0:0:0:0:
285,103,38293,1,4,0:0:0:0:
254,274,38429,2,0,P|244:224|257:177,1,85.4999973907472,2|8,0:0|0:0,0:0:0:0:
466,116,38702,5,2,0:0:0:0:
193,112,38838,1,4,0:0:0:0:
193,112,39111,5,8,0:0:0:0:
342,310,39248,2,0,L|331:220,1,85.4999973907472,2|4,0:0|0:0,0:0:0:0:
370,58,39520,5,2,0:0:0:0:
254,274,39656,1,8,0:0:0:0:
411,179,39793,1,2,0:0:0:0:
237,29,39929,6,0,P|191:18|98:97,1,170.999994781494,4|8,0:0|0:0,0:0:0:0:
96,228,40339,2,0,L|-6:217,1,85.4999973907472,2|4,0:0|0:0,0:0:0:0:
319,112,40611,2,0,L|421:123,1,85.4999973907472,2|8,0:0|0:0,0:0:0:0:
168,302,40884,1,2,0:0:0:0:
193,112,41020,5,4,0:0:0:0:
291,203,41156,1,2,0:0:0:0:
96,228,41293,1,8,0:0:0:0:
368,274,41429,2,0,P|380:225|375:181,1,85.4999973907472,2|4,0:0|0:0,0:0:0:0:
404,83,41702,1,2,0:0:0:0:
404,83,41770,1,0,0:0:0:0:
404,83,41839,1,8,0:0:0:0:
404,83,42111,6,0,L|489:72,1,85.4999973907472,4|2,0:2|0:0,0:0:0:0:
311,158,42384,2,0,L|301:315,1,128.249996086121,8|0,0:0|0:0,0:0:0:0:
301,318,42656,1,4,0:0:0:0:
417,199,42793,1,2,0:0:0:0:
220,200,42929,1,8,0:0:0:0:
220,200,42997,1,4,0:0:0:0:
220,200,43066,2,0,L|213:139,1,42.7499986953736,6|4,0:0|0:0,0:0:0:0:
187,86,43202,6,0,P|131:70|77:82,1,95,4|0,0:2|2:0,0:0:0:0:
46,342,43475,6,4,L|50:283,3,59.375,4|4|4|4,3:0|3:0|3:0|3:0,3:0:0:0:
136,155,43748,6,4,L|140:193,5,28.4999991302491,4|4|4|4|4|4,0:1|0:1|0:1|0:1|0:1|0:1,0:1:0:0:
301,318,44020,6,4,L|309:281,6,21.3749993476868,4|4|4|4|4|4|4,2:1|2:1|2:1|2:1|2:1|2:1|2:1,2:1:0:0:
310,268,44293,5,4,0:2:0:0:
186,324,44429,2,0,L|70:314,2,95,4|8|0,0:0|0:0|0:0,0:0:0:0:
285,110,44838,5,4,0:0:0:0:
461,151,44975,2,0,B|481:193|481:193|467:250,1,95,4|8,0:0|0:0,0:0:0:0:
318,357,45247,6,0,B|298:315|298:315|310:268,1,95,0|4,0:0|0:0,0:0:0:0:
351,175,45520,1,4,0:0:0:0:
215,245,45657,1,8,0:0:0:0:
395,81,45793,1,4,0:0:0:0:
405,61,46065,5,4,0:0:0:0:
424,220,46202,2,0,L|429:287,1,47.5,4|0,0:2|0:0,0:0:0:0:
233,50,46475,5,4,0:0:0:0:
371,144,46611,2,0,L|476:134,2,95,4|8|0,0:0|0:0|0:0,0:0:0:0:
155,155,47020,5,4,0:0:0:0:
289,314,47156,2,0,B|311:270|311:270|298:216,1,95,4|8,0:0|0:0,0:0:0:0:
83,95,47429,6,0,B|61:139|61:139|74:193,1,95,0|4,0:0|0:0,0:0:0:0:
151,256,47702,1,4,0:0:0:0:
246,130,47838,1,8,0:0:0:0:
76,309,47975,6,0,P|136:343|204:325,1,142.5,4|0,0:0|2:0,0:0:0:0:
289,314,48248,2,0,L|299:368,1,47.5,0|0,0:0|2:0,0:0:0:0:
344,242,48384,2,0,L|446:224,1,95,4|0,0:2|2:0,0:0:0:0:
151,256,48656,1,4,1:0:0:0:
437,225,48929,5,0,0:0:0:0:
423,328,49065,1,0,2:0:0:0:
340,134,49202,5,0,0:0:0:0:
344,242,49338,1,4,2:1:0:0:
260,56,49475,5,0,0:3:0:0:
260,56,49748,6,0,L|368:65,1,95,4|0,0:0|0:0,0:0:0:0:
161,44,50020,1,10,0:0:0:0:
428,127,50156,1,0,0:0:0:0:
428,127,50225,1,0,0:0:0:0:
428,127,50293,2,0,P|446:81|441:32,1,95,6|0,0:0|0:0,0:0:0:0:
232,169,50565,1,10,0:0:0:0:
323,312,50702,6,0,P|371:316|416:302,1,95,0|6,0:0|0:0,0:0:0:0:
143,312,50975,2,0,P|95:308|50:322,1,95,0|10,0:0|0:0,0:0:0:0:
238,281,51247,1,0,0:0:0:0:
236,299,51315,1,0,0:0:0:0:
234,318,51384,1,6,0:0:0:0:
158,221,51520,1,0,0:0:0:0:
308,225,51657,2,0,P|319:179|309:131,1,95,10|0,0:0|0:0,0:0:0:0:
102,71,51929,5,6,0:0:0:0:
232,169,52065,1,0,0:0:0:0:
349,43,52202,1,10,0:0:0:0:
127,159,52338,2,0,L|33:150,1,95,0|6,0:0|0:0,0:0:0:0:
370,284,52611,2,0,L|464:275,1,95,0|10,0:0|0:0,0:0:0:0:
260,335,52884,6,0,B|214:240|291:242|248:149,1,190
194,50,53293,1,10,0:0:0:0:
385,92,53429,1,0,0:0:0:0:
385,92,53497,1,0,0:0:0:0:
385,92,53566,2,0,P|398:141|386:193,1,95,6|0,0:0|0:0,0:0:0:0:
305,139,53838,1,10,0:0:0:0:
364,364,53975,1,4,0:0:0:0:
312,278,54111,6,0,P|351:229|480:255,1,190,4|10,0:2|0:0,0:0:0:0:
464,345,54520,1,0,0:0:0:0:
464,345,54588,1,0,0:0:0:0:
464,345,54656,1,6,0:0:0:0:
208,270,54793,1,0,0:0:0:0:
350,134,54929,1,10,0:0:0:0:
246,363,55066,6,0,P|194:362|139:353,1,95,0|6,0:0|0:0,0:0:0:0:
46,187,55338,2,0,P|98:186|153:177,1,95,0|10,0:0|0:0,0:0:0:0:
229,130,55611,1,0,0:0:0:0:
229,130,55679,1,0,0:0:0:0:
229,130,55747,1,6,0:0:0:0:
58,317,55884,1,0,0:0:0:0:
140,179,56020,2,0,L|151:281,1,95,10|0,0:0|0:0,0:0:0:0:
46,187,56293,5,6,0:0:0:0:
234,221,56429,1,0,0:0:0:0:
118,88,56565,1,10,0:0:0:0:
320,37,56702,2,0,P|377:77|349:206,1,190,0|4,0:0|0:0,0:0:0:0:
293,247,57111,1,10,0:0:0:0:
140,179,57248,6,0,P|171:126|296:149,1,190,0|4,0:0|0:0,0:0:0:0:
369,187,57656,2,0,P|422:184|467:168,1,95,10|0,0:0|0:0,0:0:0:0:
350,320,57929,1,6,0:0:0:0:
228,206,58065,1,0,0:0:0:0:
209,333,58202,2,0,P|156:336|111:352,1,95,10|0,0:0|0:0,0:0:0:0:
116,350,58406,1,0,0:0:0:0:
116,350,58475,5,4,0:2:0:0:
93,170,58611,2,4,P|101:216|108:255,1,71.2500027179719,4|4,1:0|1:0,1:0:0:0:
150,86,58884,1,4,0:2:0:0:
150,86,59156,5,0,0:2:0:0:
18,254,59293,1,4,0:2:0:0:
228,206,59429,2,0,L|225:256,1,35.625001358986,4|0,1:0|2:0,0:0:0:0:
209,333,59565,1,4,1:1:0:0:
376,344,59702,2,0,P|412:297|400:206,1,142.500005435944,4|4,0:2|1:0,0:0:0:0:
349,32,60111,6,0,P|326:79|348:156,1,106.875004076958,2|0,0:0|0:0,0:0:0:0:
323,216,60384,2,0,L|334:264,1,35.625001358986,2|0,0:0|0:0,0:0:0:0:
255,276,60520,2,0,L|256:323,1,35.625001358986,2|0,0:0|0:0,0:0:0:0:
184,223,60656,5,4,0:2:0:0:
423,175,60793,2,4,P|426:230|426:266,1,71.2500027179719,4|4,1:0|1:0,1:0:0:0:
240,74,61065,1,4,0:2:0:0:
240,74,61338,5,0,0:0:0:0:
340,302,61475,1,4,0:2:0:0:
346,136,61611,2,0,L|350:92,1,35.625001358986,4|0,1:0|2:0,0:0:0:0:
425,66,61747,1,4,1:0:0:0:
247,165,61884,2,0,P|187:163|145:154,1,71.2500027179719,4|0,0:2|0:0,0:0:0:0:
64,197,62157,5,2,0:0:0:0:
64,197,62225,1,0,0:0:0:0:
64,197,62293,2,0,L|59:249,1,35.625001358986,2|0,0:0|0:0,0:0:0:0:
130,372,62429,2,0,L|111:334,1,35.625001358986,2|0,0:0|0:0,0:0:0:0:
214,235,62566,2,0,L|179:261,1,35.625001358986,2|0,0:0|0:0,0:0:0:0:
272,355,62702,2,0,L|316:359,1,35.625001358986,2|0,0:0|0:0,0:0:0:0:
444,321,62838,6,0,P|427:274|298:283,1,190,4|2,1:0|0:0,0:0:0:0:
283,188,63520,2,0,P|274:143|287:82,1,95,2|0,0:0|0:0,0:0:0:0:
488,71,63929,5,2,0:0:0:0:
488,71,64202,1,2,0:0:0:0:
375,101,64339,2,0,L|281:94,1,95,2|0,0:0|0:0,0:0:0:0:
458,184,64747,1,2,0:0:0:0:
458,184,64815,1,0,0:0:0:0:
458,184,64884,1,0,0:0:0:0:
458,184,64952,1,0,0:0:0:0:
458,184,65020,6,0,L|464:247,1,47.5,4|0,1:0|0:0,0:0:0:0:
379,343,65293,2,0,L|374:295,1,47.5,8|4,1:3|1:0,0:0:0:0:
276,216,65566,6,0,L|265:332,1,95,4|2,3:0|1:0,0:0:0:0:
193,97,65975,1,4,1:0:0:0:
93,220,66111,6,0,P|149:218|177:216,1,71.2500027179719,0|0,1:0|0:0,0:0:0:0:
403,125,66384,6,0,P|352:122|303:119,1,80.750001540184,0|0,1:0|0:0,0:0:0:0:
103,87,66656,5,0,1:0:0:0:
191,308,66793,1,0,1:0:0:0:
191,308,66861,1,0,1:0:0:0:
191,308,66929,1,0,1:0:0:0:
322,120,67065,1,0,1:0:0:0:
444,242,67202,6,0,L|455:345,1,95,4|0,0:2|0:0,0:0:0:0:
99,268,67475,2,0,P|143:224|274:257,1,190,10|6,0:0|0:0,0:0:0:0:
317,341,67884,1,0,0:0:0:0:
240,85,68020,1,10,0:0:0:0:
402,68,68156,6,0,B|422:112|422:112|412:163,1,95,0|6,0:0|0:0,0:0:0:0:
263,172,68429,1,0,0:0:0:0:
369,280,68566,2,0,L|474:261,1,95,10|0,0:0|0:0,0:0:0:0:
494,161,68838,1,6,0:0:0:0:
277,342,68975,2,0,B|257:298|257:298|267:247,1,95,4|10,0:2|0:0,0:0:0:0:
240,85,69247,6,0,P|173:65|82:140,1,190,4|0,0:2|0:0,0:0:0:0:
220,226,69656,1,10,0:0:0:0:
338,112,69793,2,0,P|342:65|321:10,1,95,0|6,0:0|0:0,0:0:0:0:
387,193,70065,2,0,P|423:156|437:101,1,95,0|10,0:0|0:0,0:0:0:0:
144,294,70338,6,0,P|99:284|40:294,1,95,0|6,0:0|0:0,0:0:0:0:
220,226,70611,1,0,0:0:0:0:
296,309,70747,2,0,P|340:318|399:308,1,95,10|0,0:0|0:0,0:0:0:0:
208,367,71020,1,6,0:0:0:0:
470,253,71157,2,0,P|485:298|478:345,1,95,0|10,0:0|0:0,0:0:0:0:
331,119,71429,1,0,0:0:0:0:
306,195,71565,5,6,0:0:0:0:
214,29,71702,1,0,0:0:0:0:
256,96,71839,5,10,0:0:0:0:
422,4,71975,1,0,0:0:0:0:
356,43,72111,5,6,0:0:0:0:
448,209,72248,1,0,0:0:0:0:
406,142,72384,5,10,0:0:0:0:
238,234,72521,1,0,0:0:0:0:
331,119,72656,5,6,0:0:0:0:
355,322,72793,2,0,L|368:208,1,95,4|8,0:2|0:0,0:0:0:0:
451,377,73066,2,0,L|476:181,1,190,4|4,0:2|1:0,0:0:0:0:
475,188,73406,1,4,1:0:0:0:
475,188,73475,1,8,0:0:0:0:
272,359,73611,1,4,1:0:0:0:
142,184,73748,5,4,0:0:0:0:
142,184,73884,1,4,0:0:0:0:
275,179,74020,2,0,B|293:223|293:223|280:278,1,95,4|0,0:2|0:0,0:0:0:0:
207,105,74293,5,4,0:0:0:0:
207,105,74429,1,4,0:0:0:0:
54,239,74566,2,0,B|36:195|36:195|49:140,1,95,4|0,0:2|0:0,0:0:0:0:
131,54,74838,5,4,0:0:0:0:
218,241,74975,1,4,0:0:0:0:
86,344,75111,1,8,0:0:0:0:
207,105,75247,2,0,B|278:98|278:98|319:121|319:121|394:115,1,190,4|4,0:0|0:0,0:0:0:0:
455,84,75588,1,4,0:0:0:0:
460,61,75656,1,8,0:0:0:0:
510,154,75793,1,0,0:0:0:0:
433,226,75929,6,0,L|444:316,1,71.25,2|0,2:0|2:0,0:0:0:0:
417,197,76202,6,0,L|435:343,1,142.5,4|0,0:2|0:0,0:0:0:0:
434,338,76475,1,6,0:0:0:0:
246,274,76611,2,0,B|289:252|289:252|344:259,1,95,0|10,0:0|0:0,0:0:0:0:
154,334,76884,2,0,B|111:356|111:356|56:349,1,95,0|6,0:0|0:0,0:0:0:0:
312,352,77156,1,0,0:0:0:0:
158,240,77293,2,0,P|145:199|154:147,1,95,10|0,0:0|0:0,0:0:0:0:
247,92,77565,1,6,0:0:0:0:
40,199,77702,1,4,0:2:0:0:
40,199,77975,6,0,B|139:168|124:233|227:206,1,190,4|4,0:2|0:1,0:2:0:0:
303,147,78384,2,0,P|318:192|310:247,1,95,10|0,0:0|0:0,0:0:0:0:
182,115,78656,1,6,0:0:0:0:
358,60,78793,2,0,P|395:101|400:165,1,95,0|10,0:0|0:0,0:0:0:0:
217,372,79066,6,0,P|276:380|364:287,1,190
512,226,79475,2,0,P|465:219|421:236,1,95,10|0,0:0|0:0,0:0:0:0:
445,327,79747,1,6,0:0:0:0:
314,123,79884,2,0,P|314:170|338:211,1,95,0|10,0:0|0:0,0:0:0:0:
403,143,80156,1,0,0:0:0:0:
261,258,80293,5,6,0:0:0:0:
97,224,80429,1,0,0:0:0:0:
219,183,80565,5,10,0:0:0:0:
269,339,80701,1,0,0:0:0:0:
174,257,80838,5,6,0:0:0:0:
278,125,80974,1,0,0:0:0:0:
186,335,81111,5,10,0:0:0:0:
312,196,81247,1,0,0:0:0:0:
141,147,81384,1,6,0:0:0:0:
342,277,81520,6,0,L|458:263,1,95,4|10,0:2|0:0,0:0:0:0:
512,42,81793,2,0,L|302:64,1,190,4|4,0:2|0:1,0:0:0:0:
323,61,82134,1,4,0:1:0:0:
323,61,82202,1,8,0:0:0:0:
495,146,82338,1,0,0:0:0:0:
280,166,82475,6,0,P|246:130|217:94,1,95,4|0,0:2|0:0,0:0:0:0:
154,284,82748,2,0,P|201:272|247:265,1,95,10|0,0:0|0:0,0:0:0:0:
111,114,83020,2,0,P|97:161|80:204,1,95,6|0,0:0|0:0,0:0:0:0:
186,188,83293,1,10,0:0:0:0:
186,188,83429,1,0,0:0:0:0:
13,143,83565,5,6,0:0:0:0:
66,310,83702,1,0,0:0:0:0:
269,240,83838,2,0,P|280:192|270:140,1,95,10|0,0:0|0:0,0:0:0:0:
221,342,84111,5,6,0:0:0:0:
87,215,84247,1,0,0:0:0:0:
224,74,84384,2,0,P|273:58|332:82,1,95,10|0,0:0|0:0,0:0:0:0:
369,323,84657,6,0,P|439:324|509:215,2,190,6|10|6,0:0|0:0|0:0,0:0:0:0:
180,214,85338,5,0,0:0:0:0:
180,214,85406,1,0,0:0:0:0:
180,214,85475,2,0,L|172:273,1,47.5,10|0,0:0|0:0,0:0:0:0:
115,373,85611,2,0,L|107:314,1,47.5
1,252,85748,6,0,L|112:237,1,95,6|0,0:0|0:0,0:0:0:0:
298,129,86020,2,0,P|240:136|160:81,1,142.5,10|0,0:0|0:0,0:0:0:0:
180,65,86293,1,6,0:0:0:0:
97,155,86429,1,0,0:0:0:0:
285,244,86565,1,10,0:0:0:0:
101,328,86702,1,4,0:1:0:0:
85,320,86770,1,4,0:1:0:0:
66,314,86839,6,0,B|114:281|114:281|166:329|166:329|224:328,1,185.249991519928,2|0,0:0|0:0,0:0:0:0:
298,324,87111,2,0,L|306:365,6,30.8749985866547,4|0|0|0|0|0|0,0:0|0:0|0:0|0:0|0:0|0:0|0:0,0:0:0:0:
364,270,87384,6,0,B|330:236|330:236|279:245|279:245|298:161,1,185.249991519928,2|0,0:0|0:0,0:0:0:0:
364,119,87656,2,0,L|371:164,6,30.8749985866547,4|0|0|0|0|0|0,0:0|0:0|0:0|0:0|0:0|0:0|0:0,0:0:0:0:
436,165,87929,6,0,P|454:122|362:34,1,185.249991519928,2|0,0:0|0:0,0:0:0:0:
296,65,88202,2,0,L|264:61,6,30.8749985866547,4|0|0|0|0|0|0,0:0|0:0|0:0|0:0|0:0|0:0|0:0,0:0:0:0:
282,144,88475,6,0,P|245:150|200:135,1,61.7499971733095,2|0,0:0|0:0,0:0:0:0:
114,146,88611,1,4,1:0:0:0:
114,146,88884,6,0,B|86:197|7:109|130:72|162:195|240:135,1,213.750008153916,4|2,1:0|0:0,0:0:0:0:
287,87,89429,1,2,0:0:0:0:
372,67,89565,6,0,L|407:71,1,35.625001358986,4|0,1:0|0:0,0:0:0:0:
507,123,89702,2,0,L|472:127,1,35.625001358986,4|0,1:0|0:0,0:0:0:0:
364,163,89838,2,0,L|399:167,1,35.625001358986,4|0,1:0|0:0,0:0:0:0:
499,219,89975,2,0,L|464:223,1,35.625001358986,4|0,1:0|0:0,0:0:0:0:
401,271,90111,6,0,P|398:321|396:357,1,71.25,4|0,1:0|2:0,0:0:0:0:
473,358,90384,5,2,0:0:0:0:
39,358,90656,1,2,0:0:0:0:
256,284,90929,2,0,L|256:256,6,23.75,0|0|0|0|0|0|0,0:0|0:0|0:0|0:0|0:0|0:0|0:0,0:0:0:0:
256,244,91202,6,0,L|256:132,1,95,4|0,0:0|0:0,0:0:0:0:
78,99,91475,1,10,0:0:0:0:
59,93,91543,1,0,0:0:0:0:
40,87,91611,1,0,0:0:0:0:
153,50,91747,2,0,B|170:98|170:98|156:147,1,95,6|0,0:0|0:0,0:0:0:0:
137,180,91952,2,0,L|194:175,1,47.5,0|10,0:0|0:0,0:0:0:0:
414,124,92156,5,0,0:0:0:0:
414,124,92225,1,0,0:0:0:0:
414,124,92293,1,6,0:0:0:0:
279,55,92429,1,0,0:0:0:0:
480,43,92565,1,10,0:0:0:0:
419,236,92702,6,0,P|361:240|299:173,1,142.5
301,152,92975,1,0,0:0:0:0:
220,229,93111,2,0,P|227:280|216:331,1,95,10|0,0:0|0:0,0:0:0:0:
38,249,93384,5,6,0:0:0:0:
175,372,93520,2,0,L|284:365,1,95,0|10,0:0|0:0,0:0:0:0:
304,363,93725,1,0,0:0:0:0:
304,363,93793,1,0,0:0:0:0:
480,198,93929,2,0,L|371:205,1,95,6|0,0:0|0:0,0:0:0:0:
361,221,94134,1,0,0:0:0:0:
338,237,94202,2,0,P|342:184|336:143,1,95,10|0,0:0|0:0,0:0:0:0:
216,143,94475,5,6,0:0:0:0:
327,40,94611,2,0,P|379:45|417:79,1,95,0|10,0:0|0:0,0:0:0:0:
183,40,94884,1,0,0:0:0:0:
151,228,95020,2,0,P|91:230|27:180,1,142.5,6|0,0:0|2:0,0:0:0:0:
34,153,95293,1,8,0:0:0:0:
102,338,95429,1,4,0:0:0:0:
122,142,95566,6,0,L|111:42,1,95,6|0,0:0|0:0,0:0:0:0:
39,253,95838,1,10,0:0:0:0:
35,271,95906,1,0,0:0:0:0:
30,289,95975,1,0,0:0:0:0:
262,197,96111,2,0,P|273:245|266:300,1,95,6|0,0:0|0:0,0:0:0:0:
264,319,96315,1,0,0:0:0:0:
256,346,96384,2,0,L|372:335,1,95,10|0,0:0|0:0,0:0:0:0:
378,334,96588,1,0,0:0:0:0:
406,332,96656,5,6,0:0:0:0:
180,261,96793,1,0,0:0:0:0:
394,98,96929,1,10,0:0:0:0:
472,162,97065,2,0,P|422:197|325:169,1,142.5,0|0,0:0|2:0,0:0:0:0:
318,163,97338,1,0,0:0:0:0:
120,44,97475,2,0,P|115:92|119:142,1,95,10|0,0:0|0:0,0:0:0:0:
212,93,97747,5,6,0:0:0:0:
30,128,97884,1,0,0:0:0:0:
145,252,98020,1,10,0:0:0:0:
146,270,98088,1,0,0:0:0:0:
147,288,98156,1,0,0:0:0:0:
134,164,98293,5,6,0:0:0:0:
281,340,98429,1,0,0:0:0:0:
281,340,98497,1,0,0:0:0:0:
281,340,98565,2,0,L|289:243,1,95,10|0,0:0|0:0,0:0:0:0:
501,103,98838,5,6,0:0:0:0:
471,78,98906,1,0,0:0:0:0:
432,72,98975,1,0,0:0:0:0:
397,88,99043,1,0,0:0:0:0:
361,119,99111,5,10,0:0:0:0:
317,136,99179,1,0,0:0:0:0:
272,120,99247,1,0,0:0:0:0:
243,81,99315,1,0,0:0:0:0:
224,36,99384,6,0,L|212:97,1,47.5,6|0,0:0|0:0,0:0:0:0:
134,164,99520,2,0,L|148:212,1,47.5,4|0,0:0|0:0,0:0:0:0:
285,212,99656,2,0,L|229:203,1,47.5,6|0,0:0|0:0,0:0:0:0:
97,315,99793,2,0,L|157:309,1,47.5,4|0,0:0|0:0,0:0:0:0:
365,288,99929,6,2,P|371:326|368:357,2,63.3333333333333,6|0|0,0:0|1:3|1:3,0:0:0:0:
441,226,100202,2,2,P|464:265|468:290,2,63.3333333333333,0|0|0,1:3|1:3|1:3,0:3:0:0:
369,172,100475,5,4,0:0:0:0:
399,62,100565,1,4,0:0:0:0:
326,98,100656,1,4,0:0:0:0:
441,134,100747,1,4,0:2:0:0:
198,45,100884,5,4,0:0:0:0:
198,45,100952,1,0,0:0:0:0:
198,45,101020,2,0,P|190:93|191:146,1,95,2|0,0:0|0:0,0:0:0:0:
242,266,101293,1,10,0:0:0:0:
19,217,101429,1,0,0:0:0:0:
19,217,101702,5,0,0:0:0:0:
127,195,101838,1,10,0:0:0:0:
237,170,101975,1,0,0:0:0:0:
160,110,102111,5,6,0:0:0:0:
163,296,102247,2,0,B|118:308|118:308|65:287,1,95,0|10,0:0|0:0,0:0:0:0:
43,281,102452,2,0,L|54:337,1,47.5
329,190,102657,2,0,L|321:298,1,95,6|0,0:0|0:0,0:0:0:0:
317,325,102861,1,0,0:0:0:0:
317,325,102929,1,10,0:0:0:0:
237,170,103065,2,0,L|232:103,1,47.5
283,58,103202,5,6,0:0:0:0:
423,183,103338,2,0,P|477:183|522:157,1,95,0|10,0:0|0:0,0:0:0:0:
396,348,103611,1,0,0:0:0:0:
254,219,103748,2,0,P|198:213|127:265,1,142.5,6|0,0:0|2:0,0:0:0:0:
105,288,104020,2,0,P|104:239|86:187,1,95,10|0,0:0|0:0,0:0:0:0:
40,101,104293,5,6,0:0:0:0:
176,126,104429,1,0,0:0:0:0:
17,261,104565,1,10,0:0:0:0:
16,280,104634,1,0,0:0:0:0:
15,298,104702,1,0,0:0:0:0:
254,309,104839,6,0,B|269:264|269:264|251:211,1,95,6|0,0:0|0:0,0:0:0:0:
180,206,105043,1,0,0:0:0:0:
162,212,105111,1,10,0:0:0:0:
299,127,105247,2,0,L|358:130,1,47.5
414,89,105384,5,6,0:0:0:0:
253,218,105520,1,0,0:0:0:0:
432,183,105657,1,10,0:0:0:0:
309,51,105793,2,0,P|255:36|173:103,1,142.5,0|0,0:0|2:0,0:0:0:0:
105,135,106065,6,0,L|97:73,1,47.5,0|0,0:0|2:0,0:0:0:0:
185,207,106202,2,0,L|193:145,1,47.5,10|0,0:0|2:0,0:0:0:0:
96,265,106338,2,0,L|76:207,1,47.5,0|0,0:0|2:0,0:0:0:0:
14,165,106475,5,4,0:2:0:0:
275,202,106611,1,0,0:0:0:0:
236,370,106747,1,8,0:0:0:0:
236,370,106816,2,0,B|219:325|219:325|234:275,1,95,0|0,0:0|2:0,0:0:0:0:
320,284,107020,5,4,0:2:0:0:
354,299,107088,1,4,2:1:0:0:
391,295,107156,1,4,2:1:0:0:
424,276,107225,1,4,2:1:0:0:
441,242,107293,6,0,L|499:232,1,47.5,8|0,0:0|2:0,0:0:0:0:
369,166,107429,2,0,L|360:223,1,47.5,4|0,0:0|2:0,0:0:0:0:
460,130,107565,5,4,0:0:0:0:
287,76,107702,1,4,0:2:0:0:
478,28,107838,1,12,0:2:0:0:
275,202,107975,5,4,0:0:0:0:
275,202,108043,1,4,0:0:0:0:
275,202,108111,2,0,L|212:198,1,47.5,4|0,1:2|2:0,1:0:0:0:
67,252,108248,2,4,L|130:256,1,47.5,0|0,2:0|2:0,2:0:0:0:
151,181,108384,5,4,1:2:0:0:
149,166,108452,1,0,2:1:0:0:
147,151,108520,1,4,2:1:0:0:
145,136,108588,1,4,2:1:0:0:
143,121,108656,5,4,1:1:0:0:
256,192,108793,12,0,110293,2:0:0:0:
158,147,110565,6,0,L|151:201,1,47.5,2|0,0:0|0:0,0:0:0:0:
57,298,110838,6,0,L|145:291,1,71.25,2|0,0:0|0:0,0:0:0:0:
219,306,111111,2,0,L|264:301,2,23.75,2|0|0,0:0|0:0|0:0,0:0:0:0:
327,349,111384,6,0,P|337:311|328:270,1,71.2500027179719,2|0,0:0|0:0,0:0:0:0:
281,231,111588,1,0,0:0:0:0:
281,231,111656,2,0,P|337:243|386:219,1,106.875004076958,2|0,0:0|0:0,0:0:0:0:
473,107,111929,6,0,B|440:97|440:97|410:108|410:108|388:93|388:93|361:103|361:103|326:96,1,142.5,2|0,0:0|0:0,0:0:0:0:
265,80,112202,2,0,L|325:72,1,47.5,2|0,0:0|0:0,0:0:0:0:
185,143,112338,2,0,L|125:151,1,47.5
54,139,112475,5,2,0:0:0:0:
272,168,112611,1,2,0:0:0:0:
168,224,112747,1,2,0:0:0:0:
168,224,112815,1,0,0:0:0:0:
168,224,112884,2,0,L|163:289,1,47.5
92,307,113020,6,0,B|191:291|191:291|241:326,1,142.5,4|0,0:2|0:0,0:0:0:0:
307,318,113293,6,0,L|311:360,6,23.75,0|0|0|0|0|0|0,0:0|0:0|0:0|0:0|0:0|0:0|0:0,0:0:0:0:
307,318,113566,2,0,L|416:318,1,95,8|0,0:1|0:0,0:0:0:0:
396,47,113838,6,0,L|402:107,1,47.5
478,247,113975,2,0,L|484:187,1,47.5
497,118,114111,2,0,B|460:113|460:113|431:132|431:132|393:127|393:127|363:149|363:149|315:146,1,178.125,4|0,0:1|0:0,0:0:0:0:
300,128,114384,5,0,0:0:0:0:
203,166,114520,2,0,L|81:174,1,118.75,0|8,0:0|0:1,0:0:0:0:
16,277,114793,5,0,0:0:0:0:
16,277,114861,1,0,0:0:0:0:
16,277,114929,2,0,B|61:273|61:273|93:255|93:255|128:283|128:283|156:262|156:262|211:258,1,213.750008153916
384,230,115202,6,0,P|415:298|291:268,1,285,4|0,0:1|0:0,0:0:0:0:
501,318,115747,6,0,B|515:273|515:273|495:217,1,95,8|0,0:1|0:0,0:0:0:0:
493,132,115952,5,0,0:0:0:0:
493,132,116020,2,0,P|456:156|426:156,1,71.2500027179719,2|0,0:0|0:0,0:0:0:0:
388,85,116156,2,0,P|347:78|317:53,1,71.2500027179719,2|0,0:0|0:0,0:0:0:0:
252,88,116293,6,0,B|180:103|180:103|103:65,1,142.5,4|0,0:1|0:0,0:0:0:0:
114,158,116565,6,0,P|125:188|123:231,1,71.2500027179719,2|0,0:0|0:0,0:0:0:0:
66,296,116702,2,0,P|67:334|46:370,1,71.2500027179719,2|0,0:0|0:0,0:0:0:0:
153,305,116838,6,0,B|181:293|199:263|199:263|215:322|215:322|246:279|246:279|268:312|268:312|301:300|301:300|327:318|327:318|355:328|394:308,1,341.999989562989,8|0,0:1|0:0,0:0:0:0:
499,231,117384,6,0,B|401:209|401:209|350:245,1,142.5,4|0,0:2|0:0,0:0:0:0:
384,313,117657,6,0,L|391:352,6,23.75
366,233,117929,2,0,P|358:193|307:184,1,95,8|0,0:1|0:0,0:0:0:0:
456,110,118202,6,0,L|496:105,1,35.625001358986
348,70,118338,2,0,L|394:65,1,35.625001358986
267,33,118475,2,0,B|254:69|254:69|262:99|262:99|245:132|245:132|248:180,1,142.5,4|0,0:1|0:0,0:0:0:0:
238,197,118747,5,0,0:0:0:0:
124,358,118884,2,0,L|1:368,1,95,0|8,0:0|0:1,0:0:0:0:
83,262,119156,5,0,0:0:0:0:
83,262,119225,1,0,0:0:0:0:
83,262,119293,2,0,B|118:267|118:267|148:255|148:255|168:273|168:273|193:275|193:275|216:298|216:298|240:284|240:284|290:289,1,213.750008153916,2|0,0:0|0:0,0:0:0:0:
343,339,119566,6,0,P|407:359|357:227,1,285,4|0,0:1|0:0,0:0:0:0:
339,146,120111,2,0,B|293:161|293:161|247:149,1,95,8|0,0:1|0:0,0:0:0:0:
183,97,120315,5,0,0:0:0:0:
183,97,120384,2,0,B|158:120|158:120|170:180,1,71.2500027179719,2|0,0:0|0:0,0:0:0:0:
201,225,120520,2,0,B|176:248|176:248|188:308,1,71.2500027179719,2|0,0:0|0:0,0:0:0:0:
288,239,120656,5,4,0:1:0:0:
393,350,120793,1,0,0:0:0:0:
393,350,120861,1,0,0:0:0:0:
393,350,120929,2,0,L|453:344,1,47.5,2|0,0:0|0:0,0:0:0:0:
420,259,121065,2,0,L|480:253,1,47.5,2|0,0:0|0:0,0:0:0:0:
256,152,121202,5,8,0:1:0:0:
119,350,121338,1,0,0:2:0:0:
119,350,121406,1,0,0:0:0:0:
119,350,121474,2,0,L|59:344,1,47.5,2|0,0:0|0:0,0:0:0:0:
92,259,121610,2,0,L|32:253,1,47.5,2|0,0:0|0:0,0:0:0:0:
0,148,121747,6,0,P|28:92|148:108,1,185.249991519928,4|0,0:2|0:0,0:0:0:0:
211,63,122020,6,0,L|219:27,6,23.75
211,63,122293,2,0,B|259:71|259:71|307:47,1,95,8|0,0:1|0:0,0:0:0:0:
471,163,122565,2,0,L|371:145,1,95
292,152,122838,6,0,B|301:203|301:203|334:229|334:229|345:294,1,142.5,4|0,0:1|0:0,0:0:0:0:
345,309,123111,5,0,0:0:0:0:
378,147,123247,1,0,0:0:0:0:
255,275,123384,1,8,0:1:0:0:
422,341,123520,5,0,0:0:0:0:
422,341,123588,1,0,0:0:0:0:
422,341,123657,2,0,B|398:358|398:358|371:328|371:328|339:359|339:359|302:341|302:341|274:356|274:356|216:351,1,213.750008153916
255,275,123929,6,0,P|178:186|144:298,1,285,4|0,0:1|0:0,0:0:0:0:
255,275,124475,6,0,B|300:257|300:257|371:271,1,95,8|0,0:1|0:0,0:0:0:0:
145,298,124747,6,0,B|151:335|151:335|137:382,1,71.2500027179719,2|0,0:0|0:0,0:0:0:0:
124,216,124884,2,0,B|130:253|130:253|116:300,1,71.2500027179719,2|0,0:0|0:0,0:0:0:0:
87,145,125020,6,0,B|133:127|133:127|155:23,1,142.5,4|0,0:1|0:0,0:0:0:0:
206,153,125293,6,0,B|200:190|200:190|213:237,1,71.2500027179719,2|0,0:0|0:0,0:0:0:0:
227,71,125430,2,0,B|221:108|221:108|234:155,1,71.2500027179719,2|0,0:0|0:0,0:0:0:0:
304,95,125565,6,0,B|337:100|380:68|380:68|391:136|391:136|422:115|422:115|412:174|449:220|449:220,1,285,8|0,0:1|0:0,0:0:0:0:
496,320,126111,6,0,L|341:320,1,142.5,4|0,0:1|0:0,0:0:0:0:
274,323,126384,2,0,L|268:362,6,23.75,0|0|0|0|0|0|0,0:0|0:0|0:0|0:0|0:0|0:0|0:0,0:0:0:0:
322,246,126656,2,0,B|336:199|336:199|310:147,1,95,8|0,0:1|0:0,0:0:0:0:
118,263,126929,6,0,L|76:260,4,31.6666666666667
128,175,127202,5,4,1:2:0:0:
128,175,127270,1,0,0:0:0:0:
128,175,127338,2,0,L|119:116,1,47.5
254,43,127475,5,2,1:2:0:0:
254,43,127543,1,0,0:0:0:0:
254,43,127611,2,0,L|244:109,1,47.5
251,266,127748,5,2,1:2:0:0:
251,266,127815,1,0,0:0:0:0:
251,266,127883,2,0,L|242:207,1,47.5
366,126,128020,5,2,1:2:0:0:
366,126,128088,1,0,0:0:0:0:
366,126,128157,2,0,L|356:192,1,47.5,4|0,1:1|0:0,0:0:0:0:
397,253,128293,6,0,L|499:241,1,95,4|0,0:2|0:2,0:0:0:0:
327,204,128565,1,0,0:0:0:0:
313,355,128702,1,0,0:2:0:0:
167,164,128838,6,0,L|65:152,1,95,8|0,0:0|0:0,0:0:0:0:
237,115,129110,1,0,0:0:0:0:
251,266,129247,1,0,0:0:0:0:
310,60,129384,5,4,0:0:0:0:
161,253,129520,1,0,0:0:0:0:
158,75,129656,1,0,0:0:0:0:
327,204,129793,2,0,L|435:195,1,95,0|8,0:0|0:0,0:0:0:0:
251,266,130065,5,0,0:0:0:0:
86,119,130202,1,0,0:0:0:0:
86,119,130475,6,0,L|71:229,1,95,4|0,0:0|0:0,0:0:0:0:
0,124,130747,1,0,0:0:0:0:
158,75,130884,1,0,0:0:0:0:
246,217,131020,6,0,L|231:107,1,95,8|0,0:0|0:0,0:0:0:0:
160,212,131292,1,0,0:0:0:0:
318,261,131429,1,0,0:0:0:0:
327,148,131565,5,4,0:0:0:0:
197,294,131702,1,0,0:0:0:0:
233,123,131838,1,0,0:0:0:0:
318,261,131975,2,0,L|307:365,1,95,0|8,0:0|0:0,0:0:0:0:
434,288,132247,5,0,0:0:0:0:
397,93,132384,1,0,0:0:0:0:
256,192,132656,12,0,133747,0:0:0:0:
68,128,134020,5,2,2:0:0:0:
68,128,134293,1,2,2:0:0:0:
180,116,134429,1,4,1:0:0:0:
295,103,134565,1,4,1:1:0:0:
295,103,134839,6,0,L|288:214,1,95,6|0,0:0|0:0,0:0:0:0:
183,181,135111,1,10,0:0:0:0:
253,25,135247,1,0,0:0:0:0:
253,25,135315,1,0,0:0:0:0:
253,25,135384,2,0,P|303:17|353:36,1,95,6|0,0:0|0:0,0:0:0:0:
393,182,135656,1,10,0:0:0:0:
216,273,135793,6,0,P|159:268|106:255,1,95,0|6,0:0|0:0,0:0:0:0:
363,323,136065,2,0,P|420:328|473:341,1,95,0|10,0:0|0:0,0:0:0:0:
309,216,136338,1,0,0:0:0:0:
309,216,136406,1,0,0:0:0:0:
309,216,136475,1,6,0:0:0:0:
274,369,136611,1,0,0:0:0:0:
409,237,136747,2,0,P|409:193|392:141,1,95,10|0,0:0|0:0,0:0:0:0:
286,117,137020,5,6,0:0:0:0:
499,152,137156,1,0,0:0:0:0:
381,34,137293,1,10,0:0:0:0:
303,310,137429,2,0,L|309:216,1,95,0|6,0:0|0:0,0:0:0:0:
172,27,137702,2,0,L|178:121,1,95,0|10,0:0|0:0,0:0:0:0:
34,194,137975,6,0,B|132:160|120:245|225:218,1,190
74,81,138384,1,10,0:0:0:0:
87,370,138520,1,0,0:0:0:0:
87,370,138588,1,0,0:0:0:0:
87,370,138657,2,0,P|71:320|76:277,1,95,6|0,0:0|0:0,0:0:0:0:
292,158,138929,2,0,P|308:208|303:251,1,95,10|4,0:0|0:0,0:0:0:0:
238,73,139202,6,0,P|327:62|389:137,1,190,4|10,0:2|0:0,0:0:0:0:
145,131,139611,1,0,0:0:0:0:
145,131,139679,1,0,0:0:0:0:
145,131,139748,2,0,P|126:87|141:23,1,95,6|0,0:0|0:0,0:0:0:0:
239,170,140020,1,10,0:0:0:0:
161,228,140156,6,0,P|109:231|64:203,1,95,0|6,0:0|0:0,0:0:0:0:
239,170,140429,1,0,0:0:0:0:
219,359,140565,1,10,0:0:0:0:
326,220,140702,1,0,0:0:0:0:
326,220,140770,1,0,0:0:0:0:
326,220,140838,1,6,0:0:0:0:
145,131,140975,1,0,0:0:0:0:
300,307,141111,2,0,P|352:310|397:282,1,95,10|0,0:0|0:0,0:0:0:0:
415,153,141384,5,6,0:0:0:0:
236,258,141520,1,0,0:0:0:0:
335,52,141656,1,10,0:0:0:0:
128,38,141793,2,0,P|79:62|84:198,1,190
139,263,142202,1,10,0:0:0:0:
262,173,142338,6,0,L|251:72,1,95,0|6,0:0|0:0,0:0:0:0:
162,134,142611,1,0,0:0:0:0:
346,133,142747,2,0,P|394:136|442:118,1,95,10|0,0:0|0:0,0:0:0:0:
463,108,142952,1,0,0:0:0:0:
483,88,143020,2,0,P|480:136|490:191,1,95,6|0,0:0|0:0,0:0:0:0:
347,346,143293,2,0,P|350:298|340:243,1,95,10|4,0:0|0:0,0:0:0:0:
342,251,143497,1,4,0:0:0:0:
342,251,143565,5,4,0:2:0:0:
439,291,143702,2,0,L|512:283,1,71.2500027179719,2|0,0:0|0:0,0:0:0:0:
223,257,143975,1,4,0:0:0:0:
223,257,144247,5,2,0:0:0:0:
396,155,144384,1,4,0:0:0:0:
256,66,144520,2,0,L|263:126,1,35.625001358986,2|0,0:0|0:0,0:0:0:0:
276,175,144656,1,2,0:0:0:0:
371,61,144793,2,0,P|432:59|487:132,1,142.500005435944,4|0,0:0|0:0,0:0:0:0:
483,224,145202,6,0,L|424:230,1,47.5000018119813,2|2,0:3|0:3,0:3:0:0:
297,296,145384,2,0,L|356:290,1,47.5000018119813,2|2,0:3|0:3,0:3:0:0:
380,174,145566,2,0,L|321:180,1,47.5000018119813,2|2,0:3|0:3,0:3:0:0:
158,179,145747,5,4,0:2:0:0:
196,286,145884,2,0,L|209:372,1,71.2500027179719,4|0,1:0|0:0,0:0:0:0:
268,86,146156,1,4,1:2:0:0:
268,86,146429,5,0,1:0:0:0:
89,264,146565,1,4,1:2:0:0:
249,208,146702,2,0,L|295:203,1,35.625001358986,4|0,1:0|0:0,0:0:0:0:
358,232,146838,1,0,0:0:0:0:
158,179,146975,2,0,P|152:130|149:97,1,71.2500027179719,4|0,1:2|0:0,0:0:0:0:
380,302,147247,5,0,0:0:0:0:
380,302,147315,1,0,0:0:0:0:
380,302,147384,2,2,P|406:307|428:320,2,47.5000018119813,0|0|0,0:3|0:3|0:3,0:3:0:0:
300,296,147657,2,2,P|250:298|205:327,1,95.0000036239625,0|0,2:1|2:1,2:1:0:0:
149,365,147929,6,0,P|100:383|13:281,1,190,4|2,1:0|0:0,0:0:0:0:
58,220,148611,2,0,L|171:208,1,95,2|0,0:0|0:0,0:0:0:0:
221,164,149020,1,2,0:0:0:0:
435,250,149293,5,2,0:0:0:0:
435,250,149429,2,0,P|442:202|430:149,1,95,2|0,0:0|0:0,0:0:0:0:
383,96,149839,2,0,L|325:90,1,47.5,2|0,0:0|0:0,0:0:0:0:
248,58,150111,6,0,L|258:171,1,95,4|0,1:0|0:0,0:0:0:0:
330,235,150520,1,0,0:0:0:0:
158,256,150656,6,0,L|168:143,1,95,4|0,1:0|0:0,0:0:0:0:
92,96,151065,1,0,0:0:0:0:
258,240,151202,6,0,L|330:235,1,71.2500027179719,4|0,1:0|0:0,0:0:0:0:
96,332,151475,6,0,L|9:324,1,80.750001540184,4|0,1:0|0:0,0:0:0:0:
166,161,151747,5,0,1:0:0:0:
252,334,151884,1,0,1:0:0:0:
252,334,151952,1,0,1:0:0:0:
252,334,152020,1,0,1:0:0:0:
336,114,152156,1,0,1:0:0:0:
480,235,152293,6,0,P|444:293|321:276,1,190,4|10,0:2|0:0,0:0:0:0:
248,108,152702,2,0,L|259:217,1,95,0|6,0:0|0:0,0:0:0:0:
252,334,152975,1,0,0:0:0:0:
412,137,153111,1,10,0:0:0:0:
257,202,153247,6,0,P|212:201|143:183,1,95,0|6,0:0|0:0,0:0:0:0:
346,348,153520,1,0,0:0:0:0:
386,224,153657,2,0,P|431:225|500:243,1,95,10|0,0:0|0:0,0:0:0:0:
332,133,153929,5,2,0:0:0:0:
168,248,154066,2,0,L|71:259,1,95,4|10,0:2|0:0,0:0:0:0:
413,193,154339,6,0,P|432:140|330:41,1,190,4|0,0:2|0:0,0:0:0:0:
265,233,154748,1,10,0:0:0:0:
365,291,154884,2,0,P|415:286|475:281,1,95,0|6,0:0|0:0,0:0:0:0:
332,133,155157,2,0,P|284:128|237:124,1,95,0|10,0:0|0:0,0:0:0:0:
111,225,155429,6,0,P|108:277|130:319,1,95,0|6,0:0|0:0,0:0:0:0:
200,252,155702,1,0,0:0:0:0:
54,153,155839,2,0,P|23:193|21:251,1,95,10|0,0:0|0:0,0:0:0:0:
181,162,156111,5,6,0:0:0:0:
224,333,156248,2,0,L|328:324,1,95,4|10,0:0|0:0,0:0:0:0:
493,254,156520,1,0,0:0:0:0:
359,197,156656,5,6,0:0:0:0:
411,301,156793,1,0,0:0:0:0:
470,162,156929,5,10,0:0:0:0:
411,314,157065,1,0,0:0:0:0:
331,115,157202,5,6,0:0:0:0:
409,329,157338,1,0,0:0:0:0:
485,80,157475,5,10,0:0:0:0:
408,346,157611,1,0,0:0:0:0:
412,103,157747,5,4,0:1:0:0:
201,221,157884,2,0,L|97:234,1,95,4|10,0:2|0:0,0:0:0:0:
147,112,158156,2,0,B|216:102|216:102|262:124|262:124|341:114,1,190,4|4,0:2|0:1,0:0:0:0:
381,60,158497,1,4,0:1:0:0:
385,39,158565,1,10,0:0:0:0:
448,202,158702,1,0,0:0:0:0:
285,198,158838,5,6,0:0:0:0:
285,198,158975,1,4,0:0:0:0:
343,361,159111,2,0,B|362:318|362:318|348:268,1,95,10|0,0:0|0:0,0:0:0:0:
128,280,159384,5,6,0:0:0:0:
128,280,159521,1,4,0:0:0:0:
70,117,159657,2,0,B|51:160|51:160|65:210,1,95,10|0,0:0|0:0,0:0:0:0:
107,360,159929,5,6,0:0:0:0:
282,108,160065,1,4,0:0:0:0:
243,304,160202,1,10,0:0:0:0:
142,181,160339,2,0,B|240:153|218:226|328:196,1,190,4|0,0:2|0:0,0:0:0:0:
325,196,160679,1,0,0:0:0:0:
325,196,160747,2,0,P|331:256|338:297,1,95,10|0,0:0|0:0,0:0:0:0:
512,147,161020,6,0,L|474:184,1,47.5,6|0,0:3|0:0,0:0:0:0:
448,203,161293,6,0,P|441:142|434:101,1,95,4|0,0:2|0:0,0:0:0:0:
354,54,161565,1,6,0:0:0:0:
255,184,161702,2,0,L|367:170,1,95,0|10,0:0|0:0,0:0:0:0:
503,289,161975,2,0,L|391:303,1,95,0|6,0:0|0:0,0:0:0:0:
99,285,162247,5,0,0:0:0:0:
184,344,162384,2,4,P|194:294|189:239,1,95,10|0,0:0|0:0,0:0:0:0:
7,282,162656,1,2,0:0:0:0:
286,212,162793,1,4,0:2:0:0:
286,212,163066,6,0,P|234:226|135:126,1,190,4|4,0:2|0:0,0:0:0:0:
387,39,163475,1,10,0:0:0:0:
240,125,163611,1,0,0:0:0:0:
476,188,163747,1,6,0:0:0:0:
383,256,163884,2,0,L|369:162,1,95,0|10,0:0|0:0,0:0:0:0:
166,68,164157,6,0,P|159:123|169:177,1,95,0|6,0:0|0:0,0:0:0:0:
288,329,164429,1,0,0:0:0:0:
65,324,164566,2,0,P|111:265|230:270,1,190,10|6,0:0|0:0,0:0:0:0:
383,256,164975,2,0,P|390:201|380:147,1,95,0|10,0:0|0:0,0:0:0:0:
275,23,165247,1,0,0:0:0:0:
199,211,165384,5,6,0:0:0:0:
47,150,165520,1,0,0:0:0:0:
245,101,165656,5,10,0:0:0:0:
64,150,165793,1,0,0:0:0:0:
278,236,165929,5,6,0:0:0:0:
64,150,166065,1,0,0:0:0:0:
327,86,166202,5,10,0:0:0:0:
80,148,166338,1,0,0:0:0:0:
303,159,166475,5,6,0:0:0:0:
174,280,166611,2,0,L|161:160,1,95,4|8,0:2|0:0,0:0:0:0:
426,33,166884,2,0,B|415:102|415:102|440:148|440:148|428:217,1,190,4|4,0:2|0:1,0:0:0:0:
428,214,167225,1,4,0:1:0:0:
428,214,167293,1,10,0:0:0:0:
511,78,167429,1,0,0:0:0:0:
346,164,167566,6,0,L|232:152,1,95,4|0,0:2|0:0,0:0:0:0:
350,340,167839,2,0,L|464:352,1,95,10|0,0:0|0:0,0:0:0:0:
258,253,168111,2,0,L|246:367,1,95,6|0,0:0|0:0,0:0:0:0:
434,249,168384,2,0,L|446:135,1,95,10|0,0:0|0:0,0:0:0:0:
346,249,168656,5,6,0:0:0:0:
193,309,168793,1,0,0:0:0:0:
213,118,168929,2,0,P|261:87|319:94,1,95,10|0,0:0|0:0,0:0:0:0:
401,320,169202,5,6,0:0:0:0:
292,169,169338,1,0,0:0:0:0:
116,271,169475,2,0,P|107:321|136:378,1,95,10|0,0:0|0:0,0:0:0:0:
205,213,169748,6,0,P|127:165|40:194,2,190,6|10|6,0:0|0:0|0:0,0:0:0:0:
275,332,170429,1,0,0:0:0:0:
363,95,170565,1,10,0:0:0:0:
436,237,170702,5,0,0:0:0:0:
436,237,170770,1,0,0:0:0:0:
436,237,170839,2,0,P|387:255|324:246,1,95,6|0,0:0|0:0,0:0:0:0:
135,147,171111,2,0,P|184:129|247:138,1,95,10|0,0:0|0:0,0:0:0:0:
257,139,171315,5,0,0:0:0:0:
257,139,171384,2,0,L|251:78,1,47.5,6|0,0:0|2:0,0:0:0:0:
336,172,171520,2,0,L|330:221,1,47.5,0|0,0:0|2:0,0:0:0:0:
213,261,171657,2,0,L|207:207,1,47.5,10|0,0:0|2:0,0:0:0:0:
288,295,171793,1,4,0:0:0:0:
288,295,171861,1,4,0:0:0:0:
288,295,171929,6,0,B|217:318|170:258|170:258|140:279|142:330,1,185.249991519928,4|0,1:0|0:0,0:0:0:0:
82,353,172202,2,0,L|45:357,6,30.8749985866547,4|0|0|0|0|0|0,0:0|0:0|0:0|0:0|0:0|0:0|0:0,0:0:0:0:
65,278,172475,6,0,B|71:227|108:192|108:192|60:187|25:147,1,185.249991519928,4|0,1:0|0:0,0:0:0:0:
105,111,172747,2,0,L|101:74,6,30.8749985866547,4|0|0|0|0|0|0,0:0|0:0|0:0|0:0|0:0|0:0|0:0,0:0:0:0:
189,82,173020,6,0,B|252:65|316:84|316:84|299:99|250:117,1,185.249991519928,4|0,1:0|0:0,0:0:0:0:
191,164,173293,2,0,L|187:201,6,30.8749985866547,4|0|0|0|0|0|0,0:0|0:0|0:0|0:0|0:0|0:0|0:0,0:0:0:0:
272,191,173565,6,0,L|344:182,1,61.7499971733095,4|0,1:0|0:0,0:0:0:0:
413,169,173702,1,4,1:0:0:0:
413,169,173975,6,0,B|436:194|453:228|453:228|451:166|470:78,1,213.750008153916,4|0,1:2|0:0,0:0:0:0:
385,84,174520,1,0,0:0:0:0:
309,49,174657,6,0,L|296:99,1,35.625001358986,4|0,1:0|0:0,0:0:0:0:
273,204,174793,2,0,L|264:169,1,35.625001358986,4|0,1:0|0:0,0:0:0:0:
217,32,174929,2,0,L|208:66,1,35.625001358986,4|0,1:0|0:0,0:0:0:0:
185,227,175066,2,0,L|172:177,1,35.625001358986,4|0,1:0|0:0,0:0:0:0:
94,175,175202,6,0,L|48:167,3,35.625001358986,2|0|0|0,0:0|0:0|0:0|0:0,0:0:0:0:
131,317,175475,6,0,L|177:309,3,35.625001358986,2|0|0|0,0:0|0:0|0:0|0:0,0:0:0:0:
381,317,175747,2,0,L|335:309,3,35.625001358986,2|0|0|0,0:0|0:0|0:0|0:0,0:0:0:0:
256,284,176020,2,0,L|256:256,6,23.75,2|0|0|0|0|0|0,0:0|0:0|0:0|0:0|0:0|0:0|0:0,0:0:0:0:
254,233,176293,6,0,L|362:221,1,95,4|0,0:0|0:0,0:0:0:0:
476,203,176565,1,8,0:0:0:0:
344,71,176702,1,0,0:0:0:0:
328,60,176770,1,0,0:0:0:0:
312,49,176839,2,0,B|292:93|292:93|308:144,1,95,0|4,0:0|0:0,0:0:0:0:
422,96,177111,1,8,0:0:0:0:
397,351,177247,6,0,B|417:307|417:307|401:256,1,95,0|4,0:0|0:0,0:0:0:0:
380,173,177520,1,0,0:0:0:0:
502,285,177656,1,8,0:0:0:0:
319,294,177793,1,0,0:0:0:0:
300,289,177861,1,0,0:0:0:0:
281,284,177929,1,0,0:0:0:0:
263,290,177997,1,0,0:0:0:0:
245,296,178065,1,4,0:0:0:0:
131,363,178202,2,0,L|135:265,1,95,8|0,0:0|0:0,0:0:0:0:
146,160,178475,6,0,L|42:170,1,95,4|0,0:0|0:0,0:0:0:0:
226,102,178747,2,0,B|283:97|283:97|314:106|314:106|366:101,1,142.5,8|0,0:0|0:0,0:0:0:0:
393,83,179020,1,0,0:0:0:0:
270,189,179156,1,4,0:0:0:0:
311,21,179293,1,8,0:0:0:0:
480,38,179429,6,0,B|493:86|493:86|479:141,1,95
365,307,179702,2,0,B|352:259|352:259|366:204,1,95,4|8,0:0|0:0,0:0:0:0:
450,256,179975,1,0,0:0:0:0:
468,256,180043,1,0,0:0:0:0:
486,256,180111,1,0,0:0:0:0:
402,169,180247,2,0,L|298:179,1,95,4|8,0:0|0:0,0:0:0:0:
50,86,180520,5,0,0:0:0:0:
50,86,180588,1,0,0:0:0:0:
50,86,180657,2,0,L|202:70,1,142.5,4|0,0:2|0:0,0:0:0:0:
214,69,180929,1,8,0:0:0:0:
228,232,181065,1,0,0:0:0:0:
220,214,181134,1,0,0:0:0:0:
213,196,181202,1,0,0:0:0:0:
218,177,181270,1,0,0:0:0:0:
224,159,181338,1,4,0:0:0:0:
310,192,181475,1,8,0:0:0:0:
208,331,181611,6,0,B|279:341|322:283|322:283|331:333|365:366,1,190,0|4,0:0|0:0,0:0:0:0:
464,168,182020,1,8,0:0:0:0:
469,295,182156,1,0,0:0:0:0:
440,298,182225,1,0,0:0:0:0:
413,288,182293,1,0,0:0:0:0:
383,153,182429,2,0,B|373:77|373:77|408:87,1,95,4|8,0:0|0:0,0:0:0:0:
331,238,182702,5,0,0:0:0:0:
331,238,182770,1,0,0:0:0:0:
331,238,182838,2,0,B|267:208|267:208|186:230,1,142.5,4|0,0:0|0:0,0:0:0:0:
171,239,183111,1,8,0:0:0:0:
17,185,183247,1,0,0:0:0:0:
174,99,183384,1,0,0:0:0:0:
98,315,183520,6,0,P|53:333|5:339,1,95,4|8,0:0|0:0,0:0:0:0:
178,351,183793,2,0,B|217:331|217:331|243:362|243:362|276:346|276:346|307:360|307:360|376:354,1,190,0|4,0:0|0:0,0:0:0:0:
424,259,184202,1,8,0:0:0:0:
424,259,184475,1,0,0:0:0:0:
406,242,184543,1,0,0:0:0:0:
384,232,184611,1,0,0:0:0:0:
360,232,184679,1,0,0:0:0:0:
337,238,184747,2,0,L|325:180,1,47.5,8|0,0:0|0:0,0:0:0:0:
248,96,184884,2,0,L|238:142,1,47.5
56,191,185020,5,4,0:2:0:0:
163,75,185156,1,0,0:0:0:0:
209,225,185293,1,8,0:0:0:0:
52,175,185429,5,0,0:0:0:0:
178,79,185565,1,0,0:0:0:0:
197,235,185702,1,4,0:0:0:0:
51,159,185838,5,8,0:0:0:0:
192,87,185974,1,0,0:0:0:0:
184,243,186111,1,4,0:0:0:0:
53,144,186247,5,0,0:0:0:0:
204,97,186383,1,8,0:0:0:0:
169,249,186520,5,0,0:0:0:0:
156,255,186588,1,0,0:0:0:0:
142,260,186656,1,0,0:0:0:0:
315,302,186793,1,4,0:0:0:0:
224,334,186929,1,8,0:0:0:0:
320,201,187065,1,0,0:0:0:0:
439,186,187202,5,4,0:0:0:0:
236,182,187338,1,0,0:0:0:0:
449,102,187475,1,8,0:0:0:0:
300,114,187611,5,0,0:0:0:0:
388,259,187747,1,0,0:0:0:0:
366,47,187884,1,4,0:0:0:0:
512,153,188020,5,8,0:0:0:0:
378,132,188156,1,0,0:0:0:0:
378,132,188225,1,0,0:0:0:0:
378,132,188293,2,0,L|367:198,2,63.3333333333333,4|0|0,0:0|0:0|0:0,0:0:0:0:
217,100,188566,2,0,L|206:34,2,63.3333333333333,8|0|0,0:0|0:0|0:0,0:0:0:0:
111,104,188838,5,0,0:0:0:0:
111,104,188975,2,0,B|104:125|88:142|88:142|111:164|111:164|87:194|87:194|96:228|96:228|87:253|83:296,1,190,4|0,0:0|0:0,0:0:0:0:
9,311,189384,6,0,B|73:300|73:300|123:331|123:331|197:323,1,190,4|8,0:2|0:0,0:0:0:0:
280,352,189793,1,0,0:0:0:0:
280,352,189861,1,0,0:0:0:0:
280,352,189929,2,0,L|286:299,1,47.5
220,245,190065,2,0,L|229:146,1,95,4|8,0:0|0:0,0:0:0:0:
414,39,190338,6,0,B|457:80|474:115|474:115|468:165|445:222,1,190
377,353,190747,2,0,P|369:305|363:253,1,95,8|0,0:0|0:0,0:0:0:0:
360,240,190952,1,0,0:0:0:0:
357,221,191020,1,4,0:0:0:0:
355,202,191088,1,0,0:0:0:0:
354,183,191156,1,0,0:0:0:0:
353,163,191225,1,0,0:0:0:0:
353,144,191293,5,4,0:0:0:0:
319,161,191361,1,0,0:0:0:0:
281,164,191429,1,0,0:0:0:0:
245,151,191497,1,0,0:0:0:0:
222,120,191565,5,4,0:0:0:0:
133,172,191702,2,4,L|123:252,1,71.2500027179719,4|4,1:0|1:0,1:0:0:0:
301,68,191975,1,4,0:0:0:0:
301,68,192247,5,4,1:0:0:0:
275,245,192384,1,4,0:0:0:0:
441,168,192520,2,0,L|437:122,1,35.625001358986,4|0,1:0|0:0,0:0:0:0:
403,68,192656,1,4,1:0:0:0:
487,247,192793,2,0,P|443:267|364:210,1,142.500005435944,4|0,0:0|0:0,0:0:0:0:
274,244,193202,6,0,P|224:231|175:251,1,106.875004076958,2|0,0:0|0:0,0:0:0:0:
111,296,193475,2,0,L|125:353,1,35.625001358986,2|0,0:0|0:0,0:0:0:0:
30,314,193611,2,0,L|22:362,1,35.625001358986,2|0,0:0|0:0,0:0:0:0:
14,231,193747,5,4,0:0:0:0:
147,180,193884,2,4,L|153:103,1,71.2500027179719,4|4,1:0|1:0,1:0:0:0:
228,320,194156,1,4,0:0:0:0:
228,320,194429,5,0,0:0:0:0:
111,296,194565,1,4,0:0:0:0:
350,350,194702,2,0,L|338:289,1,35.625001358986,4|0,1:0|2:0,2:0:0:0:
323,233,194838,1,4,1:0:0:0:
470,262,194975,2,0,L|479:173,1,71.2500027179719,4|0,0:0|0:0,0:0:0:0:
492,106,195247,1,0,0:0:0:0:
396,154,195384,6,2,P|358:155|344:150,2,47.5000018119813,0|0|0,0:1|0:1|0:1,0:1:0:0:
273,141,195657,2,2,P|214:140|174:165,1,95.0000036239625,0|0,0:1|0:1,0:1:0:0:
109,207,195929,6,0,L|91:58,1,142.5,4|0,1:0|0:0,0:0:0:0:
172,36,196475,2,0,L|181:97,1,47.5,2|0,0:0|0:0,0:0:0:0:
348,103,196747,2,2,L|339:164,1,47.5,2|0,0:0|0:0,0:0:0:0:
248,328,197020,5,2,0:0:0:0:
248,328,197156,1,2,0:0:0:0:
154,321,197293,2,2,L|86:314,1,47.5
252,228,197565,5,2,0:0:0:0:
252,228,197701,1,2,0:0:0:0:
346,221,197838,2,2,L|414:214,1,47.5
153,165,198111,6,0,L|147:231,1,47.5,4|0,1:0|0:0,0:0:0:0:
277,111,198384,2,0,L|273:49,1,47.5,2|0,0:0|0:0,0:0:0:0:
88,68,198657,6,0,L|182:81,1,95,2|2,0:0|0:0,0:0:0:0:
367,66,199065,1,2,0:0:0:0:
189,271,199202,6,0,L|99:281,1,71.2500027179719,4|0,0:1|0:0,0:0:0:0:
376,152,199475,1,4,0:1:0:0:
326,323,199611,5,4,0:1:0:0:
326,323,199679,1,4,0:1:0:0:
326,323,199747,2,4,L|319:270,1,47.5,4|4,0:1|0:1,0:1:0:0:
451,176,199884,2,4,L|446:237,1,47.5,4|4,0:1|0:1,0:1:0:0:
308,224,200020,6,4,L|301:171,1,47.5,4|4,0:3|0:3,0:3:0:0:
458,87,200156,2,4,L|453:148,1,47.5,4|4,0:3|0:3,0:3:0:0:
300,94,200293,6,0,P|245:93|199:79,1,95,4|0,1:2|0:0,0:0:0:0:
95,42,200566,1,10,0:0:0:0:
189,271,200702,2,0,B|206:225|206:225|188:163,1,95,0|6,0:0|0:0,0:0:0:0:
103,219,200975,1,0,0:0:0:0:
283,296,201111,1,10,0:0:0:0:
129,349,201247,6,0,L|26:361,1,95,0|6,0:0|0:0,0:0:0:0:
121,126,201520,1,0,0:0:0:0:
306,153,201656,2,0,L|409:141,1,95,10|0,0:0|0:0,0:0:0:0:
496,138,201929,1,2,0:0:0:0:
217,199,202066,2,0,P|207:153|226:91,1,95,4|10,0:2|0:0,0:0:0:0:
503,297,202338,6,0,P|457:240|333:276,1,190,4|0,0:2|0:0,0:0:0:0:
239,368,202747,1,10,0:0:0:0:
120,250,202884,2,0,P|71:238|23:239,1,95,0|6,0:0|0:0,0:0:0:0:
138,349,203156,1,0,0:0:0:0:
217,199,203293,1,10,0:0:0:0:
292,290,203429,6,0,P|341:302|389:301,1,95,0|6,0:0|0:0,0:0:0:0:
206,284,203702,1,0,0:0:0:0:
462,252,203839,2,0,P|474:297|466:344,1,95,10|0,0:0|0:0,0:0:0:0:
350,209,204111,1,6,0:0:0:0:
505,158,204247,1,4,0:0:0:0:
408,121,204384,2,0,P|395:75|403:28,1,95,10|0,0:0|0:0,0:0:0:0:
493,65,204657,5,6,0:0:0:0:
302,123,204793,1,0,0:0:0:0:
462,253,204929,5,10,0:0:0:0:
284,121,205065,1,0,0:0:0:0:
493,65,205202,5,6,0:0:0:0:
266,118,205338,1,0,0:0:0:0:
462,253,205475,5,10,0:0:0:0:
248,116,205611,1,0,0:0:0:0:
311,309,205747,5,6,0:0:0:0:
383,180,205884,2,0,L|389:85,1,95,4|10,0:2|0:0,0:0:0:0:
450,274,206157,2,0,B|378:211|378:211|278:236,1,190,4|0,0:2|0:0,0:0:0:0:
286,233,206497,1,0,0:0:0:0:
286,233,206565,2,0,P|282:290|272:332,1,95,10|0,0:0|0:0,0:0:0:0:
47,246,206838,5,6,0:0:0:0:
152,79,206975,1,0,0:0:0:0:
213,151,207111,2,0,P|159:177|67:139,1,142.5,10|0,0:0|2:0,0:0:0:0:
66,123,207384,5,6,0:0:0:0:
138,270,207520,1,0,0:0:0:0:
302,194,207656,2,0,P|317:142|262:58,1,142.5,10|0,0:0|2:0,0:0:0:0:
251,46,207929,5,6,0:0:0:0:
406,167,208065,1,4,0:0:0:0:
232,253,208202,1,10,0:0:0:0:
378,353,208339,2,0,P|433:352|486:364,1,95,4|0,0:0|2:0,0:0:0:0:
271,163,208611,1,4,0:0:0:0:
271,163,208679,1,0,0:0:0:0:
271,163,208748,2,0,P|216:164|163:152,1,95,10|0,0:0|0:0,0:0:0:0:
354,264,209020,6,0,L|359:190,1,71.25,2|0,2:0|2:0,0:0:0:0:
365,121,209293,5,4,0:2:0:0:
232,253,209429,2,0,B|226:302|226:302|245:346,1,95,0|6,0:0|0:0,0:0:0:0:
472,264,209702,2,0,B|478:215|478:215|459:171,1,95,0|10,0:0|0:0,0:0:0:0:
291,55,209975,1,0,0:0:0:0:
354,264,210111,5,6,0:0:0:0:
492,87,210247,1,0,0:0:0:0:
271,163,210384,2,0,L|159:151,1,95,10|0,0:0|0:0,0:0:0:0:
91,200,210656,1,6,0:0:0:0:
297,76,210793,1,4,0:2:0:0:
297,76,211066,6,0,P|361:123|340:231,1,190,4|4,0:2|0:0,0:0:0:0:
260,322,211475,1,10,0:0:0:0:
175,217,211611,2,0,L|179:112,1,95,0|6,0:0|0:0,0:0:0:0:
271,163,211884,1,0,0:0:0:0:
78,154,212020,1,10,0:0:0:0:
20,354,212157,6,0,P|56:308|178:324,1,190,0|4,0:0|0:0,0:0:0:0:
377,228,212565,2,0,P|324:247|273:232,1,95,10|0,0:0|0:0,0:0:0:0:
185,126,212838,1,6,0:0:0:0:
460,329,212975,2,0,L|472:228,1,95,0|10,0:0|0:0,0:0:0:0:
364,80,213247,1,0,0:0:0:0:
256,239,213384,5,6,0:0:0:0:
413,153,213520,1,0,0:0:0:0:
266,57,213657,5,10,0:0:0:0:
428,153,213793,1,0,0:0:0:0:
256,239,213929,5,6,0:0:0:0:
442,153,214065,1,0,0:0:0:0:
266,57,214201,5,10,0:0:0:0:
455,152,214338,1,0,0:0:0:0:
357,292,214475,5,6,0:0:0:0:
364,80,214611,2,0,L|359:193,1,95,4|10,0:2|0:0,0:0:0:0:
80,142,214884,2,0,B|148:131|148:131|194:153|194:153|265:144,1,190,4|4,0:2|0:0,0:0:0:0:
263,144,215225,1,0,0:0:0:0:
263,144,215293,2,0,L|274:244,1,95,10|0,0:0|0:0,0:0:0:0:
272,340,215565,5,4,0:2:0:0:
464,282,215702,1,0,0:0:0:0:
383,366,215838,2,0,P|374:316|368:261,1,95,10|0,0:0|0:0,0:0:0:0:
373,117,216111,5,6,0:0:0:0:
175,72,216248,1,0,0:0:0:0:
277,50,216384,2,0,P|271:97|262:143,1,95,10|0,0:0|0:0,0:0:0:0:
69,215,216656,5,6,0:0:0:0:
37,46,216793,1,0,0:0:0:0:
164,168,216929,5,10,0:0:0:0:
150,321,217066,1,0,0:0:0:0:
267,206,217202,5,6,0:0:0:0:
242,75,217339,1,0,0:0:0:0:
371,168,217475,5,10,0:0:0:0:
355,281,217611,1,0,0:0:0:0:
345,73,217748,6,0,P|418:49|501:141,2,190,6|10|6,0:0|0:0|0:0,0:0:0:0:
267,206,218429,2,0,P|210:199|170:191,1,95,0|10,0:0|0:0,0:0:0:0:
401,253,218702,5,0,0:0:0:0:
401,253,218770,1,0,0:0:0:0:
401,253,218839,2,0,L|408:154,1,95,6|0,0:0|0:0,0:0:0:0:
259,53,219111,2,0,P|217:94|123:88,1,142.5,10|0,0:0|0:0,0:0:0:0:
61,85,219384,6,0,L|56:144,1,47.5,0|0,0:0|2:0,0:0:0:0:
164,201,219520,2,0,L|115:167,1,47.5,0|0,0:0|2:0,0:0:0:0:
13,231,219656,2,0,L|66:205,1,47.5,8|0,0:3|2:3,0:3:0:0:
115,274,219793,1,0,0:0:0:0:
115,274,219861,1,0,0:0:0:0:
115,274,219929,6,0,B|151:324|151:324|202:285|202:285|226:305|226:305|257:306,1,185.249991519928,2|0,0:0|0:0,0:0:0:0:
331,322,220202,2,0,L|338:355,6,30.8749985866547,4|0|0|0|0|0|0,0:0|0:0|0:0|0:0|0:0|0:0|0:0,0:0:0:0:
419,299,220475,6,0,B|396:252|354:232|306:239|306:239|325:218|329:179,1,185.249991519928,2|0,0:0|0:0,0:0:0:0:
309,119,220747,2,0,L|316:86,6,30.8749985866547,4|0|0|0|0|0|0,0:0|0:0|0:0|0:0|0:0|0:0|0:0,0:0:0:0:
249,180,221020,6,0,B|223:165|212:135|212:135|167:163|131:169|92:157,1,185.249991519928,2|0,0:0|0:0,0:0:0:0:
59,84,221293,2,0,L|52:51,6,30.8749985866547,4|0|0|0|0|0|0,0:0|0:0|0:0|0:0|0:0|0:0|0:0,0:0:0:0:
15,154,221566,2,0,P|17:182|33:214,1,61.7499971733095,2|0,0:0|0:0,0:0:0:0:
189,265,221702,1,4,1:0:0:0:
189,265,221975,6,0,B|153:283|116:268|116:268|112:339|154:366|208:346,1,213.750008153916,4|2,1:0|0:0,0:0:0:0:
271,310,222520,1,2,0:0:0:0:
336,255,222656,1,2,0:0:0:0:
421,264,222793,1,4,0:1:0:0:
421,264,222861,1,4,0:1:0:0:
421,264,222929,1,4,0:1:0:0:
477,328,223065,1,4,0:1:0:0:
477,328,223134,1,4,0:1:0:0:
477,328,223202,1,4,0:1:0:0:
477,328,224565,5,2,0:0:0:0:
35,328,224838,1,2,0:0:0:0:
256,223,225111,2,0,L|256:200,8,23.75,0|0|0|0|0|0|0|0|4,0:0|0:0|0:0|0:0|0:0|0:0|0:0|0:0|1:2,0:0:0:0:
