osu file format v14

[General]
AudioFilename: audio.mp3
AudioLeadIn: 0
PreviewTime: 91216
Countdown: 0
SampleSet: Soft
StackLeniency: 0.7
Mode: 2
LetterboxInBreaks: 0
WidescreenStoryboard: 0

[Editor]
Bookmarks: 980,23716,43927,72980,93190,120980,152360,173513,184881,205092,232881,248039,260671,289723,320039
DistanceSpacing: 0.8
BeatDivisor: 4
GridSize: 32
TimelineZoom: 3.599998

[Metadata]
Title:Energy * Drin-ko * Fein-chan! (Camellia's "MONSTERISTIC" D. M. P. Remix)
TitleUnicode:エナジー*ドリン娘☆ふぇいんちゃん! (かめりあ's "MONSTERISTIC" Dempa Machinegun Psystyle Remix)
Artist:Camellia feat. Nanahira
ArtistUnicode:かめりあ feat. ななひら
Creator:-Rustyy
Version:Addiction
Source:
Tags:kamelcamellia かめるかめりあ fa featured artist cametek かめてく 平田七海 Nanami Hirata 奥村りお Rio Okumura electronic denpa j-core jcore japanese j-pop jpop hardcore Voltage Ignition 2 MOTF-0002 Movement on the FLOOR c85 comiket85 comic market 85 コミケ85 コミックマーケット85 Camellia "Remixes" Summary & VIPs 02 c94 comiket94 comic market 94 コミケ94 コミックマーケット94 CTCD-0017 doujin indie marathon long notes Full LN Inverses kimgodssi drinkgirl drinking enajii dorinko feinchan
BeatmapID:3734931
BeatmapSetID:1820163

[Difficulty]
HPDrainRate:6
CircleSize:4.2
OverallDifficulty:9.7
ApproachRate:9.7
SliderMultiplier:2.1
SliderTickRate:2

[Events]
//Background and Video events
0,0,"tamakii.jpg",0,0
//Break Periods
//Storyboard Layer 0 (Background)
//Storyboard Layer 1 (Fail)
//Storyboard Layer 2 (Pass)
//Storyboard Layer 3 (Foreground)
//Storyboard Layer 4 (Overlay)
//Storyboard Sound Samples

[TimingPoints]
980,315.789473684211,4,2,1,40,1,0
2243,-43.4782608695652,4,2,1,60,0,0
3032,-100,4,2,1,60,0,0
4769,-43.4782608695652,4,2,1,60,0,0
5558,-100,4,2,1,60,0,0
7295,-43.4782608695652,4,2,1,60,0,0
8085,-100,4,2,1,60,0,0
9822,-43.4782608695652,4,2,1,60,0,0
10611,-100,4,2,1,60,0,0
13611,-100,4,2,1,45,0,0
16137,-100,4,2,1,50,0,0
18664,-100,4,2,1,55,0,0
21190,-100,4,2,1,60,0,0
21506,-100,4,2,1,50,0,0
21822,-100,4,2,1,40,0,0
22137,-100,4,2,1,30,0,0
22453,-100,4,2,1,50,0,0
23716,-90.9090909090909,4,2,1,70,0,1
41401,-90.9090909090909,4,2,1,60,0,0
43611,-43.4782608695652,4,2,1,60,0,0
43848,-100,4,2,1,60,0,0
72980,-100,4,2,2,50,0,0
76769,-100,4,2,1,60,0,0
88769,-100,4,2,2,60,0,0
88927,-100,4,2,1,60,0,0
90032,-100,4,2,2,60,0,0
90190,-100,4,2,1,60,0,0
91927,-100,4,2,1,50,0,0
92085,-100,4,2,1,45,0,0
92243,-100,4,2,1,40,0,0
92401,-100,4,2,1,35,0,0
92558,-100,4,2,1,30,0,0
92716,-100,4,2,1,25,0,0
92874,-100,4,2,1,60,0,0
93190,-90.9090909090909,4,2,1,70,0,1
100769,-90.9090909090909,4,2,1,70,0,0
102032,-45.4545454545455,4,2,1,70,0,0
102506,-90.9090909090909,4,2,1,70,0,0
103295,-90.9090909090909,4,2,1,70,0,1
115927,-90.9090909090909,4,2,1,60,0,0
119716,-100,4,2,1,60,0,0
120980,-100,4,2,1,30,0,0
121611,-100,4,2,1,35,0,0
122243,-100,4,2,1,40,0,0
122874,-100,4,2,1,45,0,0
123506,-100,4,2,1,50,0,0
124137,-100,4,2,1,55,0,0
124769,-100,4,2,1,60,0,0
126032,-90.9090909090909,4,2,1,70,0,1
135506,-90.9090909090909,4,2,1,70,0,0
136137,-90.9090909090909,4,2,1,70,0,1
143716,-90.9090909090909,4,2,1,60,0,0
145927,-45.4545454545455,4,2,1,60,0,0
146162,-100,4,2,1,60,0,0
146243,320.855614973262,4,2,1,60,1,0
146563,342.857142857143,4,2,1,60,1,0
146905,348.837209302326,4,2,1,60,1,0
147253,375,4,2,1,60,1,0
148003,379.746835443038,4,2,1,60,1,0
148382,400,4,2,1,60,1,0
148782,387.096774193548,4,2,1,60,1,0
149169,392.156862745098,4,2,1,60,1,0
149169,-83.3333333333333,4,2,1,60,0,0
149561,405.405405405405,4,2,1,60,1,0
149561,-83.3333333333333,4,2,1,60,0,0
150777,-76.9230769230769,4,2,1,60,0,0
151586,387.096774193548,4,2,1,60,1,0
151586,-83.3333333333333,4,2,1,60,0,0
152360,400,4,2,1,70,1,0
152360,-76.9230769230769,4,2,1,70,0,1
165560,385.852090032154,4,2,1,70,1,1
165560,-76.9230769230769,4,2,1,70,0,1
167103,368.098159509202,4,2,1,70,1,1
167103,-83.3333333333333,4,2,1,70,0,1
168575,348.837209302326,4,2,1,70,1,1
168575,-90.9090909090909,4,2,1,70,0,1
169970,333.333333333333,4,2,1,70,1,1
171303,315.789473684211,4,2,1,70,1,1
172250,315.789473684211,4,2,1,60,1,0
184881,-100,4,2,2,60,0,0
188671,-100,4,2,1,60,0,0
200671,-100,4,2,2,60,0,0
200828,-100,4,2,1,60,0,0
201934,-100,4,2,2,60,0,0
202092,-100,4,2,1,60,0,0
203828,-100,4,2,1,50,0,0
203986,-100,4,2,1,45,0,0
204144,-100,4,2,1,40,0,0
204302,-100,4,2,1,35,0,0
204460,-100,4,2,1,30,0,0
204618,-100,4,2,1,25,0,0
204776,-100,4,2,1,60,0,0
205092,-90.9090909090909,4,2,1,70,0,1
212671,-90.9090909090909,4,2,1,70,0,0
213934,-43.4782608695652,4,2,1,70,0,0
214407,-90.9090909090909,4,2,1,70,0,0
215197,-90.9090909090909,4,2,1,70,0,1
227828,-90.9090909090909,4,2,1,60,0,0
231618,-100,4,2,1,60,0,0
248039,-45.4545454545455,4,2,1,60,0,0
249776,-100,4,2,1,60,0,0
256250,-100,4,2,2,60,0,0
256407,-100,4,2,1,60,0,0
257513,-100,4,2,2,60,0,0
257671,-100,4,2,1,60,0,0
259407,-100,4,2,1,50,0,0
259565,-100,4,2,1,45,0,0
259723,-100,4,2,1,40,0,0
259881,-100,4,2,1,35,0,0
260039,-100,4,2,1,30,0,0
260197,-100,4,2,1,25,0,0
260355,-100,4,2,1,60,0,0
260986,-90.9090909090909,4,2,1,70,0,1
268250,-90.9090909090909,4,2,1,70,0,0
269513,-45.4545454545455,4,2,1,70,0,0
269986,-90.9090909090909,4,2,1,70,0,0
270776,-90.9090909090909,4,2,1,70,0,1
283407,-90.9090909090909,4,2,1,60,0,0
287197,-100,4,2,1,60,0,0
289723,-100,4,2,1,45,0,0
292250,-100,4,2,1,50,0,0
294776,-100,4,2,1,55,0,0
297302,-100,4,2,1,60,0,0
297618,-100,4,2,1,50,0,0
297934,-100,4,2,1,40,0,0
298250,-100,4,2,1,30,0,0
298565,-100,4,2,1,50,0,0
299828,-90.9090909090909,4,2,1,70,0,1
309302,-90.9090909090909,4,2,1,70,0,0
309934,-90.9090909090909,4,2,1,70,0,1
317513,-90.9090909090909,4,2,1,60,0,0
319723,-45.4545454545455,4,2,1,60,0,0
320828,-100,4,2,1,60,0,0
322565,-45.4545454545455,4,2,1,60,0,0
323355,-100,4,2,1,60,0,0
327618,-45.4545454545455,4,2,1,60,0,0
332355,-100,4,2,1,60,0,0

[Colours]
Combo1 : 0,255,0
Combo2 : 128,128,255
Combo3 : 255,0,128
Combo4 : 0,255,255

[HitObjects]
194,354,980,5,2,0:0:0:0:
332,298,1137,2,0,L|271:294,1,52.5,2|2,0:0|0:0,0:0:0:0:
140,257,1374,2,0,L|203:249,1,52.5,2|2,0:0|0:0,0:0:0:0:
330,197,1611,2,0,L|290:154,1,52.5,2|2,0:0|0:0,0:0:0:0:
234,146,1769,2,0,L|164:136,1,52.5,2|2,0:0|0:0,0:0:0:0:
356,76,1927,2,0,L|496:73,1,105,2|2,0:0|0:0,0:0:0:0:
233,113,2243,6,0,B|197:0|197:0|154:112|154:112|475:111,1,483.000009212494,4|8,3:2|0:0,0:0:0:0:
171,213,2716,2,0,B|415:213|415:213|372:101|372:101|336:214,1,483.000009212494,4|8,3:2|0:0,0:0:0:0:
108,321,3190,2,0,P|66:275|130:222,1,157.5,4|0,3:2|0:0,0:0:0:0:
324,151,3506,6,0,L|337:36,1,105,0|0,3:0|3:0,0:0:0:0:
193,70,3822,1,8,1:0:0:0:
331,128,3980,2,0,L|296:173,1,52.5,0|0,3:0|0:0,0:0:0:0:
241,171,4137,1,0,3:0:0:0:
383,227,4295,1,8,1:0:0:0:
245,274,4453,2,0,L|289:319,1,52.5,2|2,0:0|0:0,0:0:0:0:
341,315,4611,2,0,L|404:317,1,52.5,2|2,0:0|0:0,0:0:0:0:
221,357,4769,6,0,B|456:333|456:333|407:214|407:214|364:353,1,483.000009212494,4|8,3:2|0:0,0:0:0:0:
127,150,5243,2,0,B|82:265|82:265|43:154|43:154|334:154,1,483.000009212494,4|8,3:2|0:0,0:0:0:0:
67,42,5716,2,0,P|41:98|135:137,1,157.5,4|0,3:2|0:0,0:0:0:0:
291,224,6032,6,0,L|155:228,1,105,8|0,1:0|3:2,0:0:0:0:
326,300,6348,1,8,1:0:0:0:
221,319,6506,2,0,L|203:257,2,52.5,0|0|8,3:2|0:0|1:0,0:0:0:0:
360,314,6822,1,8,1:0:0:0:
221,319,6980,1,2,0:0:0:0:
161,297,7058,2,0,L|141:237,2,52.5,2|2|2,0:0|0:0|0:0,0:0:0:0:
357,338,7295,6,0,B|397:226|397:226|446:336|446:336|167:343,1,483.000009212494,4|8,3:2|0:0,0:0:0:0:
461,192,7769,2,0,B|225:192|225:192|271:80|271:80|341:199,1,483.000009212494,4|8,3:2|0:0,0:0:0:0:
99,71,8243,2,0,P|82:142|176:168,1,157.5,4|0,3:2|0:0,0:0:0:0:
335,233,8558,5,0,3:0:0:0:
229,273,8716,2,0,L|262:324,1,52.5,0|0,3:0|3:0,0:0:0:0:
317,327,8874,1,8,1:0:0:0:
422,343,9032,1,0,3:0:0:0:
280,360,9190,2,0,L|270:231,1,105,0|8,3:0|1:0,0:0:0:0:
380,190,9506,2,0,L|288:171,1,52.5,2|2,0:0|0:0,0:0:0:0:
271,157,9664,2,0,L|345:147,1,52.5,2|2,0:0|0:0,0:0:0:0:
145,79,9822,6,0,B|101:193|101:193|59:81|59:81|327:78,1,483.000009212494,4|8,3:2|0:0,0:0:0:0:
42,252,10295,2,0,B|281:250|281:250|238:132|238:132|197:256,1,483.000009212494,4|8,3:2|0:0,0:0:0:0:
429,332,10769,2,0,P|469:277|412:222,1,157.5,4|0,3:2|0:0,0:0:0:0:
235,170,11085,6,0,L|375:153,1,105,0|0,3:2|3:2,0:0:0:0:
200,119,11401,1,8,1:0:0:0:
326,78,11558,2,0,L|288:40,1,52.5,0|0,3:2|0:0,0:0:0:0:
230,39,11716,1,0,3:2:0:0:
100,92,11874,1,8,1:0:0:0:
237,167,12032,2,0,L|246:227,1,52.5,2|2,0:0|0:0,0:0:0:0:
169,230,12190,2,0,L|159:321,1,52.5,2|2,0:0|0:0,0:0:0:0:
340,336,12348,5,8,1:0:0:0:
251,286,12506,1,8,1:0:0:0:
226,203,12664,1,8,1:0:0:0:
251,286,12822,1,8,1:0:0:0:
340,336,12980,1,8,1:0:0:0:
202,350,13137,1,8,1:0:0:0:
437,357,13295,5,2,0:0:0:0:
465,337,13347,1,2,0:0:0:0:
478,305,13400,1,2,0:0:0:0:
472,271,13452,1,2,0:0:0:0:
449,245,13505,1,2,0:0:0:0:
416,235,13558,1,2,0:0:0:0:
214,192,13611,5,4,3:2:0:0:
98,210,13769,2,0,L|96:152,1,52.5
160,128,13927,1,0,3:2:0:0:
224,105,14006,2,0,L|233:44,1,52.5,0|8,0:0|0:0,0:0:0:0:
85,48,14243,2,0,L|121:93,1,52.5,0|0,3:2|0:0,0:0:0:0:
176,101,14401,1,0,0:0:0:0:
310,168,14558,2,0,L|268:214,1,52.5
210,222,14716,2,0,L|128:215,1,52.5,0|0,3:2|3:2,0:0:0:0:
340,303,14874,5,0,3:2:0:0:
233,350,15032,2,0,L|180:344,1,52.5
233,350,15190,2,0,L|299:343,2,52.5,0|0|8,3:2|0:0|0:0,0:0:0:0:
369,256,15506,2,0,L|387:204,2,52.5,0|0|0,3:2|0:0|0:0,0:0:0:0:
228,167,15822,2,0,L|287:144,1,52.5,8|0,0:0|3:0,0:0:0:0:
439,99,15980,1,0,3:0:0:0:
207,53,16137,5,0,3:0:0:0:
102,102,16295,2,0,L|97:170,1,52.5
167,196,16453,1,0,3:0:0:0:
114,202,16531,1,0,0:0:0:0:
62,208,16610,1,8,0:0:0:0:
201,280,16769,2,0,L|263:298,2,52.5,0|0|0,3:0|0:0|0:0,0:0:0:0:
60,325,17085,2,0,L|34:270,2,52.5,8|0|0,0:0|0:0|3:0,0:0:0:0:
119,330,17322,1,0,3:0:0:0:
291,333,17401,5,0,3:0:0:0:
399,302,17558,2,0,L|416:248,2,52.5,0|0|0,0:0|0:0|3:0,0:0:0:0:
250,246,17874,1,8,0:0:0:0:
361,217,18032,2,0,L|319:167,1,52.5,0|0,3:0|0:0,0:0:0:0:
269,165,18190,1,0,0:0:0:0:
139,124,18348,2,0,L|224:118,1,52.5,8|0,0:0|3:0,0:0:0:0:
370,92,18506,1,0,3:0:0:0:
106,44,18664,6,0,L|70:95,2,52.5,4|0|0,3:2|3:2|3:2,0:0:0:0:
186,78,18901,2,0,L|215:136,2,52.5,0|0|0,3:2|3:2|3:2,0:0:0:0:
106,211,19137,2,0,L|167:224,1,52.5,0|0,3:2|3:2,0:0:0:0:
339,265,19295,6,0,L|293:310,1,52.5,0|0,3:2|3:2,0:0:0:0:
243,302,19453,1,0,3:2:0:0:
177,317,19532,2,0,L|213:362,1,52.5,0|0,3:2|3:2,0:0:0:0:
269,365,19690,1,0,3:2:0:0:
188,350,19769,2,0,L|116:356,1,52.5,0|0,3:2|3:2,0:0:0:0:
313,301,19927,6,0,L|351:250,2,52.5,0|0|0,3:2|3:2|3:2,0:0:0:0:
233,248,20164,2,0,L|199:196,2,52.5,0|0|0,3:2|3:2|3:2,0:0:0:0:
314,203,20401,2,0,L|378:195,1,52.5,0|0,3:2|3:2,0:0:0:0:
176,154,20558,6,0,L|106:138,2,52.5,0|0|0,3:2|3:2|3:2,0:0:0:0:
354,110,20795,1,0,3:2:0:0:
302,99,20873,1,0,3:2:0:0:
251,89,20952,1,0,3:2:0:0:
418,50,21032,2,0,L|501:46,1,52.5,0|0,3:2|3:2,0:0:0:0:
238,39,21190,5,0,3:0:0:0:
215,56,21229,1,0,3:0:0:0:
203,82,21268,1,0,3:0:0:0:
204,110,21308,1,0,3:0:0:0:
219,135,21347,1,0,3:0:0:0:
243,150,21387,1,0,3:0:0:0:
271,152,21426,1,0,3:0:0:0:
456,190,21506,5,0,3:0:0:0:
473,212,21545,1,0,3:0:0:0:
479,240,21584,1,0,3:0:0:0:
473,268,21624,1,0,3:0:0:0:
454,290,21663,1,0,3:0:0:0:
428,301,21703,1,0,3:0:0:0:
400,300,21742,1,0,3:0:0:0:
185,347,21822,5,0,3:0:0:0:
213,349,21861,1,0,3:0:0:0:
242,352,21900,1,0,3:0:0:0:
271,355,21940,1,0,3:0:0:0:
299,358,21979,1,0,3:0:0:0:
328,361,22019,1,0,3:0:0:0:
357,364,22058,1,0,3:0:0:0:
151,310,22137,5,0,3:0:0:0:
122,310,22176,1,0,3:0:0:0:
97,296,22215,1,0,3:0:0:0:
81,272,22255,1,0,3:0:0:0:
79,244,22294,1,0,3:0:0:0:
90,218,22334,1,0,3:0:0:0:
112,200,22373,1,0,3:0:0:0:
313,145,22453,6,0,L|243:131,1,52.5,2|2,0:0|0:0,0:0:0:0:
326,106,22611,1,2,0:0:0:0:
189,66,22769,2,0,L|248:60,1,52.5,2|2,0:0|0:0,0:0:0:0:
176,43,22927,1,2,0:0:0:0:
413,39,23085,5,2,3:2:0:0:
438,82,23163,1,2,0:0:0:0:
419,128,23242,1,2,3:2:0:0:
369,140,23321,1,2,0:0:0:0:
289,200,23401,1,10,0:0:0:0:
352,228,23480,2,0,L|378:285,2,52.5,2|2|2,0:0|0:0|0:0,0:0:0:0:
118,309,23716,5,4,3:2:0:0:
16,249,23874,2,0,L|71:211,1,57.7500017623902
245,174,24032,2,0,L|183:152,1,57.7500017623902,0|0,3:2|0:0,0:0:0:0:
255,129,24190,2,0,L|265:68,1,57.7500017623902
87,40,24348,6,0,L|78:99,1,57.7500017623902,0|0,3:2|0:0,0:0:0:0:
148,143,24506,2,0,L|84:153,1,57.7500017623902
275,226,24664,2,0,L|229:279,1,57.7500017623902,0|0,3:2|0:0,0:0:0:0:
176,291,24822,2,0,L|114:303,1,57.7500017623902
317,342,24980,5,0,3:2:0:0:
380,320,25058,2,0,L|404:263,2,57.7500017623902
204,242,25295,2,0,L|262:226,1,57.7500017623902,0|0,3:2|0:0,0:0:0:0:
204,242,25453,2,0,L|144:223,1,57.7500017623902
332,171,25611,6,0,L|268:144,1,57.7500017623902,0|0,3:2|0:0,0:0:0:0:
332,171,25769,2,0,L|394:149,1,57.7500017623902
209,44,25927,2,0,L|203:121,1,57.7500017623902,0|0,3:2|0:0,0:0:0:0:
278,114,26085,2,0,L|283:186,1,57.7500017623902
101,185,26243,5,0,3:2:0:0:
76,234,26321,1,0,0:0:0:0:
100,284,26400,1,0,0:0:0:0:
155,295,26479,1,0,0:0:0:0:
307,345,26558,2,0,L|240:337,3,57.7500017623902,0|0|0|0,3:2|0:0|0:0|0:0,0:0:0:0:
414,264,26874,6,0,L|483:245,3,57.7500017623902,0|0|0|0,3:2|0:0|0:0|0:0,0:0:0:0:
300,199,27190,2,0,L|241:185,1,57.7500017623902,0|0,3:2|0:0,0:0:0:0:
316,150,27348,2,0,L|323:88,1,57.7500017623902
145,93,27506,6,0,L|195:57,1,57.7500017623902,0|0,3:2|0:0,0:0:0:0:
338,60,27664,1,0,0:0:0:0:
482,86,27743,1,0,0:0:0:0:
338,60,27822,1,0,3:2:0:0:
274,85,27901,2,0,L|244:137,2,57.7500017623902
455,42,28137,6,0,L|459:114,1,57.7500017623902,0|0,3:2|0:0,0:0:0:0:
388,119,28295,2,0,L|383:182,1,57.7500017623902
207,202,28453,2,0,L|200:260,1,57.7500017623902,0|0,3:2|0:0,0:0:0:0:
272,281,28611,2,0,L|281:353,1,57.7500017623902
101,330,28769,5,0,3:2:0:0:
37,305,28848,2,0,L|17:242,2,57.7500017623902
219,289,29085,2,0,L|144:288,3,57.7500017623902,0|0|0|0,3:2|0:0|0:0|0:0,0:0:0:0:
336,239,29401,6,0,L|344:178,1,57.7500017623902,0|0,3:2|0:0,0:0:0:0:
286,155,29558,2,0,L|347:152,1,57.7500017623902
166,134,29716,1,0,3:2:0:0:
135,88,29794,1,0,0:0:0:0:
157,37,29873,1,0,0:0:0:0:
212,30,29952,1,0,0:0:0:0:
388,110,30032,6,0,L|344:158,1,57.7500017623902,0|0,3:2|0:0,0:0:0:0:
284,172,30190,2,0,L|217:167,1,57.7500017623902
404,277,30348,2,0,L|323:280,1,57.7500017623902,0|0,3:2|0:0,0:0:0:0:
404,277,30506,2,0,L|474:278,1,57.7500017623902
291,348,30664,6,0,L|222:349,3,57.7500017623902,0|0|0|0,3:2|0:0|0:0|0:0,0:0:0:0:
409,327,30980,1,0,3:2:0:0:
472,302,31058,2,0,L|495:237,2,57.7500017623902
287,268,31295,6,0,L|280:202,1,57.7500017623902,0|0,3:2|0:0,0:0:0:0:
351,196,31453,2,0,L|368:98,1,57.7500017623902
185,121,31611,2,0,L|243:107,1,57.7500017623902,0|0,3:2|0:0,0:0:0:0:
173,99,31769,2,0,L|168:38,1,57.7500017623902
372,34,31927,5,0,3:2:0:0:
393,53,31966,1,0,0:0:0:0:
404,79,32005,1,0,0:0:0:0:
402,108,32045,1,0,0:0:0:0:
387,132,32084,1,0,0:0:0:0:
363,148,32124,1,0,0:0:0:0:
335,151,32163,1,0,0:0:0:0:
150,183,32243,5,0,3:2:0:0:
127,201,32282,1,0,0:0:0:0:
116,227,32321,1,0,0:0:0:0:
117,255,32361,1,0,0:0:0:0:
131,280,32400,1,0,0:0:0:0:
155,296,32440,1,0,0:0:0:0:
184,299,32479,1,0,0:0:0:0:
362,362,32558,6,0,L|369:288,1,57.7500017623902,0|0,3:2|0:0,0:0:0:0:
296,300,32716,2,0,L|282:223,1,57.7500017623902
462,210,32874,2,0,L|466:135,1,57.7500017623902,0|0,3:2|0:0,0:0:0:0:
395,114,33032,2,0,L|487:110,1,57.7500017623902
276,36,33190,2,0,L|313:95,1,57.7500017623902,2|2,0:0|0:0,0:0:0:0:
371,96,33348,1,2,0:0:0:0:
231,142,33506,2,0,L|113:191,1,115.50000352478,2|2,0:0|0:0,0:0:0:0:
431,239,33822,5,4,3:2:0:0:
181,292,33980,2,0,L|246:303,1,57.7500017623902,0|0,3:2|0:0,0:0:0:0:
412,252,34137,2,0,L|337:227,1,57.7500017623902,8|0,0:0|3:2,0:0:0:0:
180,188,34295,2,0,L|251:170,1,57.7500017623902,0|0,3:2|0:0,0:0:0:0:
59,151,34453,6,0,L|51:79,1,57.7500017623902,0|0,3:2|0:0,0:0:0:0:
229,22,34611,2,0,L|236:98,1,57.7500017623902
63,99,34769,1,8,0:0:0:0:
35,147,34847,1,0,0:0:0:0:
57,198,34926,1,0,0:0:0:0:
111,212,35005,1,0,0:0:0:0:
286,267,35085,6,0,L|242:315,1,57.7500017623902,0|0,3:2|0:0,0:0:0:0:
186,324,35243,2,0,L|128:335,1,57.7500017623902
306,333,35401,2,0,L|376:347,1,57.7500017623902,8|0,0:0|0:0,0:0:0:0:
191,244,35558,2,0,L|287:238,1,57.7500017623902
73,200,35716,6,0,L|62:133,1,57.7500017623902,0|0,3:2|0:0,0:0:0:0:
242,103,35874,2,0,L|176:79,1,57.7500017623902
366,53,36032,1,8,0:0:0:0:
429,82,36111,2,0,L|459:155,2,57.7500017623902
241,47,36348,6,0,L|233:113,1,57.7500017623902,0|0,3:2|0:0,0:0:0:0:
305,126,36506,2,0,L|311:209,1,57.7500017623902
131,214,36664,2,0,L|117:289,1,57.7500017623902,8|0,0:0|0:0,0:0:0:0:
300,319,36822,2,0,L|241:336,1,57.7500017623902
393,335,36980,2,0,L|453:342,1,57.7500017623902,0|0,3:2|0:0,0:0:0:0:
303,246,37137,2,0,L|368:233,1,57.7500017623902
182,201,37295,1,8,0:0:0:0:
148,156,37373,1,0,0:0:0:0:
168,105,37452,1,0,0:0:0:0:
222,94,37531,1,0,0:0:0:0:
398,58,37611,6,0,L|325:42,1,57.7500017623902,0|0,3:2|0:0,0:0:0:0:
196,49,37769,1,0,3:2:0:0:
52,88,37848,1,0,0:0:0:0:
196,125,37927,2,0,L|260:136,1,57.7500017623902,8|0,0:0|3:2,0:0:0:0:
182,160,38085,2,0,L|175:227,1,57.7500017623902,0|0,3:2|0:0,0:0:0:0:
351,271,38243,6,0,L|277:293,1,57.7500017623902,0|0,3:2|0:0,0:0:0:0:
116,308,38401,2,0,L|187:332,1,57.7500017623902,0|0,3:2|0:0,0:0:0:0:
344,320,38558,2,0,L|415:328,3,57.7500017623902,8|0|0|0,0:0|0:0|0:0|0:0,0:0:0:0:
205,278,38874,5,4,3:2:0:0:
141,270,38953,2,0,L|117:207,2,57.7500017623902
315,224,39190,2,0,L|224:208,1,57.7500017623902,8|0,0:0|0:0,0:0:0:0:
426,165,39348,2,0,L|440:88,1,57.7500017623902
267,128,39506,6,0,L|261:54,1,57.7500017623902,0|0,3:2|0:0,0:0:0:0:
93,32,39664,2,0,L|83:122,1,57.7500017623902
264,162,39822,2,0,L|224:219,1,57.7500017623902,8|0,0:0|0:0,0:0:0:0:
166,218,39980,2,0,L|102:218,1,57.7500017623902
287,318,40137,6,0,L|293:253,1,57.7500017623902,0|0,3:2|0:0,0:0:0:0:
221,250,40295,2,0,L|214:187,1,57.7500017623902
397,161,40453,2,0,L|407:93,1,57.7500017623902,8|0,0:0|0:0,0:0:0:0:
229,67,40611,2,0,L|294:57,1,57.7500017623902
113,114,40769,6,0,L|48:106,1,57.7500017623902,0|0,3:2|0:0,0:0:0:0:
232,167,40927,2,0,L|240:230,1,57.7500017623902,0|0,3:2|0:0,0:0:0:0:
62,288,41085,2,0,L|21:283,2,28.8750008811951,8|0|0,0:0|0:0|0:0,0:0:0:0:
132,324,41243,2,0,L|75:326,1,57.7500017623902
314,358,41401,6,0,P|377:348|356:249,1,173.250005287171,4|0,3:2|0:0,0:0:0:0:
191,228,41716,2,0,L|173:191,2,28.8750008811951
237,238,41835,1,0,0:0:0:0:
280,228,41874,2,0,L|296:197,2,28.8750008811951
78,246,42032,6,0,P|51:195|133:132,1,173.250005287171,4|0,3:2|0:0,0:0:0:0:
310,71,42348,2,0,L|257:41,1,57.7500017623902,2|2,0:0|0:0,0:0:0:0:
330,23,42506,1,2,0:0:0:0:
73,37,42664,6,0,P|61:82|152:147,1,173.250005287171,12|0,0:0|0:0,0:0:0:0:
360,207,42980,2,0,L|170:252,1,173.250005287171,12|0,0:0|0:0,0:0:0:0:
401,336,43295,2,0,P|452:309|398:223,1,173.250005287171,12|0,0:0|0:0,0:0:0:0:
194,180,43611,2,0,B|431:158|431:158|367:44,1,362.250006909371,12|0,0:0|0:0,0:0:0:0:
142,103,43927,5,4,3:2:0:0:
83,121,44006,2,0,L|58:179,2,52.5
259,181,44243,1,0,3:0:0:0:
200,199,44322,2,0,L|175:257,2,52.5
372,173,44558,5,0,3:0:0:0:
397,216,44636,1,0,0:0:0:0:
378,263,44715,1,0,0:0:0:0:
330,277,44794,1,0,0:0:0:0:
272,328,44874,2,0,L|345:334,1,52.5,0|0,3:0|0:0,0:0:0:0:
172,345,45032,2,0,L|89:344,1,52.5
292,298,45190,6,0,L|297:235,1,52.5,0|0,3:0|0:0,0:0:0:0:
222,234,45348,2,0,L|217:167,1,52.5
401,134,45506,2,0,L|334:118,1,52.5,0|0,3:0|0:0,0:0:0:0:
161,93,45664,2,0,L|205:49,1,52.5
256,36,45822,6,0,L|329:32,1,52.5,0|0,3:0|0:0,0:0:0:0:
130,66,45980,2,0,L|60:60,1,52.5
250,121,46137,1,0,3:0:0:0:
309,153,46216,2,0,L|335:212,2,52.5
119,202,46453,5,0,3:0:0:0:
106,251,46531,1,0,0:0:0:0:
133,294,46610,1,0,0:0:0:0:
183,305,46689,1,0,0:0:0:0:
359,343,46769,1,0,3:0:0:0:
301,338,46848,2,0,L|277:278,2,52.5
480,255,47085,6,0,L|384:237,1,52.5,0|0,3:0|0:0,0:0:0:0:
258,218,47243,2,0,L|196:214,1,52.5
279,172,47401,2,0,L|286:108,1,52.5,0|0,3:0|0:0,0:0:0:0:
89,45,47558,2,0,L|171:41,1,52.5
321,60,47716,6,0,L|285:104,1,52.5,0|0,3:0|0:0,0:0:0:0:
229,125,47874,2,0,L|139:125,1,52.5
355,177,48032,2,0,L|430:193,1,52.5,0|0,3:0|0:0,0:0:0:0:
228,216,48190,2,0,L|216:291,1,52.5
294,284,48348,6,0,L|329:342,1,52.5,0|0,3:0|0:0,0:0:0:0:
396,323,48506,2,0,L|456:330,1,52.5
276,347,48664,1,0,3:0:0:0:
245,306,48742,1,0,0:0:0:0:
262,259,48821,1,0,0:0:0:0:
312,248,48900,1,0,0:0:0:0:
478,221,48980,6,0,L|485:153,1,52.5,0|0,3:0|0:0,0:0:0:0:
301,131,49137,2,0,L|367:128,1,52.5,0|0,3:0|3:0,0:0:0:0:
177,81,49295,1,0,3:0:0:0:
119,62,49374,2,0,L|91:120,2,52.5
283,57,49611,6,0,L|340:42,1,52.5,4|0,3:2|0:0,0:0:0:0:
171,104,49769,2,0,L|162:160,1,52.5
236,188,49927,2,0,L|247:253,1,52.5,0|0,3:2|0:0,0:0:0:0:
67,290,50085,2,0,L|128:313,1,52.5
290,346,50243,5,0,3:2:0:0:
348,323,50322,2,0,L|375:273,2,52.5
180,231,50558,2,0,L|243:225,1,52.5,0|0,3:2|0:0,0:0:0:0:
410,217,50716,1,0,0:0:0:0:
435,172,50794,1,0,0:0:0:0:
416,125,50873,5,0,3:2:0:0:
368,110,50952,1,0,0:0:0:0:
310,105,51032,2,0,L|246:102,1,52.5
431,38,51190,1,0,3:2:0:0:
486,61,51269,2,0,L|502:119,2,52.5
309,44,51506,5,0,3:2:0:0:
285,89,51584,1,0,0:0:0:0:
302,137,51663,1,0,0:0:0:0:
349,157,51742,1,0,0:0:0:0:
194,138,51822,1,0,3:2:0:0:
170,183,51900,1,0,0:0:0:0:
187,231,51979,1,0,0:0:0:0:
234,251,52058,1,0,0:0:0:0:
404,254,52137,6,0,L|359:301,1,52.5,0|0,3:2|0:0,0:0:0:0:
308,324,52295,2,0,L|233:329,1,52.5
432,364,52453,1,0,3:2:0:0:
457,320,52531,1,0,0:0:0:0:
437,274,52610,1,0,0:0:0:0:
387,265,52689,1,0,0:0:0:0:
187,253,52769,6,0,L|181:190,1,52.5,8|0,0:0|0:0,0:0:0:0:
257,183,52927,2,0,L|252:120,1,52.5,0|0,3:2|0:0,0:0:0:0:
424,131,53085,2,0,L|431:65,1,52.5,8|0,0:0|0:0,0:0:0:0:
355,66,53243,2,0,L|362:13,1,52.5,0|0,3:2|0:0,0:0:0:0:
185,57,53401,2,0,L|122:57,1,52.5,8|0,0:0|0:0,0:0:0:0:
306,113,53558,1,8,0:0:0:0:
328,158,53636,1,0,0:0:0:0:
308,205,53715,1,0,0:0:0:0:
260,222,53794,1,0,0:0:0:0:
89,240,53874,6,0,P|74:310|168:341,1,157.5,4|0,3:2|0:0,0:0:0:0:
326,324,54190,1,0,3:2:0:0:
67,298,54348,1,4,3:2:0:0:
125,281,54427,2,0,L|150:226,2,52.5
298,243,54664,5,0,3:2:0:0:
324,199,54742,1,0,0:0:0:0:
309,150,54821,1,0,0:0:0:0:
263,128,54900,1,0,0:0:0:0:
205,109,54980,2,0,L|275:103,1,52.5,0|0,3:2|0:0,0:0:0:0:
450,79,55137,2,0,L|384:70,1,52.5
222,25,55295,6,0,L|217:85,1,52.5,0|0,3:2|0:0,0:0:0:0:
289,100,55453,2,0,L|294:163,1,52.5
463,212,55611,2,0,L|393:244,1,52.5,0|0,3:2|0:0,0:0:0:0:
236,318,55769,1,0,0:0:0:0:
211,273,55847,1,0,0:0:0:0:
230,226,55926,5,0,3:2:0:0:
279,212,56005,1,0,0:0:0:0:
340,198,56085,2,0,L|406:201,1,52.5
223,162,56243,2,0,L|158:146,1,52.5,0|0,3:2|0:0,0:0:0:0:
247,110,56401,2,0,L|256:23,1,52.5
73,34,56558,5,0,3:2:0:0:
52,80,56636,1,0,0:0:0:0:
75,125,56715,1,0,0:0:0:0:
125,135,56794,1,0,0:0:0:0:
289,193,56874,1,0,3:2:0:0:
226,216,56953,2,0,L|201:265,2,52.5
407,266,57190,6,0,L|479:268,1,52.5,0|0,3:2|0:0,0:0:0:0:
284,298,57348,2,0,L|231:305,1,52.5
284,298,57506,2,0,L|350:308,1,52.5,0|0,3:2|0:0,0:0:0:0:
164,262,57664,2,0,L|160:195,1,52.5
345,184,57822,6,0,L|352:120,1,52.5,0|0,3:2|0:0,0:0:0:0:
276,119,57980,2,0,L|284:61,1,52.5
96,37,58137,2,0,L|170:32,1,52.5,0|0,3:2|0:0,0:0:0:0:
326,58,58295,1,0,0:0:0:0:
333,108,58373,1,0,0:0:0:0:
303,150,58452,5,0,3:2:0:0:
253,158,58531,1,0,0:0:0:0:
194,198,58611,2,0,L|255:207,1,52.5
424,255,58769,1,0,3:2:0:0:
448,299,58847,1,0,0:0:0:0:
427,345,58926,1,0,0:0:0:0:
377,355,59005,1,0,0:0:0:0:
189,303,59085,6,0,L|224:247,1,52.5,8|0,0:0|0:0,0:0:0:0:
279,238,59243,2,0,L|335:227,1,52.5
139,211,59401,2,0,L|178:163,1,52.5,8|0,0:0|0:0,0:0:0:0:
232,147,59558,2,0,L|320:135,1,52.5
105,78,59716,2,0,L|207:72,1,52.5,8|0,0:0|0:0,0:0:0:0:
346,64,59874,2,0,L|286:59,1,52.5,0|8,0:0|0:0,0:0:0:0:
103,42,60032,2,8,L|40:40,1,52.5
189,93,60190,1,8,0:0:0:0:
326,107,60269,1,8,0:0:0:0:
123,143,60348,6,0,P|75:186|159:230,1,157.5,2|0,0:0|0:0,0:0:0:0:
300,176,60664,2,0,P|345:207|277:279,1,157.5,2|0,0:0|0:0,0:0:0:0:
212,345,60980,2,0,L|399:367,1,157.5,2|0,0:0|0:0,0:0:0:0:
178,311,61295,1,2,0:0:0:0:
83,246,61453,2,0,L|156:246,1,52.5
370,235,61611,6,0,P|409:180|345:134,1,157.5,4|0,3:2|0:0,0:0:0:0:
173,73,61927,2,0,L|214:68,1,26.25,2|0,1:0|0:0,0:0:0:0:
309,42,62085,2,0,L|345:40,1,26.25,2|0,1:0|0:0,0:0:0:0:
108,72,62243,5,8,0:0:0:0:
236,101,62401,2,0,L|244:147,1,26.25,2|0,1:0|0:0,0:0:0:0:
136,169,62558,2,0,L|137:214,1,26.25,2|0,1:0|0:0,0:0:0:0:
33,209,62716,2,0,L|24:248,1,26.25,2|0,1:0|0:0,0:0:0:0:
245,304,62874,6,0,L|278:308,1,26.25,0|0,3:2|0:0,0:0:0:0:
161,238,63032,2,0,L|203:235,1,26.25,2|0,1:0|0:0,0:0:0:0:
363,202,63190,2,0,L|401:200,1,26.25,2|0,1:0|0:0,0:0:0:0:
285,164,63348,2,0,L|254:164,1,26.25,2|0,1:0|0:0,0:0:0:0:
437,40,63506,5,8,0:0:0:0:
455,58,63545,1,0,0:0:0:0:
462,83,63584,1,0,0:0:0:0:
457,108,63624,1,0,0:0:0:0:
441,128,63663,1,0,0:0:0:0:
417,138,63703,1,0,0:0:0:0:
391,135,63742,1,0,0:0:0:0:
213,216,63822,2,0,L|383:237,1,157.5
142,337,64137,6,0,P|113:317|171:236,1,157.5,0|0,3:2|0:0,0:0:0:0:
342,179,64453,2,0,L|310:175,1,26.25,2|0,1:0|0:0,0:0:0:0:
213,155,64611,2,0,L|181:152,1,26.25,2|0,1:0|0:0,0:0:0:0:
396,89,64769,5,8,0:0:0:0:
268,42,64927,2,0,L|302:42,1,26.25,2|0,1:0|0:0,0:0:0:0:
401,67,65085,2,0,L|375:66,1,26.25,2|0,1:0|0:0,0:0:0:0:
268,43,65243,2,0,L|236:46,1,26.25,2|0,1:0|0:0,0:0:0:0:
438,140,65401,6,0,L|477:145,1,26.25,0|0,3:2|0:0,0:0:0:0:
369,219,65558,2,0,L|320:219,1,26.25,2|0,1:0|0:0,0:0:0:0:
148,295,65716,2,0,L|92:288,3,52.5,2|2|2|2,1:0|1:0|1:0|1:0,0:0:0:0:
251,240,66032,2,0,L|317:240,3,52.5,8|2|2|2,0:0|1:0|1:0|1:0,0:0:0:0:
106,192,66348,5,0,0:0:0:0:
89,172,66387,1,0,0:0:0:0:
83,146,66426,1,0,0:0:0:0:
90,121,66466,1,0,0:0:0:0:
108,102,66505,1,0,0:0:0:0:
132,94,66545,1,0,0:0:0:0:
158,98,66584,1,0,0:0:0:0:
371,156,66664,6,0,L|207:162,1,157.5,0|0,3:2|0:0,0:0:0:0:
378,237,66980,2,0,L|426:238,1,26.25,2|0,1:0|0:0,0:0:0:0:
311,298,67137,2,0,L|285:297,1,26.25,2|0,1:0|0:0,0:0:0:0:
99,339,67295,5,8,0:0:0:0:
221,314,67453,2,0,L|255:315,1,26.25,2|0,1:0|0:0,0:0:0:0:
145,243,67611,2,0,L|180:240,1,26.25,2|0,1:0|0:0,0:0:0:0:
270,180,67769,2,0,L|302:182,1,26.25,2|0,1:0|0:0,0:0:0:0:
472,122,67927,6,0,L|438:117,1,26.25,0|0,3:2|0:0,0:0:0:0:
350,110,68085,2,0,L|311:107,1,26.25,2|0,1:0|0:0,0:0:0:0:
144,53,68243,2,0,L|176:55,1,26.25,2|0,1:0|0:0,0:0:0:0:
267,43,68401,2,0,L|315:42,1,26.25,2|0,1:0|0:0,0:0:0:0:
110,112,68558,5,8,0:0:0:0:
80,123,68598,1,0,0:0:0:0:
52,136,68637,1,0,0:0:0:0:
62,166,68677,1,0,0:0:0:0:
42,180,68716,1,0,0:0:0:0:
69,197,68756,1,0,0:0:0:0:
34,216,68795,1,0,0:0:0:0:
227,239,68874,2,0,P|191:272|77:301,1,157.5
291,352,69190,6,0,P|342:354|360:262,1,157.5,0|0,3:2|0:0,0:0:0:0:
170,208,69506,2,0,L|144:205,1,26.25,2|0,1:0|0:0,0:0:0:0:
45,172,69664,2,0,L|71:169,1,26.25,2|0,1:0|0:0,0:0:0:0:
332,127,69822,5,8,0:0:0:0:
207,45,69980,2,0,L|196:73,1,26.25,2|0,1:0|0:0,0:0:0:0:
298,125,70137,2,0,L|300:155,1,26.25,2|0,1:0|0:0,0:0:0:0:
405,180,70295,2,0,L|421:211,1,26.25,2|0,1:0|0:0,0:0:0:0:
224,281,70453,6,0,L|259:287,1,26.25,0|0,3:2|0:0,0:0:0:0:
345,319,70611,2,0,L|382:320,1,26.25,2|0,1:0|0:0,0:0:0:0:
160,346,70769,2,0,L|156:283,1,52.5,2|2,1:0|1:0,0:0:0:0:
234,268,70927,2,0,L|231:208,1,52.5,2|2,1:0|1:0,0:0:0:0:
412,204,71085,6,0,L|422:136,1,52.5,8|2,0:0|1:0,0:0:0:0:
347,130,71243,2,0,L|350:72,1,52.5,2|2,1:0|1:0,0:0:0:0:
168,50,71401,1,0,0:0:0:0:
194,49,71440,1,0,0:0:0:0:
220,49,71479,1,0,0:0:0:0:
246,48,71519,1,0,0:0:0:0:
272,48,71558,1,0,0:0:0:0:
299,47,71598,1,0,0:0:0:0:
325,47,71637,1,0,0:0:0:0:
103,33,71716,5,4,3:2:0:0:
79,140,72072,1,0,0:0:0:0:
60,255,72348,1,2,0:0:0:0:
38,361,72664,1,2,0:0:0:0:
442,334,72980,6,0,P|466:258|405:228,1,140,4|2,3:2|0:0,0:0:0:0:
325,228,73295,1,2,0:0:0:0:
153,168,73611,2,0,L|272:165,1,105,2|2,0:0|0:0,0:0:0:0:
125,66,73927,2,0,P|99:133|156:167,1,140,0|8,3:2|0:0,0:0:0:0:
253,224,74243,5,0,3:2:0:0:
124,305,74453,1,2,0:0:0:0:
228,335,74558,2,0,P|267:269|224:244,1,140,2|2,0:0|0:0,0:0:0:0:
124,305,74874,1,0,3:0:0:0:
316,197,75085,1,8,0:0:0:0:
212,172,75190,1,0,3:0:0:0:
395,112,75401,1,0,3:0:0:0:
290,41,75506,6,0,P|267:113|319:138,1,140,0|2,3:0|0:0,0:0:0:0:
382,164,75822,1,2,0:0:0:0:
225,244,76032,1,2,0:0:0:0:
331,220,76137,1,8,0:0:0:0:
366,273,76243,1,8,0:0:0:0:
331,220,76348,1,8,0:0:0:0:
261,202,76453,1,8,0:0:0:0:
184,198,76558,1,8,0:0:0:0:
100,201,76664,1,8,0:0:0:0:
316,133,76769,6,0,L|377:132,1,52.5,4|0,3:2|0:0,0:0:0:0:
151,109,76927,2,0,L|83:102,1,52.5,0|0,3:2|0:0,0:0:0:0:
412,60,77243,2,0,L|464:60,1,52.5,0|0,3:2|0:0,0:0:0:0:
151,51,77558,2,0,L|71:49,1,52.5,0|0,3:2|0:0,0:0:0:0:
412,61,77874,2,0,L|449:65,1,35,0|0,3:2|3:2,0:0:0:0:
314,108,77980,1,0,3:2:0:0:
186,217,78032,6,0,L|289:232,2,105,4|0|0,3:2|0:0|0:0,0:0:0:0:
81,201,78506,1,0,3:2:0:0:
327,298,78664,2,0,L|211:309,2,105,0|0|0,0:0|0:0|3:2,0:0:0:0:
94,344,79137,6,0,L|87:218,1,105,0|0,3:2|0:0,0:0:0:0:
312,163,79453,2,0,L|193:144,1,105,0|0,3:2|0:0,0:0:0:0:
430,118,79769,2,0,L|448:6,1,105,0|0,3:2|0:0,0:0:0:0:
189,67,80085,1,0,3:2:0:0:
413,138,80243,2,0,L|348:125,1,52.5,0|0,3:2|3:2,0:0:0:0:
183,182,80401,2,0,L|284:193,1,52.5,0|0,3:2|0:0,0:0:0:0:
424,251,80558,6,0,L|315:258,1,105,4|0,3:2|0:0,0:0:0:0:
207,335,80874,2,0,L|324:332,1,105,0|0,0:0|3:2,0:0:0:0:
83,242,81190,2,0,L|203:249,2,105,0|0|0,0:0|0:0|3:2,0:0:0:0:
306,178,81664,6,0,L|326:107,2,52.5,0|0|0,3:2|0:0|0:0,0:0:0:0:
179,212,81980,1,0,0:0:0:0:
411,355,82137,2,0,L|416:222,1,105,0|0,3:2|0:0,0:0:0:0:
276,167,82453,2,0,L|387:162,1,105,0|0,3:2|0:0,0:0:0:0:
155,77,82769,2,0,L|225:78,1,52.5,0|0,3:2|0:0,0:0:0:0:
376,54,82927,1,0,0:0:0:0:
116,42,83085,6,0,L|236:62,2,105,12|0|0,0:0|3:2|3:2,0:0:0:0:
380,143,83558,1,12,0:0:0:0:
275,150,83715,1,0,3:2:0:0:
170,157,83873,1,0,3:2:0:0:
425,240,84032,5,12,0:0:0:0:
309,232,84190,1,0,3:2:0:0:
425,240,84348,1,0,3:2:0:0:
167,298,84506,1,12,0:0:0:0:
283,323,84664,1,0,3:2:0:0:
399,338,84822,1,0,3:2:0:0:
129,243,84980,6,0,L|248:241,1,105,2|2,0:0|0:0,0:0:0:0:
115,211,85295,2,0,L|110:106,1,105,2|2,0:0|0:0,0:0:0:0:
431,67,85611,5,12,0:0:0:0:
294,57,85769,1,0,3:2:0:0:
431,67,85927,1,0,3:2:0:0:
116,148,86085,1,12,0:0:0:0:
253,198,86243,1,0,3:2:0:0:
116,148,86401,5,0,3:2:0:0:
436,235,86558,1,12,0:0:0:0:
211,287,86716,1,0,3:2:0:0:
436,235,86874,1,0,3:2:0:0:
92,301,87032,1,12,0:0:0:0:
316,334,87190,1,0,3:2:0:0:
92,301,87348,1,0,3:2:0:0:
386,353,87506,5,0,0:0:0:0:
412,354,87545,1,0,0:0:0:0:
428,323,87584,1,0,0:0:0:0:
454,324,87623,1,0,0:0:0:0:
457,279,87663,1,0,0:0:0:0:
483,280,87702,1,0,0:0:0:0:
468,228,87742,1,0,0:0:0:0:
494,229,87781,1,0,0:0:0:0:
459,177,87821,1,0,0:0:0:0:
485,178,87860,1,0,0:0:0:0:
431,132,87900,1,0,0:0:0:0:
457,133,87939,1,0,0:0:0:0:
389,101,87979,1,0,0:0:0:0:
415,102,88018,1,0,0:0:0:0:
339,88,88058,1,0,0:0:0:0:
137,58,88137,5,0,3:0:0:0:
304,163,88453,2,0,L|182:162,1,105
311,252,88769,2,0,L|433:251,1,105,8|0,1:0|0:0,0:0:0:0:
181,337,89085,1,0,3:0:0:0:
288,317,89243,1,0,0:0:0:0:
157,292,89401,6,0,L|156:161,1,105
305,174,89716,2,0,L|183:138,1,105,0|0,3:0|0:0,0:0:0:0:
349,117,90032,2,0,L|359:5,1,105,8|0,1:0|0:0,0:0:0:0:
206,106,90348,2,0,L|278:128,1,52.5,0|0,3:2|3:2,0:0:0:0:
434,170,90506,1,0,3:2:0:0:
136,174,90664,6,0,L|131:237,1,52.5,4|0,3:2|3:2,0:0:0:0:
208,244,90822,2,0,L|213:307,1,52.5,0|0,3:2|3:2,0:0:0:0:
137,340,90980,2,0,L|201:349,1,52.5,0|0,3:2|3:2,0:0:0:0:
263,321,91137,2,0,L|202:315,1,52.5,0|0,3:2|3:2,0:0:0:0:
396,293,91295,6,0,L|452:282,1,52.5,0|0,3:2|3:2,0:0:0:0:
369,256,91453,2,0,L|363:193,1,52.5,0|0,3:2|3:2,0:0:0:0:
438,177,91611,2,0,L|365:165,1,52.5,0|0,3:2|3:2,0:0:0:0:
311,146,91769,2,0,L|385:144,1,52.5,0|0,3:2|3:2,0:0:0:0:
191,86,91927,6,0,L|176:58,2,26.25,0|0|0,3:2|3:2|3:2,0:0:0:0:
237,112,92045,1,0,3:2:0:0:
283,129,92085,2,0,L|306:163,2,26.25,0|0|0,3:2|3:2|3:2,0:0:0:0:
227,171,92203,1,0,3:2:0:0:
171,196,92243,2,0,L|150:217,2,26.25,0|0|0,3:2|3:2|3:2,0:0:0:0:
267,230,92361,1,0,3:2:0:0:
363,259,92401,2,0,L|406:254,2,26.25,0|0|0,3:2|3:2|3:2,0:0:0:0:
214,276,92519,1,0,3:2:0:0:
114,312,92558,6,0,L|87:313,2,26.25,0|0|0,3:2|3:2|3:2,0:0:0:0:
306,324,92677,1,0,3:2:0:0:
410,335,92716,2,0,L|446:336,2,26.25,0|0|0,3:2|3:2|3:2,0:0:0:0:
184,352,92874,5,2,0:0:0:0:
153,345,92913,1,2,0:0:0:0:
130,324,92952,1,2,0:0:0:0:
122,294,92992,1,2,0:0:0:0:
131,264,93031,1,2,0:0:0:0:
154,243,93071,1,2,0:0:0:0:
185,238,93110,1,2,0:0:0:0:
419,176,93190,6,0,L|478:163,2,57.7500017623902,4|0|0,3:2|0:0|0:0,0:0:0:0:
235,205,93427,2,0,L|278:253,1,57.7500017623902,0|8,0:0|0:0,0:0:0:0:
338,252,93585,1,0,0:0:0:0:
156,298,93664,2,0,L|94:325,1,57.7500017623902
307,357,93822,6,0,L|365:360,2,57.7500017623902,0|0|0,3:2|0:0|0:0,0:0:0:0:
122,315,94058,2,0,L|48:312,1,57.7500017623902,0|8,0:0|0:0,0:0:0:0:
64,312,94216,1,0,0:0:0:0:
238,211,94295,2,0,L|240:137,1,57.7500017623902
409,86,94453,6,0,L|361:34,1,57.7500017623902,0|0,3:2|0:0,0:0:0:0:
305,57,94611,1,0,0:0:0:0:
130,117,94690,2,0,L|171:164,1,57.7500017623902,0|8,0:0|0:0,0:0:0:0:
232,177,94848,1,0,0:0:0:0:
58,210,94927,2,0,L|47:272,1,57.7500017623902
227,318,95085,6,0,L|185:366,1,57.7500017623902,0|0,3:2|0:0,0:0:0:0:
123,339,95243,1,0,0:0:0:0:
306,303,95322,2,0,L|377:311,2,57.7500017623902,0|8|0,0:0|0:0|0:0,0:0:0:0:
131,248,95558,2,0,L|216:234,1,57.7500017623902
363,200,95716,6,0,L|273:179,1,57.7500017623902,0|0,3:2|0:0,0:0:0:0:
306,186,95874,1,0,0:0:0:0:
485,123,95953,2,0,L|440:78,1,57.7500017623902,0|8,0:0|0:0,0:0:0:0:
379,78,96111,1,0,0:0:0:0:
218,31,96190,2,0,L|307:46,1,57.7500017623902
105,126,96348,6,0,L|36:110,1,57.7500017623902,0|0,3:2|0:0,0:0:0:0:
105,126,96506,1,0,0:0:0:0:
326,302,96585,1,0,0:0:0:0:
326,302,96664,2,0,L|225:298,1,57.7500017623902,8|0,0:0|0:0,0:0:0:0:
93,301,96822,2,0,L|89:232,1,57.7500017623902
280,215,96980,6,0,L|202:205,2,57.7500017623902,0|0|0,3:2|0:0|0:0,0:0:0:0:
473,271,97216,2,0,L|401:285,2,57.7500017623902,0|8|0,0:0|0:0|0:0,0:0:0:0:
288,349,97453,2,0,L|278:293,1,57.7500017623902
458,227,97611,6,0,L|421:178,1,57.7500017623902,0|0,3:2|0:0,0:0:0:0:
358,166,97769,1,0,0:0:0:0:
187,138,97848,2,0,L|228:89,1,57.7500017623902,0|8,0:0|0:0,0:0:0:0:
290,78,98006,1,0,0:0:0:0:
112,38,98085,2,0,L|35:34,1,57.7500017623902
223,124,98243,5,0,3:2:0:0:
165,125,98321,1,0,0:0:0:0:
107,126,98400,1,0,0:0:0:0:
288,222,98480,2,0,L|350:237,2,57.7500017623902,0|8|0,0:0|0:0|0:0,0:0:0:0:
459,294,98716,2,0,L|473:355,1,57.7500017623902
295,325,98874,6,0,L|335:278,1,57.7500017623902,0|0,3:2|0:0,0:0:0:0:
398,251,99032,1,0,0:0:0:0:
219,230,99111,2,0,L|136:230,1,57.7500017623902,0|8,0:0|0:0,0:0:0:0:
161,230,99269,1,0,0:0:0:0:
328,142,99348,2,0,L|241:137,1,57.7500017623902
436,81,99506,6,0,L|496:107,2,57.7500017623902,0|0|0,3:2|0:0|0:0,0:0:0:0:
261,64,99743,2,0,L|325:50,2,57.7500017623902,0|8|0,0:0|0:0|0:0,0:0:0:0:
96,147,99980,2,0,L|162:170,1,57.7500017623902
326,228,100137,6,0,L|276:279,1,57.7500017623902,0|0,3:2|0:0,0:0:0:0:
227,292,100295,1,0,0:0:0:0:
396,338,100374,2,0,L|464:358,2,57.7500017623902,0|8|0,0:0|0:0|0:0,0:0:0:0:
214,308,100611,2,0,L|281:288,1,57.7500017623902
442,232,100769,5,4,3:2:0:0:
199,183,100927,1,4,3:2:0:0:
314,156,101085,1,0,0:0:0:0:
341,107,101163,1,0,0:0:0:0:
319,56,101242,1,0,0:0:0:0:
265,42,101321,1,0,0:0:0:0:
74,72,101401,1,4,3:2:0:0:
307,206,101558,1,4,3:2:0:0:
180,240,101716,1,0,0:0:0:0:
425,305,101874,2,0,L|356:290,1,57.7500017623902
181,338,102032,6,0,L|502:321,1,231.000007049561,4|0,3:2|0:0,0:0:0:0:
271,280,102269,2,0,L|11:246,1,231.000007049561,4|0,3:2|0:0,0:0:0:0:
228,199,102506,2,0,L|293:191,1,57.7500017623902,4|0,3:2|0:0,0:0:0:0:
130,108,102664,2,0,L|200:97,1,57.7500017623902
357,81,102822,5,2,1:0:0:0:
212,142,102901,1,2,1:0:0:0:
72,189,102980,1,2,1:0:0:0:
58,217,103019,1,0,0:0:0:0:
56,248,103058,1,0,0:0:0:0:
67,277,103098,1,0,0:0:0:0:
93,300,103137,1,0,0:0:0:0:
123,314,103177,1,0,0:0:0:0:
156,318,103216,1,0,0:0:0:0:
350,314,103295,6,0,L|316:259,1,57.7500017623902,4|0,3:2|0:0,0:0:0:0:
255,251,103453,1,0,0:0:0:0:
427,212,103532,2,0,L|495:205,2,57.7500017623902,0|8|0,0:0|0:0|0:0,0:0:0:0:
248,196,103769,2,0,L|244:125,1,57.7500017623902
66,99,103927,6,0,L|110:53,1,57.7500017623902,0|0,3:2|0:0,0:0:0:0:
171,45,104085,1,0,0:0:0:0:
345,97,104164,2,0,L|301:139,1,57.7500017623902,0|8,0:0|0:0,0:0:0:0:
239,141,104322,1,0,0:0:0:0:
416,203,104401,2,0,L|481:219,1,57.7500017623902
297,296,104558,6,0,L|234:297,2,57.7500017623902,0|0|0,3:2|0:0|0:0,0:0:0:0:
119,344,104795,2,0,L|51:341,2,57.7500017623902,0|8|0,0:0|0:0|0:0,0:0:0:0:
292,332,105032,2,0,L|292:257,1,57.7500017623902
477,229,105190,6,0,L|431:187,1,57.7500017623902,0|0,3:2|0:0,0:0:0:0:
370,171,105348,1,0,0:0:0:0:
199,139,105427,2,0,L|238:96,1,57.7500017623902,0|8,0:0|0:0,0:0:0:0:
302,94,105585,1,0,0:0:0:0:
474,54,105664,2,0,L|395:47,1,57.7500017623902
231,58,105822,6,0,L|304:68,2,57.7500017623902,0|0|0,3:2|0:0|0:0,0:0:0:0:
54,151,106058,2,0,L|118:167,2,57.7500017623902,0|8|0,0:0|0:0|0:0,0:0:0:0:
233,206,106295,2,0,L|241:288,1,57.7500017623902
57,306,106453,6,0,L|98:360,1,57.7500017623902,0|0,3:2|0:0,0:0:0:0:
156,353,106611,1,0,0:0:0:0:
327,310,106690,2,0,L|247:311,1,57.7500017623902,0|8,0:0|0:0,0:0:0:0:
269,310,106848,1,0,0:0:0:0:
446,245,106927,2,0,L|447:174,1,57.7500017623902
268,149,107085,5,0,3:2:0:0:
324,137,107163,1,0,0:0:0:0:
381,126,107242,1,0,0:0:0:0:
198,104,107322,1,0,0:0:0:0:
141,93,107400,1,8,0:0:0:0:
84,82,107479,1,0,0:0:0:0:
245,30,107558,2,0,L|247:95,1,57.7500017623902
410,170,107716,6,0,L|477:158,2,57.7500017623902,0|0|0,3:2|0:0|0:0,0:0:0:0:
247,238,107953,2,0,L|171:221,2,57.7500017623902,0|8|0,0:0|0:0|0:0,0:0:0:0:
74,250,108190,2,0,L|63:330,1,57.7500017623902
251,343,108348,6,0,L|214:291,1,57.7500017623902,0|0,3:2|0:0,0:0:0:0:
153,283,108506,1,0,0:0:0:0:
323,257,108585,2,0,L|406:283,2,57.7500017623902,0|8|0,0:0|0:0|0:0,0:0:0:0:
491,206,108822,2,0,L|497:132,1,57.7500017623902
316,120,108980,6,0,L|308:61,1,57.7500017623902,0|0,3:2|0:0,0:0:0:0:
373,43,109137,1,0,0:0:0:0:
198,100,109216,2,0,L|135:83,2,57.7500017623902,0|8|0,0:0|0:0|0:0,0:0:0:0:
377,194,109453,2,0,L|307:209,1,57.7500017623902
136,248,109611,6,0,L|173:299,1,57.7500017623902,0|0,3:2|0:0,0:0:0:0:
235,305,109769,1,0,0:0:0:0:
409,304,109848,2,0,L|371:355,1,57.7500017623902,0|8,0:0|0:0,0:0:0:0:
310,348,110006,1,0,0:0:0:0:
121,333,110085,2,0,L|107:253,1,57.7500017623902
280,197,110243,5,0,3:2:0:0:
222,194,110321,1,0,0:0:0:0:
164,192,110400,1,0,0:0:0:0:
334,98,110480,2,0,L|272:104,2,57.7500017623902,0|8|0,0:0|0:0|0:0,0:0:0:0:
496,46,110716,2,0,L|407:34,1,57.7500017623902
242,149,110874,6,0,L|164:148,1,57.7500017623902,0|0,3:2|0:0,0:0:0:0:
338,103,111032,1,8,0:0:0:0:
182,77,111111,2,0,L|117:78,1,57.7500017623902,8|0,0:0|0:0,0:0:0:0:
124,77,111269,1,8,0:0:0:0:
270,181,111348,2,0,L|271:256,1,57.7500017623902,8|0,0:0|0:0,0:0:0:0:
439,301,111506,6,0,L|443:240,1,57.7500017623902,0|0,3:2|0:0,0:0:0:0:
300,320,111664,1,8,0:0:0:0:
462,336,111743,2,0,L|470:261,1,57.7500017623902,8|0,0:0|0:0,0:0:0:0:
409,272,111901,1,8,0:0:0:0:
243,237,111980,2,0,L|317:213,1,57.7500017623902,8|0,0:0|0:0,0:0:0:0:
468,187,112137,6,0,L|395:159,1,57.7500017623902,0|0,3:2|0:0,0:0:0:0:
266,137,112295,1,8,0:0:0:0:
121,113,112374,2,0,L|189:109,1,57.7500017623902,8|0,0:0|0:0,0:0:0:0:
178,109,112532,1,8,0:0:0:0:
30,48,112611,2,0,L|108:31,1,57.7500017623902,8|0,0:0|0:0,0:0:0:0:
269,79,112769,6,0,L|208:72,1,57.7500017623902,0|0,3:2|0:0,0:0:0:0:
65,150,112927,1,8,0:0:0:0:
214,212,113006,2,0,L|301:229,2,57.7500017623902,8|0|8,0:0|0:0|0:0,0:0:0:0:
369,293,113243,2,0,L|477:301,1,57.7500017623902,8|0,0:0|0:0,0:0:0:0:
199,348,113401,5,4,3:2:0:0:
83,349,113558,2,0,L|79:222,1,115.50000352478,0|0,3:2|0:0,0:0:0:0:
306,199,113874,1,0,3:2:0:0:
189,159,114032,2,0,L|150:158,2,28.8750008811951,0|0|0,3:2|0:0|0:0,0:0:0:0:
259,110,114190,2,0,L|302:111,2,28.8750008811951
79,75,114348,5,0,3:2:0:0:
196,33,114506,2,0,L|78:24,1,115.50000352478,0|0,3:2|0:0,0:0:0:0:
345,89,114822,2,0,L|226:98,2,115.50000352478,0|0|0,3:2|3:2|0:0,0:0:0:0:
118,147,115295,6,0,P|77:166|118:209,1,115.50000352478,0|0,3:2|0:0,0:0:0:0:
279,261,115532,2,0,L|144:274,1,115.50000352478,0|0,3:2|0:0,0:0:0:0:
345,319,115769,2,0,L|408:322,1,57.7500017623902,0|0,3:2|0:0,0:0:0:0:
170,355,115927,6,0,P|143:333|201:239,1,173.250005287171,0|0,3:2|0:0,0:0:0:0:
379,174,116243,1,4,3:2:0:0:
264,143,116401,2,0,L|186:130,1,57.7500017623902
418,32,116558,2,0,P|456:87|381:147,1,173.250005287171,2|0,0:0|0:0,0:0:0:0:
190,242,116874,2,0,L|314:257,1,115.50000352478,4|0,3:2|0:0,0:0:0:0:
59,319,117190,6,0,L|134:325,1,57.7500017623902,2|0,0:0|0:0,0:0:0:0:
44,290,117348,1,2,0:0:0:0:
286,267,117506,2,0,P|251:215|116:183,1,173.250005287171,4|0,3:2|0:0,0:0:0:0:
326,120,117822,1,0,3:2:0:0:
98,46,117980,2,0,P|58:88|137:164,1,173.250005287171,4|0,3:2|0:0,0:0:0:0:
345,186,118295,6,0,P|401:221|336:298,1,173.250005287171,4|0,3:2|0:0,0:0:0:0:
166,344,118611,1,0,3:2:0:0:
51,318,118769,1,0,3:2:0:0:
283,289,118927,1,0,3:2:0:0:
168,267,119085,1,0,3:2:0:0:
400,218,119243,1,0,3:2:0:0:
166,168,119401,2,0,L|98:160,1,57.7500017623902,0|0,3:2|3:2,0:0:0:0:
299,111,119558,2,0,L|379:112,1,57.7500017623902,0|0,3:2|3:2,0:0:0:0:
109,75,119716,5,4,3:2:0:0:
109,75,120032,2,0,L|314:202,2,210,2|2|2,0:0|0:0|0:0,0:0:0:0:
362,106,120980,6,0,L|370:178,1,52.5
286,178,121137,2,0,L|279:236,1,52.5
362,251,121295,1,0,0:0:0:0:
388,294,121373,1,0,0:0:0:0:
370,342,121452,1,0,0:0:0:0:
322,358,121531,1,0,0:0:0:0:
241,352,121611,6,0,L|180:354,1,52.5
268,304,121769,2,0,L|277:230,1,52.5
212,240,121927,2,0,L|207:176,1,52.5
288,144,122085,2,0,L|219:140,1,52.5
156,129,122243,5,0,0:0:0:0:
99,109,122322,2,0,L|81:58,2,52.5
180,171,122558,2,0,L|239:175,1,52.5
180,171,122716,2,0,L|108:167,1,52.5
201,235,122874,6,0,L|207:296,1,52.5
126,323,123032,1,0,0:0:0:0:
204,355,123111,1,0,0:0:0:0:
245,324,123189,1,0,0:0:0:0:
254,273,123268,1,0,0:0:0:0:
227,230,123347,1,0,0:0:0:0:
177,217,123426,1,0,0:0:0:0:
341,195,123506,6,0,L|400:191,1,52.5
316,161,123664,2,0,L|308:101,1,52.5
387,92,123822,1,0,0:0:0:0:
446,76,123901,2,0,L|469:17,2,52.5
269,147,124137,6,0,L|207:147,1,52.5
291,97,124295,1,0,0:0:0:0:
314,142,124373,1,0,0:0:0:0:
294,188,124452,1,0,0:0:0:0:
245,203,124531,1,0,0:0:0:0:
184,248,124611,2,0,L|244:253,1,52.5
418,270,124769,6,0,L|378:323,1,52.5,2|2,0:0|0:0,0:0:0:0:
327,321,124927,1,2,0:0:0:0:
187,329,125085,2,0,L|223:276,1,52.5,2|2,0:0|0:0,0:0:0:0:
278,270,125243,1,2,3:2:0:0:
330,249,125322,1,0,0:0:0:0:
161,177,125401,1,2,3:0:0:0:
274,150,125558,1,0,3:2:0:0:
49,37,125716,2,0,P|26:92|126:147,1,157.5,8|0,0:0|0:0,0:0:0:0:
315,253,126032,6,0,L|375:261,1,57.7500017623902,4|0,3:2|0:0,0:0:0:0:
180,326,126190,2,0,L|97:316,1,57.7500017623902
306,328,126348,2,0,L|310:268,1,57.7500017623902,8|0,0:0|0:0,0:0:0:0:
238,245,126506,2,0,L|227:179,1,57.7500017623902
53,170,126664,6,0,L|138:158,1,57.7500017623902,0|0,3:2|0:0,0:0:0:0:
291,136,126822,2,0,L|259:77,1,57.7500017623902
200,72,126980,2,0,L|150:39,1,57.7500017623902,8|0,0:0|0:0,0:0:0:0:
330,49,127137,2,0,L|393:42,1,57.7500017623902
214,127,127295,5,0,3:2:0:0:
151,145,127374,2,0,L|124:202,2,57.7500017623902
318,244,127611,2,0,L|237:235,1,57.7500017623902,8|0,0:0|0:0,0:0:0:0:
424,302,127769,2,0,L|492:302,1,57.7500017623902
321,328,127927,6,0,L|248:311,1,57.7500017623902,0|0,3:2|0:0,0:0:0:0:
337,283,128085,2,0,L|345:207,1,57.7500017623902
169,201,128243,1,8,0:0:0:0:
144,150,128321,1,0,0:0:0:0:
171,102,128400,1,0,0:0:0:0:
226,95,128479,1,0,0:0:0:0:
404,52,128558,6,0,L|344:44,1,57.7500017623902,0|0,3:2|0:0,0:0:0:0:
169,53,128716,2,0,L|101:44,1,57.7500017623902
281,68,128874,2,0,L|344:68,3,57.7500017623902,8|0|0|0,0:0|0:0|0:0|0:0,0:0:0:0:
169,115,129190,6,0,L|160:180,1,57.7500017623902,0|0,3:2|0:0,0:0:0:0:
330,193,129348,2,0,L|339:253,1,57.7500017623902
264,251,129506,2,0,L|256:327,1,57.7500017623902,8|0,0:0|0:0,0:0:0:0:
434,345,129664,2,0,L|365:348,1,57.7500017623902
210,310,129822,6,0,L|139:309,1,57.7500017623902,0|0,3:2|0:0,0:0:0:0:
299,249,129980,1,0,0:0:0:0:
441,203,130058,2,0,L|372:197,1,57.7500017623902,0|8,0:0|0:0,0:0:0:0:
171,177,130216,2,0,L|212:128,1,57.7500017623902
274,131,130374,1,0,0:0:0:0:
450,77,130453,6,0,L|370:70,3,57.7500017623902,0|0|0|0,3:2|0:0|0:0|0:0,0:0:0:0:
216,47,130769,2,0,L|291:46,3,57.7500017623902,8|0|0|0,0:0|0:0|0:0|0:0,0:0:0:0:
443,145,131085,6,0,L|386:161,1,57.7500017623902,0|0,3:2|0:0,0:0:0:0:
222,221,131243,2,0,L|214:278,1,57.7500017623902
386,282,131401,2,0,L|351:329,1,57.7500017623902,8|0,0:0|0:0,0:0:0:0:
287,337,131558,2,0,L|212:338,1,57.7500017623902
410,341,131716,6,0,L|478:348,1,57.7500017623902,0|0,3:2|0:0,0:0:0:0:
296,285,131874,1,0,0:0:0:0:
232,265,131953,2,0,L|215:204,2,57.7500017623902,0|8|0,0:0|0:0|0:0,0:0:0:0:
412,177,132190,2,0,L|347:174,1,57.7500017623902
173,146,132348,6,0,L|251:137,1,57.7500017623902,0|0,3:2|0:0,0:0:0:0:
302,113,132506,2,0,L|237:112,1,57.7500017623902
422,49,132664,2,0,L|431:108,1,57.7500017623902,8|0,0:0|0:0,0:0:0:0:
254,186,132822,2,0,L|328:220,1,57.7500017623902
127,221,132980,6,0,L|130:278,1,57.7500017623902,0|0,3:2|0:0,0:0:0:0:
203,282,133137,2,0,L|215:343,1,57.7500017623902
46,356,133295,1,8,0:0:0:0:
24,304,133373,1,0,0:0:0:0:
53,257,133452,1,0,0:0:0:0:
109,252,133531,1,0,0:0:0:0:
292,211,133611,6,0,L|210:198,1,57.7500017623902,0|0,3:2|0:0,0:0:0:0:
53,167,133769,2,0,L|145:164,1,57.7500017623902
291,91,133927,1,8,0:0:0:0:
355,112,134006,2,0,L|386:173,2,57.7500017623902
178,63,134243,6,0,L|246:61,1,57.7500017623902,0|0,3:2|0:0,0:0:0:0:
406,48,134401,2,0,L|331:45,1,57.7500017623902
286,76,134558,2,0,L|359:81,1,57.7500017623902,8|0,0:0|0:0,0:0:0:0:
171,145,134716,2,0,L|162:207,1,57.7500017623902
333,258,134874,6,0,L|393:266,1,57.7500017623902,0|0,3:2|0:0,0:0:0:0:
217,309,135032,2,0,L|141:307,1,57.7500017623902
310,279,135190,1,8,0:0:0:0:
457,259,135269,2,0,L|462:202,1,57.7500017623902
401,192,135427,1,0,0:0:0:0:
211,229,135506,5,2,0:0:0:0:
172,187,135584,1,2,0:0:0:0:
172,131,135663,1,2,0:0:0:0:
210,90,135742,1,2,0:0:0:0:
267,86,135821,1,2,0:0:0:0:
138,46,135980,1,2,0:0:0:0:
428,50,136137,5,4,3:2:0:0:
285,152,136216,2,0,L|217:150,1,57.7500017623902,0|0,3:2|0:0,0:0:0:0:
82,191,136374,1,0,3:2:0:0:
225,235,136453,1,8,0:0:0:0:
256,280,136531,1,0,0:0:0:0:
237,332,136610,1,0,0:0:0:0:
183,347,136689,1,0,0:0:0:0:
359,323,136769,6,0,L|420:322,1,57.7500017623902,0|0,3:2|0:0,0:0:0:0:
244,289,136927,2,0,L|251:212,1,57.7500017623902
318,216,137085,2,0,L|331:149,1,57.7500017623902,8|0,0:0|0:0,0:0:0:0:
149,150,137243,2,0,L|77:138,1,57.7500017623902,0|0,3:2|0:0,0:0:0:0:
263,102,137401,6,0,L|332:94,1,57.7500017623902,0|0,3:2|0:0,0:0:0:0:
251,35,137558,2,0,L|248:128,1,57.7500017623902
421,164,137716,2,0,L|361:170,1,57.7500017623902,8|0,0:0|0:0,0:0:0:0:
199,240,137874,2,0,L|299:255,1,57.7500017623902
94,266,138032,5,0,3:2:0:0:
28,269,138111,2,0,L|13:333,2,57.7500017623902
194,302,138348,2,0,L|203:234,1,57.7500017623902,8|0,0:0|0:0,0:0:0:0:
132,232,138506,2,0,L|129:162,1,57.7500017623902
306,147,138664,6,0,L|377:145,1,57.7500017623902,0|0,3:2|0:0,0:0:0:0:
185,82,138822,2,0,L|254:79,1,57.7500017623902
66,30,138980,1,8,0:0:0:0:
50,83,139058,1,0,0:0:0:0:
79,131,139137,1,0,0:0:0:0:
134,143,139216,1,0,0:0:0:0:
307,226,139295,6,0,L|246:235,1,57.7500017623902,0|0,3:2|0:0,0:0:0:0:
86,294,139453,2,0,L|133:340,1,57.7500017623902
190,336,139611,2,0,L|260:341,1,57.7500017623902,8|0,0:0|0:0,0:0:0:0:
71,353,139769,2,0,L|65:269,1,57.7500017623902
244,229,139927,6,0,L|320:236,1,57.7500017623902,0|0,3:2|0:0,0:0:0:0:
153,172,140085,1,0,3:2:0:0:
14,117,140164,2,0,L|99:111,1,57.7500017623902,0|8,0:0|0:0,0:0:0:0:
217,94,140322,1,0,3:2:0:0:
359,57,140401,2,0,L|291:51,1,57.7500017623902,0|0,3:2|0:0,0:0:0:0:
130,82,140558,6,0,L|194:98,1,57.7500017623902,0|0,3:2|0:0,0:0:0:0:
361,151,140716,2,0,L|451:158,1,57.7500017623902,0|0,3:2|0:0,0:0:0:0:
187,202,140874,5,8,0:0:0:0:
158,205,140913,1,0,0:0:0:0:
137,223,140952,1,0,0:0:0:0:
130,251,140992,1,0,0:0:0:0:
140,277,141031,1,0,0:0:0:0:
164,293,141071,1,0,0:0:0:0:
192,293,141110,1,0,0:0:0:0:
367,335,141190,6,0,L|296:337,1,57.7500017623902,4|0,3:2|0:0,0:0:0:0:
149,360,141348,2,0,L|87:359,1,57.7500017623902
277,337,141506,2,0,L|286:269,1,57.7500017623902,8|0,0:0|0:0,0:0:0:0:
216,261,141664,2,0,L|209:199,1,57.7500017623902
32,178,141822,6,0,L|102:162,1,57.7500017623902,0|0,3:2|0:0,0:0:0:0:
264,141,141980,1,0,0:0:0:0:
327,132,142058,2,0,L|354:73,2,57.7500017623902,0|8|0,0:0|0:0|0:0,0:0:0:0:
148,41,142295,2,0,L|141:110,1,57.7500017623902
318,182,142453,6,0,L|280:239,1,57.7500017623902,0|0,3:2|0:0,0:0:0:0:
221,238,142611,1,0,0:0:0:0:
392,285,142690,2,0,L|465:295,2,57.7500017623902,0|8|0,0:0|0:0|0:0,0:0:0:0:
223,320,142927,2,0,L|305:339,2,57.7500017623902,0|0|0,0:0|0:0|3:2,0:0:0:0:
50,294,143164,6,0,L|124:286,1,57.7500017623902
254,262,143322,1,0,0:0:0:0:
107,287,143401,1,8,0:0:0:0:
76,242,143479,1,0,0:0:0:0:
99,191,143558,1,0,0:0:0:0:
153,185,143637,1,0,0:0:0:0:
372,228,143716,6,0,P|426:198|364:123,1,173.250005287171,4|0,3:2|0:0,0:0:0:0:
190,78,144032,1,0,0:0:0:0:
219,75,144071,1,0,0:0:0:0:
248,76,144110,1,0,0:0:0:0:
277,76,144150,1,0,0:0:0:0:
306,75,144189,1,0,0:0:0:0:
335,75,144229,1,0,0:0:0:0:
363,76,144268,1,0,0:0:0:0:
161,227,144348,6,0,P|110:192|178:126,1,173.250005287171,4|0,3:2|0:0,0:0:0:0:
352,118,144664,2,0,L|267:107,1,57.7500017623902,2|2,0:0|0:0,0:0:0:0:
363,76,144822,1,2,0:0:0:0:
106,159,144980,6,0,P|76:227|171:275,1,173.250005287171,12|0,0:0|0:0,0:0:0:0:
325,322,145295,2,0,P|386:309|345:233,1,173.250005287171,12|0,0:0|0:0,0:0:0:0:
175,231,145611,2,0,P|130:178|193:111,1,173.250005287171,12|0,0:0|0:0,0:0:0:0:
381,73,145927,2,0,B|155:73|155:73|209:182,1,346.500010574341,12|0,0:0|0:0,0:0:0:0:
447,150,146243,5,4,3:2:0:0:
472,195,146323,1,0,3:2:0:0:
477,247,146403,1,0,3:2:0:0:
461,296,146483,1,0,3:2:0:0:
426,336,146563,1,0,3:2:0:0:
379,357,146648,1,0,3:2:0:0:
327,359,146734,1,0,3:2:0:0:
279,339,146820,1,0,3:2:0:0:
242,302,146905,1,0,3:2:0:0:
224,253,146992,1,0,3:2:0:0:
227,201,147079,1,0,3:2:0:0:
250,154,147166,1,0,3:2:0:0:
66,122,147253,5,0,3:2:0:0:
41,167,147346,1,0,3:2:0:0:
36,219,147440,1,0,3:2:0:0:
52,268,147534,1,0,3:2:0:0:
87,308,147628,1,0,3:2:0:0:
134,329,147721,1,0,3:2:0:0:
186,331,147815,1,0,3:2:0:0:
234,311,147909,1,0,3:2:0:0:
271,274,148003,1,0,3:2:0:0:
289,225,148097,1,0,3:2:0:0:
286,173,148192,1,0,3:2:0:0:
263,126,148287,1,0,3:2:0:0:
72,53,148382,5,0,3:2:0:0:
51,100,148482,1,0,3:2:0:0:
47,153,148582,1,0,3:2:0:0:
62,203,148682,1,0,3:2:0:0:
94,244,148782,1,0,3:2:0:0:
138,273,148878,1,0,3:2:0:0:
188,284,148975,1,0,3:2:0:0:
240,278,149072,1,0,3:2:0:0:
415,199,149169,5,0,0:0:0:0:
453,201,149218,1,0,0:0:0:0:
415,199,149267,1,0,0:0:0:0:
255,195,149316,1,0,0:0:0:0:
106,197,149365,1,0,0:0:0:0:
68,197,149414,1,0,0:0:0:0:
106,197,149463,1,0,0:0:0:0:
255,195,149512,1,0,0:0:0:0:
415,199,149561,5,0,0:0:0:0:
453,201,149611,1,0,0:0:0:0:
415,199,149662,1,0,0:0:0:0:
255,195,149713,1,0,0:0:0:0:
106,197,149763,1,0,0:0:0:0:
68,197,149814,1,0,0:0:0:0:
106,197,149865,1,0,0:0:0:0:
255,195,149915,1,0,0:0:0:0:
415,199,149966,5,0,0:0:0:0:
453,201,150016,1,0,0:0:0:0:
415,199,150067,1,0,0:0:0:0:
255,195,150118,1,0,0:0:0:0:
106,197,150168,1,0,0:0:0:0:
68,197,150219,1,0,0:0:0:0:
106,197,150270,1,0,0:0:0:0:
255,195,150320,1,0,0:0:0:0:
415,199,150371,5,0,0:0:0:0:
453,201,150421,1,0,0:0:0:0:
415,199,150472,1,0,0:0:0:0:
255,195,150523,1,0,0:0:0:0:
106,197,150573,1,0,0:0:0:0:
68,197,150624,1,0,0:0:0:0:
106,197,150675,1,0,0:0:0:0:
255,195,150725,1,0,0:0:0:0:
415,199,150777,5,0,0:0:0:0:
438,209,150802,1,0,0:0:0:0:
447,228,150827,1,0,0:0:0:0:
438,209,150853,1,0,0:0:0:0:
415,199,150878,1,0,0:0:0:0:
255,195,150929,1,0,0:0:0:0:
95,199,150979,5,0,0:0:0:0:
72,209,151004,1,0,0:0:0:0:
63,228,151029,1,0,0:0:0:0:
72,209,151055,1,0,0:0:0:0:
95,199,151080,1,0,0:0:0:0:
255,195,151131,1,0,0:0:0:0:
415,199,151182,5,0,0:0:0:0:
438,209,151207,1,0,0:0:0:0:
447,228,151232,1,0,0:0:0:0:
438,209,151258,1,0,0:0:0:0:
415,199,151283,1,0,0:0:0:0:
255,195,151334,1,0,0:0:0:0:
95,199,151384,5,0,0:0:0:0:
72,209,151410,1,0,0:0:0:0:
63,228,151436,1,0,0:0:0:0:
72,209,151461,1,0,0:0:0:0:
95,199,151486,1,0,0:0:0:0:
255,195,151536,1,0,0:0:0:0:
424,324,151586,6,0,L|414:180,1,125.999996154785,0|0,3:2|3:2,0:0:0:0:
118,325,151973,2,0,P|68:246|125:186,1,188.999994232178,8|0,0:0|0:0,0:0:0:0:
353,106,152360,6,0,L|445:110,3,68.2499968757631,4|0|0|0,3:2|0:0|0:0|0:0,0:0:0:0:
217,44,152760,2,0,L|296:46,3,68.2499968757631,0|0|0|0,3:2|0:0|0:0|0:0,0:0:0:0:
96,105,153160,6,0,L|26:100,1,68.2499968757631,0|0,3:2|0:0,0:0:0:0:
227,205,153360,2,0,L|155:207,1,68.2499968757631
240,249,153560,2,0,L|246:321,1,68.2499968757631,0|0,3:2|0:0,0:0:0:0:
75,333,153760,2,0,L|151:328,1,68.2499968757631
346,273,153960,6,0,L|266:267,1,68.2499968757631,0|0,3:2|0:0,0:0:0:0:
209,234,154160,2,0,L|295:230,1,68.2499968757631
98,175,154360,2,0,L|92:101,1,68.2499968757631,0|0,3:2|0:0,0:0:0:0:
293,43,154560,2,0,L|298:129,1,68.2499968757631
217,159,154760,6,0,L|291:167,1,68.2499968757631,0|0,3:2|0:0,0:0:0:0:
200,203,154960,2,0,L|127:219,1,68.2499968757631
327,229,155160,2,0,L|334:329,1,68.2499968757631,0|0,3:2|0:0,0:0:0:0:
402,302,155360,2,0,L|412:383,1,68.2499968757631
211,314,155560,6,0,L|296:313,1,68.2499968757631,0|0,3:2|0:0,0:0:0:0:
211,314,155760,2,0,L|125:311,1,68.2499968757631
342,220,155960,2,0,L|261:217,1,68.2499968757631,0|0,3:2|0:0,0:0:0:0:
342,220,156160,2,0,L|426:225,1,68.2499968757631
225,244,156360,6,0,L|226:160,1,68.2499968757631,0|0,3:2|0:0,0:0:0:0:
36,139,156560,2,0,L|35:47,1,68.2499968757631
117,69,156760,2,0,L|125:0,1,68.2499968757631,0|0,3:2|0:0,0:0:0:0:
311,77,156960,2,0,L|401:74,1,68.2499968757631
190,150,157160,6,0,L|246:218,1,68.2499968757631,0|0,3:2|0:0,0:0:0:0:
310,217,157360,2,0,L|389:217,1,68.2499968757631
201,302,157560,2,0,L|124:310,1,68.2499968757631,0|0,3:2|0:0,0:0:0:0:
341,281,157760,2,0,L|254:276,1,68.2499968757631
196,245,157960,6,0,L|299:244,1,68.2499968757631,0|0,3:2|0:0,0:0:0:0:
184,223,158160,2,0,L|99:214,1,68.2499968757631
298,169,158360,2,0,L|384:162,1,68.2499968757631,0|0,3:2|0:0,0:0:0:0:
281,136,158560,2,0,L|271:34,1,68.2499968757631
465,47,158760,6,0,L|373:57,1,68.2499968757631,0|0,3:2|0:0,0:0:0:0:
215,91,158960,1,0,3:2:0:0:
394,128,159060,1,0,3:2:0:0:
213,185,159160,2,0,L|138:180,3,68.2499968757631,0|0|0|0,3:2|0:0|0:0|0:0,0:0:0:0:
341,244,159560,6,0,L|419:257,1,68.2499968757631,0|0,3:2|0:0,0:0:0:0:
221,324,159760,2,0,L|331:339,1,68.2499968757631
206,304,159960,2,0,L|199:231,1,68.2499968757631,0|0,3:2|0:0,0:0:0:0:
15,170,160160,2,0,L|99:154,1,68.2499968757631
265,44,160360,6,0,L|271:147,1,68.2499968757631,0|0,3:2|0:0,0:0:0:0:
352,134,160560,2,0,L|365:209,1,68.2499968757631
173,233,160760,2,0,L|265:258,1,68.2499968757631,0|0,3:2|0:0,0:0:0:0:
424,309,160960,2,0,L|347:317,1,68.2499968757631
276,335,161160,6,0,L|271:258,1,68.2499968757631,0|0,3:2|0:0,0:0:0:0:
350,253,161360,2,0,L|353:160,1,68.2499968757631
146,141,161560,2,0,L|201:86,1,68.2499968757631,0|0,3:2|0:0,0:0:0:0:
270,82,161760,2,0,L|361:77,1,68.2499968757631
139,53,161960,6,0,L|61:50,3,68.2499968757631,0|0|0|0,3:2|0:0|0:0|0:0,0:0:0:0:
267,154,162360,2,0,L|366:163,3,68.2499968757631,0|0|0|0,3:2|0:0|0:0|0:0,0:0:0:0:
139,263,162760,6,0,L|225:271,1,68.2499968757631,0|0,3:2|0:0,0:0:0:0:
278,294,162960,2,0,L|202:310,1,68.2499968757631
413,345,163160,2,0,L|341:337,1,68.2499968757631,0|0,3:2|0:0,0:0:0:0:
275,297,163360,2,0,L|364:298,1,68.2499968757631
151,233,163560,6,0,L|65:224,1,68.2499968757631,8|0,0:0|0:0,0:0:0:0:
263,172,163760,2,0,L|329:171,1,34.1249984378815,8|8,0:0|0:0,0:0:0:0:
176,116,163860,2,0,L|126:113,1,34.1249984378815,8|8,0:0|0:0,0:0:0:0:
318,83,163960,6,0,L|388:78,1,68.2499968757631,8|0,0:0|0:0,0:0:0:0:
214,50,164160,2,0,L|161:48,1,34.1249984378815,8|8,0:0|0:0,0:0:0:0:
312,117,164260,2,0,L|367:120,1,34.1249984378815,8|8,0:0|0:0,0:0:0:0:
161,170,164360,6,0,L|81:165,1,68.2499968757631,8|0,0:0|0:0,0:0:0:0:
306,291,164560,1,8,0:0:0:0:
382,289,164660,2,0,L|408:220,2,68.2499968757631
178,347,164960,6,0,P|134:273|227:208,1,204.749990627289,12|0,0:0|0:0,0:0:0:0:
417,167,165360,1,0,3:0:0:0:
138,129,165560,6,0,L|198:72,1,68.2499968757631,4|0,3:2|0:0,0:0:0:0:
255,60,165752,2,0,L|353:47,1,68.2499968757631
126,35,165945,2,0,L|114:126,1,68.2499968757631,0|0,3:2|0:0,0:0:0:0:
306,147,166138,2,0,L|312:229,1,68.2499968757631
227,222,166331,6,0,L|221:295,1,68.2499968757631,0|0,3:2|0:0,0:0:0:0:
35,338,166524,2,0,L|108:348,1,68.2499968757631
293,305,166717,2,0,L|295:226,1,68.2499968757631,0|0,3:2|0:0,0:0:0:0:
209,212,166910,2,0,L|293:206,1,68.2499968757631
457,140,167103,6,0,L|387:108,1,62.9999980773926,0|0,3:2|0:0,0:0:0:0:
215,80,167287,2,0,L|296:57,1,62.9999980773926
354,42,167471,2,0,L|276:28,1,62.9999980773926,0|0,3:2|0:0,0:0:0:0:
368,22,167655,2,0,L|374:102,1,62.9999980773926
202,180,167839,6,0,L|118:161,3,62.9999980773926,0|0|0|0,3:2|0:0|0:0|0:0,0:0:0:0:
308,247,168207,2,0,L|259:305,1,62.9999980773926,0|0,3:2|0:0,0:0:0:0:
201,316,168391,2,0,L|121:316,1,62.9999980773926
329,350,168575,6,0,L|336:280,1,57.7500017623902,0|0,3:2|0:0,0:0:0:0:
265,263,168749,2,0,L|259:190,1,57.7500017623902
88,162,168923,2,0,L|151:151,1,57.7500017623902,0|0,3:2|0:0,0:0:0:0:
322,125,169098,2,0,L|274:82,1,57.7500017623902
216,75,169272,6,0,L|136:67,1,57.7500017623902,0|0,3:2|0:0,0:0:0:0:
344,37,169447,2,0,L|418:33,1,57.7500017623902
227,123,169621,2,0,L|311:132,1,57.7500017623902,0|0,3:2|0:0,0:0:0:0:
343,166,169795,2,0,L|256:169,1,57.7500017623902
454,231,169970,6,0,L|463:308,1,52.5,0|0,3:2|0:0,0:0:0:0:
290,338,170136,2,0,L|283:272,1,52.5
361,261,170303,2,0,L|284:251,1,52.5,0|0,3:2|0:0,0:0:0:0:
228,239,170470,2,0,L|298:228,1,52.5
121,217,170636,5,0,3:2:0:0:
93,177,170719,1,0,0:0:0:0:
118,133,170802,1,0,0:0:0:0:
176,123,170886,1,0,0:0:0:0:
361,139,170970,2,0,L|327:88,1,52.5,0|0,3:2|0:0,0:0:0:0:
270,75,171136,2,0,L|201:61,1,52.5
415,63,171303,6,0,L|369:23,1,52.5,0|0,3:2|0:0,0:0:0:0:
302,39,171460,2,0,L|239:32,1,52.5
446,159,171618,2,0,L|352:158,1,52.5,0|0,3:2|0:0,0:0:0:0:
230,213,171776,2,0,L|294:216,1,52.5,0|8,0:0|0:0,0:0:0:0:
454,280,171934,2,8,L|393:278,1,52.5
262,300,172092,1,8,0:0:0:0:
123,317,172171,1,8,0:0:0:0:
282,330,172250,6,0,L|473:352,1,157.5,4|0,3:2|0:2,3:2:0:0:
251,339,172565,2,0,P|201:291|269:242,1,157.5,2|0,0:0|0:0,0:0:0:0:
336,201,172881,2,0,L|132:187,1,157.5,2|0,0:0|0:0,0:0:0:0:
376,143,173197,2,0,P|421:101|356:45,1,157.5,2|0,0:0|0:0,0:0:0:0:
143,35,173513,6,0,P|115:90|193:142,1,157.5,4|0,3:2|0:0,0:0:0:0:
358,199,173828,2,0,L|363:224,1,26.25,2|0,1:0|0:0,0:0:0:0:
297,286,173986,2,0,L|284:323,1,26.25,2|0,1:0|0:0,0:0:0:0:
206,344,174144,6,0,L|167:367,1,26.25,2|0,1:0|0:0,0:0:0:0:
85,357,174302,2,0,L|35:356,1,26.25,2|0,1:0|0:0,0:0:0:0:
184,307,174460,2,0,L|224:306,1,26.25,2|0,1:0|0:0,0:0:0:0:
86,255,174618,2,0,L|33:248,1,52.5,2|2,1:0|1:0,0:0:0:0:
223,190,174776,6,0,L|267:188,1,26.25,2|0,1:0|0:0,0:0:0:0:
145,156,174934,2,0,L|106:153,1,26.25,2|0,1:0|0:0,0:0:0:0:
317,98,175092,2,0,L|355:98,1,26.25,2|0,1:0|0:0,0:0:0:0:
225,43,175250,2,0,L|160:34,1,52.5,2|2,1:0|1:0,0:0:0:0:
334,150,175407,6,0,L|410:153,1,52.5,2|2,1:0|1:0,0:0:0:0:
212,211,175565,2,0,L|154:212,1,52.5,2|2,1:0|1:0,0:0:0:0:
384,212,175723,2,0,P|402:258|318:321,1,157.5,8|0,0:0|0:0,0:0:0:0:
126,342,176039,6,0,L|302:364,1,157.5,4|0,3:2|0:0,0:0:0:0:
98,263,176355,2,0,L|54:262,1,26.25,2|0,1:0|0:0,0:0:0:0:
168,223,176513,2,0,L|201:222,1,26.25,2|0,1:0|0:0,0:0:0:0:
412,186,176671,5,8,0:0:0:0:
289,163,176828,2,0,L|285:120,1,26.25,2|0,1:0|0:0,0:0:0:0:
171,117,176986,2,0,L|167:80,1,26.25,2|0,1:0|0:0,0:0:0:0:
282,56,177144,2,0,L|315:54,1,26.25,2|0,1:0|0:0,0:0:0:0:
112,45,177302,6,0,L|75:46,1,26.25,0|0,3:2|0:0,0:0:0:0:
180,136,177460,2,0,L|220:142,1,26.25,2|0,1:0|0:0,0:0:0:0:
427,198,177618,2,0,L|359:198,3,52.5,2|2|2|2,1:0|1:0|1:0|1:0,0:0:0:0:
202,271,177934,6,0,L|258:283,3,52.5,8|2|2|2,0:0|1:0|1:0|1:0,0:0:0:0:
424,348,178250,5,0,0:0:0:0:
444,332,178289,1,0,0:0:0:0:
456,309,178328,1,0,0:0:0:0:
456,283,178368,1,0,0:0:0:0:
444,259,178407,1,0,0:0:0:0:
423,244,178447,1,0,0:0:0:0:
397,240,178486,1,0,0:0:0:0:
181,237,178565,6,0,P|144:210|203:137,1,157.5,0|0,3:2|0:0,0:0:0:0:
367,87,178881,2,0,L|400:88,1,26.25,2|0,1:0|0:0,0:0:0:0:
296,129,179039,2,0,L|271:133,1,26.25,2|0,1:0|0:0,0:0:0:0:
93,205,179197,5,8,0:0:0:0:
219,253,179355,2,0,L|251:255,1,26.25,2|0,1:0|0:0,0:0:0:0:
149,322,179513,2,0,L|110:323,1,26.25,2|0,1:0|0:0,0:0:0:0:
223,253,179671,2,0,L|265:255,1,26.25,2|0,1:0|0:0,0:0:0:0:
433,222,179828,6,0,L|446:179,1,26.25,0|0,3:2|0:0,0:0:0:0:
341,174,179986,2,0,L|337:140,1,26.25,2|0,1:0|0:0,0:0:0:0:
242,132,180144,2,0,L|225:98,1,26.25,2|0,1:0|0:0,0:0:0:0:
347,71,180302,2,0,L|393:66,1,26.25,2|0,1:0|0:0,0:0:0:0:
184,47,180460,5,8,0:0:0:0:
209,50,180499,1,0,0:0:0:0:
235,54,180538,1,0,0:0:0:0:
261,57,180578,1,0,0:0:0:0:
287,61,180617,1,0,0:0:0:0:
313,65,180657,1,0,0:0:0:0:
339,68,180696,1,0,0:0:0:0:
156,119,180776,2,0,P|129:139|179:235,1,157.5
372,292,181092,6,0,L|202:298,1,157.5,0|0,3:2|0:0,0:0:0:0:
404,340,181407,2,0,L|447:342,1,26.25,2|0,1:0|0:0,0:0:0:0:
335,358,181565,2,0,L|295:349,1,26.25,2|0,1:0|0:0,0:0:0:0:
134,325,181723,5,8,0:0:0:0:
251,290,181881,2,0,L|256:250,1,26.25,2|0,1:0|0:0,0:0:0:0:
369,248,182039,2,0,L|375:202,1,26.25,2|0,1:0|0:0,0:0:0:0:
256,194,182197,2,0,L|247:159,1,26.25,2|0,1:0|0:0,0:0:0:0:
55,113,182355,6,0,L|86:111,1,26.25,0|0,3:2|0:0,0:0:0:0:
177,81,182513,2,0,L|222:82,1,26.25,2|0,1:0|0:0,0:0:0:0:
418,48,182671,2,0,L|349:46,1,52.5,2|2,1:0|1:0,0:0:0:0:
312,35,182828,2,0,L|377:36,1,52.5,2|2,1:0|1:0,0:0:0:0:
195,132,182986,6,0,L|271:143,1,52.5,8|2,0:0|1:0,0:0:0:0:
302,158,183144,2,0,L|236:162,1,52.5,2|2,1:0|1:0,0:0:0:0:
77,189,183302,5,0,0:0:0:0:
61,210,183341,1,0,0:0:0:0:
56,235,183380,1,0,0:0:0:0:
61,261,183420,1,0,0:0:0:0:
76,282,183459,1,0,0:0:0:0:
98,295,183499,1,0,0:0:0:0:
124,298,183538,1,0,0:0:0:0:
357,362,183618,5,4,3:2:0:0:
378,258,183934,1,2,0:0:0:0:
399,149,184250,1,2,0:0:0:0:
420,33,184565,1,2,0:0:0:0:
35,32,184881,6,0,P|28:107|100:132,1,140,4|2,3:2|0:0,0:0:0:0:
185,179,185197,1,2,0:0:0:0:
362,228,185513,2,0,L|370:355,1,105,2|2,0:0|0:0,0:0:0:0:
216,340,185828,1,0,3:2:0:0:
345,290,186039,1,8,0:0:0:0:
240,265,186144,5,0,3:2:0:0:
382,206,186355,1,2,0:0:0:0:
278,191,186460,2,0,P|247:121|297:100,1,140,2|2,0:0|0:0,0:0:0:0:
399,71,186776,1,0,3:0:0:0:
239,42,186986,1,8,0:0:0:0:
348,31,187092,2,0,P|373:102|317:136,1,140,0|0,3:0|3:0,0:0:0:0:
224,214,187407,5,0,3:0:0:0:
84,300,187618,2,0,L|154:311,1,70,2|2,0:0|0:0,0:0:0:0:
295,328,187934,1,2,0:0:0:0:
189,284,188039,2,0,L|271:283,1,70,8|8,0:0|0:0,0:0:0:0:
189,284,188250,1,8,0:0:0:0:
284,214,188355,2,0,L|368:220,1,70,8|8,0:0|0:0,0:0:0:0:
284,214,188565,1,8,0:0:0:0:
88,133,188671,6,0,L|150:132,1,52.5,4|0,3:2|0:0,0:0:0:0:
415,107,188828,2,0,L|362:103,1,52.5,0|0,3:2|0:0,0:0:0:0:
54,48,189144,2,0,L|118:49,1,52.5,0|0,3:2|0:0,0:0:0:0:
438,38,189460,2,0,L|371:37,1,52.5,0|0,3:2|0:0,0:0:0:0:
54,49,189776,2,0,L|99:52,1,35,0|0,3:2|3:2,0:0:0:0:
247,100,189881,1,0,3:2:0:0:
416,168,189934,6,0,L|279:165,1,105,4|0,3:2|0:0,0:0:0:0:
430,177,190250,2,0,L|441:300,1,105,0|0,0:0|3:2,0:0:0:0:
214,325,190565,1,0,0:0:0:0:
318,338,190722,1,0,0:0:0:0:
422,351,190880,1,0,3:2:0:0:
198,253,191039,6,0,L|65:244,1,105,0|0,3:2|0:0,0:0:0:0:
316,145,191355,2,0,L|186:133,1,105,0|0,3:2|0:0,0:0:0:0:
440,45,191671,2,0,L|441:167,1,105,0|0,3:2|0:0,0:0:0:0:
211,181,191986,1,0,3:2:0:0:
425,254,192144,2,0,L|351:249,1,52.5,0|0,3:2|3:2,0:0:0:0:
197,307,192302,2,0,L|129:303,1,52.5,0|0,3:2|0:0,0:0:0:0:
352,348,192460,6,0,L|355:233,1,105,4|0,3:2|0:0,0:0:0:0:
211,227,192776,2,0,L|210:100,1,105,0|0,0:0|3:2,0:0:0:0:
440,54,193092,2,0,L|315:40,2,105,0|0|0,0:0|0:0|3:2,0:0:0:0:
215,132,193565,5,0,3:2:0:0:
266,124,193643,1,0,0:0:0:0:
318,117,193722,1,0,0:0:0:0:
207,75,193881,1,0,0:0:0:0:
429,168,194039,2,0,L|431:286,1,105,0|0,3:2|0:0,0:0:0:0:
278,325,194355,2,0,L|161:334,1,105,0|0,3:2|0:0,0:0:0:0:
396,231,194671,2,0,L|342:228,1,52.5,0|0,3:2|0:0,0:0:0:0:
180,199,194828,1,0,0:0:0:0:
453,132,194986,5,12,0:0:0:0:
348,125,195144,1,0,3:2:0:0:
453,132,195302,1,0,3:2:0:0:
188,55,195460,1,12,0:0:0:0:
292,47,195617,1,0,3:2:0:0:
397,40,195775,1,0,3:2:0:0:
130,151,195934,5,12,0:0:0:0:
247,195,196092,1,0,3:2:0:0:
130,151,196250,1,0,3:2:0:0:
392,247,196407,1,12,0:0:0:0:
276,272,196565,1,0,3:2:0:0:
160,299,196723,1,0,3:2:0:0:
386,315,196881,2,0,L|256:296,1,105,2|2,0:0|0:0,0:0:0:0:
402,257,197197,2,0,L|406:152,1,105,2|2,0:0|0:0,0:0:0:0:
107,90,197513,5,12,0:0:0:0:
243,111,197671,1,0,3:2:0:0:
107,90,197828,1,0,3:2:0:0:
423,157,197986,1,12,0:0:0:0:
286,195,198144,1,0,3:2:0:0:
423,157,198302,1,0,3:2:0:0:
90,251,198460,5,12,0:0:0:0:
333,292,198618,1,0,3:2:0:0:
90,251,198776,1,0,3:2:0:0:
436,215,198934,1,12,0:0:0:0:
191,257,199092,1,0,3:2:0:0:
436,215,199250,1,0,3:2:0:0:
138,353,199407,5,0,0:0:0:0:
112,354,199447,1,0,0:0:0:0:
96,323,199486,1,0,0:0:0:0:
70,324,199526,1,0,0:0:0:0:
67,279,199565,1,0,0:0:0:0:
41,280,199605,1,0,0:0:0:0:
56,228,199644,1,0,0:0:0:0:
30,229,199684,1,0,0:0:0:0:
65,177,199723,1,0,0:0:0:0:
39,178,199763,1,0,0:0:0:0:
93,132,199802,1,0,0:0:0:0:
67,133,199842,1,0,0:0:0:0:
135,101,199881,1,0,0:0:0:0:
109,102,199921,1,0,0:0:0:0:
185,88,199960,1,0,0:0:0:0:
387,58,200038,5,0,3:0:0:0:
201,34,200355,2,0,L|196:170,1,105
340,162,200671,2,0,L|349:300,1,105,8|0,1:0|0:0,0:0:0:0:
98,352,200986,6,0,L|223:344,1,105,0|0,3:2|0:0,0:0:0:0:
318,297,201302,2,0,L|187:283,1,105
334,249,201618,2,0,L|339:133,1,105,0|0,3:2|0:0,0:0:0:0:
186,172,201934,2,0,L|185:54,1,105,8|0,1:0|0:0,0:0:0:0:
338,37,202250,2,0,L|282:37,1,52.5,0|0,3:2|3:2,0:0:0:0:
116,113,202407,1,0,3:2:0:0:
376,192,202565,6,0,L|457:198,1,52.5,4|0,3:2|3:2,0:0:0:0:
351,221,202723,2,0,L|298:227,1,52.5,0|0,3:2|3:2,0:0:0:0:
376,255,202881,2,0,L|379:330,1,52.5,0|0,3:2|3:2,0:0:0:0:
292,336,203039,2,0,L|350:349,1,52.5,0|0,3:2|3:2,0:0:0:0:
156,352,203197,6,0,L|96:353,1,52.5,0|0,3:2|3:2,0:0:0:0:
182,313,203355,2,0,L|181:248,1,52.5,0|0,3:2|3:2,0:0:0:0:
104,246,203513,2,0,L|102:186,1,52.5,0|0,3:2|3:2,0:0:0:0:
177,173,203671,2,0,L|104:159,1,52.5,0|0,3:2|3:2,0:0:0:0:
321,86,203828,6,0,L|336:58,2,26.25,0|0|0,3:2|3:2|3:2,0:0:0:0:
275,112,203946,1,0,3:2:0:0:
229,129,203986,2,0,L|206:163,2,26.25,0|0|0,3:2|3:2|3:2,0:0:0:0:
285,169,204104,1,0,3:2:0:0:
341,194,204144,2,0,L|362:215,2,26.25,0|0|0,3:2|3:2|3:2,0:0:0:0:
245,232,204262,1,0,3:2:0:0:
149,259,204302,2,0,L|106:254,2,26.25,0|0|0,3:2|3:2|3:2,0:0:0:0:
298,276,204420,1,0,3:2:0:0:
398,312,204459,6,0,L|425:313,2,26.25,0|0|0,3:2|3:2|3:2,0:0:0:0:
206,324,204578,1,0,3:2:0:0:
102,335,204617,2,0,L|66:336,2,26.25,0|0|0,3:2|3:2|3:2,0:0:0:0:
328,352,204775,5,2,0:0:0:0:
359,345,204815,1,2,0:0:0:0:
382,324,204855,1,2,0:0:0:0:
390,294,204894,1,2,0:0:0:0:
381,264,204934,1,2,0:0:0:0:
358,243,204973,1,2,0:0:0:0:
327,238,205013,1,2,0:0:0:0:
101,149,205092,6,0,L|39:135,2,57.7500017623902,4|0|0,3:2|0:0|0:0,0:0:0:0:
274,88,205328,2,0,L|211:88,2,57.7500017623902,0|8|0,0:0|0:0|0:0,0:0:0:0:
458,44,205565,2,0,L|371:32,1,57.7500017623902
219,145,205723,6,0,L|264:192,1,57.7500017623902,0|0,3:2|0:0,0:0:0:0:
324,193,205881,1,0,0:0:0:0:
152,259,205960,1,0,0:0:0:0:
94,259,206038,1,8,0:0:0:0:
36,260,206117,1,0,0:0:0:0:
216,335,206197,2,0,L|218:266,1,57.7500017623902
394,236,206355,6,0,L|351:184,1,57.7500017623902,0|0,3:2|0:0,0:0:0:0:
293,182,206513,1,0,0:0:0:0:
468,168,206592,2,0,L|472:104,1,57.7500017623902,0|8,0:0|0:0,0:0:0:0:
413,99,206750,1,0,0:0:0:0:
241,52,206828,2,0,L|316:47,1,57.7500017623902
123,105,206986,5,0,3:2:0:0:
65,114,207065,2,0,L|68:47,1,57.7500017623902
252,156,207223,2,0,L|200:214,1,57.7500017623902,0|8,0:0|0:0,0:0:0:0:
149,201,207381,1,0,0:0:0:0:
327,248,207460,2,0,L|333:315,1,57.7500017623902
161,334,207618,6,0,L|229:349,2,57.7500017623902,0|0|0,3:2|0:0|0:0,0:0:0:0:
340,287,207855,2,0,L|409:281,2,57.7500017623902,0|8|0,0:0|0:0|0:0,0:0:0:0:
168,241,208092,2,0,L|243:222,1,57.7500017623902
412,192,208250,6,0,L|370:146,1,57.7500017623902,0|0,3:2|0:0,0:0:0:0:
310,140,208407,1,0,0:0:0:0:
131,108,208486,2,0,L|182:65,1,57.7500017623902,0|8,0:0|0:0,0:0:0:0:
241,61,208644,1,0,0:0:0:0:
416,52,208723,2,0,L|477:57,1,57.7500017623902
298,114,208881,6,0,L|224:115,1,57.7500017623902,0|0,3:2|0:0,0:0:0:0:
240,114,209039,1,0,0:0:0:0:
65,198,209118,2,0,L|57:268,1,57.7500017623902,0|8,0:0|0:0,0:0:0:0:
119,273,209276,1,0,0:0:0:0:
293,325,209355,2,0,L|389:328,1,57.7500017623902
173,242,209513,5,0,3:2:0:0:
230,237,209591,1,0,0:0:0:0:
288,232,209670,1,0,0:0:0:0:
113,147,209750,2,0,L|53:129,2,57.7500017623902,0|8|0,0:0|0:0|0:0,0:0:0:0:
286,150,209986,2,0,L|285:75,1,57.7500017623902
461,42,210144,6,0,L|468:118,1,57.7500017623902,0|0,3:2|0:0,0:0:0:0:
408,127,210302,1,0,0:0:0:0:
234,178,210381,2,0,L|276:233,1,57.7500017623902,0|8,0:0|0:0,0:0:0:0:
333,237,210539,1,0,0:0:0:0:
159,285,210618,2,0,L|92:302,1,57.7500017623902
281,338,210776,6,0,L|349:348,2,57.7500017623902,0|0|0,3:2|0:0|0:0,0:0:0:0:
107,249,211013,1,0,0:0:0:0:
164,246,211091,1,8,0:0:0:0:
222,244,211170,1,0,0:0:0:0:
43,181,211250,2,0,L|40:104,1,57.7500017623902
215,68,211407,6,0,L|131:57,2,57.7500017623902,0|0|0,3:2|0:0|0:0,0:0:0:0:
385,42,211644,2,0,L|327:36,2,57.7500017623902,0|8|0,0:0|0:0|0:0,0:0:0:0:
213,140,211881,2,0,L|153:151,1,57.7500017623902
331,231,212039,6,0,L|405:229,1,57.7500017623902,0|0,3:2|0:0,0:0:0:0:
388,229,212197,1,0,0:0:0:0:
211,317,212276,2,0,L|208:253,1,57.7500017623902,0|8,0:0|0:0,0:0:0:0:
268,318,212434,1,0,0:0:0:0:
440,320,212513,2,0,L|366:323,1,57.7500017623902
174,263,212671,5,4,3:2:0:0:
424,212,212828,1,4,3:2:0:0:
307,188,212986,2,0,L|239:183,1,57.7500017623902
320,142,213144,2,0,L|322:75,1,57.7500017623902
142,66,213302,1,4,3:2:0:0:
378,132,213460,1,4,3:2:0:0:
256,50,213618,1,0,0:0:0:0:
229,99,213696,1,0,0:0:0:0:
247,152,213775,1,0,0:0:0:0:
299,173,213854,1,0,0:0:0:0:
475,265,213934,6,0,L|203:289,1,241.500004606247,4|0,3:2|0:0,0:0:0:0:
88,352,214171,2,0,L|411:368,1,241.500004606247,4|0,3:2|0:0,0:0:0:0:
156,293,214407,2,0,L|81:271,1,57.7500017623902,4|0,3:2|0:0,0:0:0:0:
278,257,214565,2,0,L|282:183,1,57.7500017623902
126,156,214723,1,2,1:0:0:0:
282,140,214802,1,2,1:0:0:0:
438,68,214881,5,2,1:0:0:0:
452,96,214920,1,0,0:0:0:0:
454,127,214959,1,0,0:0:0:0:
443,156,214999,1,0,0:0:0:0:
417,179,215038,1,0,0:0:0:0:
387,193,215078,1,0,0:0:0:0:
354,197,215117,1,0,0:0:0:0:
130,286,215197,6,0,L|176:330,1,57.7500017623902,4|0,3:2|0:0,0:0:0:0:
236,331,215355,1,0,0:0:0:0:
410,332,215434,2,0,L|373:273,1,57.7500017623902,0|8,0:0|0:0,0:0:0:0:
314,276,215592,1,0,0:0:0:0:
137,253,215671,2,0,L|213:244,1,57.7500017623902
373,193,215828,6,0,L|313:189,2,57.7500017623902,0|0|0,3:2|0:0|0:0,0:0:0:0:
197,134,216065,2,0,L|137:147,2,57.7500017623902,0|8|0,0:0|0:0|0:0,0:0:0:0:
369,63,216302,2,0,L|284:59,1,57.7500017623902
486,40,216460,6,0,L|492:127,1,57.7500017623902,0|0,3:2|0:0,0:0:0:0:
431,137,216618,1,0,0:0:0:0:
256,199,216697,2,0,L|323:202,1,57.7500017623902,0|8,0:0|0:0,0:0:0:0:
313,201,216855,1,0,0:0:0:0:
139,281,216934,2,0,L|66:277,1,57.7500017623902
262,351,217092,5,0,3:2:0:0:
204,351,217170,1,0,0:0:0:0:
146,351,217249,1,0,0:0:0:0:
322,287,217328,2,0,L|400:298,2,57.7500017623902,0|8|0,0:0|0:0|0:0,0:0:0:0:
144,217,217565,2,0,L|222:213,1,57.7500017623902
382,171,217723,6,0,L|336:120,1,57.7500017623902,0|0,3:2|0:0,0:0:0:0:
279,120,217881,1,0,0:0:0:0:
105,103,217960,2,0,L|40:85,1,57.7500017623902,0|8,0:0|0:0,0:0:0:0:
49,87,218118,1,0,0:0:0:0:
217,54,218197,2,0,L|222:122,1,57.7500017623902
393,208,218355,6,0,L|459:203,2,57.7500017623902,0|0|0,3:2|0:0|0:0,0:0:0:0:
213,307,218592,2,0,L|289:327,2,57.7500017623902,0|8|0,0:0|0:0|0:0,0:0:0:0:
378,343,218828,2,0,L|448:345,1,57.7500017623902
257,285,218986,6,0,L|251:215,1,57.7500017623902,0|0,3:2|0:0,0:0:0:0:
311,212,219144,1,0,0:0:0:0:
135,208,219223,2,0,L|132:142,1,57.7500017623902,0|8,0:0|0:0,0:0:0:0:
191,120,219381,1,0,0:0:0:0:
366,78,219460,2,0,L|268:80,1,57.7500017623902
122,58,219618,6,0,L|175:100,1,57.7500017623902,0|0,3:2|0:0,0:0:0:0:
233,120,219776,1,0,0:0:0:0:
408,193,219855,2,0,L|372:250,1,57.7500017623902,0|8,0:0|0:0,0:0:0:0:
313,265,220013,1,0,0:0:0:0:
487,351,220092,2,0,L|489:272,1,57.7500017623902
309,299,220250,6,0,L|381:289,2,57.7500017623902,0|0|0,3:2|0:0|0:0,0:0:0:0:
133,349,220486,2,0,L|209:362,2,57.7500017623902,0|8|0,0:0|0:0|0:0,0:0:0:0:
306,298,220723,2,0,L|379:304,1,57.7500017623902
189,256,220881,5,0,3:2:0:0:
131,254,220959,1,0,0:0:0:0:
73,252,221038,1,0,0:0:0:0:
251,199,221118,2,0,L|256:122,1,57.7500017623902,0|8,0:0|0:0,0:0:0:0:
196,121,221276,1,0,0:0:0:0:
21,68,221355,2,0,L|83:57,1,57.7500017623902
254,68,221513,6,0,L|191:69,1,57.7500017623902,0|0,3:2|0:0,0:0:0:0:
196,68,221671,1,0,0:0:0:0:
372,147,221750,2,0,L|466:137,2,57.7500017623902,0|8|0,0:0|0:0|0:0,0:0:0:0:
198,214,221986,2,0,L|279:221,1,57.7500017623902
80,322,222144,6,0,L|76:252,1,57.7500017623902,0|0,3:2|0:0,0:0:0:0:
136,241,222302,1,0,0:0:0:0:
317,240,222381,2,0,L|277:187,1,57.7500017623902,0|8,0:0|0:0,0:0:0:0:
217,185,222539,1,0,0:0:0:0:
388,162,222618,2,0,L|456:151,1,57.7500017623902
251,100,222776,6,0,L|175:94,1,57.7500017623902,0|0,3:2|0:0,0:0:0:0:
341,67,222934,1,8,0:0:0:0:
486,53,223013,1,8,0:0:0:0:
428,48,223091,1,0,0:0:0:0:
370,43,223170,1,8,0:0:0:0:
206,47,223250,2,0,L|267:66,1,57.7500017623902,8|0,0:0|0:0,0:0:0:0:
427,147,223407,6,0,L|358:159,1,57.7500017623902,0|0,3:2|0:0,0:0:0:0:
225,217,223565,1,8,0:0:0:0:
80,271,223644,2,0,L|74:331,1,57.7500017623902,8|0,0:0|0:0,0:0:0:0:
132,343,223802,1,8,0:0:0:0:
306,313,223881,2,0,L|243:306,1,57.7500017623902,8|0,0:0|0:0,0:0:0:0:
73,247,224039,6,0,L|149:240,1,57.7500017623902,0|0,3:2|0:0,0:0:0:0:
275,214,224197,1,8,0:0:0:0:
122,197,224276,2,0,L|120:130,1,57.7500017623902,8|0,0:0|0:0,0:0:0:0:
179,116,224434,1,8,0:0:0:0:
353,95,224513,2,0,L|425:94,1,57.7500017623902,8|0,0:0|0:0,0:0:0:0:
246,42,224671,6,0,L|243:113,1,57.7500017623902,0|0,3:2|0:0,0:0:0:0:
394,175,224828,1,8,0:0:0:0:
240,217,224907,2,0,L|141:212,2,57.7500017623902,8|0|8,0:0|0:0|0:0,0:0:0:0:
85,290,225144,2,0,L|27:303,1,57.7500017623902,8|0,0:0|0:0,0:0:0:0:
281,337,225302,5,4,3:2:0:0:
396,355,225460,2,0,L|393:230,1,115.50000352478,0|0,3:2|0:0,0:0:0:0:
156,197,225776,1,0,3:2:0:0:
271,171,225934,2,0,L|321:171,2,28.8750008811951,0|0|0,3:2|0:0|0:0,0:0:0:0:
201,125,226092,2,0,L|166:127,2,28.8750008811951
401,63,226250,6,0,L|273:50,2,115.50000352478,0|0|0,3:2|3:2|0:0,0:0:0:0:
156,197,226723,2,0,L|281:217,2,115.50000352478,0|0|0,3:2|3:2|0:0,0:0:0:0:
416,303,227197,2,0,L|300:302,1,115.50000352478,0|0,3:2|0:0,0:0:0:0:
131,342,227434,2,0,L|270:347,1,115.50000352478,0|0,3:2|0:0,0:0:0:0:
74,353,227671,2,0,L|73:274,1,57.7500017623902,0|0,3:2|0:0,0:0:0:0:
297,249,227828,6,0,P|338:194|257:125,1,173.250005287171,0|0,3:2|0:0,0:0:0:0:
103,84,228144,1,4,3:2:0:0:
220,55,228302,2,0,L|283:55,1,57.7500017623902
85,37,228460,2,0,P|53:119|142:158,1,173.250005287171,2|0,0:0|0:0,0:0:0:0:
295,208,228776,2,0,L|178:212,1,115.50000352478,4|0,3:2|0:0,0:0:0:0:
423,294,229092,6,0,L|482:299,2,57.7500017623902,2|0|2,0:0|0:0|0:0,0:0:0:0:
190,355,229407,2,0,P|168:306|258:230,1,173.250005287171,4|0,3:2|0:0,0:0:0:0:
76,190,229723,1,0,3:2:0:0:
326,202,229881,2,0,P|361:177|295:83,1,173.250005287171,4|0,3:2|0:0,0:0:0:0:
128,39,230197,6,0,P|100:87|191:157,1,173.250005287171,4|0,3:2|0:0,0:0:0:0:
350,230,230513,1,0,3:2:0:0:
477,229,230671,1,0,3:2:0:0:
216,161,230828,1,0,3:2:0:0:
342,145,230986,1,0,3:2:0:0:
97,103,231144,1,0,3:2:0:0:
324,63,231302,2,0,L|408:68,1,57.7500017623902,0|0,3:2|3:2,0:0:0:0:
206,49,231460,2,0,L|204:127,1,57.7500017623902,0|0,3:2|3:2,0:0:0:0:
451,133,231618,5,4,3:2:0:0:
451,133,231934,2,0,L|278:272,2,210,2|2|2,0:0|0:0|0:0,0:0:0:0:
51,47,232881,6,0,P|26:111|274:296,1,420,6|2,0:0|0:0,0:0:0:0:
54,346,233828,1,2,0:0:0:0:
261,360,234144,6,0,P|312:323|144:97,1,420,2|2,0:0|0:0,0:0:0:0:
404,35,235407,6,0,P|431:100|187:278,1,420,2|2,0:0|0:0,0:0:0:0:
398,324,236355,1,2,0:0:0:0:
186,148,236671,6,0,P|155:200|299:152,1,420,2|2,0:0|0:0,0:0:0:0:
94,362,237934,6,0,P|182:365|246:88,1,420,2|2,0:0|0:0,0:0:0:0:
71,225,238881,1,0,0:0:0:0:
264,313,239197,6,0,P|320:302|266:199,1,210,2|2,0:0|0:0,0:0:0:0:
128,51,239671,2,0,P|108:107|337:313,1,420,2|0,0:0|0:0,0:0:0:0:
174,358,240460,6,0,L|451:11,2,420,2|2|2,0:0|0:0|0:0,0:0:0:0:
349,299,242039,5,0,0:0:0:0:
202,261,242355,1,2,0:0:0:0:
149,170,242513,1,2,0:0:0:0:
202,261,242671,1,2,0:0:0:0:
306,274,242828,1,2,0:0:0:0:
76,345,242986,6,0,P|47:280|275:101,1,420,6|2,0:0|0:0,0:0:0:0:
87,177,243934,1,2,0:0:0:0:
296,302,244250,6,0,P|351:278|281:177,1,210,2|0,0:0|0:0,0:0:0:0:
106,44,244881,2,0,P|100:109|301:220,1,315,2|0,0:0|0:0,0:0:0:0:
433,89,245513,6,0,P|452:155|214:342,1,420,2|2,0:0|0:0,0:0:0:0:
256,192,246302,12,0,247881,0:0:0:0:
219,325,248039,6,0,B|447:323|447:323|393:213|393:213|349:328,1,462.000014099122,4|0,3:2|0:0,0:0:0:0:
80,235,248513,2,0,B|308:233|308:233|254:123|254:123|210:238,1,462.000014099122,4|0,3:2|0:0,0:0:0:0:
465,126,248986,6,0,B|237:127|237:127|286:17|286:17|342:132,1,462.000014099122,4|0,3:2|0:0,0:0:0:0:
80,235,249460,2,0,B|308:233|308:233|254:123|254:123|210:238,1,462.000014099122,4|2,3:2|0:0,0:0:0:0:
439,239,249934,1,2,0:0:0:0:
218,339,250092,5,2,0:0:0:0:
192,332,250131,1,0,0:0:0:0:
171,316,250170,1,0,0:0:0:0:
159,294,250210,1,0,0:0:0:0:
156,268,250249,1,0,0:0:0:0:
163,243,250289,1,0,0:0:0:0:
180,223,250328,1,0,0:0:0:0:
203,211,250368,1,0,0:0:0:0:
229,210,250407,1,0,0:0:0:0:
259,204,250447,1,0,0:0:0:0:
229,211,250486,1,0,0:0:0:0:
60,165,250565,5,12,0:0:0:0:
167,134,250723,2,0,L|222:137,1,52.5,0|0,3:2|3:2,0:0:0:0:
56,96,250881,1,0,3:2:0:0:
305,68,251039,1,12,0:0:0:0:
180,52,251196,1,0,3:2:0:0:
305,68,251355,2,0,L|238:80,1,52.5,0|0,3:2|3:2,0:0:0:0:
74,186,251513,1,12,0:0:0:0:
178,196,251670,1,0,3:2:0:0:
282,207,251828,5,0,3:2:0:0:
45,302,251986,2,0,L|113:304,1,52.5,12|0,0:0|3:2,0:0:0:0:
264,260,252144,2,0,L|143:239,1,105,0|0,3:2|3:2,0:0:0:0:
406,200,252460,1,2,0:0:0:0:
291,154,252618,2,0,L|370:153,1,52.5,2|2,0:0|0:0,0:0:0:0:
181,93,252776,2,0,L|70:83,1,105,2|2,0:0|0:0,0:0:0:0:
408,48,253092,5,12,0:0:0:0:
282,68,253250,1,2,3:2:0:0:
408,48,253407,1,2,3:2:0:0:
93,136,253565,1,12,0:0:0:0:
233,182,253723,1,2,3:2:0:0:
93,136,253881,1,2,3:2:0:0:
414,193,254039,1,12,0:0:0:0:
191,249,254197,1,2,3:2:0:0:
414,193,254355,5,2,3:2:0:0:
97,316,254513,1,12,0:0:0:0:
320,331,254671,1,2,3:2:0:0:
97,316,254828,1,2,3:2:0:0:
403,357,254986,5,0,0:0:0:0:
425,343,255025,1,0,0:0:0:0:
444,325,255064,1,0,0:0:0:0:
459,303,255104,1,0,0:0:0:0:
469,279,255143,1,0,0:0:0:0:
475,254,255183,1,0,0:0:0:0:
475,228,255222,1,0,0:0:0:0:
469,202,255262,1,0,0:0:0:0:
459,178,255301,1,0,0:0:0:0:
443,157,255341,1,0,0:0:0:0:
424,139,255380,1,0,0:0:0:0:
401,126,255420,1,0,0:0:0:0:
377,117,255459,1,0,0:0:0:0:
351,114,255499,1,0,0:0:0:0:
325,116,255538,1,0,0:0:0:0:
145,99,255618,5,2,3:2:0:0:
344,31,255934,2,0,L|346:148,1,105
192,205,256250,1,8,1:0:0:0:
296,236,256407,1,0,0:0:0:0:
149,283,256565,1,2,3:2:0:0:
254,321,256723,1,0,0:0:0:0:
401,289,256881,5,0,0:0:0:0:
296,289,257039,1,0,0:0:0:0:
443,242,257197,1,2,3:2:0:0:
338,235,257355,1,0,0:0:0:0:
188,192,257513,1,8,1:0:0:0:
288,167,257671,1,0,0:0:0:0:
137,114,257828,2,0,L|194:110,1,52.5,2|2,3:2|3:2,0:0:0:0:
358,90,257986,1,2,3:2:0:0:
91,46,258144,6,0,L|82:124,1,52.5,4|0,3:2|3:2,0:0:0:0:
161,142,258302,2,0,L|219:147,1,52.5,0|0,3:2|3:2,0:0:0:0:
136,184,258460,2,0,L|129:249,1,52.5,0|0,3:2|3:2,0:0:0:0:
206,288,258618,2,0,L|128:293,1,52.5,0|0,3:2|3:2,0:0:0:0:
317,335,258776,6,0,L|382:338,1,52.5,0|0,3:2|3:2,0:0:0:0:
291,297,258934,2,0,L|285:234,1,52.5,0|0,3:2|3:2,0:0:0:0:
361,226,259092,2,0,L|366:163,1,52.5,0|0,3:2|3:2,0:0:0:0:
289,145,259250,2,0,L|357:142,1,52.5,0|0,3:2|3:2,0:0:0:0:
175,70,259407,6,0,L|143:68,2,26.25,0|0|0,3:2|3:2|3:2,0:0:0:0:
203,92,259526,1,0,3:2:0:0:
333,71,259565,2,0,L|365:69,2,26.25,0|0|0,3:2|3:2|3:2,0:0:0:0:
305,93,259684,1,0,3:2:0:0:
134,145,259723,6,0,L|100:144,2,26.25,0|0|0,3:2|3:2|3:2,0:0:0:0:
231,185,259842,1,0,3:2:0:0:
382,152,259881,2,0,L|414:150,2,26.25,0|0|0,3:2|3:2|3:2,0:0:0:0:
282,185,260000,1,0,3:2:0:0:
104,213,260039,6,0,L|72:213,2,26.25,0|0|0,3:2|3:2|3:2,0:0:0:0:
254,216,260157,1,0,3:2:0:0:
422,225,260197,2,0,L|466:226,2,26.25,0|0|0,3:2|3:2|3:2,0:0:0:0:
200,298,260355,6,0,L|181:264,2,26.25,2|2|2,0:0|0:0|0:0,0:0:0:0:
248,318,260473,1,2,0:0:0:0:
296,303,260513,2,0,L|311:272,2,26.25,2|2|2,0:0|0:0|0:0,0:0:0:0:
98,333,260671,6,0,L|154:334,1,52.5,0|0,3:2|3:0,0:0:0:0:
325,267,260828,2,0,L|253:260,1,52.5,0|0,3:0|3:0,0:0:0:0:
455,229,260986,1,12,0:0:0:0:
478,178,261064,1,0,0:0:0:0:
452,129,261143,1,0,0:0:0:0:
397,120,261222,1,0,0:0:0:0:
221,79,261302,6,0,L|269:37,1,57.7500017623902,0|0,3:2|0:0,0:0:0:0:
328,32,261460,1,0,0:0:0:0:
154,136,261539,2,0,L|95:128,1,57.7500017623902,0|8,0:0|0:0,0:0:0:0:
96,128,261697,1,0,0:0:0:0:
271,176,261776,2,0,L|279:246,1,57.7500017623902
456,271,261934,6,0,L|412:324,1,57.7500017623902,0|0,3:2|0:0,0:0:0:0:
355,310,262092,1,0,0:0:0:0:
182,252,262171,2,0,L|218:200,1,57.7500017623902,0|8,0:0|0:0,0:0:0:0:
279,187,262328,1,0,0:0:0:0:
104,168,262407,2,0,L|39:171,1,57.7500017623902
223,132,262565,6,0,L|219:60,1,57.7500017623902,0|0,3:2|0:0,0:0:0:0:
161,68,262723,1,0,0:0:0:0:
335,38,262802,2,0,L|408:56,2,57.7500017623902,0|8|0,0:0|0:0|0:0,0:0:0:0:
157,123,263039,2,0,L|218:140,1,57.7500017623902
390,200,263197,5,0,3:2:0:0:
332,204,263275,1,0,0:0:0:0:
274,208,263354,1,0,0:0:0:0:
457,284,263434,2,0,L|393:271,2,57.7500017623902,0|8|0,0:0|0:0|0:0,0:0:0:0:
279,343,263671,2,0,L|273:274,1,57.7500017623902
446,243,263828,6,0,L|450:178,1,57.7500017623902,0|0,3:2|0:0,0:0:0:0:
391,172,263986,1,0,0:0:0:0:
220,130,264065,2,0,L|297:134,2,57.7500017623902,0|8|0,0:0|0:0|0:0,0:0:0:0:
397,66,264302,2,0,L|470:68,1,57.7500017623902
283,45,264460,6,0,L|213:52,2,57.7500017623902,0|0|0,3:2|0:0|0:0,0:0:0:0:
103,127,264697,2,0,L|15:128,2,57.7500017623902,0|8|0,0:0|0:0|0:0,0:0:0:0:
278,172,264934,2,0,L|279:248,1,57.7500017623902
456,277,265092,6,0,L|413:334,1,57.7500017623902,0|0,3:2|0:0,0:0:0:0:
357,325,265250,1,0,0:0:0:0:
184,273,265328,2,0,L|224:225,1,57.7500017623902,0|8,0:0|0:0,0:0:0:0:
286,220,265486,1,0,0:0:0:0:
465,180,265565,2,0,L|402:174,1,57.7500017623902
224,118,265723,6,0,L|295:119,2,57.7500017623902,0|0|0,3:2|0:0|0:0,0:0:0:0:
401,61,265960,2,0,L|467:60,2,57.7500017623902,0|8|0,0:0|0:0|0:0,0:0:0:0:
222,30,266197,2,0,L|217:97,1,57.7500017623902
40,136,266355,6,0,L|83:197,1,57.7500017623902,0|0,3:2|0:0,0:0:0:0:
138,196,266513,1,0,0:0:0:0:
312,264,266592,1,0,0:0:0:0:
255,274,266670,1,8,0:0:0:0:
198,284,266749,1,0,0:0:0:0:
377,346,266828,2,0,L|379:273,1,57.7500017623902
203,223,266986,6,0,L|269:223,1,57.7500017623902,0|0,3:2|0:0,0:0:0:0:
260,223,267144,1,0,0:0:0:0:
86,177,267223,2,0,L|83:114,1,57.7500017623902,0|8,0:0|0:0,0:0:0:0:
142,103,267381,1,0,0:0:0:0:
316,57,267460,2,0,L|240:48,1,57.7500017623902
433,128,267618,6,0,L|496:121,2,57.7500017623902,0|0|0,3:2|0:0|0:0,0:0:0:0:
261,197,267855,2,0,L|189:187,2,57.7500017623902,0|8|0,0:0|0:0|0:0,0:0:0:0:
89,225,268092,2,0,L|82:298,1,57.7500017623902
306,313,268250,5,4,3:2:0:0:
47,326,268407,1,4,3:2:0:0:
162,304,268565,2,0,L|164:247,1,57.7500017623902
93,232,268723,2,0,L|177:210,1,57.7500017623902
355,184,268881,1,4,3:2:0:0:
121,135,269039,1,4,3:2:0:0:
238,116,269197,5,0,0:0:0:0:
266,111,269236,1,0,0:0:0:0:
287,93,269275,1,0,0:0:0:0:
295,66,269315,1,0,0:0:0:0:
286,38,269354,1,0,0:0:0:0:
264,20,269394,1,0,0:0:0:0:
236,17,269433,1,0,0:0:0:0:
56,78,269513,6,0,L|341:118,1,231.000007049561,4|0,3:2|0:0,0:0:0:0:
446,166,269750,2,0,L|167:176,1,231.000007049561,4|0,3:2|0:0,0:0:0:0:
392,263,269986,2,0,L|457:269,1,57.7500017623902,4|0,3:2|0:0,0:0:0:0:
257,312,270144,2,0,L|192:316,1,57.7500017623902
366,334,270302,1,2,1:0:0:0:
221,343,270381,1,2,1:0:0:0:
72,189,270460,5,2,1:0:0:0:
58,217,270499,1,0,0:0:0:0:
56,248,270538,1,0,0:0:0:0:
67,277,270578,1,0,0:0:0:0:
93,300,270617,1,0,0:0:0:0:
123,314,270657,1,0,0:0:0:0:
156,318,270696,1,0,0:0:0:0:
363,242,270776,6,0,L|287:231,2,57.7500017623902,4|0|0,3:2|0:0|0:0,0:0:0:0:
184,176,271013,2,0,L|122:185,2,57.7500017623902,0|8|0,0:0|0:0|0:0,0:0:0:0:
363,157,271250,2,0,L|371:86,1,57.7500017623902
193,72,271407,6,0,L|233:26,1,57.7500017623902,0|0,3:2|0:0,0:0:0:0:
295,33,271565,1,0,0:0:0:0:
113,114,271644,2,0,L|30:117,1,57.7500017623902,0|8,0:0|0:0,0:0:0:0:
55,116,271802,1,0,0:0:0:0:
230,162,271881,2,0,L|234:244,1,57.7500017623902
410,295,272039,6,0,L|364:354,1,57.7500017623902,0|0,3:2|0:0,0:0:0:0:
309,338,272197,1,0,0:0:0:0:
134,292,272276,2,0,L|167:241,1,57.7500017623902,0|8,0:0|0:0,0:0:0:0:
231,230,272434,1,0,0:0:0:0:
52,207,272513,2,0,L|54:131,1,57.7500017623902
229,102,272671,6,0,L|291:119,2,57.7500017623902,0|0|0,3:2|0:0|0:0,0:0:0:0:
52,72,272907,2,0,L|86:22,1,57.7500017623902,0|8,0:0|0:0,0:0:0:0:
150,30,273065,1,0,0:0:0:0:
325,69,273144,2,0,L|385:68,1,57.7500017623902
214,114,273302,6,0,L|210:189,1,57.7500017623902,0|0,3:2|0:0,0:0:0:0:
271,192,273460,1,0,0:0:0:0:
94,199,273539,2,0,L|81:263,1,57.7500017623902,0|8,0:0|0:0,0:0:0:0:
141,274,273697,1,0,0:0:0:0:
313,334,273776,2,0,L|313:263,1,57.7500017623902
486,221,273934,5,0,3:2:0:0:
428,216,274012,1,0,0:0:0:0:
370,211,274091,1,0,0:0:0:0:
198,167,274171,2,0,L|264:166,2,57.7500017623902,0|8|0,0:0|0:0|0:0,0:0:0:0:
371,120,274407,2,0,L|378:48,1,57.7500017623902
198,49,274565,6,0,L|134:45,2,57.7500017623902,0|0|0,3:2|0:0|0:0,0:0:0:0:
374,132,274802,2,0,L|454:122,2,57.7500017623902,0|8|0,0:0|0:0|0:0,0:0:0:0:
197,180,275039,2,0,L|198:264,1,57.7500017623902
21,277,275197,6,0,L|63:327,1,57.7500017623902,0|0,3:2|0:0,0:0:0:0:
122,323,275355,1,0,0:0:0:0:
298,278,275434,1,0,0:0:0:0:
240,272,275512,1,8,0:0:0:0:
183,266,275591,1,0,0:0:0:0:
363,211,275671,2,0,L|439:208,1,57.7500017623902
241,170,275828,6,0,L|238:109,1,57.7500017623902,0|0,3:2|0:0,0:0:0:0:
296,92,275986,1,0,0:0:0:0:
120,48,276065,2,0,L|193:49,1,57.7500017623902,0|8,0:0|0:0,0:0:0:0:
177,48,276223,1,0,0:0:0:0:
15,142,276302,2,0,L|84:149,1,57.7500017623902
251,228,276460,6,0,L|175:235,2,57.7500017623902,0|0|0,3:2|0:0|0:0,0:0:0:0:
427,300,276697,2,0,L|511:312,2,57.7500017623902,0|8|0,0:0|0:0|0:0,0:0:0:0:
253,356,276934,2,0,L|249:269,1,57.7500017623902
72,258,277092,6,0,L|108:213,1,57.7500017623902,0|0,3:2|0:0,0:0:0:0:
174,209,277250,1,0,0:0:0:0:
343,192,277328,2,0,L|291:132,1,57.7500017623902,0|8,0:0|0:0,0:0:0:0:
241,132,277486,1,0,0:0:0:0:
67,87,277565,2,0,L|145:83,1,57.7500017623902
300,47,277723,5,0,3:2:0:0:
242,41,277801,1,0,0:0:0:0:
185,35,277880,1,0,0:0:0:0:
365,116,277960,2,0,L|425:114,2,57.7500017623902,0|8|0,0:0|0:0|0:0,0:0:0:0:
183,200,278197,2,0,L|257:216,1,57.7500017623902
419,261,278355,6,0,L|359:277,1,57.7500017623902,0|0,3:2|0:0,0:0:0:0:
217,323,278513,1,8,0:0:0:0:
72,344,278592,2,0,L|71:279,1,57.7500017623902,8|0,0:0|0:0,0:0:0:0:
130,271,278750,1,8,0:0:0:0:
304,240,278828,2,0,L|311:172,1,57.7500017623902,8|0,0:0|0:0,0:0:0:0:
133,127,278986,6,0,L|206:120,1,57.7500017623902,0|0,3:2|0:0,0:0:0:0:
337,97,279144,1,8,0:0:0:0:
180,47,279223,2,0,L|107:43,2,57.7500017623902,8|0|8,0:0|0:0|0:0,0:0:0:0:
358,101,279460,2,0,L|287:112,1,57.7500017623902,8|0,0:0|0:0,0:0:0:0:
123,177,279618,6,0,L|188:196,1,57.7500017623902,0|0,3:2|0:0,0:0:0:0:
326,219,279776,1,8,0:0:0:0:
471,267,279855,1,8,0:0:0:0:
414,279,279933,1,0,0:0:0:0:
358,292,280012,1,8,0:0:0:0:
188,348,280092,2,0,L|181:282,1,57.7500017623902,8|0,0:0|0:0,0:0:0:0:
358,230,280250,6,0,L|262:209,1,57.7500017623902,0|0,3:2|0:0,0:0:0:0:
148,182,280407,1,8,0:0:0:0:
295,153,280486,2,0,L|368:165,1,57.7500017623902,8|0,0:0|0:0,0:0:0:0:
295,153,280644,1,8,0:0:0:0:
470,109,280723,2,0,L|463:52,1,57.7500017623902,8|0,0:0|0:0,0:0:0:0:
261,69,280881,5,4,3:2:0:0:
376,40,281039,2,0,L|379:160,1,115.50000352478,0|0,3:2|0:0,0:0:0:0:
133,206,281355,1,0,3:2:0:0:
249,257,281513,2,0,L|289:258,2,28.8750008811951,0|0|0,3:2|0:0|0:0,0:0:0:0:
179,313,281671,2,0,L|146:310,2,28.8750008811951
360,274,281828,5,0,3:2:0:0:
244,266,281985,1,0,3:2:0:0:
129,259,282143,1,0,0:0:0:0:
393,165,282302,2,0,L|265:154,2,115.50000352478,0|0|0,3:2|3:2|0:0,0:0:0:0:
160,105,282776,2,0,L|41:108,1,115.50000352478,0|0,3:2|0:0,0:0:0:0:
221,37,283013,2,0,L|229:159,1,115.50000352478,0|0,3:2|0:0,0:0:0:0:
50,248,283250,2,0,L|111:263,1,57.7500017623902,0|0,3:2|0:0,0:0:0:0:
299,212,283407,6,0,P|353:255|291:326,1,173.250005287171,0|0,3:2|0:0,0:0:0:0:
126,319,283723,1,4,3:2:0:0:
15,258,283881,2,0,L|100:258,1,57.7500017623902
250,177,284039,2,0,L|69:154,1,173.250005287171,2|0,0:0|0:0,0:0:0:0:
254,89,284355,2,0,L|376:91,1,115.50000352478,4|0,3:2|0:0,0:0:0:0:
103,60,284671,6,0,L|165:61,1,57.7500017623902,2|0,0:0|0:0,0:0:0:0:
96,84,284828,1,2,0:0:0:0:
337,135,284986,2,0,P|367:175|283:258,1,173.250005287171,4|0,3:2|0:0,0:0:0:0:
478,299,285302,1,0,3:2:0:0:
236,352,285460,2,0,P|198:319|253:230,1,173.250005287171,4|0,3:2|0:0,0:0:0:0:
447,200,285776,6,0,P|468:163|384:78,1,173.250005287171,4|0,3:2|0:0,0:0:0:0:
183,78,286092,1,0,3:2:0:0:
56,76,286250,1,0,3:2:0:0:
296,165,286407,1,0,3:2:0:0:
169,182,286565,1,0,3:2:0:0:
420,250,286723,1,0,3:2:0:0:
181,296,286881,2,0,L|121:294,1,57.7500017623902,0|0,3:2|3:2,0:0:0:0:
302,253,287039,2,0,L|366:253,1,57.7500017623902,0|0,3:2|3:2,0:0:0:0:
138,209,287197,5,4,3:2:0:0:
350,356,288460,5,2,0:0:0:0:
375,349,288499,1,2,0:0:0:0:
393,331,288538,1,2,0:0:0:0:
399,305,288578,1,2,0:0:0:0:
391,281,288617,1,2,0:0:0:0:
372,264,288657,1,2,0:0:0:0:
346,259,288696,1,2,0:0:0:0:
147,238,288776,6,0,P|107:220|161:106,1,210,2|2,0:0|0:0,0:0:0:0:
257,82,289250,1,0,3:2:0:0:
480,36,289407,2,0,P|491:75|398:146,1,157.5,8|0,0:0|0:0,0:0:0:0:
202,215,289723,5,4,3:2:0:0:
96,259,289881,2,0,L|95:330,1,52.5
162,342,290039,2,0,L|215:336,2,52.5,0|0|8,3:2|0:0|0:0,0:0:0:0:
16,288,290355,2,0,L|52:243,1,52.5,0|0,3:2|0:0,0:0:0:0:
108,230,290513,1,0,0:0:0:0:
242,209,290671,2,0,L|204:167,1,52.5
149,153,290828,2,0,L|87:141,1,52.5,0|0,3:2|3:2,0:0:0:0:
291,80,290986,5,0,3:2:0:0:
396,41,291144,2,0,L|401:103,1,52.5
336,127,291302,1,0,3:2:0:0:
274,151,291381,2,0,L|267:217,1,52.5,0|8,0:0|0:0,0:0:0:0:
416,270,291618,2,0,L|384:318,1,52.5,0|0,3:2|0:0,0:0:0:0:
329,320,291776,1,0,0:0:0:0:
191,353,291934,2,0,L|186:275,1,52.5,8|0,0:0|3:0,0:0:0:0:
263,286,292092,2,0,L|268:212,1,52.5,0|0,3:0|0:0,0:0:0:0:
102,187,292250,5,0,3:0:0:0:
205,160,292407,2,0,L|265:162,1,52.5
205,160,292565,2,0,L|139:151,2,52.5,0|0|8,3:0|0:0|0:0,0:0:0:0:
353,60,292881,2,0,L|366:117,2,52.5,0|0|0,3:0|0:0|0:0,0:0:0:0:
202,192,293197,1,8,0:0:0:0:
144,210,293276,2,0,L|117:277,2,52.5,0|0|0,0:0|3:0|3:0,0:0:0:0:
320,227,293513,5,0,3:0:0:0:
198,244,293671,2,0,L|195:308,1,52.5
267,335,293828,1,0,3:0:0:0:
214,336,293906,1,0,0:0:0:0:
162,338,293985,1,8,0:0:0:0:
311,280,294144,2,0,L|379:301,2,52.5,0|0|0,3:0|0:0|0:0,0:0:0:0:
171,208,294460,2,0,L|246:192,1,52.5,8|0,0:0|3:0,0:0:0:0:
386,167,294618,2,0,L|305:156,1,52.5,0|0,3:0|0:0,0:0:0:0:
113,117,294776,6,0,L|159:64,1,52.5,4|0,3:2|3:2,0:0:0:0:
206,66,294934,1,0,3:2:0:0:
269,52,295013,2,0,L|231:12,1,52.5,0|0,3:2|3:2,0:0:0:0:
174,21,295171,1,0,3:2:0:0:
116,57,295250,2,0,L|195:86,1,52.5,0|0,3:2|3:2,0:0:0:0:
353,132,295407,6,0,L|384:185,2,52.5,0|0|0,3:2|3:2|3:2,0:0:0:0:
278,189,295644,2,0,L|253:240,2,52.5,0|0|0,3:2|3:2|3:2,0:0:0:0:
355,275,295881,2,0,L|280:277,1,52.5,0|0,3:2|3:2,0:0:0:0:
116,353,296039,6,0,L|118:290,1,52.5,0|0,3:2|3:2,0:0:0:0:
185,283,296197,2,0,L|191:216,1,52.5,0|0,3:2|3:2,0:0:0:0:
108,197,296355,2,0,L|166:194,1,52.5,0|0,3:2|3:2,0:0:0:0:
230,176,296513,2,0,L|179:168,1,52.5,0|0,3:2|3:2,0:0:0:0:
365,139,296671,6,0,L|423:132,1,52.5,0|0,3:2|3:2,0:0:0:0:
345,107,296828,2,0,L|342:50,1,52.5,0|0,3:2|3:2,0:0:0:0:
416,45,296986,2,0,L|420:-12,1,52.5,0|0,3:2|3:2,0:0:0:0:
345,80,297144,2,0,L|406:85,1,52.5,0|0,3:2|3:2,0:0:0:0:
159,148,297302,5,0,3:0:0:0:
136,169,297341,1,0,3:0:0:0:
126,199,297380,1,0,3:0:0:0:
130,230,297420,1,0,3:0:0:0:
148,255,297459,1,0,3:0:0:0:
175,270,297499,1,0,3:0:0:0:
206,272,297538,1,0,3:0:0:0:
413,303,297618,5,0,3:0:0:0:
381,307,297657,1,0,3:0:0:0:
350,311,297696,1,0,3:0:0:0:
319,315,297736,1,0,3:0:0:0:
288,319,297775,1,0,3:0:0:0:
256,323,297815,1,0,3:0:0:0:
225,327,297854,1,0,3:0:0:0:
454,356,297934,5,0,3:0:0:0:
474,332,297973,1,0,3:0:0:0:
483,302,298012,1,0,3:0:0:0:
480,271,298052,1,0,3:0:0:0:
464,244,298091,1,0,3:0:0:0:
438,226,298131,1,0,3:0:0:0:
407,220,298170,1,0,3:0:0:0:
173,162,298250,5,0,3:0:0:0:
204,160,298289,1,0,3:0:0:0:
235,158,298328,1,0,3:0:0:0:
267,156,298368,1,0,3:0:0:0:
298,154,298407,1,0,3:0:0:0:
330,152,298447,1,0,3:0:0:0:
361,150,298486,1,0,3:0:0:0:
159,53,298565,6,0,L|217:77,1,52.5,2|2,0:0|0:0,0:0:0:0:
142,88,298723,1,2,0:0:0:0:
281,187,298881,2,0,L|228:192,1,52.5,2|2,0:0|0:0,0:0:0:0:
294,217,299039,1,2,0:0:0:0:
57,336,299197,1,2,3:2:0:0:
37,288,299275,1,2,0:0:0:0:
59,242,299354,1,2,3:2:0:0:
108,228,299433,1,2,0:0:0:0:
184,196,299513,1,10,0:0:0:0:
121,169,299592,2,0,L|100:115,2,52.5,2|2|2,0:0|0:0|0:0,0:0:0:0:
354,84,299828,6,0,L|439:78,1,57.7500017623902,4|0,3:2|0:0,0:0:0:0:
235,147,299986,2,0,L|233:223,1,57.7500017623902
49,214,300144,1,8,0:0:0:0:
28,266,300222,1,0,0:0:0:0:
53,316,300301,1,0,0:0:0:0:
106,332,300380,1,0,0:0:0:0:
286,270,300460,6,0,L|224:261,1,57.7500017623902,0|0,3:2|0:0,0:0:0:0:
52,224,300618,2,0,L|96:172,1,57.7500017623902
155,167,300776,2,0,L|234:155,1,57.7500017623902,8|0,0:0|0:0,0:0:0:0:
38,103,300934,2,0,L|37:29,1,57.7500017623902
221,76,301092,6,0,L|293:57,1,57.7500017623902,0|0,3:2|0:0,0:0:0:0:
206,34,301250,2,0,L|195:144,1,57.7500017623902
376,170,301407,2,0,L|443:167,1,57.7500017623902,8|0,0:0|0:0,0:0:0:0:
269,252,301565,2,0,L|339:249,1,57.7500017623902
150,346,301723,5,0,3:2:0:0:
86,314,301802,2,0,L|71:248,2,57.7500017623902
267,308,302039,2,0,L|276:237,1,57.7500017623902,8|0,0:0|0:0,0:0:0:0:
202,247,302197,2,0,L|198:182,1,57.7500017623902
388,158,302355,6,0,L|329:152,1,57.7500017623902,0|0,3:2|0:0,0:0:0:0:
154,111,302513,2,0,L|218:106,1,57.7500017623902
390,37,302671,1,8,0:0:0:0:
455,71,302750,2,0,L|483:134,2,57.7500017623902
281,98,302986,6,0,L|272:165,1,57.7500017623902,0|0,3:2|0:0,0:0:0:0:
97,180,303144,1,0,0:0:0:0:
73,231,303222,1,0,0:0:0:0:
95,283,303301,1,8,0:0:0:0:
147,303,303380,1,0,0:0:0:0:
325,325,303460,2,0,L|390:327,1,57.7500017623902
206,262,303618,6,0,L|138:253,1,57.7500017623902,0|0,3:2|0:0,0:0:0:0:
295,198,303776,1,0,0:0:0:0:
440,148,303855,2,0,L|373:143,1,57.7500017623902,0|8,0:0|0:0,0:0:0:0:
205,106,304013,2,0,L|247:66,1,57.7500017623902
313,66,304171,1,0,0:0:0:0:
134,55,304250,6,0,L|71:49,3,57.7500017623902,0|0|0|0,3:2|0:0|0:0|0:0,0:0:0:0:
261,154,304565,2,0,L|354:163,3,57.7500017623902,8|0|0|0,0:0|0:0|0:0|0:0,0:0:0:0:
136,208,304881,6,0,L|124:273,1,57.7500017623902,0|0,3:2|0:0,0:0:0:0:
303,303,305039,2,0,L|365:317,1,57.7500017623902
183,357,305197,1,8,0:0:0:0:
150,311,305275,1,0,0:0:0:0:
171,260,305354,1,0,0:0:0:0:
226,251,305433,1,0,0:0:0:0:
405,210,305513,6,0,L|344:197,1,57.7500017623902,0|0,3:2|0:0,0:0:0:0:
164,154,305671,2,0,L|211:104,1,57.7500017623902
267,101,305828,2,0,L|336:104,1,57.7500017623902,8|0,0:0|0:0,0:0:0:0:
147,55,305986,2,0,L|86:48,1,57.7500017623902
273,154,306144,5,0,3:2:0:0:
337,182,306223,2,0,L|363:250,2,57.7500017623902
158,290,306460,2,0,L|234:302,1,57.7500017623902,8|0,0:0|0:0,0:0:0:0:
36,371,306618,2,0,L|29:289,1,57.7500017623902
211,249,306776,6,0,L|170:187,1,57.7500017623902,0|0,3:2|0:0,0:0:0:0:
115,191,306934,2,0,L|54:181,1,57.7500017623902
232,150,307092,2,0,L|310:152,1,57.7500017623902,8|0,0:0|0:0,0:0:0:0:
219,123,307250,2,0,L|214:52,1,57.7500017623902
40,49,307407,6,0,L|131:47,1,57.7500017623902,0|0,3:2|0:0,0:0:0:0:
277,83,307565,2,0,L|334:84,1,57.7500017623902
154,138,307723,1,8,0:0:0:0:
90,160,307802,2,0,L|62:227,2,57.7500017623902
267,214,308039,6,0,L|267:285,1,57.7500017623902,0|0,3:2|0:0,0:0:0:0:
446,214,308197,1,0,0:0:0:0:
470,264,308275,1,0,0:0:0:0:
447,315,308354,1,8,0:0:0:0:
393,329,308433,1,0,0:0:0:0:
216,360,308513,2,0,L|143:353,1,57.7500017623902
343,264,308671,6,0,L|424:264,1,57.7500017623902,0|0,3:2|0:0,0:0:0:0:
256,224,308828,1,0,0:0:0:0:
111,186,308907,2,0,L|212:176,1,57.7500017623902,0|8,0:0|0:0,0:0:0:0:
351,140,309065,2,0,L|309:95,1,57.7500017623902
247,89,309223,1,0,0:0:0:0:
427,30,309302,5,2,0:0:0:0:
445,83,309380,1,2,0:0:0:0:
427,137,309459,1,2,0:0:0:0:
379,168,309538,1,2,0:0:0:0:
323,163,309617,1,2,0:0:0:0:
443,220,309776,1,2,0:0:0:0:
148,318,309934,5,4,3:2:0:0:
292,326,310013,2,0,L|295:255,1,57.7500017623902,0|0,3:2|0:0,0:0:0:0:
148,318,310171,1,0,3:2:0:0:
296,226,310250,1,8,0:0:0:0:
359,219,310328,2,0,L|379:163,2,57.7500017623902
178,212,310565,6,0,L|116:197,1,57.7500017623902,0|0,3:2|0:0,0:0:0:0:
295,176,310723,2,0,L|302:109,1,57.7500017623902
231,116,310881,2,0,L|228:48,1,57.7500017623902,8|0,0:0|0:0,0:0:0:0:
51,43,311039,2,0,L|148:42,1,57.7500017623902,0|0,3:2|0:0,0:0:0:0:
288,98,311197,6,0,L|242:154,1,57.7500017623902,0|0,3:2|0:0,0:0:0:0:
185,166,311355,2,0,L|122:168,1,57.7500017623902
304,220,311513,2,0,L|310:290,1,57.7500017623902,8|0,0:0|0:0,0:0:0:0:
134,338,311671,2,0,L|237:343,1,57.7500017623902
366,352,311828,6,0,L|367:281,1,57.7500017623902,0|0,3:2|0:0,0:0:0:0:
293,285,311986,2,0,L|285:227,1,57.7500017623902
463,213,312144,1,8,0:0:0:0:
486,162,312222,1,0,0:0:0:0:
462,112,312301,1,0,0:0:0:0:
408,98,312380,1,0,0:0:0:0:
230,88,312460,6,0,L|163:83,1,57.7500017623902,0|0,3:2|0:0,0:0:0:0:
349,49,312618,2,0,L|284:38,1,57.7500017623902
112,59,312776,1,8,0:0:0:0:
48,78,312855,2,0,L|24:136,2,57.7500017623902
227,191,313092,6,0,L|304:189,1,57.7500017623902,0|0,3:2|0:0,0:0:0:0:
107,268,313250,2,0,L|149:314,1,57.7500017623902
207,327,313407,2,0,L|273:329,1,57.7500017623902,8|0,0:0|0:0,0:0:0:0:
82,355,313565,2,0,L|72:281,1,57.7500017623902
265,240,313723,6,0,L|335:234,1,57.7500017623902,0|0,3:2|0:0,0:0:0:0:
175,181,313881,1,0,3:2:0:0:
28,144,313960,2,0,L|95:145,1,57.7500017623902,0|8,0:0|0:0,0:0:0:0:
235,113,314118,1,0,3:2:0:0:
382,80,314197,2,0,L|303:72,1,57.7500017623902,0|0,3:2|0:0,0:0:0:0:
151,49,314355,2,0,L|244:43,1,57.7500017623902,0|0,3:2|0:0,0:0:0:0:
403,48,314513,2,0,L|336:42,1,57.7500017623902,0|0,3:2|0:0,0:0:0:0:
166,98,314671,5,8,0:0:0:0:
138,104,314710,1,0,0:0:0:0:
118,124,314749,1,0,0:0:0:0:
112,152,314789,1,0,0:0:0:0:
123,179,314828,1,0,0:0:0:0:
146,196,314868,1,0,0:0:0:0:
174,197,314907,1,0,0:0:0:0:
361,249,314986,6,0,L|449:257,1,57.7500017623902,4|0,3:2|0:0,0:0:0:0:
232,329,315144,2,0,L|128:328,1,57.7500017623902
357,343,315302,1,8,0:0:0:0:
421,323,315381,2,0,L|441:265,2,57.7500017623902
239,263,315618,6,0,L|163:260,1,57.7500017623902,0|0,3:2|0:0,0:0:0:0:
354,317,315776,2,0,L|357:253,1,57.7500017623902
287,244,315934,2,0,L|289:173,1,57.7500017623902,8|0,0:0|0:0,0:0:0:0:
472,127,316092,2,0,L|391:122,1,57.7500017623902
238,97,316250,6,0,L|305:89,2,57.7500017623902,0|0|0,3:2|0:0|0:0,0:0:0:0:
60,155,316486,2,0,L|95:216,1,57.7500017623902,0|8,0:0|0:0,0:0:0:0:
153,223,316644,1,0,0:0:0:0:
329,262,316723,2,0,L|296:314,1,57.7500017623902
234,332,316881,5,0,3:2:0:0:
409,346,316960,2,0,L|466:353,1,57.7500017623902
319,315,317118,1,0,0:0:0:0:
463,303,317197,1,8,0:0:0:0:
487,252,317275,1,0,0:0:0:0:
466,200,317354,1,0,0:0:0:0:
414,179,317433,1,0,0:0:0:0:
191,106,317513,6,0,L|397:93,1,173.250005287171,4|0,3:2|0:0,0:0:0:0:
144,36,317828,1,0,0:0:0:0:
120,52,317867,1,0,0:0:0:0:
107,77,317906,1,0,0:0:0:0:
107,106,317946,1,0,0:0:0:0:
121,131,317985,1,0,0:0:0:0:
144,147,318025,1,0,0:0:0:0:
173,150,318064,1,0,0:0:0:0:
364,179,318144,6,0,P|391:233|297:291,1,173.250005287171,4|0,3:2|0:0,0:0:0:0:
133,347,318460,2,0,L|202:339,1,57.7500017623902,2|2,0:0|0:0,0:0:0:0:
133,347,318618,1,2,0:0:0:0:
423,343,318776,6,0,P|454:282|365:220,1,173.250005287171,12|0,0:0|0:0,0:0:0:0:
178,179,319092,2,0,L|363:160,1,173.250005287171,12|0,0:0|0:0,0:0:0:0:
144,138,319407,2,0,P|100:93|172:23,1,173.250005287171,12|0,0:0|0:0,0:0:0:0:
344,73,319723,2,0,B|117:95|117:95|181:199,1,346.500010574341,12|0,0:0|0:0,0:0:0:0:
366,209,320039,6,0,B|314:316|314:316|270:211|270:211|501:209,1,462.000014099122,4|8,3:2|0:0,0:0:0:0:
218,144,320513,2,0,B|446:143|446:143|408:28|408:28|363:147,1,462.000014099122,4|8,3:2|0:0,0:0:0:0:
124,171,320986,2,0,P|90:239|184:258,1,157.5,4|0,3:2|0:0,0:0:0:0:
326,310,321302,5,0,3:2:0:0:
209,263,321460,2,0,L|248:215,1,52.5,0|0,3:2|3:2,0:0:0:0:
301,202,321618,1,8,1:0:0:0:
406,178,321776,1,0,3:2:0:0:
259,151,321934,2,0,L|245:85,2,52.5,0|0|8,3:2|0:0|1:0,0:0:0:0:
407,189,322250,1,2,0:0:0:0:
433,231,322328,1,2,0:0:0:0:
413,277,322407,1,2,0:0:0:0:
363,287,322486,1,2,0:0:0:0:
175,343,322565,6,0,B|134:237|134:237|94:345|94:345|364:346,1,462.000014099122,4|8,3:2|0:0,0:0:0:0:
82,262,323039,2,0,B|311:263|311:263|273:151|273:151|229:274,1,462.000014099122,4|8,3:2|0:0,0:0:0:0:
467,236,323513,2,0,P|490:172|410:133,1,157.5,4|0,3:2|0:0,0:0:0:0:
243,69,323828,5,0,3:2:0:0:
348,44,323986,1,0,3:2:0:0:
211,110,324144,1,8,1:0:0:0:
199,224,324302,1,0,3:2:0:0:
346,269,324460,1,0,3:2:0:0:
356,353,324618,1,8,1:0:0:0:
210,353,324776,1,2,0:0:0:0:
153,331,324855,2,0,L|126:267,2,52.5,2|2|2,0:0|0:0|0:0,0:0:0:0:
327,242,325092,5,8,1:0:0:0:
222,217,325250,1,8,1:0:0:0:
87,152,325407,1,8,1:0:0:0:
191,129,325565,1,8,1:0:0:0:
55,34,325723,1,8,1:0:0:0:
44,134,325881,1,8,1:0:0:0:
201,177,326039,5,2,0:0:0:0:
232,191,326091,1,2,0:0:0:0:
249,221,326144,1,2,0:0:0:0:
247,255,326196,1,2,0:0:0:0:
226,282,326249,1,2,0:0:0:0:
193,292,326302,1,2,0:0:0:0:
51,342,326355,5,2,0:0:0:0:
182,280,326513,2,0,L|121:282,1,52.5,2|2,0:0|0:0,0:0:0:0:
263,206,326750,2,0,L|343:206,1,52.5,2|2,0:0|0:0,0:0:0:0:
169,166,326986,1,2,0:0:0:0:
145,120,327064,1,2,0:0:0:0:
167,74,327143,1,2,0:0:0:0:
216,63,327222,1,2,0:0:0:0:
372,90,327302,1,2,0:0:0:0:
239,136,327460,1,2,0:0:0:0:
472,164,327618,6,0,B|475:275|475:275|475:157|475:157|222:157,1,462.000014099122,4|8,3:2|0:0,0:0:0:0:
475,73,328092,2,0,B|246:73|246:73|286:181|286:181|336:71,1,462.000014099122,4|8,3:2|0:0,0:0:0:0:
104,206,328565,6,0,B|330:207|330:207|292:318|292:318|247:203,1,462.000014099122,4|8,3:2|0:0,0:0:0:0:
22,137,329039,2,0,B|252:137|252:137|206:27|206:27|163:136,1,462.000014099122,4|8,3:2|0:0,0:0:0:0:
397,207,329513,6,0,B|171:206|171:206|223:319|223:319|267:204,1,462.000014099122,4|8,3:2|0:0,0:0:0:0:
486,145,329986,2,0,B|260:144|260:144|312:257|312:257|356:142,1,462.000014099122,4|8,3:2|0:0,0:0:0:0:
119,70,330460,6,0,B|349:70|349:70|301:180|301:180|244:68,1,462.000014099122,4|8,3:2|0:0,0:0:0:0:
22,97,330934,2,0,B|22:206|22:206|22:98|22:98|282:102,1,462.000014099122,4|8,3:2|0:0,0:0:0:0:
39,257,331407,6,0,B|268:261|268:261|216:158|216:158|163:268,1,462.000014099122,4|8,3:2|0:0,0:0:0:0:
444,192,331881,2,0,B|216:191|216:191|259:80|259:80|306:199,1,462.000014099122,4|8,3:2|0:0,0:0:0:0:
63,96,332355,1,4,3:2:0:0:
439,89,332513,5,4,3:2:0:0:
256,192,332671,12,0,333934,0:0:0:0:
