osu file format v14

[General]
AudioFilename: audio.mp3
AudioLeadIn: 0
PreviewTime: 59246
Countdown: 0
SampleSet: Soft
StackLeniency: 0.7
Mode: 3
LetterboxInBreaks: 0
SpecialStyle: 0
WidescreenStoryboard: 1

[Editor]
DistanceSpacing: 0.9
BeatDivisor: 1
GridSize: 8
TimelineZoom: 3.600004

[Metadata]
Title:Cho*Cho*Kou*Soku*De*Mae*Sai*Soku!!! Speed*Star*kanade
TitleUnicode:超☆超☆光☆速☆出☆前☆最☆速!!! スピード★スター★かなで
Artist:Camellia feat. Nanahira
ArtistUnicode:かめりあ feat. ななひら
Creator:_S h i r o_
Version:nEwwOrLD
Source:SOUND VOLTEX IV HEAVENLY HAVEN
Tags:
BeatmapID:1252839
BeatmapSetID:592092

[Difficulty]
HPDrainRate:6
CircleSize:7
OverallDifficulty:0
ApproachRate:5
SliderMultiplier:1.4
SliderTickRate:1

[Events]
//Background and Video events
0,0,"bg.jpg",0,0
//Break Periods
//Storyboard Layer 0 (Background)
//Storyboard Layer 1 (Fail)
//Storyboard Layer 2 (Pass)
//Storyboard Layer 3 (Foreground)
//Storyboard Sound Samples

[TimingPoints]
650,923.076923076923,4,2,0,0,1,0
650,-15.3846153846154,4,2,0,0,0,0
11726,1000,4,2,0,0,1,0
11726,-15.0375939849624,4,2,0,0,0,0
12726,1090.90909090909,4,2,0,0,1,0
12726,-14.2857142857143,4,2,0,0,0,0
13816,1500,4,2,0,0,1,0
13816,-13.7931034482759,4,2,0,0,0,0
14566,2000,4,2,0,0,1,0
14566,-14.2857142857143,4,2,0,0,0,0
15566,120,4,2,0,0,1,0
15566,-100,4,2,0,0,0,0
60686,-100,4,2,0,0,0,1
76046,-100,4,2,0,0,0,0
89486,107.142857142857,4,2,0,0,1,0
89486,-109.89010989011,4,2,0,0,0,0
90343,96.7741935483871,4,2,0,0,1,0
90343,-119.047619047619,4,2,0,0,0,0
91117,88.2352941176471,4,2,0,0,1,0
91117,-129.87012987013,4,2,0,0,0,0
91822,81.0810810810811,4,2,0,0,1,0
91822,-142.857142857143,4,2,0,0,0,0
92470,75,4,2,0,0,1,0
92470,-158.730158730159,4,2,0,0,0,0
93070,69.7674418604651,4,2,0,0,1,0
93070,-169.491525423729,4,2,0,0,0,0
93628,65.2173913043478,4,2,0,0,1,0
93628,-181.818181818182,4,2,0,0,0,0
94149,62.5,4,2,0,0,1,0
94149,-192.307692307692,4,2,0,0,0,0
94649,-188.679245283019,4,2,0,0,0,0
95149,-185.185185185185,4,2,0,0,0,0
96149,60.0600600600601,4,2,0,0,1,0
96149,-196.078431372549,4,2,0,0,0,0
96629,-196.078431372549,4,2,0,0,0,1
104317,-196.078431372549,4,2,0,0,0,0
106239,-200,4,2,0,0,0,0
112485,1090.90909090909,4,2,0,0,1,0
112485,-18.1818181818182,4,2,0,0,0,0
114666,1500,4,2,0,0,1,0
114666,-16.1290322580645,4,2,0,0,0,0
115416,2000,4,2,0,0,1,0
115416,-13.1578947368421,4,2,0,0,0,0

[HitObjects]
36,192,650,128,0,1169:0:0:0:0:
256,192,650,128,0,1169:0:0:0:0:
182,192,957,1,0,0:0:0:0:
109,192,957,1,0,0:0:0:0:
475,192,957,128,0,1265:0:0:0:0:
329,192,996,1,0,0:0:0:0:
402,192,1034,1,0,0:0:0:0:
182,192,1265,1,0,0:0:0:0:
109,192,1265,1,0,0:0:0:0:
402,192,1265,128,0,1573:0:0:0:0:
256,192,1284,1,0,0:0:0:0:
36,192,1284,1,0,0:0:0:0:
329,192,1342,1,0,0:0:0:0:
256,192,1573,128,0,2188:0:0:0:0:
475,192,1573,128,0,2188:0:0:0:0:
402,192,1880,1,0,0:0:0:0:
329,192,1880,1,0,0:0:0:0:
109,192,1880,128,0,2188:0:0:0:0:
182,192,1919,1,0,0:0:0:0:
36,192,1957,1,0,0:0:0:0:
329,192,2188,1,0,0:0:0:0:
402,192,2188,1,0,0:0:0:0:
36,192,2188,128,0,2496:0:0:0:0:
182,192,2207,1,0,0:0:0:0:
109,192,2265,1,0,0:0:0:0:
256,192,2496,128,0,3015:0:0:0:0:
109,192,2496,128,0,3015:0:0:0:0:
182,192,2803,1,0,0:0:0:0:
36,192,2803,1,0,0:0:0:0:
402,192,2803,128,0,3111:0:0:0:0:
329,192,2842,1,0,0:0:0:0:
475,192,2880,1,0,0:0:0:0:
36,192,3111,1,0,0:0:0:0:
182,192,3111,1,0,0:0:0:0:
475,192,3111,128,0,3419:0:0:0:0:
109,192,3130,1,0,0:0:0:0:
256,192,3130,1,0,0:0:0:0:
329,192,3188,1,0,0:0:0:0:
256,192,3419,128,0,3938:0:0:0:0:
402,192,3419,128,0,3938:0:0:0:0:
329,192,3726,1,0,0:0:0:0:
475,192,3726,1,0,0:0:0:0:
109,192,3726,128,0,4034:0:0:0:0:
182,192,3765,1,0,0:0:0:0:
36,192,3803,1,0,0:0:0:0:
329,192,4034,1,0,0:0:0:0:
475,192,4034,1,0,0:0:0:0:
36,192,4034,128,0,4342:0:0:0:0:
402,192,4053,1,0,0:0:0:0:
256,192,4053,1,0,0:0:0:0:
182,192,4111,1,0,0:0:0:0:
329,192,4342,128,0,4861:0:0:0:0:
475,192,4342,128,0,4861:0:0:0:0:
182,192,4342,1,0,0:0:0:0:
36,192,4650,128,0,4957:0:0:0:0:
109,192,4650,1,0,0:0:0:0:
182,192,4688,1,0,0:0:0:0:
256,192,4726,1,0,0:0:0:0:
256,192,4957,128,0,5265:0:0:0:0:
402,192,4957,1,0,0:0:0:0:
182,192,4976,1,0,0:0:0:0:
329,192,4976,1,0,0:0:0:0:
475,192,4976,1,0,0:0:0:0:
182,192,5265,128,0,5784:0:0:0:0:
36,192,5265,128,0,5784:0:0:0:0:
329,192,5553,1,0,0:0:0:0:
475,192,5573,128,0,5880:0:0:0:0:
402,192,5573,1,0,0:0:0:0:
256,192,5880,128,0,6188:0:0:0:0:
109,192,5880,1,0,0:0:0:0:
402,192,5900,1,0,0:0:0:0:
36,192,5900,1,0,0:0:0:0:
182,192,5900,1,0,0:0:0:0:
329,192,6188,128,0,6496:0:0:0:0:
109,192,6476,1,0,0:0:0:0:
256,192,6476,1,0,0:0:0:0:
182,192,6496,1,0,0:0:0:0:
402,192,6650,1,0,0:0:0:0:
256,192,6803,1,0,0:0:0:0:
329,192,6823,1,0,0:0:0:0:
182,192,6823,1,0,0:0:0:0:
109,192,6957,1,0,0:0:0:0:
329,192,7111,1,0,0:0:0:0:
475,192,7111,1,0,0:0:0:0:
402,192,7265,1,0,0:0:0:0:
256,192,7419,1,0,0:0:0:0:
109,192,7573,1,0,0:0:0:0:
182,192,7726,1,0,0:0:0:0:
402,192,7880,1,0,0:0:0:0:
329,192,8034,128,0,8649:0:0:0:0:
109,192,8034,128,0,8188:0:0:0:0:
256,192,8034,128,0,8188:0:0:0:0:
402,192,8342,128,0,8957:0:0:0:0:
256,192,8342,1,0,0:0:0:0:
109,192,8342,1,0,0:0:0:0:
182,192,8342,128,0,8496:0:0:0:0:
36,192,8342,128,0,8496:0:0:0:0:
475,192,8649,128,0,9265:0:0:0:0:
182,192,8649,1,0,0:0:0:0:
256,192,8669,1,0,0:0:0:0:
109,192,8669,1,0,0:0:0:0:
36,192,8957,128,0,9573:0:0:0:0:
182,192,8957,1,0,0:0:0:0:
256,192,8957,128,0,9111:0:0:0:0:
109,192,8957,128,0,9111:0:0:0:0:
182,192,9111,128,0,9265:0:0:0:0:
329,192,9111,1,0,0:0:0:0:
109,192,9265,128,0,9880:0:0:0:0:
256,192,9265,1,0,0:0:0:0:
402,192,9265,1,0,0:0:0:0:
329,192,9573,1,0,0:0:0:0:
182,192,9573,128,0,10188:0:0:0:0:
256,192,9592,1,0,0:0:0:0:
402,192,9592,1,0,0:0:0:0:
329,192,9880,128,0,10496:0:0:0:0:
402,192,9880,128,0,10034:0:0:0:0:
256,192,9880,128,0,10034:0:0:0:0:
109,192,10188,1,0,0:0:0:0:
256,192,10188,1,0,0:0:0:0:
402,192,10188,128,0,10803:0:0:0:0:
475,192,10188,128,0,10342:0:0:0:0:
36,192,10188,128,0,10342:0:0:0:0:
182,192,10496,5,0,0:0:0:0:
475,192,10496,128,0,11111:0:0:0:0:
109,192,10515,1,0,0:0:0:0:
256,192,10515,1,0,0:0:0:0:
36,192,10803,128,0,11419:0:0:0:0:
109,192,10803,128,0,10957:0:0:0:0:
329,192,10803,128,0,10957:0:0:0:0:
182,192,10957,128,0,11111:0:0:0:0:
402,192,11111,1,0,0:0:0:0:
109,192,11111,128,0,11726:0:0:0:0:
256,192,11111,1,0,0:0:0:0:
182,192,11419,128,0,11726:0:0:0:0:
329,192,11419,1,0,0:0:0:0:
256,192,11438,1,0,0:0:0:0:
402,192,11438,1,0,0:0:0:0:
329,192,11726,128,0,12059:0:0:0:0:
182,192,12059,128,0,12392:0:0:0:0:
256,192,12059,1,0,0:0:0:0:
402,192,12101,1,0,0:0:0:0:
109,192,12101,1,0,0:0:0:0:
36,192,12392,128,0,12726:0:0:0:0:
256,192,12392,1,0,0:0:0:0:
109,192,12413,1,0,0:0:0:0:
402,192,12413,1,0,0:0:0:0:
402,192,12726,128,0,13089:0:0:0:0:
256,192,12726,1,0,0:0:0:0:
256,192,13089,128,0,13453:0:0:0:0:
109,192,13089,1,0,0:0:0:0:
109,192,13453,128,0,13816:0:0:0:0:
402,192,13453,1,0,0:0:0:0:
475,192,13816,128,0,14316:0:0:0:0:
256,192,13816,1,0,0:0:0:0:
329,192,13909,1,0,0:0:0:0:
329,192,14316,128,0,14899:0:0:0:0:
182,192,14316,1,0,0:0:0:0:
256,192,14378,1,0,0:0:0:0:
182,192,14899,128,0,15566:0:0:0:0:
36,192,14899,1,0,0:0:0:0:
475,192,14941,1,0,0:0:0:0:
329,192,15566,128,0,15626:0:0:0:0:
402,192,15566,128,0,15626:0:0:0:0:
182,192,15626,128,0,15686:0:0:0:0:
109,192,15626,128,0,15686:0:0:0:0:
329,192,15686,1,0,0:0:0:0:
402,192,15686,1,0,0:0:0:0:
182,192,15746,1,0,0:0:0:0:
109,192,15746,1,0,0:0:0:0:
329,192,15806,128,0,15866:0:0:0:0:
402,192,15806,128,0,15866:0:0:0:0:
182,192,15866,128,0,15926:0:0:0:0:
109,192,15866,128,0,15926:0:0:0:0:
329,192,15926,1,0,0:0:0:0:
402,192,15926,1,0,0:0:0:0:
182,192,16046,128,0,16106:0:0:0:0:
109,192,16046,128,0,16106:0:0:0:0:
36,192,16046,128,0,16106:0:0:0:0:
329,192,16106,1,0,0:0:0:0:
402,192,16106,1,0,0:0:0:0:
475,192,16106,1,0,0:0:0:0:
182,192,16166,1,0,0:0:0:0:
109,192,16166,1,0,0:0:0:0:
36,192,16166,1,0,0:0:0:0:
329,192,16226,128,0,16286:0:0:0:0:
402,192,16226,128,0,16286:0:0:0:0:
475,192,16226,128,0,16286:0:0:0:0:
182,192,16286,128,0,16346:0:0:0:0:
109,192,16286,128,0,16346:0:0:0:0:
36,192,16286,128,0,16346:0:0:0:0:
36,192,16406,1,0,0:0:0:0:
109,192,16406,1,0,0:0:0:0:
182,192,16406,1,0,0:0:0:0:
329,192,16466,1,0,0:0:0:0:
402,192,16466,1,0,0:0:0:0:
475,192,16466,1,0,0:0:0:0:
182,192,16526,128,0,16586:0:0:0:0:
109,192,16526,128,0,16586:0:0:0:0:
36,192,16526,128,0,16586:0:0:0:0:
329,192,16586,128,0,16646:0:0:0:0:
402,192,16586,128,0,16646:0:0:0:0:
475,192,16586,128,0,16646:0:0:0:0:
182,192,16646,1,0,0:0:0:0:
109,192,16646,1,0,0:0:0:0:
36,192,16646,1,0,0:0:0:0:
329,192,16766,1,0,0:0:0:0:
402,192,16766,1,0,0:0:0:0:
475,192,16766,1,0,0:0:0:0:
182,192,16826,128,0,16886:0:0:0:0:
109,192,16826,128,0,16886:0:0:0:0:
36,192,16826,128,0,16886:0:0:0:0:
329,192,16886,128,0,16946:0:0:0:0:
402,192,16886,128,0,16946:0:0:0:0:
475,192,16886,128,0,16946:0:0:0:0:
182,192,16946,1,0,0:0:0:0:
109,192,16946,1,0,0:0:0:0:
36,192,16946,1,0,0:0:0:0:
329,192,17006,1,0,0:0:0:0:
402,192,17006,1,0,0:0:0:0:
475,192,17006,1,0,0:0:0:0:
256,192,17246,128,0,17276:0:0:0:0:
36,192,17486,128,0,17546:0:0:0:0:
182,192,17486,128,0,17546:0:0:0:0:
109,192,17486,1,0,0:0:0:0:
329,192,17546,128,0,17606:0:0:0:0:
475,192,17546,128,0,17606:0:0:0:0:
402,192,17546,1,0,0:0:0:0:
182,192,17606,1,0,0:0:0:0:
36,192,17606,1,0,0:0:0:0:
109,192,17606,128,0,17666:0:0:0:0:
329,192,17666,1,0,0:0:0:0:
475,192,17666,1,0,0:0:0:0:
402,192,17666,128,0,17726:0:0:0:0:
182,192,17726,128,0,17786:0:0:0:0:
36,192,17726,128,0,17786:0:0:0:0:
109,192,17726,1,0,0:0:0:0:
329,192,17786,128,0,17846:0:0:0:0:
475,192,17786,128,0,17846:0:0:0:0:
402,192,17786,1,0,0:0:0:0:
36,192,17846,1,0,0:0:0:0:
182,192,17846,1,0,0:0:0:0:
109,192,17846,128,0,17906:0:0:0:0:
329,192,17906,1,0,0:0:0:0:
475,192,17906,1,0,0:0:0:0:
402,192,17906,128,0,17966:0:0:0:0:
36,192,17966,128,0,18266:0:0:0:0:
109,192,17966,128,0,18266:0:0:0:0:
182,192,17966,128,0,18266:0:0:0:0:
256,192,17966,128,0,18146:0:0:0:0:
256,192,18206,128,0,18266:0:0:0:0:
475,192,18446,128,0,18506:0:0:0:0:
329,192,18446,128,0,18506:0:0:0:0:
402,192,18446,1,0,0:0:0:0:
182,192,18506,128,0,18566:0:0:0:0:
36,192,18506,128,0,18566:0:0:0:0:
109,192,18506,1,0,0:0:0:0:
329,192,18566,1,0,0:0:0:0:
475,192,18566,1,0,0:0:0:0:
402,192,18566,128,0,18626:0:0:0:0:
182,192,18626,1,0,0:0:0:0:
36,192,18626,1,0,0:0:0:0:
109,192,18626,128,0,18686:0:0:0:0:
329,192,18686,128,0,18746:0:0:0:0:
475,192,18686,128,0,18746:0:0:0:0:
402,192,18686,1,0,0:0:0:0:
182,192,18746,128,0,18806:0:0:0:0:
36,192,18746,128,0,18806:0:0:0:0:
109,192,18746,1,0,0:0:0:0:
475,192,18806,1,0,0:0:0:0:
329,192,18806,1,0,0:0:0:0:
402,192,18806,128,0,18866:0:0:0:0:
182,192,18866,1,0,0:0:0:0:
36,192,18866,1,0,0:0:0:0:
109,192,18866,128,0,18926:0:0:0:0:
475,192,18926,128,0,19226:0:0:0:0:
402,192,18926,128,0,19226:0:0:0:0:
329,192,18926,128,0,19226:0:0:0:0:
256,192,18926,128,0,19106:0:0:0:0:
256,192,19166,128,0,19226:0:0:0:0:
36,192,19406,1,0,0:0:0:0:
109,192,19421,1,0,0:0:0:0:
182,192,19436,1,0,0:0:0:0:
256,192,19451,1,0,0:0:0:0:
402,192,19466,1,0,0:0:0:0:
475,192,19466,1,0,0:0:0:0:
329,192,19466,1,0,0:0:0:0:
36,192,19526,1,0,0:0:0:0:
109,192,19586,1,0,0:0:0:0:
329,192,19586,1,0,0:0:0:0:
182,192,19586,1,0,0:0:0:0:
256,192,19646,1,0,0:0:0:0:
402,192,19646,1,0,0:0:0:0:
475,192,19646,1,0,0:0:0:0:
36,192,19706,1,0,0:0:0:0:
182,192,19706,1,0,0:0:0:0:
475,192,19766,1,0,0:0:0:0:
402,192,19781,1,0,0:0:0:0:
329,192,19796,1,0,0:0:0:0:
256,192,19811,1,0,0:0:0:0:
182,192,19826,1,0,0:0:0:0:
36,192,19826,1,0,0:0:0:0:
109,192,19886,1,0,0:0:0:0:
475,192,19886,1,0,0:0:0:0:
329,192,19886,1,0,0:0:0:0:
256,192,19946,1,0,0:0:0:0:
402,192,19946,1,0,0:0:0:0:
36,192,20006,1,0,0:0:0:0:
329,192,20006,1,0,0:0:0:0:
182,192,20006,1,0,0:0:0:0:
475,192,20066,1,0,0:0:0:0:
109,192,20066,1,0,0:0:0:0:
256,192,20126,1,0,0:0:0:0:
36,192,20141,1,0,0:0:0:0:
109,192,20156,1,0,0:0:0:0:
182,192,20171,1,0,0:0:0:0:
329,192,20186,1,0,0:0:0:0:
402,192,20216,1,0,0:0:0:0:
36,192,20246,1,0,0:0:0:0:
475,192,20246,1,0,0:0:0:0:
109,192,20306,1,0,0:0:0:0:
182,192,20306,1,0,0:0:0:0:
329,192,20306,1,0,0:0:0:0:
256,192,20366,1,0,0:0:0:0:
475,192,20381,1,0,0:0:0:0:
402,192,20406,1,0,0:0:0:0:
182,192,20406,1,0,0:0:0:0:
329,192,20446,1,0,0:0:0:0:
109,192,20446,1,0,0:0:0:0:
36,192,20486,1,0,0:0:0:0:
475,192,20486,1,0,0:0:0:0:
256,192,20486,1,0,0:0:0:0:
182,192,20546,1,0,0:0:0:0:
402,192,20546,1,0,0:0:0:0:
36,192,20606,1,0,0:0:0:0:
329,192,20606,1,0,0:0:0:0:
109,192,20666,1,0,0:0:0:0:
256,192,20666,1,0,0:0:0:0:
475,192,20726,1,0,0:0:0:0:
182,192,20726,1,0,0:0:0:0:
329,192,20726,1,0,0:0:0:0:
256,192,20786,1,0,0:0:0:0:
402,192,20786,1,0,0:0:0:0:
329,192,20846,1,0,0:0:0:0:
182,192,20846,1,0,0:0:0:0:
402,192,20906,1,0,0:0:0:0:
109,192,20906,1,0,0:0:0:0:
36,192,20966,1,0,0:0:0:0:
475,192,20966,1,0,0:0:0:0:
109,192,21026,1,0,0:0:0:0:
402,192,21026,1,0,0:0:0:0:
182,192,21086,1,0,0:0:0:0:
329,192,21086,1,0,0:0:0:0:
256,192,21206,1,0,0:0:0:0:
329,192,21326,5,0,0:0:0:0:
475,192,21326,1,0,0:0:0:0:
36,192,21326,128,0,21506:0:0:0:0:
256,192,21366,1,0,0:0:0:0:
109,192,21386,128,0,21446:0:0:0:0:
402,192,21446,1,0,0:0:0:0:
182,192,21446,128,0,21626:0:0:0:0:
475,192,21446,1,0,0:0:0:0:
256,192,21506,128,0,21566:0:0:0:0:
36,192,21566,1,0,0:0:0:0:
329,192,21566,128,0,21806:0:0:0:0:
475,192,21566,1,0,0:0:0:0:
109,192,21626,1,0,0:0:0:0:
402,192,21626,128,0,21686:0:0:0:0:
182,192,21686,1,0,0:0:0:0:
475,192,21686,128,0,21746:0:0:0:0:
109,192,21746,128,0,22046:0:0:0:0:
256,192,21746,1,0,0:0:0:0:
36,192,21806,1,0,0:0:0:0:
475,192,21806,1,0,0:0:0:0:
182,192,21806,1,0,0:0:0:0:
329,192,21866,1,0,0:0:0:0:
402,192,21866,128,0,22046:0:0:0:0:
475,192,21926,1,0,0:0:0:0:
36,192,21926,1,0,0:0:0:0:
256,192,21986,128,0,22406:0:0:0:0:
329,192,21986,1,0,0:0:0:0:
182,192,22046,128,0,22106:0:0:0:0:
36,192,22046,1,0,0:0:0:0:
402,192,22106,1,0,0:0:0:0:
109,192,22106,128,0,22286:0:0:0:0:
475,192,22166,1,0,0:0:0:0:
329,192,22166,128,0,22226:0:0:0:0:
402,192,22226,128,0,22526:0:0:0:0:
182,192,22226,1,0,0:0:0:0:
475,192,22286,1,0,0:0:0:0:
36,192,22286,128,0,22466:0:0:0:0:
329,192,22286,1,0,0:0:0:0:
109,192,22346,1,0,0:0:0:0:
182,192,22406,128,0,22706:0:0:0:0:
329,192,22406,1,0,0:0:0:0:
475,192,22406,1,0,0:0:0:0:
256,192,22466,1,0,0:0:0:0:
36,192,22526,1,0,0:0:0:0:
329,192,22526,128,0,22946:0:0:0:0:
475,192,22526,1,0,0:0:0:0:
402,192,22586,1,0,0:0:0:0:
109,192,22646,1,0,0:0:0:0:
475,192,22646,128,0,23066:0:0:0:0:
256,192,22646,1,0,0:0:0:0:
402,192,22706,1,0,0:0:0:0:
182,192,22766,1,0,0:0:0:0:
36,192,22766,128,0,22826:0:0:0:0:
256,192,22796,128,0,22886:0:0:0:0:
109,192,22826,128,0,23006:0:0:0:0:
402,192,22846,128,0,22926:0:0:0:0:
182,192,22886,128,0,22946:0:0:0:0:
256,192,22946,128,0,23366:0:0:0:0:
329,192,23006,1,0,0:0:0:0:
36,192,23006,1,0,0:0:0:0:
109,192,23066,1,0,0:0:0:0:
402,192,23066,128,0,23246:0:0:0:0:
475,192,23126,1,0,0:0:0:0:
182,192,23126,128,0,23186:0:0:0:0:
109,192,23186,128,0,23486:0:0:0:0:
475,192,23246,1,0,0:0:0:0:
36,192,23246,1,0,0:0:0:0:
402,192,23306,1,0,0:0:0:0:
182,192,23306,1,0,0:0:0:0:
329,192,23366,1,0,0:0:0:0:
36,192,23366,1,0,0:0:0:0:
256,192,23426,1,0,0:0:0:0:
402,192,23426,1,0,0:0:0:0:
182,192,23486,1,0,0:0:0:0:
475,192,23486,1,0,0:0:0:0:
109,192,23546,1,0,0:0:0:0:
402,192,23546,1,0,0:0:0:0:
36,192,23606,1,0,0:0:0:0:
329,192,23606,1,0,0:0:0:0:
256,192,23666,1,0,0:0:0:0:
182,192,23726,1,0,0:0:0:0:
475,192,23726,1,0,0:0:0:0:
36,192,23726,1,0,0:0:0:0:
402,192,23786,1,0,0:0:0:0:
109,192,23786,1,0,0:0:0:0:
329,192,23846,1,0,0:0:0:0:
182,192,23846,1,0,0:0:0:0:
256,192,23906,1,0,0:0:0:0:
36,192,23906,1,0,0:0:0:0:
182,192,23966,1,0,0:0:0:0:
475,192,23966,1,0,0:0:0:0:
402,192,23966,1,0,0:0:0:0:
109,192,24026,1,0,0:0:0:0:
329,192,24026,1,0,0:0:0:0:
36,192,24086,1,0,0:0:0:0:
402,192,24086,1,0,0:0:0:0:
475,192,24146,1,0,0:0:0:0:
329,192,24206,1,0,0:0:0:0:
36,192,24206,128,0,24356:0:0:0:0:
109,192,24236,128,0,24356:0:0:0:0:
182,192,24266,128,0,24356:0:0:0:0:
256,192,24296,128,0,24416:0:0:0:0:
329,192,24326,128,0,24416:0:0:0:0:
402,192,24356,128,0,24416:0:0:0:0:
475,192,24386,128,0,24416:0:0:0:0:
182,192,24416,1,0,0:0:0:0:
36,192,24446,128,0,24626:0:0:0:0:
109,192,24476,128,0,24626:0:0:0:0:
182,192,24506,128,0,24626:0:0:0:0:
256,192,24536,128,0,24626:0:0:0:0:
329,192,24566,128,0,24716:0:0:0:0:
402,192,24596,128,0,24716:0:0:0:0:
475,192,24626,128,0,24716:0:0:0:0:
256,192,24656,1,0,0:0:0:0:
36,192,24686,128,0,24866:0:0:0:0:
109,192,24716,128,0,24866:0:0:0:0:
182,192,24746,128,0,24866:0:0:0:0:
256,192,24776,128,0,24866:0:0:0:0:
329,192,24806,128,0,24866:0:0:0:0:
402,192,24836,128,0,24986:0:0:0:0:
475,192,24866,128,0,24986:0:0:0:0:
329,192,24896,1,0,0:0:0:0:
36,192,24926,128,0,25106:0:0:0:0:
109,192,24956,128,0,25106:0:0:0:0:
182,192,24986,128,0,25106:0:0:0:0:
256,192,25016,128,0,25106:0:0:0:0:
329,192,25046,128,0,25106:0:0:0:0:
402,192,25106,128,0,25136:0:0:0:0:
182,192,25166,1,0,0:0:0:0:
36,192,25166,1,0,0:0:0:0:
475,192,25166,128,0,25346:0:0:0:0:
109,192,25166,1,0,0:0:0:0:
256,192,25206,1,0,0:0:0:0:
402,192,25226,128,0,25286:0:0:0:0:
109,192,25286,1,0,0:0:0:0:
329,192,25286,128,0,25466:0:0:0:0:
36,192,25286,1,0,0:0:0:0:
256,192,25346,128,0,25406:0:0:0:0:
475,192,25406,1,0,0:0:0:0:
182,192,25406,128,0,25706:0:0:0:0:
36,192,25406,1,0,0:0:0:0:
402,192,25466,1,0,0:0:0:0:
109,192,25466,128,0,25526:0:0:0:0:
329,192,25526,1,0,0:0:0:0:
36,192,25526,128,0,25586:0:0:0:0:
402,192,25586,128,0,25886:0:0:0:0:
36,192,25646,1,0,0:0:0:0:
256,192,25646,1,0,0:0:0:0:
329,192,25646,128,0,25706:0:0:0:0:
475,192,25646,128,0,25706:0:0:0:0:
109,192,25706,128,0,25886:0:0:0:0:
182,192,25766,1,0,0:0:0:0:
329,192,25766,1,0,0:0:0:0:
475,192,25766,1,0,0:0:0:0:
256,192,25826,128,0,26186:0:0:0:0:
36,192,25886,1,0,0:0:0:0:
329,192,25886,128,0,25946:0:0:0:0:
475,192,25886,1,0,0:0:0:0:
402,192,25946,128,0,26126:0:0:0:0:
109,192,25946,1,0,0:0:0:0:
475,192,26006,1,0,0:0:0:0:
182,192,26006,128,0,26066:0:0:0:0:
109,192,26066,128,0,26366:0:0:0:0:
36,192,26126,1,0,0:0:0:0:
475,192,26126,128,0,26306:0:0:0:0:
329,192,26126,1,0,0:0:0:0:
402,192,26186,1,0,0:0:0:0:
329,192,26246,128,0,26546:0:0:0:0:
182,192,26246,1,0,0:0:0:0:
256,192,26306,1,0,0:0:0:0:
475,192,26366,1,0,0:0:0:0:
182,192,26366,128,0,26786:0:0:0:0:
36,192,26366,1,0,0:0:0:0:
109,192,26426,1,0,0:0:0:0:
402,192,26486,1,0,0:0:0:0:
36,192,26486,128,0,26906:0:0:0:0:
329,192,26606,1,0,0:0:0:0:
475,192,26606,128,0,26666:0:0:0:0:
256,192,26636,128,0,26726:0:0:0:0:
402,192,26666,128,0,26846:0:0:0:0:
109,192,26696,128,0,26786:0:0:0:0:
329,192,26726,128,0,26786:0:0:0:0:
256,192,26786,128,0,27206:0:0:0:0:
475,192,26846,1,0,0:0:0:0:
182,192,26846,128,0,26906:0:0:0:0:
402,192,26906,1,0,0:0:0:0:
109,192,26906,128,0,27086:0:0:0:0:
36,192,26966,1,0,0:0:0:0:
329,192,26966,128,0,27026:0:0:0:0:
402,192,27026,128,0,27266:0:0:0:0:
182,192,27056,1,0,0:0:0:0:
36,192,27086,1,0,0:0:0:0:
475,192,27086,1,0,0:0:0:0:
109,192,27146,1,0,0:0:0:0:
182,192,27206,1,0,0:0:0:0:
256,192,27266,1,0,0:0:0:0:
402,192,27326,1,0,0:0:0:0:
475,192,27326,1,0,0:0:0:0:
329,192,27326,1,0,0:0:0:0:
36,192,27326,128,0,27476:0:0:0:0:
109,192,27356,128,0,27476:0:0:0:0:
182,192,27386,128,0,27476:0:0:0:0:
256,192,27416,128,0,27506:0:0:0:0:
329,192,27446,128,0,27506:0:0:0:0:
402,192,27476,128,0,27506:0:0:0:0:
475,192,27506,1,0,0:0:0:0:
329,192,27566,1,0,0:0:0:0:
256,192,27566,1,0,0:0:0:0:
402,192,27566,1,0,0:0:0:0:
36,192,27566,128,0,27746:0:0:0:0:
109,192,27596,128,0,27746:0:0:0:0:
182,192,27626,128,0,27746:0:0:0:0:
256,192,27656,128,0,27746:0:0:0:0:
329,192,27686,1,0,0:0:0:0:
402,192,27716,128,0,27806:0:0:0:0:
475,192,27746,128,0,27806:0:0:0:0:
329,192,27776,1,0,0:0:0:0:
109,192,27806,128,0,27926:0:0:0:0:
182,192,27806,128,0,27896:0:0:0:0:
256,192,27806,128,0,27866:0:0:0:0:
36,192,27836,128,0,27926:0:0:0:0:
475,192,27866,128,0,27986:0:0:0:0:
402,192,27896,128,0,27986:0:0:0:0:
329,192,27926,128,0,27986:0:0:0:0:
256,192,27956,128,0,28076:0:0:0:0:
182,192,27986,128,0,28076:0:0:0:0:
329,192,28016,1,0,0:0:0:0:
109,192,28046,128,0,28076:0:0:0:0:
36,192,28046,128,0,28076:0:0:0:0:
475,192,28046,128,0,28196:0:0:0:0:
402,192,28076,128,0,28196:0:0:0:0:
329,192,28106,128,0,28196:0:0:0:0:
256,192,28136,128,0,28226:0:0:0:0:
182,192,28166,128,0,28226:0:0:0:0:
109,192,28196,128,0,28226:0:0:0:0:
36,192,28226,1,0,0:0:0:0:
329,192,28256,1,0,0:0:0:0:
256,192,28286,128,0,28316:0:0:0:0:
182,192,28286,128,0,28346:0:0:0:0:
109,192,28286,128,0,28376:0:0:0:0:
475,192,28286,128,0,28466:0:0:0:0:
402,192,28316,128,0,28466:0:0:0:0:
329,192,28346,128,0,28466:0:0:0:0:
256,192,28376,128,0,28466:0:0:0:0:
182,192,28406,1,0,0:0:0:0:
109,192,28436,128,0,28526:0:0:0:0:
36,192,28466,128,0,28526:0:0:0:0:
182,192,28496,1,0,0:0:0:0:
256,192,28526,128,0,28586:0:0:0:0:
329,192,28526,128,0,28616:0:0:0:0:
402,192,28526,128,0,28646:0:0:0:0:
475,192,28556,128,0,28676:0:0:0:0:
36,192,28586,128,0,28706:0:0:0:0:
109,192,28616,128,0,28706:0:0:0:0:
182,192,28646,128,0,28706:0:0:0:0:
256,192,28676,128,0,28796:0:0:0:0:
329,192,28706,128,0,28796:0:0:0:0:
182,192,28736,1,0,0:0:0:0:
402,192,28766,128,0,28796:0:0:0:0:
475,192,28766,128,0,28796:0:0:0:0:
36,192,28766,128,0,28916:0:0:0:0:
109,192,28796,128,0,28916:0:0:0:0:
182,192,28826,128,0,28916:0:0:0:0:
256,192,28856,128,0,28916:0:0:0:0:
329,192,28886,128,0,28976:0:0:0:0:
402,192,28916,128,0,28976:0:0:0:0:
475,192,28946,128,0,28976:0:0:0:0:
182,192,28976,1,0,0:0:0:0:
109,192,29006,1,0,0:0:0:0:
256,192,29006,1,0,0:0:0:0:
329,192,29126,1,0,0:0:0:0:
182,192,29126,1,0,0:0:0:0:
475,192,29186,128,0,29246:0:0:0:0:
256,192,29246,1,0,0:0:0:0:
402,192,29246,1,0,0:0:0:0:
36,192,29246,128,0,29486:0:0:0:0:
329,192,29366,1,0,0:0:0:0:
182,192,29366,1,0,0:0:0:0:
402,192,29366,128,0,29486:0:0:0:0:
256,192,29486,1,0,0:0:0:0:
109,192,29486,1,0,0:0:0:0:
475,192,29486,1,0,0:0:0:0:
329,192,29486,128,0,29606:0:0:0:0:
402,192,29606,1,0,0:0:0:0:
256,192,29606,128,0,29726:0:0:0:0:
36,192,29606,1,0,0:0:0:0:
329,192,29726,1,0,0:0:0:0:
182,192,29726,1,0,0:0:0:0:
109,192,29726,128,0,29906:0:0:0:0:
475,192,29726,1,0,0:0:0:0:
402,192,29846,1,0,0:0:0:0:
182,192,29846,128,0,29906:0:0:0:0:
256,192,29966,1,0,0:0:0:0:
109,192,29966,1,0,0:0:0:0:
36,192,29966,1,0,0:0:0:0:
402,192,29966,1,0,0:0:0:0:
329,192,29966,1,0,0:0:0:0:
475,192,29966,1,0,0:0:0:0:
109,192,30086,1,0,0:0:0:0:
182,192,30206,1,0,0:0:0:0:
329,192,30206,1,0,0:0:0:0:
109,192,30326,1,0,0:0:0:0:
36,192,30446,1,0,0:0:0:0:
402,192,30446,1,0,0:0:0:0:
256,192,30446,1,0,0:0:0:0:
329,192,30566,1,0,0:0:0:0:
182,192,30566,1,0,0:0:0:0:
256,192,30686,1,0,0:0:0:0:
36,192,30686,1,0,0:0:0:0:
182,192,30806,1,0,0:0:0:0:
329,192,30806,1,0,0:0:0:0:
256,192,30926,1,0,0:0:0:0:
402,192,30926,1,0,0:0:0:0:
329,192,31046,1,0,0:0:0:0:
182,192,31046,1,0,0:0:0:0:
475,192,31166,1,0,0:0:0:0:
109,192,31166,1,0,0:0:0:0:
36,192,31166,1,0,0:0:0:0:
256,192,31286,1,0,0:0:0:0:
402,192,31286,1,0,0:0:0:0:
182,192,31406,1,0,0:0:0:0:
329,192,31406,1,0,0:0:0:0:
256,192,31526,1,0,0:0:0:0:
109,192,31526,1,0,0:0:0:0:
329,192,31646,1,0,0:0:0:0:
36,192,31646,1,0,0:0:0:0:
109,192,31766,1,0,0:0:0:0:
329,192,31766,1,0,0:0:0:0:
36,192,31766,1,0,0:0:0:0:
402,192,31766,1,0,0:0:0:0:
182,192,31886,1,0,0:0:0:0:
402,192,31886,1,0,0:0:0:0:
109,192,31886,1,0,0:0:0:0:
36,192,31886,1,0,0:0:0:0:
475,192,31886,1,0,0:0:0:0:
329,192,31886,1,0,0:0:0:0:
256,192,32006,1,0,0:0:0:0:
36,192,32006,1,0,0:0:0:0:
109,192,32006,1,0,0:0:0:0:
475,192,32006,1,0,0:0:0:0:
402,192,32006,1,0,0:0:0:0:
182,192,32126,1,0,0:0:0:0:
36,192,32126,1,0,0:0:0:0:
329,192,32126,1,0,0:0:0:0:
475,192,32126,1,0,0:0:0:0:
402,192,32246,1,0,0:0:0:0:
475,192,32246,1,0,0:0:0:0:
256,192,32246,1,0,0:0:0:0:
109,192,32246,1,0,0:0:0:0:
36,192,32246,1,0,0:0:0:0:
182,192,32366,1,0,0:0:0:0:
109,192,32366,1,0,0:0:0:0:
36,192,32366,1,0,0:0:0:0:
402,192,32366,1,0,0:0:0:0:
475,192,32366,1,0,0:0:0:0:
329,192,32366,1,0,0:0:0:0:
256,192,32426,1,0,0:0:0:0:
182,192,32486,1,0,0:0:0:0:
109,192,32486,1,0,0:0:0:0:
36,192,32486,1,0,0:0:0:0:
329,192,32486,1,0,0:0:0:0:
402,192,32486,1,0,0:0:0:0:
475,192,32486,1,0,0:0:0:0:
109,192,32606,1,0,0:0:0:0:
182,192,32606,1,0,0:0:0:0:
256,192,32606,1,0,0:0:0:0:
329,192,32606,1,0,0:0:0:0:
402,192,32606,1,0,0:0:0:0:
402,192,32726,1,0,0:0:0:0:
329,192,32726,1,0,0:0:0:0:
256,192,32726,1,0,0:0:0:0:
182,192,32726,1,0,0:0:0:0:
109,192,32726,1,0,0:0:0:0:
36,192,32786,1,0,0:0:0:0:
475,192,32786,1,0,0:0:0:0:
329,192,32846,1,0,0:0:0:0:
256,192,32846,1,0,0:0:0:0:
182,192,32846,1,0,0:0:0:0:
109,192,32906,1,0,0:0:0:0:
402,192,32906,1,0,0:0:0:0:
256,192,32966,1,0,0:0:0:0:
36,192,32966,1,0,0:0:0:0:
475,192,32966,1,0,0:0:0:0:
109,192,33026,1,0,0:0:0:0:
402,192,33026,1,0,0:0:0:0:
182,192,33056,1,0,0:0:0:0:
329,192,33056,1,0,0:0:0:0:
256,192,33086,1,0,0:0:0:0:
402,192,33146,1,0,0:0:0:0:
109,192,33146,1,0,0:0:0:0:
475,192,33206,1,0,0:0:0:0:
36,192,33206,1,0,0:0:0:0:
109,192,33266,1,0,0:0:0:0:
402,192,33266,1,0,0:0:0:0:
182,192,33326,1,0,0:0:0:0:
329,192,33326,1,0,0:0:0:0:
475,192,33326,1,0,0:0:0:0:
36,192,33326,1,0,0:0:0:0:
256,192,33486,1,0,0:0:0:0:
109,192,33486,1,0,0:0:0:0:
402,192,33486,1,0,0:0:0:0:
329,192,33686,1,0,0:0:0:0:
182,192,33686,1,0,0:0:0:0:
256,192,33806,128,0,34286:0:0:0:0:
182,192,34286,128,0,34346:0:0:0:0:
329,192,34286,128,0,34346:0:0:0:0:
109,192,34406,128,0,34466:0:0:0:0:
402,192,34406,128,0,34466:0:0:0:0:
475,192,34526,128,0,34586:0:0:0:0:
36,192,34526,128,0,34586:0:0:0:0:
109,192,34646,128,0,34706:0:0:0:0:
402,192,34646,128,0,34706:0:0:0:0:
182,192,34766,128,0,34826:0:0:0:0:
329,192,34766,128,0,34826:0:0:0:0:
256,192,34886,128,0,34946:0:0:0:0:
256,192,35006,1,0,0:0:0:0:
182,192,35126,1,0,0:0:0:0:
329,192,35126,1,0,0:0:0:0:
475,192,35246,1,0,0:0:0:0:
36,192,35246,1,0,0:0:0:0:
109,192,35246,128,0,35426:0:0:0:0:
402,192,35246,128,0,35426:0:0:0:0:
256,192,35246,1,0,0:0:0:0:
256,192,35366,1,0,0:0:0:0:
109,192,35486,1,0,0:0:0:0:
402,192,35486,1,0,0:0:0:0:
182,192,35486,128,0,35726:0:0:0:0:
329,192,35486,128,0,35726:0:0:0:0:
256,192,35606,1,0,0:0:0:0:
109,192,35726,1,0,0:0:0:0:
36,192,35726,1,0,0:0:0:0:
402,192,35726,1,0,0:0:0:0:
475,192,35726,1,0,0:0:0:0:
256,192,35846,1,0,0:0:0:0:
475,192,35846,1,0,0:0:0:0:
402,192,35846,1,0,0:0:0:0:
36,192,35846,1,0,0:0:0:0:
182,192,35846,1,0,0:0:0:0:
402,192,35966,1,0,0:0:0:0:
256,192,35966,1,0,0:0:0:0:
109,192,35966,1,0,0:0:0:0:
36,192,35966,1,0,0:0:0:0:
402,192,36086,1,0,0:0:0:0:
36,192,36086,1,0,0:0:0:0:
256,192,36086,1,0,0:0:0:0:
475,192,36086,1,0,0:0:0:0:
329,192,36206,1,0,0:0:0:0:
475,192,36206,1,0,0:0:0:0:
109,192,36206,1,0,0:0:0:0:
36,192,36266,1,0,0:0:0:0:
402,192,36266,1,0,0:0:0:0:
256,192,36266,1,0,0:0:0:0:
182,192,36326,1,0,0:0:0:0:
475,192,36326,1,0,0:0:0:0:
329,192,36326,1,0,0:0:0:0:
182,192,36446,1,0,0:0:0:0:
36,192,36446,1,0,0:0:0:0:
475,192,36446,1,0,0:0:0:0:
109,192,36446,1,0,0:0:0:0:
329,192,36446,1,0,0:0:0:0:
329,192,36566,1,0,0:0:0:0:
182,192,36566,1,0,0:0:0:0:
36,192,36566,1,0,0:0:0:0:
109,192,36626,1,0,0:0:0:0:
402,192,36626,1,0,0:0:0:0:
475,192,36686,1,0,0:0:0:0:
36,192,36686,1,0,0:0:0:0:
182,192,36686,1,0,0:0:0:0:
329,192,36686,1,0,0:0:0:0:
256,192,36746,1,0,0:0:0:0:
109,192,36746,1,0,0:0:0:0:
402,192,36746,1,0,0:0:0:0:
329,192,36806,1,0,0:0:0:0:
182,192,36806,1,0,0:0:0:0:
36,192,36806,1,0,0:0:0:0:
475,192,36806,1,0,0:0:0:0:
109,192,36866,1,0,0:0:0:0:
256,192,36866,1,0,0:0:0:0:
402,192,36866,1,0,0:0:0:0:
182,192,36926,1,0,0:0:0:0:
36,192,36926,1,0,0:0:0:0:
329,192,36926,1,0,0:0:0:0:
475,192,36926,1,0,0:0:0:0:
256,192,36986,1,0,0:0:0:0:
402,192,36986,1,0,0:0:0:0:
109,192,36986,1,0,0:0:0:0:
329,192,37046,1,0,0:0:0:0:
182,192,37046,1,0,0:0:0:0:
36,192,37046,1,0,0:0:0:0:
475,192,37046,1,0,0:0:0:0:
402,192,37106,1,0,0:0:0:0:
256,192,37106,1,0,0:0:0:0:
109,192,37106,1,0,0:0:0:0:
475,192,37166,1,0,0:0:0:0:
182,192,37166,1,0,0:0:0:0:
329,192,37166,1,0,0:0:0:0:
36,192,37166,1,0,0:0:0:0:
109,192,37406,1,0,0:0:0:0:
256,192,37406,1,0,0:0:0:0:
402,192,37406,1,0,0:0:0:0:
36,192,37646,128,0,37766:0:0:0:0:
182,192,37646,128,0,37766:0:0:0:0:
109,192,37646,1,0,0:0:0:0:
256,192,37646,1,0,0:0:0:0:
329,192,37646,128,0,37766:0:0:0:0:
402,192,37646,128,0,37886:0:0:0:0:
475,192,37646,128,0,38006:0:0:0:0:
109,192,37766,128,0,37886:0:0:0:0:
256,192,37766,128,0,37886:0:0:0:0:
182,192,37886,128,0,38006:0:0:0:0:
329,192,37886,128,0,38006:0:0:0:0:
256,192,38006,128,0,38126:0:0:0:0:
402,192,38006,128,0,38126:0:0:0:0:
109,192,38006,1,0,0:0:0:0:
329,192,38126,128,0,38246:0:0:0:0:
475,192,38126,128,0,38246:0:0:0:0:
182,192,38126,128,0,38246:0:0:0:0:
109,192,38126,128,0,38366:0:0:0:0:
36,192,38126,128,0,38486:0:0:0:0:
402,192,38246,128,0,38366:0:0:0:0:
256,192,38246,128,0,38366:0:0:0:0:
329,192,38366,128,0,38486:0:0:0:0:
182,192,38366,128,0,38486:0:0:0:0:
256,192,38486,128,0,38606:0:0:0:0:
109,192,38486,128,0,38606:0:0:0:0:
402,192,38486,1,0,0:0:0:0:
36,192,38606,128,0,38726:0:0:0:0:
182,192,38606,128,0,38726:0:0:0:0:
329,192,38606,128,0,38726:0:0:0:0:
402,192,38606,128,0,38846:0:0:0:0:
475,192,38606,128,0,38966:0:0:0:0:
109,192,38726,128,0,38846:0:0:0:0:
256,192,38726,128,0,38846:0:0:0:0:
182,192,38846,128,0,38966:0:0:0:0:
329,192,38846,128,0,38966:0:0:0:0:
256,192,38966,128,0,39086:0:0:0:0:
402,192,38966,128,0,39086:0:0:0:0:
329,192,39086,128,0,39206:0:0:0:0:
475,192,39086,128,0,39206:0:0:0:0:
182,192,39086,128,0,39146:0:0:0:0:
36,192,39086,1,0,0:0:0:0:
109,192,39146,128,0,39206:0:0:0:0:
402,192,39206,128,0,39326:0:0:0:0:
256,192,39206,128,0,39326:0:0:0:0:
36,192,39206,128,0,39266:0:0:0:0:
109,192,39266,128,0,39326:0:0:0:0:
329,192,39326,128,0,39446:0:0:0:0:
182,192,39326,128,0,39446:0:0:0:0:
402,192,39386,128,0,39446:0:0:0:0:
256,192,39446,128,0,39566:0:0:0:0:
109,192,39446,128,0,39566:0:0:0:0:
475,192,39446,128,0,39506:0:0:0:0:
36,192,39446,1,0,0:0:0:0:
402,192,39506,128,0,39566:0:0:0:0:
182,192,39566,128,0,39686:0:0:0:0:
36,192,39566,128,0,39686:0:0:0:0:
329,192,39566,128,0,39746:0:0:0:0:
402,192,39626,128,0,39746:0:0:0:0:
109,192,39686,128,0,39806:0:0:0:0:
256,192,39686,128,0,39806:0:0:0:0:
475,192,39686,128,0,39746:0:0:0:0:
36,192,39746,128,0,39866:0:0:0:0:
182,192,39806,128,0,39926:0:0:0:0:
329,192,39806,128,0,39926:0:0:0:0:
402,192,39806,128,0,39866:0:0:0:0:
475,192,39806,128,0,39986:0:0:0:0:
109,192,39866,128,0,39986:0:0:0:0:
402,192,39926,128,0,40046:0:0:0:0:
256,192,39926,128,0,40046:0:0:0:0:
36,192,39926,1,0,0:0:0:0:
182,192,39986,128,0,40046:0:0:0:0:
329,192,40046,128,0,40166:0:0:0:0:
475,192,40046,128,0,40166:0:0:0:0:
109,192,40046,128,0,40286:0:0:0:0:
36,192,40046,128,0,40406:0:0:0:0:
182,192,40106,128,0,40226:0:0:0:0:
402,192,40166,128,0,40286:0:0:0:0:
256,192,40166,128,0,40286:0:0:0:0:
475,192,40226,128,0,40346:0:0:0:0:
329,192,40286,128,0,40406:0:0:0:0:
182,192,40286,128,0,40406:0:0:0:0:
402,192,40346,128,0,40466:0:0:0:0:
256,192,40406,128,0,40526:0:0:0:0:
109,192,40406,128,0,40526:0:0:0:0:
475,192,40406,1,0,0:0:0:0:
329,192,40466,128,0,40526:0:0:0:0:
182,192,40526,128,0,40646:0:0:0:0:
36,192,40526,128,0,40646:0:0:0:0:
402,192,40526,128,0,40646:0:0:0:0:
475,192,40526,128,0,40766:0:0:0:0:
329,192,40586,128,0,40706:0:0:0:0:
109,192,40646,128,0,40766:0:0:0:0:
256,192,40646,128,0,40766:0:0:0:0:
402,192,40706,128,0,40826:0:0:0:0:
182,192,40766,128,0,40886:0:0:0:0:
329,192,40766,128,0,40886:0:0:0:0:
475,192,40826,128,0,40946:0:0:0:0:
256,192,40886,128,0,41006:0:0:0:0:
402,192,40886,128,0,41006:0:0:0:0:
109,192,40886,1,0,0:0:0:0:
36,192,40946,128,0,41066:0:0:0:0:
329,192,41006,128,0,41126:0:0:0:0:
475,192,41006,128,0,41126:0:0:0:0:
182,192,41006,128,0,41186:0:0:0:0:
109,192,41066,128,0,41246:0:0:0:0:
402,192,41126,128,0,41246:0:0:0:0:
256,192,41126,128,0,41246:0:0:0:0:
36,192,41126,128,0,41366:0:0:0:0:
475,192,41186,128,0,41306:0:0:0:0:
329,192,41246,128,0,41366:0:0:0:0:
182,192,41246,128,0,41366:0:0:0:0:
402,192,41306,128,0,41426:0:0:0:0:
256,192,41366,128,0,41486:0:0:0:0:
109,192,41366,128,0,41486:0:0:0:0:
475,192,41366,1,0,0:0:0:0:
329,192,41426,128,0,41486:0:0:0:0:
402,192,41486,128,0,41606:0:0:0:0:
475,192,41486,128,0,41606:0:0:0:0:
182,192,41486,1,0,0:0:0:0:
36,192,41486,1,0,0:0:0:0:
329,192,41606,128,0,41726:0:0:0:0:
182,192,41606,128,0,41726:0:0:0:0:
109,192,41606,1,0,0:0:0:0:
109,192,41726,128,0,41846:0:0:0:0:
256,192,41726,1,0,0:0:0:0:
402,192,41726,1,0,0:0:0:0:
36,192,41786,128,0,41846:0:0:0:0:
182,192,41846,128,0,41966:0:0:0:0:
329,192,41846,128,0,41966:0:0:0:0:
475,192,41966,128,0,42086:0:0:0:0:
402,192,41966,128,0,42086:0:0:0:0:
256,192,41966,1,0,0:0:0:0:
109,192,41966,1,0,0:0:0:0:
182,192,42086,128,0,42206:0:0:0:0:
329,192,42086,128,0,42206:0:0:0:0:
36,192,42086,1,0,0:0:0:0:
109,192,42206,128,0,42326:0:0:0:0:
256,192,42206,1,0,0:0:0:0:
402,192,42206,1,0,0:0:0:0:
36,192,42266,128,0,42326:0:0:0:0:
182,192,42326,128,0,42446:0:0:0:0:
329,192,42326,128,0,42446:0:0:0:0:
475,192,42326,1,0,0:0:0:0:
256,192,42446,128,0,42566:0:0:0:0:
402,192,42446,128,0,42566:0:0:0:0:
109,192,42446,128,0,42626:0:0:0:0:
36,192,42446,128,0,42746:0:0:0:0:
329,192,42566,128,0,42686:0:0:0:0:
475,192,42566,128,0,42686:0:0:0:0:
182,192,42566,1,0,0:0:0:0:
402,192,42686,128,0,42806:0:0:0:0:
256,192,42686,128,0,42806:0:0:0:0:
109,192,42686,1,0,0:0:0:0:
329,192,42806,128,0,42926:0:0:0:0:
182,192,42806,128,0,42926:0:0:0:0:
36,192,42806,1,0,0:0:0:0:
256,192,42926,128,0,43046:0:0:0:0:
109,192,42926,128,0,43046:0:0:0:0:
402,192,42926,128,0,43106:0:0:0:0:
475,192,42926,128,0,43226:0:0:0:0:
182,192,43046,128,0,43166:0:0:0:0:
36,192,43046,128,0,43166:0:0:0:0:
329,192,43046,1,0,0:0:0:0:
109,192,43166,128,0,43286:0:0:0:0:
256,192,43166,128,0,43286:0:0:0:0:
402,192,43166,1,0,0:0:0:0:
182,192,43286,128,0,43406:0:0:0:0:
329,192,43286,128,0,43406:0:0:0:0:
475,192,43286,1,0,0:0:0:0:
109,192,43406,1,0,0:0:0:0:
402,192,43406,1,0,0:0:0:0:
36,192,43406,128,0,43466:0:0:0:0:
475,192,43406,128,0,43466:0:0:0:0:
256,192,43466,1,0,0:0:0:0:
182,192,43466,128,0,43526:0:0:0:0:
329,192,43466,128,0,43526:0:0:0:0:
36,192,43526,1,0,0:0:0:0:
475,192,43526,1,0,0:0:0:0:
402,192,43526,128,0,43586:0:0:0:0:
109,192,43526,128,0,43586:0:0:0:0:
182,192,43586,128,0,43646:0:0:0:0:
256,192,43586,128,0,43646:0:0:0:0:
329,192,43586,128,0,43646:0:0:0:0:
475,192,43886,1,0,0:0:0:0:
36,192,43886,1,0,0:0:0:0:
109,192,43886,128,0,43946:0:0:0:0:
402,192,43886,128,0,43946:0:0:0:0:
182,192,43946,1,0,0:0:0:0:
329,192,43946,1,0,0:0:0:0:
256,192,43946,128,0,44006:0:0:0:0:
402,192,44006,1,0,0:0:0:0:
109,192,44006,1,0,0:0:0:0:
36,192,44006,128,0,44066:0:0:0:0:
475,192,44006,128,0,44066:0:0:0:0:
256,192,44066,1,0,0:0:0:0:
182,192,44066,128,0,44126:0:0:0:0:
329,192,44066,128,0,44126:0:0:0:0:
182,192,44366,1,0,0:0:0:0:
329,192,44366,1,0,0:0:0:0:
256,192,44366,128,0,44426:0:0:0:0:
475,192,44426,1,0,0:0:0:0:
36,192,44426,1,0,0:0:0:0:
109,192,44426,128,0,44486:0:0:0:0:
402,192,44426,128,0,44486:0:0:0:0:
256,192,44486,1,0,0:0:0:0:
182,192,44486,128,0,44546:0:0:0:0:
329,192,44486,128,0,44546:0:0:0:0:
109,192,44546,1,0,0:0:0:0:
402,192,44546,1,0,0:0:0:0:
36,192,44546,128,0,44606:0:0:0:0:
475,192,44546,128,0,44606:0:0:0:0:
256,192,44846,128,0,44906:0:0:0:0:
182,192,44846,128,0,44906:0:0:0:0:
329,192,44846,128,0,44906:0:0:0:0:
36,192,44906,1,0,0:0:0:0:
475,192,44906,1,0,0:0:0:0:
109,192,44906,128,0,44966:0:0:0:0:
402,192,44906,128,0,44966:0:0:0:0:
329,192,44966,1,0,0:0:0:0:
182,192,44966,1,0,0:0:0:0:
256,192,44966,128,0,45026:0:0:0:0:
109,192,45026,1,0,0:0:0:0:
402,192,45026,1,0,0:0:0:0:
36,192,45026,128,0,45086:0:0:0:0:
475,192,45026,128,0,45086:0:0:0:0:
109,192,45326,128,0,45506:0:0:0:0:
36,192,45326,1,0,0:0:0:0:
182,192,45326,1,0,0:0:0:0:
329,192,45326,1,0,0:0:0:0:
475,192,45326,1,0,0:0:0:0:
256,192,45446,128,0,45626:0:0:0:0:
475,192,45446,1,0,0:0:0:0:
402,192,45446,1,0,0:0:0:0:
329,192,45446,1,0,0:0:0:0:
402,192,45566,128,0,45746:0:0:0:0:
182,192,45566,1,0,0:0:0:0:
109,192,45566,1,0,0:0:0:0:
36,192,45566,1,0,0:0:0:0:
36,192,45686,128,0,45866:0:0:0:0:
256,192,45686,1,0,0:0:0:0:
182,192,45686,1,0,0:0:0:0:
329,192,45686,1,0,0:0:0:0:
475,192,45686,1,0,0:0:0:0:
182,192,45806,128,0,45986:0:0:0:0:
402,192,45806,1,0,0:0:0:0:
329,192,45806,1,0,0:0:0:0:
475,192,45806,1,0,0:0:0:0:
329,192,45926,128,0,46106:0:0:0:0:
36,192,45926,1,0,0:0:0:0:
475,192,45926,1,0,0:0:0:0:
256,192,45926,1,0,0:0:0:0:
475,192,46046,128,0,46226:0:0:0:0:
182,192,46046,1,0,0:0:0:0:
109,192,46046,1,0,0:0:0:0:
36,192,46046,1,0,0:0:0:0:
256,192,46166,128,0,46346:0:0:0:0:
329,192,46166,1,0,0:0:0:0:
182,192,46166,1,0,0:0:0:0:
36,192,46166,1,0,0:0:0:0:
109,192,46286,128,0,46466:0:0:0:0:
475,192,46286,1,0,0:0:0:0:
402,192,46286,1,0,0:0:0:0:
329,192,46286,1,0,0:0:0:0:
402,192,46406,128,0,46586:0:0:0:0:
329,192,46406,1,0,0:0:0:0:
256,192,46406,1,0,0:0:0:0:
182,192,46406,1,0,0:0:0:0:
182,192,46526,128,0,46706:0:0:0:0:
109,192,46526,1,0,0:0:0:0:
36,192,46526,1,0,0:0:0:0:
475,192,46526,1,0,0:0:0:0:
475,192,46646,128,0,46826:0:0:0:0:
402,192,46646,1,0,0:0:0:0:
329,192,46646,1,0,0:0:0:0:
256,192,46646,1,0,0:0:0:0:
256,192,46766,128,0,46946:0:0:0:0:
182,192,46766,1,0,0:0:0:0:
109,192,46766,1,0,0:0:0:0:
36,192,46766,1,0,0:0:0:0:
329,192,46826,1,0,0:0:0:0:
475,192,46886,1,0,0:0:0:0:
36,192,46886,128,0,47066:0:0:0:0:
182,192,46886,1,0,0:0:0:0:
109,192,46886,1,0,0:0:0:0:
329,192,46946,1,0,0:0:0:0:
475,192,47006,1,0,0:0:0:0:
402,192,47006,128,0,47186:0:0:0:0:
256,192,47006,1,0,0:0:0:0:
182,192,47006,1,0,0:0:0:0:
109,192,47006,1,0,0:0:0:0:
109,192,47126,128,0,47306:0:0:0:0:
329,192,47126,1,0,0:0:0:0:
256,192,47126,1,0,0:0:0:0:
182,192,47126,1,0,0:0:0:0:
36,192,47126,1,0,0:0:0:0:
475,192,47246,128,0,47426:0:0:0:0:
256,192,47246,128,0,47306:0:0:0:0:
329,192,47246,128,0,47306:0:0:0:0:
402,192,47246,128,0,47306:0:0:0:0:
36,192,47246,128,0,47306:0:0:0:0:
182,192,47266,1,0,0:0:0:0:
182,192,47366,128,0,47546:0:0:0:0:
109,192,47366,128,0,47426:0:0:0:0:
329,192,47366,128,0,47426:0:0:0:0:
402,192,47386,1,0,0:0:0:0:
402,192,47486,128,0,47666:0:0:0:0:
256,192,47486,128,0,47546:0:0:0:0:
36,192,47486,128,0,47546:0:0:0:0:
475,192,47486,128,0,47546:0:0:0:0:
109,192,47506,1,0,0:0:0:0:
109,192,47606,128,0,47786:0:0:0:0:
182,192,47606,128,0,47666:0:0:0:0:
329,192,47606,128,0,47666:0:0:0:0:
256,192,47626,1,0,0:0:0:0:
329,192,47726,128,0,47906:0:0:0:0:
36,192,47726,128,0,47786:0:0:0:0:
256,192,47726,128,0,47786:0:0:0:0:
402,192,47726,128,0,47786:0:0:0:0:
475,192,47726,128,0,47786:0:0:0:0:
182,192,47746,1,0,0:0:0:0:
36,192,47846,128,0,48026:0:0:0:0:
402,192,47846,128,0,47906:0:0:0:0:
109,192,47846,128,0,47906:0:0:0:0:
182,192,47846,128,0,47906:0:0:0:0:
475,192,47866,1,0,0:0:0:0:
182,192,47966,128,0,48146:0:0:0:0:
329,192,47966,128,0,48026:0:0:0:0:
402,192,47966,128,0,48026:0:0:0:0:
475,192,47966,128,0,48026:0:0:0:0:
109,192,47966,128,0,48026:0:0:0:0:
256,192,47986,1,0,0:0:0:0:
475,192,48086,128,0,48266:0:0:0:0:
36,192,48086,128,0,48146:0:0:0:0:
256,192,48086,128,0,48146:0:0:0:0:
329,192,48086,128,0,48146:0:0:0:0:
402,192,48106,1,0,0:0:0:0:
109,192,48206,128,0,48386:0:0:0:0:
402,192,48206,128,0,48266:0:0:0:0:
182,192,48206,128,0,48266:0:0:0:0:
36,192,48206,128,0,48266:0:0:0:0:
329,192,48226,1,0,0:0:0:0:
256,192,48326,128,0,48506:0:0:0:0:
182,192,48326,128,0,48386:0:0:0:0:
329,192,48326,128,0,48386:0:0:0:0:
475,192,48326,128,0,48386:0:0:0:0:
36,192,48346,1,0,0:0:0:0:
402,192,48446,128,0,48626:0:0:0:0:
36,192,48446,128,0,48506:0:0:0:0:
109,192,48446,128,0,48506:0:0:0:0:
475,192,48446,128,0,48506:0:0:0:0:
329,192,48466,1,0,0:0:0:0:
36,192,48566,128,0,48746:0:0:0:0:
475,192,48566,128,0,48626:0:0:0:0:
329,192,48566,128,0,48626:0:0:0:0:
256,192,48566,128,0,48626:0:0:0:0:
109,192,48566,128,0,48626:0:0:0:0:
182,192,48586,1,0,0:0:0:0:
182,192,48686,128,0,48866:0:0:0:0:
329,192,48686,128,0,48746:0:0:0:0:
402,192,48686,128,0,48746:0:0:0:0:
475,192,48686,128,0,48746:0:0:0:0:
109,192,48706,1,0,0:0:0:0:
329,192,48846,128,0,49006:0:0:0:0:
109,192,48846,128,0,48886:0:0:0:0:
36,192,48846,128,0,48886:0:0:0:0:
402,192,48846,128,0,48886:0:0:0:0:
475,192,48846,128,0,48886:0:0:0:0:
256,192,48866,1,0,0:0:0:0:
475,192,48926,128,0,49086:0:0:0:0:
109,192,49046,128,0,49086:0:0:0:0:
182,192,49046,128,0,49086:0:0:0:0:
329,192,49046,128,0,49086:0:0:0:0:
402,192,49046,128,0,49086:0:0:0:0:
256,192,49066,1,0,0:0:0:0:
36,192,49106,128,0,49226:0:0:0:0:
256,192,49166,128,0,49196:0:0:0:0:
182,192,49226,128,0,49346:0:0:0:0:
109,192,49226,128,0,49256:0:0:0:0:
36,192,49286,128,0,49316:0:0:0:0:
402,192,49286,128,0,49316:0:0:0:0:
329,192,49346,128,0,49466:0:0:0:0:
256,192,49346,1,0,0:0:0:0:
182,192,49406,128,0,49436:0:0:0:0:
36,192,49406,128,0,49436:0:0:0:0:
475,192,49466,128,0,49586:0:0:0:0:
402,192,49466,128,0,49496:0:0:0:0:
182,192,49526,128,0,49556:0:0:0:0:
329,192,49526,128,0,49556:0:0:0:0:
36,192,49586,128,0,49706:0:0:0:0:
109,192,49586,128,0,49616:0:0:0:0:
256,192,49646,128,0,49676:0:0:0:0:
475,192,49646,128,0,49676:0:0:0:0:
182,192,49706,128,0,49826:0:0:0:0:
109,192,49706,128,0,49736:0:0:0:0:
402,192,49766,128,0,49796:0:0:0:0:
36,192,49766,128,0,49796:0:0:0:0:
329,192,49826,128,0,49946:0:0:0:0:
256,192,49826,128,0,49856:0:0:0:0:
109,192,49886,128,0,49916:0:0:0:0:
475,192,49946,128,0,50066:0:0:0:0:
36,192,49946,128,0,49976:0:0:0:0:
402,192,49946,128,0,49976:0:0:0:0:
329,192,50006,128,0,50036:0:0:0:0:
36,192,50066,128,0,50186:0:0:0:0:
182,192,50066,128,0,50096:0:0:0:0:
109,192,50126,128,0,50156:0:0:0:0:
475,192,50126,128,0,50156:0:0:0:0:
182,192,50186,128,0,50306:0:0:0:0:
329,192,50186,128,0,50216:0:0:0:0:
36,192,50246,128,0,50276:0:0:0:0:
256,192,50246,128,0,50276:0:0:0:0:
329,192,50306,128,0,50426:0:0:0:0:
109,192,50306,128,0,50336:0:0:0:0:
475,192,50306,128,0,50336:0:0:0:0:
402,192,50366,128,0,50396:0:0:0:0:
182,192,50366,128,0,50396:0:0:0:0:
475,192,50426,128,0,50546:0:0:0:0:
256,192,50426,128,0,50456:0:0:0:0:
329,192,50486,128,0,50516:0:0:0:0:
402,192,50546,128,0,50576:0:0:0:0:
475,192,50606,128,0,50756:0:0:0:0:
402,192,50636,128,0,50786:0:0:0:0:
329,192,50666,128,0,50816:0:0:0:0:
256,192,50696,128,0,50846:0:0:0:0:
182,192,50726,128,0,50876:0:0:0:0:
109,192,50756,128,0,50906:0:0:0:0:
36,192,50786,128,0,50936:0:0:0:0:
475,192,50846,1,0,0:0:0:0:
402,192,50866,1,0,0:0:0:0:
329,192,50886,1,0,0:0:0:0:
256,192,50906,1,0,0:0:0:0:
182,192,50926,1,0,0:0:0:0:
109,192,50946,1,0,0:0:0:0:
475,192,50966,128,0,51146:0:0:0:0:
36,192,50966,1,0,0:0:0:0:
402,192,50996,128,0,51116:0:0:0:0:
329,192,51026,128,0,51086:0:0:0:0:
256,192,51056,1,0,0:0:0:0:
36,192,51086,128,0,51266:0:0:0:0:
109,192,51106,128,0,51246:0:0:0:0:
182,192,51126,128,0,51226:0:0:0:0:
256,192,51146,128,0,51206:0:0:0:0:
329,192,51166,1,0,0:0:0:0:
402,192,51186,1,0,0:0:0:0:
475,192,51206,1,0,0:0:0:0:
36,192,51326,1,0,0:0:0:0:
182,192,51326,128,0,51416:0:0:0:0:
256,192,51446,1,0,0:0:0:0:
182,192,51446,1,0,0:0:0:0:
402,192,51446,128,0,51536:0:0:0:0:
475,192,51566,1,0,0:0:0:0:
402,192,51566,1,0,0:0:0:0:
36,192,51566,128,0,51656:0:0:0:0:
109,192,51686,1,0,0:0:0:0:
36,192,51686,1,0,0:0:0:0:
182,192,51686,128,0,51776:0:0:0:0:
256,192,51806,1,0,0:0:0:0:
182,192,51806,1,0,0:0:0:0:
329,192,51806,128,0,51896:0:0:0:0:
402,192,51926,1,0,0:0:0:0:
329,192,51926,1,0,0:0:0:0:
256,192,52046,1,0,0:0:0:0:
109,192,52046,128,0,52136:0:0:0:0:
109,192,52166,1,0,0:0:0:0:
182,192,52166,1,0,0:0:0:0:
402,192,52166,128,0,52256:0:0:0:0:
402,192,52286,1,0,0:0:0:0:
329,192,52286,1,0,0:0:0:0:
256,192,52286,128,0,52376:0:0:0:0:
256,192,52406,1,0,0:0:0:0:
182,192,52406,1,0,0:0:0:0:
109,192,52406,128,0,52496:0:0:0:0:
109,192,52526,1,0,0:0:0:0:
182,192,52526,1,0,0:0:0:0:
36,192,52526,1,0,0:0:0:0:
329,192,52686,1,0,0:0:0:0:
256,192,52686,1,0,0:0:0:0:
182,192,52686,1,0,0:0:0:0:
329,192,52846,1,0,0:0:0:0:
475,192,52846,1,0,0:0:0:0:
402,192,52846,1,0,0:0:0:0:
329,192,53006,128,0,53186:0:0:0:0:
475,192,53006,128,0,53186:0:0:0:0:
402,192,53006,1,0,0:0:0:0:
36,192,53006,128,0,53306:0:0:0:0:
109,192,53006,128,0,53186:0:0:0:0:
182,192,53006,128,0,53066:0:0:0:0:
256,192,53006,128,0,53486:0:0:0:0:
182,192,53126,128,0,53186:0:0:0:0:
402,192,53126,128,0,53306:0:0:0:0:
329,192,53246,128,0,53306:0:0:0:0:
475,192,53246,128,0,53306:0:0:0:0:
109,192,53246,128,0,53306:0:0:0:0:
36,192,53366,128,0,53426:0:0:0:0:
402,192,53366,128,0,53426:0:0:0:0:
329,192,53486,128,0,53606:0:0:0:0:
182,192,53486,128,0,53606:0:0:0:0:
475,192,53486,128,0,53606:0:0:0:0:
36,192,53486,1,0,0:0:0:0:
256,192,53606,128,0,53726:0:0:0:0:
402,192,53606,128,0,53726:0:0:0:0:
109,192,53606,128,0,53786:0:0:0:0:
182,192,53726,128,0,53786:0:0:0:0:
329,192,53726,128,0,53786:0:0:0:0:
475,192,53726,128,0,53786:0:0:0:0:
36,192,53726,128,0,53786:0:0:0:0:
256,192,53846,128,0,53906:0:0:0:0:
109,192,53846,128,0,53906:0:0:0:0:
182,192,53966,128,0,54146:0:0:0:0:
36,192,53966,128,0,54146:0:0:0:0:
402,192,53966,128,0,54146:0:0:0:0:
329,192,53966,128,0,54026:0:0:0:0:
256,192,53966,128,0,54386:0:0:0:0:
475,192,53966,128,0,54266:0:0:0:0:
109,192,53966,1,0,0:0:0:0:
109,192,54086,128,0,54266:0:0:0:0:
329,192,54086,128,0,54266:0:0:0:0:
36,192,54206,128,0,54266:0:0:0:0:
182,192,54206,128,0,54266:0:0:0:0:
402,192,54206,128,0,54386:0:0:0:0:
109,192,54326,128,0,54386:0:0:0:0:
182,192,54326,1,0,0:0:0:0:
36,192,54326,1,0,0:0:0:0:
329,192,54326,1,0,0:0:0:0:
475,192,54326,1,0,0:0:0:0:
109,192,54446,1,0,0:0:0:0:
256,192,54446,1,0,0:0:0:0:
402,192,54446,1,0,0:0:0:0:
109,192,54566,128,0,54626:0:0:0:0:
256,192,54566,128,0,54626:0:0:0:0:
402,192,54566,128,0,54626:0:0:0:0:
402,192,54686,1,0,0:0:0:0:
109,192,54686,1,0,0:0:0:0:
256,192,54686,1,0,0:0:0:0:
475,192,54686,1,0,0:0:0:0:
329,192,54686,1,0,0:0:0:0:
182,192,54686,1,0,0:0:0:0:
36,192,54686,1,0,0:0:0:0:
109,192,54806,1,0,0:0:0:0:
256,192,54806,1,0,0:0:0:0:
402,192,54806,1,0,0:0:0:0:
329,192,54926,1,0,0:0:0:0:
256,192,54926,1,0,0:0:0:0:
109,192,54926,1,0,0:0:0:0:
402,192,54966,1,0,0:0:0:0:
182,192,54986,1,0,0:0:0:0:
36,192,54986,1,0,0:0:0:0:
475,192,55006,1,0,0:0:0:0:
402,192,55046,1,0,0:0:0:0:
109,192,55046,1,0,0:0:0:0:
329,192,55086,1,0,0:0:0:0:
182,192,55106,1,0,0:0:0:0:
256,192,55166,1,0,0:0:0:0:
109,192,55166,1,0,0:0:0:0:
36,192,55166,1,0,0:0:0:0:
402,192,55166,1,0,0:0:0:0:
475,192,55166,1,0,0:0:0:0:
329,192,55226,1,0,0:0:0:0:
402,192,55286,1,0,0:0:0:0:
256,192,55286,1,0,0:0:0:0:
182,192,55286,1,0,0:0:0:0:
109,192,55326,1,0,0:0:0:0:
329,192,55346,1,0,0:0:0:0:
475,192,55346,1,0,0:0:0:0:
36,192,55366,1,0,0:0:0:0:
109,192,55406,1,0,0:0:0:0:
402,192,55406,1,0,0:0:0:0:
182,192,55446,1,0,0:0:0:0:
329,192,55466,1,0,0:0:0:0:
256,192,55526,1,0,0:0:0:0:
475,192,55526,1,0,0:0:0:0:
109,192,55526,1,0,0:0:0:0:
36,192,55526,1,0,0:0:0:0:
402,192,55526,1,0,0:0:0:0:
182,192,55586,1,0,0:0:0:0:
329,192,55646,1,0,0:0:0:0:
256,192,55646,1,0,0:0:0:0:
109,192,55646,1,0,0:0:0:0:
402,192,55686,1,0,0:0:0:0:
36,192,55706,1,0,0:0:0:0:
475,192,55726,1,0,0:0:0:0:
402,192,55766,1,0,0:0:0:0:
109,192,55766,1,0,0:0:0:0:
329,192,55806,1,0,0:0:0:0:
182,192,55826,1,0,0:0:0:0:
256,192,55886,1,0,0:0:0:0:
109,192,55886,1,0,0:0:0:0:
36,192,55886,1,0,0:0:0:0:
402,192,55886,1,0,0:0:0:0:
475,192,55886,1,0,0:0:0:0:
329,192,55946,1,0,0:0:0:0:
402,192,56006,1,0,0:0:0:0:
182,192,56006,1,0,0:0:0:0:
109,192,56046,1,0,0:0:0:0:
329,192,56066,1,0,0:0:0:0:
475,192,56066,1,0,0:0:0:0:
36,192,56086,1,0,0:0:0:0:
109,192,56126,1,0,0:0:0:0:
256,192,56126,1,0,0:0:0:0:
402,192,56126,1,0,0:0:0:0:
182,192,56166,1,0,0:0:0:0:
329,192,56186,1,0,0:0:0:0:
256,192,56246,1,0,0:0:0:0:
475,192,56246,1,0,0:0:0:0:
109,192,56246,1,0,0:0:0:0:
36,192,56246,1,0,0:0:0:0:
402,192,56246,1,0,0:0:0:0:
182,192,56306,1,0,0:0:0:0:
475,192,56366,128,0,56406:0:0:0:0:
402,192,56386,128,0,56426:0:0:0:0:
329,192,56406,128,0,56456:0:0:0:0:
256,192,56426,128,0,56486:0:0:0:0:
182,192,56446,128,0,56506:0:0:0:0:
109,192,56466,128,0,56536:0:0:0:0:
475,192,56486,1,0,0:0:0:0:
36,192,56486,128,0,56576:0:0:0:0:
402,192,56508,1,0,0:0:0:0:
329,192,56531,1,0,0:0:0:0:
256,192,56553,1,0,0:0:0:0:
182,192,56576,1,0,0:0:0:0:
109,192,56598,1,0,0:0:0:0:
36,192,56621,1,0,0:0:0:0:
36,192,56666,128,0,56816:0:0:0:0:
109,192,56686,128,0,56816:0:0:0:0:
182,192,56706,128,0,56816:0:0:0:0:
256,192,56726,128,0,56816:0:0:0:0:
329,192,56746,128,0,56816:0:0:0:0:
402,192,56766,128,0,56816:0:0:0:0:
475,192,56786,128,0,56816:0:0:0:0:
36,192,56846,1,0,0:0:0:0:
256,192,56846,1,0,0:0:0:0:
402,192,56846,1,0,0:0:0:0:
182,192,56886,1,0,0:0:0:0:
329,192,56906,1,0,0:0:0:0:
109,192,56926,1,0,0:0:0:0:
36,192,56966,1,0,0:0:0:0:
182,192,56966,1,0,0:0:0:0:
475,192,56966,1,0,0:0:0:0:
256,192,56966,1,0,0:0:0:0:
402,192,56966,1,0,0:0:0:0:
109,192,57026,1,0,0:0:0:0:
329,192,57026,1,0,0:0:0:0:
36,192,57086,1,0,0:0:0:0:
402,192,57086,1,0,0:0:0:0:
256,192,57086,1,0,0:0:0:0:
475,192,57086,1,0,0:0:0:0:
182,192,57146,1,0,0:0:0:0:
329,192,57146,1,0,0:0:0:0:
256,192,57206,1,0,0:0:0:0:
109,192,57206,1,0,0:0:0:0:
36,192,57206,1,0,0:0:0:0:
329,192,57246,1,0,0:0:0:0:
182,192,57266,1,0,0:0:0:0:
402,192,57286,1,0,0:0:0:0:
475,192,57326,1,0,0:0:0:0:
329,192,57326,1,0,0:0:0:0:
256,192,57326,1,0,0:0:0:0:
109,192,57326,1,0,0:0:0:0:
36,192,57326,1,0,0:0:0:0:
402,192,57386,1,0,0:0:0:0:
182,192,57386,1,0,0:0:0:0:
256,192,57446,1,0,0:0:0:0:
36,192,57446,1,0,0:0:0:0:
109,192,57506,1,0,0:0:0:0:
329,192,57506,1,0,0:0:0:0:
475,192,57506,1,0,0:0:0:0:
256,192,57566,1,0,0:0:0:0:
402,192,57566,1,0,0:0:0:0:
36,192,57566,1,0,0:0:0:0:
182,192,57606,1,0,0:0:0:0:
329,192,57626,1,0,0:0:0:0:
109,192,57646,1,0,0:0:0:0:
36,192,57686,1,0,0:0:0:0:
475,192,57686,1,0,0:0:0:0:
402,192,57686,1,0,0:0:0:0:
256,192,57686,1,0,0:0:0:0:
329,192,57746,1,0,0:0:0:0:
182,192,57746,1,0,0:0:0:0:
109,192,57806,1,0,0:0:0:0:
402,192,57806,1,0,0:0:0:0:
256,192,57806,1,0,0:0:0:0:
475,192,57806,1,0,0:0:0:0:
182,192,57866,1,0,0:0:0:0:
36,192,57866,1,0,0:0:0:0:
109,192,57926,1,0,0:0:0:0:
256,192,57926,1,0,0:0:0:0:
475,192,57926,1,0,0:0:0:0:
329,192,57966,1,0,0:0:0:0:
182,192,57986,1,0,0:0:0:0:
402,192,58006,1,0,0:0:0:0:
36,192,58046,1,0,0:0:0:0:
109,192,58046,1,0,0:0:0:0:
256,192,58046,1,0,0:0:0:0:
475,192,58046,1,0,0:0:0:0:
402,192,58106,1,0,0:0:0:0:
182,192,58106,1,0,0:0:0:0:
109,192,58166,1,0,0:0:0:0:
256,192,58166,1,0,0:0:0:0:
36,192,58166,1,0,0:0:0:0:
329,192,58226,1,0,0:0:0:0:
475,192,58226,1,0,0:0:0:0:
36,192,58286,1,0,0:0:0:0:
402,192,58286,1,0,0:0:0:0:
256,192,58286,1,0,0:0:0:0:
182,192,58326,1,0,0:0:0:0:
329,192,58346,1,0,0:0:0:0:
109,192,58366,1,0,0:0:0:0:
36,192,58406,1,0,0:0:0:0:
256,192,58406,1,0,0:0:0:0:
402,192,58406,1,0,0:0:0:0:
475,192,58406,1,0,0:0:0:0:
182,192,58446,1,0,0:0:0:0:
329,192,58466,1,0,0:0:0:0:
109,192,58486,1,0,0:0:0:0:
402,192,58526,1,0,0:0:0:0:
256,192,58526,1,0,0:0:0:0:
475,192,58526,1,0,0:0:0:0:
36,192,58526,1,0,0:0:0:0:
329,192,58566,1,0,0:0:0:0:
109,192,58586,1,0,0:0:0:0:
256,192,58606,1,0,0:0:0:0:
36,192,58646,1,0,0:0:0:0:
475,192,58646,1,0,0:0:0:0:
182,192,58646,1,0,0:0:0:0:
329,192,58646,1,0,0:0:0:0:
402,192,58686,1,0,0:0:0:0:
109,192,58706,1,0,0:0:0:0:
256,192,58706,1,0,0:0:0:0:
475,192,58726,1,0,0:0:0:0:
36,192,58766,1,0,0:0:0:0:
182,192,58766,1,0,0:0:0:0:
329,192,58766,1,0,0:0:0:0:
402,192,58766,1,0,0:0:0:0:
256,192,59006,128,0,59036:0:0:0:0:
182,192,59246,128,0,59276:0:0:0:0:
329,192,59246,128,0,59276:0:0:0:0:
109,192,59486,128,0,59516:0:0:0:0:
402,192,59486,128,0,59516:0:0:0:0:
36,192,59726,128,0,59756:0:0:0:0:
475,192,59726,128,0,59756:0:0:0:0:
109,192,59966,128,0,59996:0:0:0:0:
402,192,59966,128,0,59996:0:0:0:0:
329,192,60206,128,0,60236:0:0:0:0:
182,192,60206,128,0,60236:0:0:0:0:
256,192,60446,128,0,60476:0:0:0:0:
329,192,60686,128,0,60726:0:0:0:0:
475,192,60686,128,0,60766:0:0:0:0:
402,192,60686,128,0,60746:0:0:0:0:
182,192,60686,128,0,60726:0:0:0:0:
36,192,60686,128,0,60766:0:0:0:0:
109,192,60686,128,0,60746:0:0:0:0:
256,192,60686,1,0,0:0:0:0:
329,192,60806,128,0,60896:0:0:0:0:
182,192,60806,128,0,60896:0:0:0:0:
256,192,60806,1,0,0:0:0:0:
402,192,60821,128,0,60896:0:0:0:0:
109,192,60821,128,0,60896:0:0:0:0:
475,192,60836,128,0,60896:0:0:0:0:
36,192,60836,128,0,60896:0:0:0:0:
329,192,60926,128,0,61016:0:0:0:0:
402,192,60926,128,0,61001:0:0:0:0:
475,192,60926,128,0,60986:0:0:0:0:
36,192,60926,128,0,60986:0:0:0:0:
109,192,60926,128,0,61001:0:0:0:0:
182,192,60926,128,0,61016:0:0:0:0:
256,192,60926,1,0,0:0:0:0:
475,192,61046,128,0,61126:0:0:0:0:
36,192,61046,128,0,61126:0:0:0:0:
256,192,61046,1,0,0:0:0:0:
402,192,61066,128,0,61126:0:0:0:0:
109,192,61066,128,0,61126:0:0:0:0:
329,192,61086,128,0,61126:0:0:0:0:
182,192,61086,128,0,61126:0:0:0:0:
36,192,61166,128,0,61246:0:0:0:0:
475,192,61166,128,0,61246:0:0:0:0:
402,192,61166,128,0,61226:0:0:0:0:
109,192,61166,128,0,61226:0:0:0:0:
329,192,61166,128,0,61206:0:0:0:0:
182,192,61166,128,0,61206:0:0:0:0:
256,192,61166,1,0,0:0:0:0:
256,192,61271,1,0,0:0:0:0:
329,192,61286,128,0,61376:0:0:0:0:
182,192,61286,128,0,61376:0:0:0:0:
109,192,61301,128,0,61376:0:0:0:0:
402,192,61301,128,0,61376:0:0:0:0:
475,192,61316,128,0,61376:0:0:0:0:
36,192,61316,128,0,61376:0:0:0:0:
329,192,61406,128,0,61496:0:0:0:0:
182,192,61406,128,0,61496:0:0:0:0:
402,192,61406,128,0,61481:0:0:0:0:
109,192,61406,128,0,61481:0:0:0:0:
36,192,61406,128,0,61466:0:0:0:0:
475,192,61406,128,0,61466:0:0:0:0:
256,192,61406,1,0,0:0:0:0:
36,192,61526,128,0,61606:0:0:0:0:
475,192,61526,128,0,61606:0:0:0:0:
256,192,61526,1,0,0:0:0:0:
109,192,61546,128,0,61606:0:0:0:0:
402,192,61546,128,0,61606:0:0:0:0:
182,192,61566,128,0,61606:0:0:0:0:
329,192,61566,128,0,61606:0:0:0:0:
109,192,61646,128,0,61706:0:0:0:0:
256,192,61646,128,0,61746:0:0:0:0:
182,192,61646,128,0,61726:0:0:0:0:
329,192,61646,128,0,61726:0:0:0:0:
402,192,61646,128,0,61706:0:0:0:0:
475,192,61646,1,0,0:0:0:0:
36,192,61646,1,0,0:0:0:0:
402,192,61751,128,0,61826:0:0:0:0:
475,192,61766,1,0,0:0:0:0:
36,192,61766,1,0,0:0:0:0:
109,192,61766,128,0,61826:0:0:0:0:
182,192,61781,128,0,61826:0:0:0:0:
329,192,61781,128,0,61826:0:0:0:0:
256,192,61796,128,0,61826:0:0:0:0:
36,192,61886,1,0,0:0:0:0:
475,192,61886,1,0,0:0:0:0:
109,192,61886,128,0,61946:0:0:0:0:
182,192,61886,128,0,61966:0:0:0:0:
329,192,61886,128,0,61966:0:0:0:0:
402,192,61886,128,0,61946:0:0:0:0:
256,192,61886,128,0,61986:0:0:0:0:
402,192,61991,128,0,62066:0:0:0:0:
475,192,62006,1,0,0:0:0:0:
36,192,62006,1,0,0:0:0:0:
109,192,62006,128,0,62066:0:0:0:0:
329,192,62021,128,0,62066:0:0:0:0:
182,192,62021,128,0,62066:0:0:0:0:
256,192,62036,128,0,62066:0:0:0:0:
109,192,62126,1,0,0:0:0:0:
402,192,62126,1,0,0:0:0:0:
182,192,62126,128,0,62186:0:0:0:0:
256,192,62126,128,0,62206:0:0:0:0:
329,192,62126,128,0,62186:0:0:0:0:
36,192,62126,128,0,62156:0:0:0:0:
475,192,62126,128,0,62156:0:0:0:0:
256,192,62236,128,0,62316:0:0:0:0:
402,192,62246,1,0,0:0:0:0:
109,192,62246,1,0,0:0:0:0:
182,192,62256,128,0,62316:0:0:0:0:
329,192,62256,128,0,62316:0:0:0:0:
36,192,62266,128,0,62316:0:0:0:0:
475,192,62266,128,0,62316:0:0:0:0:
256,192,62486,128,0,62651:0:0:0:0:
182,192,62486,128,0,62666:0:0:0:0:
109,192,62486,128,0,62681:0:0:0:0:
36,192,62486,128,0,62696:0:0:0:0:
329,192,62486,128,0,62666:0:0:0:0:
402,192,62486,128,0,62681:0:0:0:0:
475,192,62486,128,0,62696:0:0:0:0:
36,192,62726,128,0,62816:0:0:0:0:
475,192,62726,128,0,62816:0:0:0:0:
402,192,62733,128,0,62808:0:0:0:0:
109,192,62733,128,0,62808:0:0:0:0:
182,192,62741,128,0,62801:0:0:0:0:
329,192,62741,128,0,62801:0:0:0:0:
256,192,62748,128,0,62793:0:0:0:0:
475,192,62846,128,0,62921:0:0:0:0:
36,192,62846,128,0,62921:0:0:0:0:
402,192,62853,128,0,62913:0:0:0:0:
109,192,62853,128,0,62913:0:0:0:0:
329,192,62861,128,0,62906:0:0:0:0:
182,192,62861,128,0,62906:0:0:0:0:
256,192,62868,128,0,62898:0:0:0:0:
475,192,62966,128,0,63033:0:0:0:0:
36,192,62966,128,0,63033:0:0:0:0:
109,192,62973,128,0,63026:0:0:0:0:
402,192,62973,128,0,63026:0:0:0:0:
182,192,62981,128,0,63018:0:0:0:0:
329,192,62981,128,0,63018:0:0:0:0:
256,192,62988,128,0,63011:0:0:0:0:
475,192,63086,128,0,63146:0:0:0:0:
36,192,63086,128,0,63146:0:0:0:0:
402,192,63093,128,0,63138:0:0:0:0:
109,192,63093,128,0,63138:0:0:0:0:
329,192,63101,128,0,63131:0:0:0:0:
182,192,63101,128,0,63131:0:0:0:0:
256,192,63108,128,0,63123:0:0:0:0:
36,192,63206,128,0,63273:0:0:0:0:
475,192,63206,128,0,63273:0:0:0:0:
402,192,63213,128,0,63266:0:0:0:0:
109,192,63213,128,0,63266:0:0:0:0:
329,192,63221,128,0,63258:0:0:0:0:
182,192,63221,128,0,63258:0:0:0:0:
256,192,63228,128,0,63251:0:0:0:0:
36,192,63326,128,0,63401:0:0:0:0:
475,192,63326,128,0,63401:0:0:0:0:
109,192,63333,128,0,63393:0:0:0:0:
402,192,63333,128,0,63393:0:0:0:0:
182,192,63341,128,0,63386:0:0:0:0:
329,192,63341,128,0,63386:0:0:0:0:
256,192,63348,128,0,63378:0:0:0:0:
475,192,63446,128,0,63536:0:0:0:0:
36,192,63446,128,0,63536:0:0:0:0:
109,192,63453,128,0,63528:0:0:0:0:
402,192,63453,128,0,63528:0:0:0:0:
329,192,63461,128,0,63521:0:0:0:0:
182,192,63461,128,0,63521:0:0:0:0:
256,192,63468,128,0,63513:0:0:0:0:
475,192,63566,128,0,63641:0:0:0:0:
36,192,63566,128,0,63641:0:0:0:0:
402,192,63573,128,0,63633:0:0:0:0:
109,192,63573,128,0,63633:0:0:0:0:
182,192,63581,128,0,63626:0:0:0:0:
329,192,63581,128,0,63626:0:0:0:0:
256,192,63588,128,0,63618:0:0:0:0:
36,192,63686,128,0,63753:0:0:0:0:
475,192,63686,128,0,63753:0:0:0:0:
402,192,63693,128,0,63746:0:0:0:0:
109,192,63693,128,0,63746:0:0:0:0:
329,192,63701,128,0,63738:0:0:0:0:
182,192,63701,128,0,63738:0:0:0:0:
256,192,63708,128,0,63731:0:0:0:0:
36,192,63806,128,0,63866:0:0:0:0:
475,192,63806,128,0,63866:0:0:0:0:
402,192,63813,128,0,63858:0:0:0:0:
109,192,63813,128,0,63858:0:0:0:0:
182,192,63821,128,0,63851:0:0:0:0:
329,192,63821,128,0,63851:0:0:0:0:
256,192,63828,128,0,63843:0:0:0:0:
36,192,63926,128,0,63978:0:0:0:0:
475,192,63926,128,0,63978:0:0:0:0:
109,192,63933,128,0,63971:0:0:0:0:
402,192,63933,128,0,63971:0:0:0:0:
182,192,63941,128,0,63963:0:0:0:0:
329,192,63941,128,0,63963:0:0:0:0:
256,192,63956,1,0,0:0:0:0:
256,192,64046,128,0,64136:0:0:0:0:
182,192,64056,128,0,64126:0:0:0:0:
329,192,64056,128,0,64126:0:0:0:0:
109,192,64066,128,0,64116:0:0:0:0:
402,192,64066,128,0,64116:0:0:0:0:
36,192,64076,128,0,64106:0:0:0:0:
475,192,64076,128,0,64106:0:0:0:0:
36,192,64156,128,0,64216:0:0:0:0:
475,192,64156,128,0,64216:0:0:0:0:
402,192,64166,128,0,64206:0:0:0:0:
109,192,64166,128,0,64206:0:0:0:0:
182,192,64176,128,0,64196:0:0:0:0:
329,192,64176,128,0,64196:0:0:0:0:
256,192,64186,1,0,0:0:0:0:
36,192,64406,128,0,64436:0:0:0:0:
109,192,64406,128,0,64466:0:0:0:0:
182,192,64406,128,0,64496:0:0:0:0:
256,192,64406,128,0,64526:0:0:0:0:
329,192,64406,128,0,64496:0:0:0:0:
402,192,64406,128,0,64466:0:0:0:0:
475,192,64406,128,0,64436:0:0:0:0:
36,192,64646,1,0,0:0:0:0:
475,192,64646,1,0,0:0:0:0:
402,192,64656,1,0,0:0:0:0:
109,192,64656,1,0,0:0:0:0:
182,192,64666,1,0,0:0:0:0:
329,192,64666,1,0,0:0:0:0:
256,192,64676,1,0,0:0:0:0:
36,192,64706,1,0,0:0:0:0:
475,192,64706,1,0,0:0:0:0:
109,192,64766,1,0,0:0:0:0:
182,192,64766,1,0,0:0:0:0:
329,192,64766,1,0,0:0:0:0:
402,192,64766,1,0,0:0:0:0:
256,192,64766,1,0,0:0:0:0:
182,192,65006,128,0,65066:0:0:0:0:
109,192,65006,128,0,65066:0:0:0:0:
36,192,65006,128,0,65066:0:0:0:0:
402,192,65006,1,0,0:0:0:0:
329,192,65066,1,0,0:0:0:0:
475,192,65066,1,0,0:0:0:0:
182,192,65126,1,0,0:0:0:0:
109,192,65126,1,0,0:0:0:0:
36,192,65126,1,0,0:0:0:0:
402,192,65126,1,0,0:0:0:0:
256,192,65186,128,0,65246:0:0:0:0:
475,192,65366,128,0,65396:0:0:0:0:
402,192,65366,128,0,65426:0:0:0:0:
329,192,65366,128,0,65456:0:0:0:0:
256,192,65366,128,0,65486:0:0:0:0:
182,192,65366,128,0,65456:0:0:0:0:
109,192,65366,128,0,65426:0:0:0:0:
36,192,65366,128,0,65396:0:0:0:0:
475,192,65606,1,0,0:0:0:0:
36,192,65606,1,0,0:0:0:0:
109,192,65616,1,0,0:0:0:0:
402,192,65616,1,0,0:0:0:0:
329,192,65626,1,0,0:0:0:0:
182,192,65626,1,0,0:0:0:0:
256,192,65636,1,0,0:0:0:0:
475,192,65666,1,0,0:0:0:0:
36,192,65666,1,0,0:0:0:0:
402,192,65726,1,0,0:0:0:0:
329,192,65726,1,0,0:0:0:0:
182,192,65726,1,0,0:0:0:0:
109,192,65726,1,0,0:0:0:0:
256,192,65726,1,0,0:0:0:0:
329,192,65966,128,0,66026:0:0:0:0:
402,192,65966,128,0,66026:0:0:0:0:
475,192,65966,128,0,66026:0:0:0:0:
109,192,65966,1,0,0:0:0:0:
182,192,66026,1,0,0:0:0:0:
36,192,66026,1,0,0:0:0:0:
329,192,66086,1,0,0:0:0:0:
402,192,66086,1,0,0:0:0:0:
475,192,66086,1,0,0:0:0:0:
109,192,66086,1,0,0:0:0:0:
256,192,66146,128,0,66206:0:0:0:0:
182,192,66326,128,0,66566:0:0:0:0:
36,192,66326,128,0,66566:0:0:0:0:
256,192,66566,1,0,0:0:0:0:
475,192,66566,128,0,66626:0:0:0:0:
109,192,66566,128,0,66746:0:0:0:0:
329,192,66626,1,0,0:0:0:0:
182,192,66626,128,0,66806:0:0:0:0:
402,192,66686,1,0,0:0:0:0:
475,192,66686,1,0,0:0:0:0:
256,192,66686,128,0,66746:0:0:0:0:
256,192,66806,1,0,0:0:0:0:
475,192,66806,128,0,66866:0:0:0:0:
36,192,66806,128,0,66986:0:0:0:0:
109,192,66806,128,0,66986:0:0:0:0:
329,192,66866,1,0,0:0:0:0:
182,192,66866,128,0,67046:0:0:0:0:
475,192,66926,1,0,0:0:0:0:
402,192,66926,1,0,0:0:0:0:
256,192,66926,128,0,66986:0:0:0:0:
256,192,67046,1,0,0:0:0:0:
475,192,67046,128,0,67106:0:0:0:0:
36,192,67046,128,0,67226:0:0:0:0:
109,192,67046,128,0,67226:0:0:0:0:
329,192,67106,1,0,0:0:0:0:
182,192,67106,128,0,67226:0:0:0:0:
402,192,67166,1,0,0:0:0:0:
475,192,67166,1,0,0:0:0:0:
256,192,67166,128,0,67286:0:0:0:0:
402,192,67286,1,0,0:0:0:0:
329,192,67286,1,0,0:0:0:0:
182,192,67286,1,0,0:0:0:0:
475,192,67286,128,0,67346:0:0:0:0:
109,192,67286,1,0,0:0:0:0:
36,192,67286,1,0,0:0:0:0:
329,192,67406,1,0,0:0:0:0:
402,192,67406,1,0,0:0:0:0:
182,192,67406,1,0,0:0:0:0:
109,192,67406,1,0,0:0:0:0:
475,192,67406,1,0,0:0:0:0:
36,192,67406,128,0,67466:0:0:0:0:
109,192,67526,1,0,0:0:0:0:
36,192,67526,1,0,0:0:0:0:
402,192,67526,1,0,0:0:0:0:
475,192,67526,1,0,0:0:0:0:
402,192,67766,1,0,0:0:0:0:
329,192,67766,1,0,0:0:0:0:
182,192,67766,1,0,0:0:0:0:
109,192,67766,1,0,0:0:0:0:
256,192,67766,1,0,0:0:0:0:
182,192,67886,1,0,0:0:0:0:
109,192,67886,1,0,0:0:0:0:
36,192,67886,1,0,0:0:0:0:
329,192,67886,1,0,0:0:0:0:
402,192,67886,1,0,0:0:0:0:
475,192,67886,1,0,0:0:0:0:
109,192,68006,1,0,0:0:0:0:
402,192,68006,1,0,0:0:0:0:
256,192,68126,128,0,68171:0:0:0:0:
182,192,68141,128,0,68186:0:0:0:0:
109,192,68156,128,0,68201:0:0:0:0:
36,192,68171,128,0,68201:0:0:0:0:
329,192,68186,128,0,68231:0:0:0:0:
256,192,68201,128,0,68246:0:0:0:0:
182,192,68216,128,0,68261:0:0:0:0:
109,192,68231,128,0,68261:0:0:0:0:
402,192,68246,128,0,68291:0:0:0:0:
329,192,68261,128,0,68306:0:0:0:0:
256,192,68276,128,0,68321:0:0:0:0:
182,192,68291,128,0,68321:0:0:0:0:
475,192,68306,128,0,68351:0:0:0:0:
402,192,68321,128,0,68366:0:0:0:0:
329,192,68336,128,0,68381:0:0:0:0:
256,192,68351,128,0,68381:0:0:0:0:
36,192,68366,128,0,68411:0:0:0:0:
109,192,68381,128,0,68426:0:0:0:0:
182,192,68396,128,0,68441:0:0:0:0:
475,192,68396,128,0,68441:0:0:0:0:
256,192,68411,128,0,68456:0:0:0:0:
402,192,68411,128,0,68456:0:0:0:0:
329,192,68426,128,0,68456:0:0:0:0:
475,192,68486,128,0,68546:0:0:0:0:
36,192,68501,128,0,68546:0:0:0:0:
402,192,68516,128,0,68561:0:0:0:0:
109,192,68516,128,0,68561:0:0:0:0:
182,192,68531,128,0,68576:0:0:0:0:
329,192,68531,128,0,68576:0:0:0:0:
256,192,68546,128,0,68576:0:0:0:0:
402,192,68606,128,0,68666:0:0:0:0:
475,192,68621,128,0,68666:0:0:0:0:
36,192,68636,128,0,68681:0:0:0:0:
329,192,68636,128,0,68681:0:0:0:0:
109,192,68651,128,0,68696:0:0:0:0:
256,192,68651,128,0,68696:0:0:0:0:
182,192,68666,128,0,68696:0:0:0:0:
329,192,68726,128,0,68786:0:0:0:0:
402,192,68741,128,0,68786:0:0:0:0:
256,192,68756,128,0,68801:0:0:0:0:
475,192,68756,128,0,68801:0:0:0:0:
182,192,68771,128,0,68816:0:0:0:0:
36,192,68771,128,0,68816:0:0:0:0:
109,192,68786,128,0,68816:0:0:0:0:
256,192,68846,128,0,68906:0:0:0:0:
329,192,68861,128,0,68906:0:0:0:0:
182,192,68876,128,0,68921:0:0:0:0:
402,192,68876,128,0,68921:0:0:0:0:
109,192,68891,128,0,68936:0:0:0:0:
475,192,68891,128,0,68936:0:0:0:0:
36,192,68906,128,0,68936:0:0:0:0:
182,192,68966,128,0,69026:0:0:0:0:
256,192,68981,128,0,69026:0:0:0:0:
329,192,68996,128,0,69041:0:0:0:0:
109,192,68996,128,0,69041:0:0:0:0:
36,192,69011,128,0,69056:0:0:0:0:
402,192,69011,128,0,69056:0:0:0:0:
475,192,69026,128,0,69056:0:0:0:0:
109,192,69086,128,0,69146:0:0:0:0:
182,192,69101,128,0,69146:0:0:0:0:
36,192,69116,128,0,69161:0:0:0:0:
256,192,69116,128,0,69161:0:0:0:0:
329,192,69131,128,0,69176:0:0:0:0:
475,192,69131,128,0,69176:0:0:0:0:
402,192,69146,128,0,69176:0:0:0:0:
36,192,69206,128,0,69251:0:0:0:0:
109,192,69221,128,0,69266:0:0:0:0:
475,192,69236,128,0,69281:0:0:0:0:
182,192,69236,128,0,69281:0:0:0:0:
402,192,69251,128,0,69296:0:0:0:0:
256,192,69251,128,0,69296:0:0:0:0:
329,192,69266,128,0,69296:0:0:0:0:
36,192,69326,128,0,69386:0:0:0:0:
475,192,69326,128,0,69386:0:0:0:0:
109,192,69386,128,0,69446:0:0:0:0:
402,192,69386,128,0,69446:0:0:0:0:
182,192,69446,128,0,69506:0:0:0:0:
329,192,69446,128,0,69506:0:0:0:0:
475,192,69446,128,0,69506:0:0:0:0:
256,192,69506,128,0,69566:0:0:0:0:
109,192,69506,128,0,69566:0:0:0:0:
402,192,69506,128,0,69566:0:0:0:0:
182,192,69566,128,0,69626:0:0:0:0:
36,192,69566,128,0,69626:0:0:0:0:
329,192,69626,128,0,69686:0:0:0:0:
475,192,69626,128,0,69686:0:0:0:0:
109,192,69626,128,0,69686:0:0:0:0:
402,192,69686,128,0,69746:0:0:0:0:
256,192,69686,128,0,69746:0:0:0:0:
182,192,69746,128,0,69806:0:0:0:0:
329,192,69746,128,0,69806:0:0:0:0:
109,192,69806,1,0,0:0:0:0:
36,192,69806,1,0,0:0:0:0:
402,192,69806,1,0,0:0:0:0:
475,192,69806,1,0,0:0:0:0:
256,192,69926,1,0,0:0:0:0:
109,192,69926,1,0,0:0:0:0:
36,192,69926,1,0,0:0:0:0:
402,192,69926,1,0,0:0:0:0:
475,192,69926,1,0,0:0:0:0:
256,192,70166,128,0,70286:0:0:0:0:
329,192,70166,128,0,70286:0:0:0:0:
402,192,70166,128,0,70286:0:0:0:0:
475,192,70166,128,0,70286:0:0:0:0:
109,192,70166,128,0,70286:0:0:0:0:
182,192,70166,128,0,70286:0:0:0:0:
36,192,70226,128,0,70376:0:0:0:0:
402,192,70406,128,0,70451:0:0:0:0:
256,192,70406,128,0,70451:0:0:0:0:
329,192,70406,128,0,70436:0:0:0:0:
475,192,70421,128,0,70466:0:0:0:0:
182,192,70421,128,0,70466:0:0:0:0:
109,192,70436,128,0,70481:0:0:0:0:
36,192,70451,128,0,70496:0:0:0:0:
329,192,70526,128,0,70571:0:0:0:0:
475,192,70526,128,0,70571:0:0:0:0:
402,192,70526,128,0,70556:0:0:0:0:
36,192,70541,128,0,70586:0:0:0:0:
256,192,70541,128,0,70586:0:0:0:0:
109,192,70556,128,0,70616:0:0:0:0:
182,192,70556,128,0,70601:0:0:0:0:
36,192,70646,128,0,70691:0:0:0:0:
402,192,70646,128,0,70691:0:0:0:0:
475,192,70646,128,0,70676:0:0:0:0:
329,192,70661,128,0,70706:0:0:0:0:
109,192,70661,128,0,70706:0:0:0:0:
182,192,70676,128,0,70736:0:0:0:0:
256,192,70676,128,0,70721:0:0:0:0:
109,192,70766,128,0,70811:0:0:0:0:
475,192,70766,128,0,70811:0:0:0:0:
36,192,70766,128,0,70796:0:0:0:0:
182,192,70781,128,0,70826:0:0:0:0:
402,192,70781,128,0,70826:0:0:0:0:
256,192,70796,128,0,70856:0:0:0:0:
329,192,70796,128,0,70841:0:0:0:0:
182,192,70886,128,0,70931:0:0:0:0:
36,192,70886,128,0,70931:0:0:0:0:
109,192,70886,128,0,70916:0:0:0:0:
256,192,70901,128,0,70946:0:0:0:0:
475,192,70901,128,0,70946:0:0:0:0:
329,192,70916,128,0,70976:0:0:0:0:
402,192,70916,128,0,70961:0:0:0:0:
109,192,71006,128,0,71051:0:0:0:0:
256,192,71006,128,0,71051:0:0:0:0:
182,192,71006,128,0,71036:0:0:0:0:
36,192,71021,128,0,71066:0:0:0:0:
329,192,71021,128,0,71066:0:0:0:0:
402,192,71036,128,0,71096:0:0:0:0:
475,192,71036,128,0,71081:0:0:0:0:
182,192,71126,128,0,71171:0:0:0:0:
329,192,71126,128,0,71171:0:0:0:0:
256,192,71126,128,0,71156:0:0:0:0:
402,192,71141,128,0,71186:0:0:0:0:
109,192,71141,128,0,71186:0:0:0:0:
475,192,71156,128,0,71216:0:0:0:0:
36,192,71156,128,0,71201:0:0:0:0:
36,192,71246,128,0,71306:0:0:0:0:
256,192,71246,128,0,71306:0:0:0:0:
109,192,71306,128,0,71366:0:0:0:0:
329,192,71306,128,0,71366:0:0:0:0:
182,192,71366,128,0,71426:0:0:0:0:
402,192,71366,128,0,71426:0:0:0:0:
329,192,71426,128,0,71486:0:0:0:0:
475,192,71426,128,0,71486:0:0:0:0:
109,192,71426,128,0,71486:0:0:0:0:
402,192,71486,128,0,71546:0:0:0:0:
182,192,71486,128,0,71546:0:0:0:0:
36,192,71486,128,0,71546:0:0:0:0:
329,192,71546,128,0,71606:0:0:0:0:
475,192,71546,128,0,71606:0:0:0:0:
109,192,71546,128,0,71606:0:0:0:0:
402,192,71606,128,0,71666:0:0:0:0:
256,192,71606,128,0,71666:0:0:0:0:
182,192,71666,128,0,71726:0:0:0:0:
329,192,71666,128,0,71726:0:0:0:0:
109,192,71726,1,0,0:0:0:0:
36,192,71726,1,0,0:0:0:0:
402,192,71726,1,0,0:0:0:0:
475,192,71726,1,0,0:0:0:0:
182,192,71846,1,0,0:0:0:0:
256,192,71846,1,0,0:0:0:0:
36,192,71846,1,0,0:0:0:0:
329,192,71846,1,0,0:0:0:0:
475,192,71846,1,0,0:0:0:0:
182,192,72086,1,0,0:0:0:0:
109,192,72126,1,0,0:0:0:0:
256,192,72166,1,0,0:0:0:0:
36,192,72166,1,0,0:0:0:0:
182,192,72206,1,0,0:0:0:0:
109,192,72246,1,0,0:0:0:0:
329,192,72246,1,0,0:0:0:0:
256,192,72286,1,0,0:0:0:0:
182,192,72326,1,0,0:0:0:0:
402,192,72326,1,0,0:0:0:0:
329,192,72366,1,0,0:0:0:0:
475,192,72406,1,0,0:0:0:0:
256,192,72406,1,0,0:0:0:0:
402,192,72446,1,0,0:0:0:0:
329,192,72446,1,0,0:0:0:0:
402,192,72686,128,0,72761:0:0:0:0:
256,192,72686,128,0,72761:0:0:0:0:
109,192,72686,128,0,72761:0:0:0:0:
182,192,72701,128,0,72746:0:0:0:0:
36,192,72701,128,0,72746:0:0:0:0:
329,192,72701,128,0,72746:0:0:0:0:
475,192,72701,128,0,72746:0:0:0:0:
36,192,72806,128,0,72851:0:0:0:0:
329,192,72806,128,0,72851:0:0:0:0:
475,192,72806,128,0,72851:0:0:0:0:
182,192,72806,128,0,72851:0:0:0:0:
109,192,72821,128,0,72851:0:0:0:0:
256,192,72821,128,0,72851:0:0:0:0:
402,192,72821,128,0,72851:0:0:0:0:
329,192,73046,1,0,0:0:0:0:
402,192,73086,1,0,0:0:0:0:
256,192,73126,1,0,0:0:0:0:
475,192,73126,1,0,0:0:0:0:
329,192,73166,1,0,0:0:0:0:
402,192,73206,1,0,0:0:0:0:
182,192,73206,1,0,0:0:0:0:
256,192,73246,1,0,0:0:0:0:
329,192,73286,1,0,0:0:0:0:
109,192,73286,1,0,0:0:0:0:
182,192,73326,1,0,0:0:0:0:
36,192,73366,1,0,0:0:0:0:
256,192,73366,1,0,0:0:0:0:
109,192,73406,1,0,0:0:0:0:
182,192,73406,1,0,0:0:0:0:
182,192,73646,128,0,73706:0:0:0:0:
475,192,73646,128,0,73706:0:0:0:0:
36,192,73646,128,0,73706:0:0:0:0:
329,192,73646,128,0,73706:0:0:0:0:
109,192,73646,128,0,73691:0:0:0:0:
402,192,73646,128,0,73691:0:0:0:0:
256,192,73646,128,0,73691:0:0:0:0:
402,192,73751,128,0,73826:0:0:0:0:
256,192,73751,128,0,73826:0:0:0:0:
109,192,73751,128,0,73826:0:0:0:0:
475,192,73766,128,0,73811:0:0:0:0:
329,192,73766,128,0,73811:0:0:0:0:
36,192,73766,128,0,73811:0:0:0:0:
182,192,73766,128,0,73811:0:0:0:0:
109,192,74006,128,0,74186:0:0:0:0:
402,192,74006,128,0,74186:0:0:0:0:
256,192,74006,128,0,74186:0:0:0:0:
109,192,74246,1,0,0:0:0:0:
256,192,74246,1,0,0:0:0:0:
402,192,74246,1,0,0:0:0:0:
329,192,74306,1,0,0:0:0:0:
182,192,74306,1,0,0:0:0:0:
36,192,74366,1,0,0:0:0:0:
475,192,74366,1,0,0:0:0:0:
402,192,74366,1,0,0:0:0:0:
109,192,74366,1,0,0:0:0:0:
182,192,74486,1,0,0:0:0:0:
329,192,74486,1,0,0:0:0:0:
402,192,74486,1,0,0:0:0:0:
109,192,74486,1,0,0:0:0:0:
182,192,74546,1,0,0:0:0:0:
329,192,74546,1,0,0:0:0:0:
402,192,74606,1,0,0:0:0:0:
475,192,74606,1,0,0:0:0:0:
109,192,74606,1,0,0:0:0:0:
36,192,74606,1,0,0:0:0:0:
256,192,74726,1,0,0:0:0:0:
36,192,74726,1,0,0:0:0:0:
475,192,74726,1,0,0:0:0:0:
329,192,74726,1,0,0:0:0:0:
182,192,74726,1,0,0:0:0:0:
109,192,74786,1,0,0:0:0:0:
402,192,74786,1,0,0:0:0:0:
256,192,74846,1,0,0:0:0:0:
182,192,74846,1,0,0:0:0:0:
329,192,74846,1,0,0:0:0:0:
109,192,74966,1,0,0:0:0:0:
36,192,74966,1,0,0:0:0:0:
256,192,74966,1,0,0:0:0:0:
402,192,74966,1,0,0:0:0:0:
475,192,74966,1,0,0:0:0:0:
329,192,75086,1,0,0:0:0:0:
182,192,75086,1,0,0:0:0:0:
402,192,75206,1,0,0:0:0:0:
329,192,75206,1,0,0:0:0:0:
36,192,75206,1,0,0:0:0:0:
182,192,75206,1,0,0:0:0:0:
109,192,75206,1,0,0:0:0:0:
475,192,75206,1,0,0:0:0:0:
256,192,75386,1,0,0:0:0:0:
182,192,75386,1,0,0:0:0:0:
36,192,75386,1,0,0:0:0:0:
402,192,75386,1,0,0:0:0:0:
329,192,75386,1,0,0:0:0:0:
182,192,75566,1,0,0:0:0:0:
36,192,75566,1,0,0:0:0:0:
256,192,75566,1,0,0:0:0:0:
329,192,75566,1,0,0:0:0:0:
475,192,75566,1,0,0:0:0:0:
109,192,75746,1,0,0:0:0:0:
182,192,75746,1,0,0:0:0:0:
256,192,75746,1,0,0:0:0:0:
329,192,75746,1,0,0:0:0:0:
475,192,75746,1,0,0:0:0:0:
329,192,75926,1,0,0:0:0:0:
256,192,75926,1,0,0:0:0:0:
182,192,75926,1,0,0:0:0:0:
36,192,75926,1,0,0:0:0:0:
475,192,75926,1,0,0:0:0:0:
36,192,76046,128,0,76166:0:0:0:0:
109,192,76076,128,0,76196:0:0:0:0:
182,192,76106,128,0,76226:0:0:0:0:
256,192,76136,128,0,76256:0:0:0:0:
329,192,76166,128,0,76286:0:0:0:0:
402,192,76196,128,0,76316:0:0:0:0:
475,192,76226,128,0,76346:0:0:0:0:
182,192,76286,1,0,0:0:0:0:
109,192,76286,1,0,0:0:0:0:
256,192,76286,1,0,0:0:0:0:
36,192,76286,128,0,76346:0:0:0:0:
36,192,76406,1,0,0:0:0:0:
329,192,76406,1,0,0:0:0:0:
402,192,76406,1,0,0:0:0:0:
256,192,76406,128,0,76586:0:0:0:0:
475,192,76406,1,0,0:0:0:0:
182,192,76406,128,0,76466:0:0:0:0:
182,192,76526,1,0,0:0:0:0:
475,192,76526,1,0,0:0:0:0:
109,192,76526,1,0,0:0:0:0:
36,192,76526,1,0,0:0:0:0:
329,192,76526,128,0,76586:0:0:0:0:
109,192,76646,128,0,76706:0:0:0:0:
329,192,76646,1,0,0:0:0:0:
182,192,76646,1,0,0:0:0:0:
256,192,76646,1,0,0:0:0:0:
475,192,76646,1,0,0:0:0:0:
256,192,76766,128,0,76826:0:0:0:0:
109,192,76766,1,0,0:0:0:0:
402,192,76766,1,0,0:0:0:0:
329,192,76766,1,0,0:0:0:0:
36,192,76766,1,0,0:0:0:0:
402,192,76886,128,0,76946:0:0:0:0:
256,192,76886,1,0,0:0:0:0:
475,192,76886,1,0,0:0:0:0:
36,192,76886,1,0,0:0:0:0:
109,192,76886,1,0,0:0:0:0:
329,192,76886,1,0,0:0:0:0:
402,192,77006,1,0,0:0:0:0:
109,192,77006,1,0,0:0:0:0:
36,192,77006,1,0,0:0:0:0:
475,192,77006,128,0,77066:0:0:0:0:
256,192,77006,128,0,77306:0:0:0:0:
182,192,77006,1,0,0:0:0:0:
329,192,77126,128,0,77186:0:0:0:0:
182,192,77126,1,0,0:0:0:0:
402,192,77126,1,0,0:0:0:0:
475,192,77126,1,0,0:0:0:0:
36,192,77126,1,0,0:0:0:0:
329,192,77246,1,0,0:0:0:0:
109,192,77246,1,0,0:0:0:0:
36,192,77246,1,0,0:0:0:0:
182,192,77246,128,0,77306:0:0:0:0:
475,192,77246,1,0,0:0:0:0:
475,192,77366,1,0,0:0:0:0:
182,192,77366,1,0,0:0:0:0:
109,192,77366,1,0,0:0:0:0:
36,192,77366,1,0,0:0:0:0:
329,192,77366,1,0,0:0:0:0:
402,192,77366,1,0,0:0:0:0:
36,192,77606,128,0,77666:0:0:0:0:
109,192,77606,128,0,77666:0:0:0:0:
182,192,77606,128,0,77666:0:0:0:0:
256,192,77606,128,0,77666:0:0:0:0:
329,192,77606,128,0,77666:0:0:0:0:
402,192,77606,128,0,77666:0:0:0:0:
475,192,77606,128,0,77666:0:0:0:0:
36,192,77846,1,0,0:0:0:0:
329,192,77846,1,0,0:0:0:0:
256,192,77846,128,0,78026:0:0:0:0:
109,192,77906,1,0,0:0:0:0:
402,192,77906,1,0,0:0:0:0:
182,192,77966,1,0,0:0:0:0:
475,192,77966,1,0,0:0:0:0:
36,192,78026,1,0,0:0:0:0:
329,192,78026,1,0,0:0:0:0:
256,192,78086,1,0,0:0:0:0:
109,192,78086,1,0,0:0:0:0:
402,192,78086,1,0,0:0:0:0:
182,192,78146,1,0,0:0:0:0:
475,192,78146,1,0,0:0:0:0:
256,192,78206,128,0,78386:0:0:0:0:
36,192,78206,1,0,0:0:0:0:
329,192,78206,1,0,0:0:0:0:
402,192,78246,1,0,0:0:0:0:
109,192,78246,1,0,0:0:0:0:
475,192,78286,1,0,0:0:0:0:
182,192,78286,1,0,0:0:0:0:
109,192,78326,1,0,0:0:0:0:
402,192,78326,1,0,0:0:0:0:
36,192,78386,1,0,0:0:0:0:
329,192,78386,1,0,0:0:0:0:
256,192,78446,128,0,78506:0:0:0:0:
182,192,78446,128,0,78506:0:0:0:0:
475,192,78446,128,0,78506:0:0:0:0:
402,192,78506,128,0,78566:0:0:0:0:
109,192,78506,128,0,78566:0:0:0:0:
36,192,78566,128,0,78626:0:0:0:0:
329,192,78566,128,0,78626:0:0:0:0:
475,192,78626,128,0,78686:0:0:0:0:
182,192,78626,128,0,78686:0:0:0:0:
109,192,78686,128,0,78746:0:0:0:0:
402,192,78686,128,0,78746:0:0:0:0:
36,192,78746,128,0,78806:0:0:0:0:
329,192,78746,128,0,78806:0:0:0:0:
475,192,78806,128,0,78986:0:0:0:0:
256,192,78806,128,0,78866:0:0:0:0:
36,192,78866,128,0,78926:0:0:0:0:
329,192,78866,128,0,78926:0:0:0:0:
109,192,78926,128,0,78986:0:0:0:0:
402,192,78926,128,0,78986:0:0:0:0:
182,192,78986,128,0,79046:0:0:0:0:
475,192,79046,128,0,79106:0:0:0:0:
36,192,79046,128,0,79106:0:0:0:0:
256,192,79046,128,0,79106:0:0:0:0:
329,192,79106,128,0,79166:0:0:0:0:
182,192,79106,128,0,79166:0:0:0:0:
36,192,79166,128,0,79346:0:0:0:0:
256,192,79166,128,0,79226:0:0:0:0:
475,192,79166,128,0,79226:0:0:0:0:
329,192,79226,128,0,79286:0:0:0:0:
109,192,79226,128,0,79286:0:0:0:0:
402,192,79286,128,0,79346:0:0:0:0:
182,192,79286,128,0,79346:0:0:0:0:
475,192,79346,128,0,79406:0:0:0:0:
256,192,79346,128,0,79406:0:0:0:0:
36,192,79406,128,0,79466:0:0:0:0:
182,192,79406,1,0,0:0:0:0:
109,192,79406,1,0,0:0:0:0:
475,192,79466,1,0,0:0:0:0:
256,192,79466,128,0,79556:0:0:0:0:
329,192,79466,128,0,79526:0:0:0:0:
402,192,79466,128,0,79496:0:0:0:0:
402,192,79586,1,0,0:0:0:0:
475,192,79586,128,0,79646:0:0:0:0:
329,192,79586,1,0,0:0:0:0:
36,192,79646,1,0,0:0:0:0:
109,192,79646,128,0,79676:0:0:0:0:
182,192,79646,128,0,79706:0:0:0:0:
256,192,79646,128,0,79736:0:0:0:0:
109,192,79766,1,0,0:0:0:0:
402,192,79766,1,0,0:0:0:0:
182,192,79796,1,0,0:0:0:0:
329,192,79796,1,0,0:0:0:0:
256,192,79826,1,0,0:0:0:0:
475,192,80126,128,0,80216:0:0:0:0:
329,192,80126,1,0,0:0:0:0:
402,192,80126,1,0,0:0:0:0:
256,192,80126,128,0,80186:0:0:0:0:
109,192,80126,1,0,0:0:0:0:
329,192,80246,128,0,80336:0:0:0:0:
475,192,80246,1,0,0:0:0:0:
182,192,80246,1,0,0:0:0:0:
109,192,80246,1,0,0:0:0:0:
36,192,80246,128,0,80306:0:0:0:0:
256,192,80246,1,0,0:0:0:0:
182,192,80366,128,0,80456:0:0:0:0:
329,192,80366,1,0,0:0:0:0:
36,192,80366,1,0,0:0:0:0:
109,192,80366,1,0,0:0:0:0:
475,192,80366,128,0,80426:0:0:0:0:
402,192,80486,128,0,80576:0:0:0:0:
182,192,80486,1,0,0:0:0:0:
329,192,80486,1,0,0:0:0:0:
256,192,80486,1,0,0:0:0:0:
36,192,80486,128,0,80546:0:0:0:0:
256,192,80606,128,0,80696:0:0:0:0:
402,192,80606,1,0,0:0:0:0:
109,192,80606,1,0,0:0:0:0:
182,192,80606,1,0,0:0:0:0:
475,192,80606,128,0,80666:0:0:0:0:
109,192,80726,128,0,80816:0:0:0:0:
256,192,80726,1,0,0:0:0:0:
36,192,80726,1,0,0:0:0:0:
475,192,80726,1,0,0:0:0:0:
402,192,80726,128,0,80786:0:0:0:0:
329,192,80846,128,0,80936:0:0:0:0:
109,192,80846,1,0,0:0:0:0:
402,192,80846,1,0,0:0:0:0:
475,192,80846,1,0,0:0:0:0:
36,192,80846,128,0,80906:0:0:0:0:
256,192,80846,1,0,0:0:0:0:
182,192,80966,128,0,81056:0:0:0:0:
329,192,80966,1,0,0:0:0:0:
109,192,80966,1,0,0:0:0:0:
36,192,80966,1,0,0:0:0:0:
475,192,80966,128,0,81026:0:0:0:0:
36,192,81086,128,0,81176:0:0:0:0:
182,192,81086,1,0,0:0:0:0:
402,192,81086,1,0,0:0:0:0:
475,192,81086,1,0,0:0:0:0:
329,192,81086,128,0,81146:0:0:0:0:
36,192,81206,1,0,0:0:0:0:
329,192,81206,1,0,0:0:0:0:
402,192,81206,1,0,0:0:0:0:
475,192,81206,1,0,0:0:0:0:
182,192,81206,1,0,0:0:0:0:
109,192,81206,1,0,0:0:0:0:
475,192,81446,128,0,81506:0:0:0:0:
402,192,81446,128,0,81506:0:0:0:0:
329,192,81446,128,0,81506:0:0:0:0:
256,192,81446,128,0,81506:0:0:0:0:
182,192,81446,128,0,81506:0:0:0:0:
109,192,81446,128,0,81506:0:0:0:0:
36,192,81446,128,0,81506:0:0:0:0:
36,192,81686,1,0,0:0:0:0:
475,192,81686,1,0,0:0:0:0:
109,192,81686,128,0,81746:0:0:0:0:
402,192,81686,128,0,81746:0:0:0:0:
182,192,81746,128,0,81806:0:0:0:0:
329,192,81746,128,0,81806:0:0:0:0:
36,192,81806,1,0,0:0:0:0:
475,192,81806,1,0,0:0:0:0:
256,192,81806,128,0,81866:0:0:0:0:
402,192,81866,1,0,0:0:0:0:
109,192,81866,1,0,0:0:0:0:
329,192,81926,1,0,0:0:0:0:
182,192,81926,128,0,81986:0:0:0:0:
475,192,81986,1,0,0:0:0:0:
109,192,81986,128,0,82046:0:0:0:0:
256,192,82046,1,0,0:0:0:0:
402,192,82046,1,0,0:0:0:0:
36,192,82046,128,0,82106:0:0:0:0:
109,192,82106,1,0,0:0:0:0:
329,192,82106,128,0,82166:0:0:0:0:
182,192,82166,1,0,0:0:0:0:
402,192,82166,128,0,82226:0:0:0:0:
256,192,82226,1,0,0:0:0:0:
475,192,82226,128,0,82286:0:0:0:0:
182,192,82286,1,0,0:0:0:0:
402,192,82286,1,0,0:0:0:0:
36,192,82286,128,0,82346:0:0:0:0:
256,192,82346,1,0,0:0:0:0:
109,192,82346,128,0,82406:0:0:0:0:
475,192,82406,1,0,0:0:0:0:
182,192,82406,128,0,82466:0:0:0:0:
36,192,82466,1,0,0:0:0:0:
329,192,82466,128,0,82526:0:0:0:0:
109,192,82526,1,0,0:0:0:0:
256,192,82526,128,0,82586:0:0:0:0:
402,192,82586,1,0,0:0:0:0:
182,192,82586,128,0,82646:0:0:0:0:
329,192,82646,1,0,0:0:0:0:
475,192,82646,1,0,0:0:0:0:
256,192,82646,1,0,0:0:0:0:
109,192,82646,128,0,82706:0:0:0:0:
402,192,82706,1,0,0:0:0:0:
36,192,82706,128,0,82736:0:0:0:0:
182,192,82766,1,0,0:0:0:0:
329,192,82766,128,0,82826:0:0:0:0:
109,192,82826,1,0,0:0:0:0:
402,192,82826,128,0,82886:0:0:0:0:
329,192,82886,1,0,0:0:0:0:
182,192,82886,1,0,0:0:0:0:
36,192,82886,1,0,0:0:0:0:
475,192,82886,128,0,82946:0:0:0:0:
256,192,82946,128,0,83006:0:0:0:0:
475,192,83006,1,0,0:0:0:0:
36,192,83006,1,0,0:0:0:0:
402,192,83006,1,0,0:0:0:0:
109,192,83006,128,0,83066:0:0:0:0:
182,192,83066,128,0,83126:0:0:0:0:
36,192,83126,1,0,0:0:0:0:
475,192,83126,1,0,0:0:0:0:
256,192,83126,128,0,83186:0:0:0:0:
402,192,83186,1,0,0:0:0:0:
109,192,83186,1,0,0:0:0:0:
182,192,83246,1,0,0:0:0:0:
329,192,83246,1,0,0:0:0:0:
36,192,83246,1,0,0:0:0:0:
256,192,83306,1,0,0:0:0:0:
109,192,83306,1,0,0:0:0:0:
182,192,83366,1,0,0:0:0:0:
329,192,83366,1,0,0:0:0:0:
256,192,83426,1,0,0:0:0:0:
402,192,83426,1,0,0:0:0:0:
36,192,83486,1,0,0:0:0:0:
182,192,83486,1,0,0:0:0:0:
475,192,83486,1,0,0:0:0:0:
402,192,83546,1,0,0:0:0:0:
109,192,83546,1,0,0:0:0:0:
329,192,83606,1,0,0:0:0:0:
36,192,83606,1,0,0:0:0:0:
256,192,83666,1,0,0:0:0:0:
475,192,83666,1,0,0:0:0:0:
182,192,83726,1,0,0:0:0:0:
402,192,83726,1,0,0:0:0:0:
329,192,83786,1,0,0:0:0:0:
109,192,83786,1,0,0:0:0:0:
256,192,83846,1,0,0:0:0:0:
36,192,83846,1,0,0:0:0:0:
182,192,83906,1,0,0:0:0:0:
475,192,83906,1,0,0:0:0:0:
109,192,83966,1,0,0:0:0:0:
402,192,83966,1,0,0:0:0:0:
329,192,84026,1,0,0:0:0:0:
36,192,84026,1,0,0:0:0:0:
256,192,84086,1,0,0:0:0:0:
475,192,84086,1,0,0:0:0:0:
182,192,84146,1,0,0:0:0:0:
402,192,84146,1,0,0:0:0:0:
329,192,84206,1,0,0:0:0:0:
109,192,84206,1,0,0:0:0:0:
256,192,84266,1,0,0:0:0:0:
36,192,84266,1,0,0:0:0:0:
109,192,84326,1,0,0:0:0:0:
329,192,84326,1,0,0:0:0:0:
182,192,84386,1,0,0:0:0:0:
402,192,84386,1,0,0:0:0:0:
256,192,84446,1,0,0:0:0:0:
475,192,84446,1,0,0:0:0:0:
36,192,84506,1,0,0:0:0:0:
329,192,84506,1,0,0:0:0:0:
109,192,84566,1,0,0:0:0:0:
402,192,84566,1,0,0:0:0:0:
182,192,84626,1,0,0:0:0:0:
475,192,84626,1,0,0:0:0:0:
109,192,84686,128,0,84716:0:0:0:0:
256,192,84686,128,0,84716:0:0:0:0:
402,192,84686,128,0,84716:0:0:0:0:
182,192,84746,128,0,84776:0:0:0:0:
329,192,84746,128,0,84776:0:0:0:0:
256,192,84806,128,0,84836:0:0:0:0:
182,192,84866,128,0,84896:0:0:0:0:
329,192,84866,128,0,84896:0:0:0:0:
256,192,84926,128,0,84956:0:0:0:0:
109,192,84926,128,0,84956:0:0:0:0:
402,192,84926,128,0,84956:0:0:0:0:
182,192,84986,1,0,0:0:0:0:
329,192,84986,1,0,0:0:0:0:
36,192,84986,128,0,85106:0:0:0:0:
475,192,84986,128,0,85106:0:0:0:0:
109,192,85046,128,0,85166:0:0:0:0:
402,192,85046,128,0,85166:0:0:0:0:
256,192,85046,128,0,85106:0:0:0:0:
329,192,85106,128,0,85166:0:0:0:0:
182,192,85106,128,0,85166:0:0:0:0:
475,192,85166,1,0,0:0:0:0:
256,192,85166,1,0,0:0:0:0:
36,192,85166,1,0,0:0:0:0:
475,192,85406,128,0,85436:0:0:0:0:
329,192,85406,128,0,85456:0:0:0:0:
402,192,85406,128,0,85446:0:0:0:0:
36,192,85406,128,0,85436:0:0:0:0:
182,192,85406,128,0,85456:0:0:0:0:
109,192,85406,128,0,85446:0:0:0:0:
256,192,85406,128,0,85466:0:0:0:0:
36,192,85496,128,0,85576:0:0:0:0:
475,192,85496,128,0,85576:0:0:0:0:
109,192,85506,128,0,85576:0:0:0:0:
402,192,85506,128,0,85576:0:0:0:0:
182,192,85516,128,0,85576:0:0:0:0:
329,192,85516,128,0,85576:0:0:0:0:
256,192,85526,128,0,85576:0:0:0:0:
36,192,85646,128,0,85706:0:0:0:0:
475,192,85646,128,0,85706:0:0:0:0:
182,192,85646,128,0,85676:0:0:0:0:
329,192,85646,128,0,85676:0:0:0:0:
109,192,85706,128,0,85766:0:0:0:0:
402,192,85706,128,0,85766:0:0:0:0:
256,192,85706,128,0,85736:0:0:0:0:
182,192,85766,128,0,85826:0:0:0:0:
329,192,85766,128,0,85826:0:0:0:0:
36,192,85826,128,0,86006:0:0:0:0:
475,192,85826,128,0,86006:0:0:0:0:
256,192,85826,128,0,86006:0:0:0:0:
402,192,85886,128,0,85946:0:0:0:0:
109,192,85886,128,0,85946:0:0:0:0:
182,192,85946,128,0,85976:0:0:0:0:
329,192,85946,128,0,85976:0:0:0:0:
402,192,86006,128,0,86036:0:0:0:0:
109,192,86006,128,0,86036:0:0:0:0:
36,192,86066,128,0,86096:0:0:0:0:
475,192,86066,128,0,86096:0:0:0:0:
256,192,86066,128,0,86096:0:0:0:0:
182,192,86126,1,0,0:0:0:0:
109,192,86126,1,0,0:0:0:0:
329,192,86126,1,0,0:0:0:0:
402,192,86126,1,0,0:0:0:0:
182,192,86366,128,0,86396:0:0:0:0:
109,192,86366,128,0,86396:0:0:0:0:
36,192,86366,128,0,86396:0:0:0:0:
256,192,86366,128,0,86396:0:0:0:0:
329,192,86366,128,0,86396:0:0:0:0:
402,192,86366,128,0,86396:0:0:0:0:
475,192,86366,128,0,86396:0:0:0:0:
256,192,86606,128,0,86666:0:0:0:0:
182,192,86646,128,0,86706:0:0:0:0:
329,192,86666,128,0,86726:0:0:0:0:
109,192,86686,128,0,86746:0:0:0:0:
36,192,86726,128,0,86786:0:0:0:0:
402,192,86726,128,0,86786:0:0:0:0:
256,192,86726,128,0,86786:0:0:0:0:
475,192,86786,128,0,86846:0:0:0:0:
182,192,86786,128,0,86846:0:0:0:0:
402,192,86846,128,0,86906:0:0:0:0:
109,192,86846,128,0,86906:0:0:0:0:
329,192,86906,128,0,86966:0:0:0:0:
36,192,86906,128,0,86966:0:0:0:0:
256,192,86966,128,0,87026:0:0:0:0:
329,192,87006,128,0,87066:0:0:0:0:
182,192,87026,128,0,87086:0:0:0:0:
402,192,87046,128,0,87106:0:0:0:0:
475,192,87086,128,0,87146:0:0:0:0:
109,192,87086,128,0,87146:0:0:0:0:
256,192,87086,128,0,87146:0:0:0:0:
36,192,87146,128,0,87206:0:0:0:0:
329,192,87146,128,0,87206:0:0:0:0:
109,192,87206,128,0,87266:0:0:0:0:
402,192,87206,128,0,87266:0:0:0:0:
182,192,87266,128,0,87326:0:0:0:0:
475,192,87266,128,0,87326:0:0:0:0:
256,192,87326,128,0,87386:0:0:0:0:
329,192,87366,128,0,87426:0:0:0:0:
109,192,87386,128,0,87446:0:0:0:0:
402,192,87406,128,0,87466:0:0:0:0:
182,192,87426,128,0,87486:0:0:0:0:
475,192,87446,128,0,87506:0:0:0:0:
256,192,87466,128,0,87526:0:0:0:0:
36,192,87466,128,0,87526:0:0:0:0:
329,192,87486,128,0,87546:0:0:0:0:
109,192,87506,128,0,87566:0:0:0:0:
182,192,87546,128,0,87606:0:0:0:0:
402,192,87566,128,0,87766:0:0:0:0:
475,192,87566,1,0,0:0:0:0:
36,192,87566,128,0,87646:0:0:0:0:
256,192,87646,1,0,0:0:0:0:
109,192,87646,128,0,87726:0:0:0:0:
329,192,87726,1,0,0:0:0:0:
182,192,87726,128,0,87806:0:0:0:0:
256,192,87806,1,0,0:0:0:0:
402,192,87806,1,0,0:0:0:0:
475,192,87806,128,0,87886:0:0:0:0:
109,192,87806,128,0,87886:0:0:0:0:
329,192,87886,1,0,0:0:0:0:
182,192,87886,1,0,0:0:0:0:
402,192,87886,128,0,87966:0:0:0:0:
36,192,87886,128,0,87966:0:0:0:0:
256,192,87966,1,0,0:0:0:0:
109,192,87966,1,0,0:0:0:0:
329,192,87966,128,0,88046:0:0:0:0:
182,192,88046,1,0,0:0:0:0:
36,192,88046,128,0,88126:0:0:0:0:
402,192,88046,128,0,88126:0:0:0:0:
256,192,88126,1,0,0:0:0:0:
109,192,88126,128,0,88366:0:0:0:0:
475,192,88126,128,0,88206:0:0:0:0:
329,192,88206,1,0,0:0:0:0:
182,192,88206,128,0,88286:0:0:0:0:
402,192,88286,1,0,0:0:0:0:
256,192,88286,128,0,88366:0:0:0:0:
475,192,88286,128,0,88366:0:0:0:0:
402,192,88366,128,0,88606:0:0:0:0:
329,192,88366,1,0,0:0:0:0:
182,192,88366,128,0,88446:0:0:0:0:
329,192,88446,128,0,88526:0:0:0:0:
256,192,88446,1,0,0:0:0:0:
109,192,88446,128,0,88526:0:0:0:0:
256,192,88526,128,0,88606:0:0:0:0:
475,192,88526,128,0,88606:0:0:0:0:
182,192,88526,128,0,88606:0:0:0:0:
36,192,88526,128,0,88606:0:0:0:0:
329,192,88606,1,0,0:0:0:0:
109,192,88606,1,0,0:0:0:0:
402,192,88686,1,0,0:0:0:0:
182,192,88686,1,0,0:0:0:0:
475,192,88766,1,0,0:0:0:0:
256,192,88766,1,0,0:0:0:0:
182,192,88846,1,0,0:0:0:0:
402,192,88846,1,0,0:0:0:0:
329,192,88926,1,0,0:0:0:0:
109,192,88926,1,0,0:0:0:0:
256,192,89006,1,0,0:0:0:0:
36,192,89006,1,0,0:0:0:0:
475,192,89006,128,0,89246:0:0:0:0:
182,192,89086,1,0,0:0:0:0:
402,192,89086,1,0,0:0:0:0:
109,192,89166,1,0,0:0:0:0:
329,192,89166,1,0,0:0:0:0:
36,192,89246,128,0,89486:0:0:0:0:
256,192,89246,1,0,0:0:0:0:
109,192,89246,128,0,89326:0:0:0:0:
402,192,89246,128,0,89326:0:0:0:0:
182,192,89326,128,0,89406:0:0:0:0:
329,192,89326,128,0,89406:0:0:0:0:
256,192,89406,128,0,89486:0:0:0:0:
402,192,89406,128,0,89486:0:0:0:0:
182,192,89486,128,0,89557:0:0:0:0:
329,192,89486,128,0,89557:0:0:0:0:
475,192,89486,128,0,89557:0:0:0:0:
109,192,89486,128,0,89557:0:0:0:0:
402,192,89557,1,0,0:0:0:0:
256,192,89557,1,0,0:0:0:0:
36,192,89557,1,0,0:0:0:0:
109,192,89628,1,0,0:0:0:0:
329,192,89628,1,0,0:0:0:0:
402,192,89700,1,0,0:0:0:0:
182,192,89700,1,0,0:0:0:0:
36,192,89700,128,0,89914:0:0:0:0:
256,192,89771,1,0,0:0:0:0:
475,192,89771,1,0,0:0:0:0:
402,192,89843,1,0,0:0:0:0:
182,192,89843,1,0,0:0:0:0:
329,192,89914,1,0,0:0:0:0:
109,192,89914,1,0,0:0:0:0:
475,192,89914,128,0,90128:0:0:0:0:
256,192,89986,1,0,0:0:0:0:
36,192,89986,1,0,0:0:0:0:
329,192,90057,1,0,0:0:0:0:
109,192,90057,1,0,0:0:0:0:
182,192,90128,1,0,0:0:0:0:
402,192,90128,1,0,0:0:0:0:
256,192,90200,1,0,0:0:0:0:
475,192,90200,1,0,0:0:0:0:
402,192,90271,1,0,0:0:0:0:
182,192,90271,1,0,0:0:0:0:
256,192,90343,128,0,90407:0:0:0:0:
182,192,90343,128,0,90407:0:0:0:0:
36,192,90343,128,0,90407:0:0:0:0:
475,192,90343,128,0,90407:0:0:0:0:
329,192,90343,128,0,90407:0:0:0:0:
109,192,90407,1,0,0:0:0:0:
402,192,90407,1,0,0:0:0:0:
329,192,90472,1,0,0:0:0:0:
36,192,90472,1,0,0:0:0:0:
256,192,90536,1,0,0:0:0:0:
475,192,90536,1,0,0:0:0:0:
402,192,90601,1,0,0:0:0:0:
182,192,90601,1,0,0:0:0:0:
329,192,90665,1,0,0:0:0:0:
109,192,90665,1,0,0:0:0:0:
36,192,90730,128,0,90794:0:0:0:0:
256,192,90730,128,0,90794:0:0:0:0:
182,192,90730,128,0,90794:0:0:0:0:
329,192,90730,128,0,90794:0:0:0:0:
475,192,90730,128,0,90794:0:0:0:0:
402,192,90794,1,0,0:0:0:0:
109,192,90794,1,0,0:0:0:0:
182,192,90859,1,0,0:0:0:0:
475,192,90859,1,0,0:0:0:0:
256,192,90923,1,0,0:0:0:0:
36,192,90923,1,0,0:0:0:0:
109,192,90988,1,0,0:0:0:0:
329,192,90988,1,0,0:0:0:0:
182,192,91052,1,0,0:0:0:0:
402,192,91052,1,0,0:0:0:0:
256,192,91117,1,0,0:0:0:0:
109,192,91117,128,0,91175:0:0:0:0:
329,192,91117,128,0,91175:0:0:0:0:
36,192,91117,128,0,91175:0:0:0:0:
475,192,91117,128,0,91175:0:0:0:0:
402,192,91175,1,0,0:0:0:0:
182,192,91175,1,0,0:0:0:0:
329,192,91234,1,0,0:0:0:0:
109,192,91234,1,0,0:0:0:0:
256,192,91293,1,0,0:0:0:0:
36,192,91293,1,0,0:0:0:0:
329,192,91352,1,0,0:0:0:0:
109,192,91352,1,0,0:0:0:0:
182,192,91411,1,0,0:0:0:0:
402,192,91411,1,0,0:0:0:0:
475,192,91469,128,0,91528:0:0:0:0:
329,192,91469,128,0,91528:0:0:0:0:
36,192,91469,128,0,91528:0:0:0:0:
109,192,91469,1,0,0:0:0:0:
256,192,91469,128,0,91528:0:0:0:0:
182,192,91528,1,0,0:0:0:0:
402,192,91528,1,0,0:0:0:0:
256,192,91587,1,0,0:0:0:0:
475,192,91587,1,0,0:0:0:0:
36,192,91646,1,0,0:0:0:0:
329,192,91646,1,0,0:0:0:0:
109,192,91705,1,0,0:0:0:0:
402,192,91705,1,0,0:0:0:0:
182,192,91764,1,0,0:0:0:0:
475,192,91764,1,0,0:0:0:0:
256,192,91822,1,0,0:0:0:0:
36,192,91822,1,0,0:0:0:0:
402,192,91822,1,0,0:0:0:0:
329,192,91822,1,0,0:0:0:0:
402,192,91903,128,0,91984:0:0:0:0:
475,192,91903,128,0,91984:0:0:0:0:
256,192,91903,1,0,0:0:0:0:
109,192,91903,1,0,0:0:0:0:
329,192,91984,1,0,0:0:0:0:
36,192,91984,1,0,0:0:0:0:
256,192,92065,1,0,0:0:0:0:
475,192,92065,1,0,0:0:0:0:
109,192,92065,1,0,0:0:0:0:
182,192,92065,1,0,0:0:0:0:
36,192,92146,128,0,92227:0:0:0:0:
329,192,92146,1,0,0:0:0:0:
475,192,92146,1,0,0:0:0:0:
109,192,92146,128,0,92227:0:0:0:0:
402,192,92227,1,0,0:0:0:0:
256,192,92227,1,0,0:0:0:0:
329,192,92308,1,0,0:0:0:0:
182,192,92308,1,0,0:0:0:0:
182,192,92389,128,0,92470:0:0:0:0:
36,192,92389,128,0,92470:0:0:0:0:
256,192,92389,1,0,0:0:0:0:
402,192,92470,1,0,0:0:0:0:
329,192,92470,128,0,92545:0:0:0:0:
475,192,92470,128,0,92545:0:0:0:0:
109,192,92470,1,0,0:0:0:0:
182,192,92545,1,0,0:0:0:0:
36,192,92545,1,0,0:0:0:0:
36,192,92620,128,0,92695:0:0:0:0:
182,192,92620,128,0,92695:0:0:0:0:
329,192,92620,1,0,0:0:0:0:
475,192,92620,1,0,0:0:0:0:
109,192,92620,1,0,0:0:0:0:
256,192,92695,1,0,0:0:0:0:
182,192,92770,1,0,0:0:0:0:
36,192,92770,1,0,0:0:0:0:
329,192,92770,1,0,0:0:0:0:
475,192,92770,1,0,0:0:0:0:
402,192,92845,1,0,0:0:0:0:
329,192,92920,1,0,0:0:0:0:
182,192,92920,1,0,0:0:0:0:
36,192,92920,1,0,0:0:0:0:
475,192,92920,1,0,0:0:0:0:
256,192,92995,1,0,0:0:0:0:
182,192,93070,1,0,0:0:0:0:
36,192,93070,1,0,0:0:0:0:
402,192,93070,1,0,0:0:0:0:
475,192,93070,1,0,0:0:0:0:
329,192,93070,1,0,0:0:0:0:
109,192,93139,1,0,0:0:0:0:
182,192,93209,1,0,0:0:0:0:
329,192,93209,1,0,0:0:0:0:
402,192,93209,1,0,0:0:0:0:
475,192,93209,1,0,0:0:0:0:
256,192,93279,1,0,0:0:0:0:
109,192,93279,1,0,0:0:0:0:
36,192,93349,1,0,0:0:0:0:
182,192,93349,1,0,0:0:0:0:
109,192,93349,1,0,0:0:0:0:
329,192,93349,1,0,0:0:0:0:
475,192,93349,1,0,0:0:0:0:
402,192,93418,1,0,0:0:0:0:
329,192,93488,1,0,0:0:0:0:
182,192,93488,1,0,0:0:0:0:
109,192,93488,1,0,0:0:0:0:
36,192,93488,1,0,0:0:0:0:
256,192,93558,1,0,0:0:0:0:
402,192,93558,1,0,0:0:0:0:
329,192,93628,1,0,0:0:0:0:
475,192,93628,1,0,0:0:0:0:
109,192,93628,1,0,0:0:0:0:
256,192,93660,1,0,0:0:0:0:
36,192,93660,1,0,0:0:0:0:
182,192,93693,1,0,0:0:0:0:
329,192,93693,1,0,0:0:0:0:
109,192,93725,1,0,0:0:0:0:
256,192,93758,1,0,0:0:0:0:
402,192,93758,1,0,0:0:0:0:
182,192,93791,1,0,0:0:0:0:
475,192,93791,1,0,0:0:0:0:
109,192,93823,1,0,0:0:0:0:
329,192,93823,1,0,0:0:0:0:
36,192,93856,1,0,0:0:0:0:
329,192,93888,1,0,0:0:0:0:
182,192,93888,1,0,0:0:0:0:
109,192,93921,1,0,0:0:0:0:
402,192,93921,1,0,0:0:0:0:
36,192,93954,1,0,0:0:0:0:
256,192,93954,1,0,0:0:0:0:
475,192,93986,1,0,0:0:0:0:
256,192,94019,1,0,0:0:0:0:
109,192,94019,1,0,0:0:0:0:
36,192,94051,1,0,0:0:0:0:
475,192,94051,1,0,0:0:0:0:
402,192,94084,1,0,0:0:0:0:
182,192,94084,1,0,0:0:0:0:
329,192,94117,1,0,0:0:0:0:
182,192,94149,1,0,0:0:0:0:
36,192,94149,1,0,0:0:0:0:
256,192,94180,1,0,0:0:0:0:
329,192,94211,1,0,0:0:0:0:
109,192,94211,1,0,0:0:0:0:
402,192,94242,1,0,0:0:0:0:
109,192,94274,1,0,0:0:0:0:
256,192,94274,1,0,0:0:0:0:
329,192,94305,1,0,0:0:0:0:
402,192,94336,1,0,0:0:0:0:
36,192,94336,1,0,0:0:0:0:
475,192,94367,1,0,0:0:0:0:
109,192,94367,1,0,0:0:0:0:
329,192,94399,1,0,0:0:0:0:
182,192,94399,1,0,0:0:0:0:
402,192,94430,1,0,0:0:0:0:
256,192,94430,1,0,0:0:0:0:
475,192,94461,1,0,0:0:0:0:
109,192,94461,1,0,0:0:0:0:
36,192,94492,1,0,0:0:0:0:
256,192,94524,1,0,0:0:0:0:
402,192,94524,1,0,0:0:0:0:
475,192,94555,1,0,0:0:0:0:
36,192,94555,1,0,0:0:0:0:
329,192,94555,1,0,0:0:0:0:
109,192,94586,1,0,0:0:0:0:
182,192,94617,1,0,0:0:0:0:
475,192,94649,1,0,0:0:0:0:
402,192,94680,1,0,0:0:0:0:
329,192,94711,1,0,0:0:0:0:
256,192,94742,1,0,0:0:0:0:
182,192,94774,1,0,0:0:0:0:
109,192,94805,1,0,0:0:0:0:
36,192,94836,1,0,0:0:0:0:
475,192,94863,1,0,0:0:0:0:
402,192,94891,1,0,0:0:0:0:
329,192,94918,1,0,0:0:0:0:
256,192,94945,1,0,0:0:0:0:
182,192,94973,1,0,0:0:0:0:
109,192,95000,1,0,0:0:0:0:
36,192,95027,1,0,0:0:0:0:
475,192,95055,1,0,0:0:0:0:
402,192,95081,1,0,0:0:0:0:
329,192,95107,1,0,0:0:0:0:
256,192,95133,1,0,0:0:0:0:
182,192,95159,1,0,0:0:0:0:
109,192,95185,1,0,0:0:0:0:
36,192,95211,1,0,0:0:0:0:
475,192,95232,1,0,0:0:0:0:
402,192,95253,1,0,0:0:0:0:
329,192,95274,1,0,0:0:0:0:
256,192,95294,1,0,0:0:0:0:
182,192,95315,1,0,0:0:0:0:
109,192,95336,1,0,0:0:0:0:
36,192,95357,1,0,0:0:0:0:
475,192,95375,1,0,0:0:0:0:
402,192,95399,1,0,0:0:0:0:
329,192,95422,1,0,0:0:0:0:
256,192,95445,1,0,0:0:0:0:
182,192,95469,1,0,0:0:0:0:
109,192,95492,1,0,0:0:0:0:
36,192,95516,1,0,0:0:0:0:
475,192,95539,1,0,0:0:0:0:
402,192,95555,1,0,0:0:0:0:
329,192,95570,1,0,0:0:0:0:
256,192,95586,1,0,0:0:0:0:
182,192,95602,1,0,0:0:0:0:
109,192,95617,1,0,0:0:0:0:
36,192,95633,1,0,0:0:0:0:
475,192,95649,1,0,0:0:0:0:
402,192,95664,1,0,0:0:0:0:
329,192,95680,1,0,0:0:0:0:
256,192,95695,1,0,0:0:0:0:
182,192,95711,1,0,0:0:0:0:
109,192,95727,1,0,0:0:0:0:
36,192,95742,1,0,0:0:0:0:
475,192,95774,1,0,0:0:0:0:
402,192,95789,1,0,0:0:0:0:
329,192,95805,1,0,0:0:0:0:
256,192,95820,1,0,0:0:0:0:
182,192,95836,1,0,0:0:0:0:
109,192,95852,1,0,0:0:0:0:
36,192,95867,1,0,0:0:0:0:
475,192,95899,1,0,0:0:0:0:
402,192,95914,1,0,0:0:0:0:
329,192,95930,1,0,0:0:0:0:
256,192,95945,1,0,0:0:0:0:
182,192,95961,1,0,0:0:0:0:
109,192,95977,1,0,0:0:0:0:
36,192,95992,1,0,0:0:0:0:
475,192,96024,1,0,0:0:0:0:
402,192,96039,1,0,0:0:0:0:
329,192,96055,1,0,0:0:0:0:
256,192,96070,1,0,0:0:0:0:
182,192,96086,1,0,0:0:0:0:
109,192,96102,1,0,0:0:0:0:
36,192,96117,1,0,0:0:0:0:
329,192,96149,128,0,96209:0:0:0:0:
182,192,96269,128,0,96329:0:0:0:0:
329,192,96389,128,0,96449:0:0:0:0:
475,192,96509,128,0,96569:0:0:0:0:
36,192,96629,128,0,96689:0:0:0:0:
329,192,96629,128,0,96689:0:0:0:0:
182,192,96629,1,0,0:0:0:0:
109,192,96689,128,0,96749:0:0:0:0:
402,192,96689,128,0,96749:0:0:0:0:
256,192,96689,1,0,0:0:0:0:
182,192,96749,128,0,96809:0:0:0:0:
475,192,96749,128,0,96809:0:0:0:0:
329,192,96749,1,0,0:0:0:0:
109,192,96809,128,0,96869:0:0:0:0:
402,192,96809,128,0,96869:0:0:0:0:
256,192,96809,1,0,0:0:0:0:
36,192,96869,128,0,96929:0:0:0:0:
329,192,96869,128,0,96929:0:0:0:0:
182,192,96869,1,0,0:0:0:0:
109,192,96929,1,0,0:0:0:0:
256,192,96929,128,0,96989:0:0:0:0:
36,192,96989,1,0,0:0:0:0:
182,192,96989,128,0,97049:0:0:0:0:
475,192,97049,1,0,0:0:0:0:
256,192,97049,128,0,97109:0:0:0:0:
109,192,97049,1,0,0:0:0:0:
402,192,97109,1,0,0:0:0:0:
182,192,97109,1,0,0:0:0:0:
36,192,97109,128,0,97170:0:0:0:0:
329,192,97170,1,0,0:0:0:0:
109,192,97170,128,0,97230:0:0:0:0:
402,192,97230,1,0,0:0:0:0:
36,192,97230,128,0,97350:0:0:0:0:
182,192,97230,128,0,97290:0:0:0:0:
256,192,97230,1,0,0:0:0:0:
329,192,97290,128,0,97350:0:0:0:0:
109,192,97350,128,0,97410:0:0:0:0:
256,192,97350,128,0,97470:0:0:0:0:
475,192,97350,128,0,97410:0:0:0:0:
402,192,97350,1,0,0:0:0:0:
182,192,97410,128,0,97470:0:0:0:0:
329,192,97450,128,0,97510:0:0:0:0:
109,192,97470,128,0,97590:0:0:0:0:
402,192,97470,128,0,97510:0:0:0:0:
475,192,97470,128,0,97510:0:0:0:0:
36,192,97470,128,0,97650:0:0:0:0:
256,192,97530,128,0,97590:0:0:0:0:
475,192,97590,128,0,97650:0:0:0:0:
402,192,97590,128,0,97710:0:0:0:0:
182,192,97590,128,0,97650:0:0:0:0:
329,192,97650,128,0,97710:0:0:0:0:
109,192,97650,128,0,97710:0:0:0:0:
182,192,97710,128,0,97770:0:0:0:0:
256,192,97710,128,0,97830:0:0:0:0:
36,192,97770,128,0,97830:0:0:0:0:
329,192,97770,1,0,0:0:0:0:
402,192,97830,128,0,97890:0:0:0:0:
109,192,97830,128,0,97890:0:0:0:0:
475,192,97830,128,0,97950:0:0:0:0:
182,192,97830,128,0,97970:0:0:0:0:
256,192,97890,128,0,97950:0:0:0:0:
109,192,97950,128,0,98010:0:0:0:0:
36,192,97950,128,0,98070:0:0:0:0:
329,192,97950,128,0,98070:0:0:0:0:
402,192,97990,128,0,98070:0:0:0:0:
475,192,98030,128,0,98070:0:0:0:0:
182,192,98070,128,0,98130:0:0:0:0:
256,192,98070,128,0,98191:0:0:0:0:
109,192,98070,1,0,0:0:0:0:
402,192,98130,128,0,98191:0:0:0:0:
36,192,98130,1,0,0:0:0:0:
329,192,98191,128,0,98311:0:0:0:0:
182,192,98191,1,0,0:0:0:0:
475,192,98191,1,0,0:0:0:0:
109,192,98251,1,0,0:0:0:0:
256,192,98251,128,0,98311:0:0:0:0:
402,192,98251,1,0,0:0:0:0:
36,192,98311,1,0,0:0:0:0:
475,192,98311,1,0,0:0:0:0:
182,192,98351,1,0,0:0:0:0:
402,192,98351,1,0,0:0:0:0:
329,192,98391,1,0,0:0:0:0:
109,192,98391,1,0,0:0:0:0:
182,192,98431,1,0,0:0:0:0:
36,192,98431,1,0,0:0:0:0:
256,192,98471,1,0,0:0:0:0:
475,192,98471,1,0,0:0:0:0:
402,192,98511,1,0,0:0:0:0:
109,192,98511,1,0,0:0:0:0:
475,192,98551,128,0,98611:0:0:0:0:
182,192,98551,128,0,98611:0:0:0:0:
329,192,98551,1,0,0:0:0:0:
36,192,98551,1,0,0:0:0:0:
402,192,98611,128,0,98671:0:0:0:0:
109,192,98611,128,0,98671:0:0:0:0:
256,192,98611,1,0,0:0:0:0:
329,192,98671,128,0,98731:0:0:0:0:
36,192,98671,128,0,98731:0:0:0:0:
182,192,98671,1,0,0:0:0:0:
402,192,98731,128,0,98791:0:0:0:0:
109,192,98731,128,0,98791:0:0:0:0:
256,192,98731,1,0,0:0:0:0:
475,192,98791,128,0,98851:0:0:0:0:
182,192,98791,128,0,98851:0:0:0:0:
329,192,98791,1,0,0:0:0:0:
402,192,98851,1,0,0:0:0:0:
256,192,98851,128,0,98911:0:0:0:0:
475,192,98911,1,0,0:0:0:0:
329,192,98911,128,0,98971:0:0:0:0:
182,192,98911,128,0,98971:0:0:0:0:
36,192,98971,1,0,0:0:0:0:
256,192,98971,128,0,99031:0:0:0:0:
402,192,98971,1,0,0:0:0:0:
109,192,99031,1,0,0:0:0:0:
329,192,99031,1,0,0:0:0:0:
475,192,99031,128,0,99091:0:0:0:0:
182,192,99091,1,0,0:0:0:0:
402,192,99091,128,0,99152:0:0:0:0:
109,192,99152,1,0,0:0:0:0:
256,192,99152,128,0,99212:0:0:0:0:
475,192,99152,128,0,99272:0:0:0:0:
329,192,99152,1,0,0:0:0:0:
36,192,99212,1,0,0:0:0:0:
182,192,99212,128,0,99272:0:0:0:0:
402,192,99272,128,0,99332:0:0:0:0:
256,192,99272,128,0,99392:0:0:0:0:
109,192,99272,128,0,99332:0:0:0:0:
36,192,99272,128,0,99332:0:0:0:0:
329,192,99332,128,0,99392:0:0:0:0:
182,192,99372,128,0,99432:0:0:0:0:
109,192,99392,128,0,99432:0:0:0:0:
36,192,99392,128,0,99432:0:0:0:0:
475,192,99392,128,0,99452:0:0:0:0:
256,192,99452,128,0,99512:0:0:0:0:
329,192,99452,128,0,99512:0:0:0:0:
36,192,99512,128,0,99572:0:0:0:0:
402,192,99512,128,0,99692:0:0:0:0:
475,192,99512,1,0,0:0:0:0:
329,192,99572,128,0,99752:0:0:0:0:
182,192,99572,1,0,0:0:0:0:
256,192,99632,128,0,99692:0:0:0:0:
109,192,99632,1,0,0:0:0:0:
36,192,99632,1,0,0:0:0:0:
182,192,99692,128,0,99752:0:0:0:0:
256,192,99752,1,0,0:0:0:0:
36,192,99752,128,0,99812:0:0:0:0:
475,192,99752,128,0,99932:0:0:0:0:
402,192,99752,128,0,99932:0:0:0:0:
182,192,99812,1,0,0:0:0:0:
329,192,99812,128,0,99992:0:0:0:0:
36,192,99872,1,0,0:0:0:0:
109,192,99872,1,0,0:0:0:0:
256,192,99872,128,0,99932:0:0:0:0:
182,192,99932,128,0,99992:0:0:0:0:
256,192,99992,1,0,0:0:0:0:
36,192,99992,128,0,100052:0:0:0:0:
475,192,99992,128,0,100173:0:0:0:0:
402,192,99992,128,0,100173:0:0:0:0:
182,192,100052,1,0,0:0:0:0:
329,192,100052,128,0,100173:0:0:0:0:
109,192,100112,1,0,0:0:0:0:
36,192,100112,1,0,0:0:0:0:
256,192,100112,128,0,100173:0:0:0:0:
182,192,100173,128,0,100233:0:0:0:0:
109,192,100233,1,0,0:0:0:0:
36,192,100233,128,0,100293:0:0:0:0:
402,192,100233,1,0,0:0:0:0:
329,192,100233,128,0,100293:0:0:0:0:
475,192,100233,128,0,100293:0:0:0:0:
256,192,100293,1,0,0:0:0:0:
182,192,100293,1,0,0:0:0:0:
402,192,100353,1,0,0:0:0:0:
475,192,100353,1,0,0:0:0:0:
36,192,100353,1,0,0:0:0:0:
329,192,100353,128,0,100413:0:0:0:0:
109,192,100353,128,0,100413:0:0:0:0:
256,192,100413,1,0,0:0:0:0:
182,192,100413,1,0,0:0:0:0:
329,192,100473,5,0,0:0:0:0:
36,192,100473,128,0,100653:0:0:0:0:
402,192,100473,128,0,100533:0:0:0:0:
475,192,100473,128,0,100533:0:0:0:0:
256,192,100513,1,0,0:0:0:0:
109,192,100533,128,0,100593:0:0:0:0:
182,192,100593,128,0,100773:0:0:0:0:
475,192,100593,1,0,0:0:0:0:
402,192,100593,128,0,100653:0:0:0:0:
329,192,100593,128,0,100653:0:0:0:0:
256,192,100653,128,0,100713:0:0:0:0:
36,192,100713,1,0,0:0:0:0:
329,192,100713,128,0,100953:0:0:0:0:
475,192,100713,1,0,0:0:0:0:
402,192,100773,128,0,100833:0:0:0:0:
109,192,100773,128,0,100833:0:0:0:0:
182,192,100833,1,0,0:0:0:0:
475,192,100833,128,0,100893:0:0:0:0:
36,192,100833,128,0,100893:0:0:0:0:
109,192,100893,128,0,101194:0:0:0:0:
36,192,100953,1,0,0:0:0:0:
475,192,100953,1,0,0:0:0:0:
182,192,100953,128,0,101013:0:0:0:0:
256,192,101013,1,0,0:0:0:0:
402,192,101013,128,0,101194:0:0:0:0:
182,192,101073,1,0,0:0:0:0:
329,192,101073,128,0,101133:0:0:0:0:
36,192,101073,128,0,101133:0:0:0:0:
256,192,101133,128,0,101554:0:0:0:0:
475,192,101133,128,0,101194:0:0:0:0:
182,192,101194,128,0,101254:0:0:0:0:
36,192,101194,1,0,0:0:0:0:
329,192,101234,128,0,101274:0:0:0:0:
109,192,101254,128,0,101434:0:0:0:0:
402,192,101274,128,0,101314:0:0:0:0:
475,192,101314,128,0,101374:0:0:0:0:
36,192,101314,128,0,101374:0:0:0:0:
402,192,101374,128,0,101674:0:0:0:0:
182,192,101374,128,0,101434:0:0:0:0:
475,192,101434,1,0,0:0:0:0:
36,192,101434,128,0,101614:0:0:0:0:
329,192,101434,128,0,101494:0:0:0:0:
109,192,101494,128,0,101554:0:0:0:0:
182,192,101554,128,0,101854:0:0:0:0:
329,192,101554,1,0,0:0:0:0:
475,192,101554,128,0,101614:0:0:0:0:
256,192,101614,128,0,101674:0:0:0:0:
36,192,101674,1,0,0:0:0:0:
329,192,101674,128,0,102094:0:0:0:0:
109,192,101674,1,0,0:0:0:0:
475,192,101674,128,0,101734:0:0:0:0:
402,192,101734,1,0,0:0:0:0:
256,192,101734,128,0,101794:0:0:0:0:
475,192,101794,128,0,102215:0:0:0:0:
109,192,101794,128,0,101854:0:0:0:0:
402,192,101854,1,0,0:0:0:0:
256,192,101854,128,0,101914:0:0:0:0:
182,192,101914,1,0,0:0:0:0:
36,192,101914,128,0,101974:0:0:0:0:
256,192,101954,128,0,102014:0:0:0:0:
109,192,101974,128,0,102155:0:0:0:0:
402,192,101994,128,0,102094:0:0:0:0:
182,192,102034,128,0,102094:0:0:0:0:
36,192,102034,128,0,102094:0:0:0:0:
256,192,102094,128,0,102515:0:0:0:0:
329,192,102155,128,0,102215:0:0:0:0:
36,192,102155,128,0,102215:0:0:0:0:
402,192,102215,128,0,102395:0:0:0:0:
109,192,102215,128,0,102275:0:0:0:0:
182,192,102275,128,0,102335:0:0:0:0:
329,192,102275,1,0,0:0:0:0:
475,192,102275,128,0,102335:0:0:0:0:
109,192,102335,128,0,102575:0:0:0:0:
475,192,102395,1,0,0:0:0:0:
36,192,102395,1,0,0:0:0:0:
402,192,102455,1,0,0:0:0:0:
182,192,102455,1,0,0:0:0:0:
329,192,102515,1,0,0:0:0:0:
36,192,102515,1,0,0:0:0:0:
256,192,102575,1,0,0:0:0:0:
402,192,102575,1,0,0:0:0:0:
182,192,102635,1,0,0:0:0:0:
475,192,102635,1,0,0:0:0:0:
329,192,102650,1,0,0:0:0:0:
402,192,102665,1,0,0:0:0:0:
256,192,102680,1,0,0:0:0:0:
109,192,102695,1,0,0:0:0:0:
475,192,102710,1,0,0:0:0:0:
402,192,102725,1,0,0:0:0:0:
182,192,102740,1,0,0:0:0:0:
36,192,102755,1,0,0:0:0:0:
329,192,102755,1,0,0:0:0:0:
109,192,102770,1,0,0:0:0:0:
475,192,102785,1,0,0:0:0:0:
402,192,102800,1,0,0:0:0:0:
256,192,102815,1,0,0:0:0:0:
109,192,102830,1,0,0:0:0:0:
329,192,102845,1,0,0:0:0:0:
475,192,102860,1,0,0:0:0:0:
182,192,102875,1,0,0:0:0:0:
36,192,102875,1,0,0:0:0:0:
256,192,102890,1,0,0:0:0:0:
402,192,102905,1,0,0:0:0:0:
109,192,102920,1,0,0:0:0:0:
475,192,102935,1,0,0:0:0:0:
329,192,102950,1,0,0:0:0:0:
182,192,102965,1,0,0:0:0:0:
36,192,102980,1,0,0:0:0:0:
402,192,102995,1,0,0:0:0:0:
256,192,103010,1,0,0:0:0:0:
109,192,103025,1,0,0:0:0:0:
329,192,103040,1,0,0:0:0:0:
36,192,103052,1,0,0:0:0:0:
256,192,103070,1,0,0:0:0:0:
109,192,103085,1,0,0:0:0:0:
182,192,103112,1,0,0:0:0:0:
402,192,103115,1,0,0:0:0:0:
329,192,103135,1,0,0:0:0:0:
109,192,103156,1,0,0:0:0:0:
256,192,103176,1,0,0:0:0:0:
182,192,103196,1,0,0:0:0:0:
475,192,103216,1,0,0:0:0:0:
36,192,103216,1,0,0:0:0:0:
402,192,103236,1,0,0:0:0:0:
182,192,103256,1,0,0:0:0:0:
256,192,103276,1,0,0:0:0:0:
36,192,103296,1,0,0:0:0:0:
329,192,103296,1,0,0:0:0:0:
109,192,103316,1,0,0:0:0:0:
182,192,103336,1,0,0:0:0:0:
36,192,103356,128,0,103506:0:0:0:0:
475,192,103356,128,0,103456:0:0:0:0:
402,192,103356,128,0,103436:0:0:0:0:
256,192,103356,128,0,103386:0:0:0:0:
329,192,103356,128,0,103416:0:0:0:0:
109,192,103386,128,0,103506:0:0:0:0:
182,192,103416,128,0,103506:0:0:0:0:
256,192,103446,128,0,103536:0:0:0:0:
329,192,103476,128,0,103536:0:0:0:0:
402,192,103506,128,0,103536:0:0:0:0:
475,192,103536,1,0,0:0:0:0:
182,192,103566,1,0,0:0:0:0:
402,192,103596,128,0,103686:0:0:0:0:
36,192,103596,128,0,103776:0:0:0:0:
256,192,103596,128,0,103626:0:0:0:0:
329,192,103596,128,0,103656:0:0:0:0:
109,192,103626,128,0,103776:0:0:0:0:
182,192,103656,128,0,103776:0:0:0:0:
256,192,103686,128,0,103776:0:0:0:0:
329,192,103716,1,0,0:0:0:0:
402,192,103746,128,0,103836:0:0:0:0:
475,192,103776,128,0,103836:0:0:0:0:
329,192,103806,1,0,0:0:0:0:
109,192,103836,128,0,103956:0:0:0:0:
182,192,103836,128,0,103926:0:0:0:0:
256,192,103836,128,0,103896:0:0:0:0:
36,192,103866,128,0,103986:0:0:0:0:
475,192,103896,128,0,104016:0:0:0:0:
402,192,103926,128,0,104016:0:0:0:0:
329,192,103956,128,0,104016:0:0:0:0:
256,192,103986,128,0,104106:0:0:0:0:
182,192,104016,128,0,104106:0:0:0:0:
329,192,104046,1,0,0:0:0:0:
475,192,104076,128,0,104227:0:0:0:0:
36,192,104076,128,0,104106:0:0:0:0:
109,192,104076,128,0,104106:0:0:0:0:
402,192,104106,128,0,104227:0:0:0:0:
329,192,104136,128,0,104227:0:0:0:0:
256,192,104167,128,0,104227:0:0:0:0:
182,192,104197,128,0,104287:0:0:0:0:
109,192,104227,128,0,104287:0:0:0:0:
36,192,104257,128,0,104287:0:0:0:0:
329,192,104287,1,0,0:0:0:0:
475,192,104313,128,0,104523:0:0:0:0:
402,192,104317,1,0,0:0:0:0:
256,192,104377,1,0,0:0:0:0:
182,192,104433,128,0,104643:0:0:0:0:
109,192,104497,1,0,0:0:0:0:
329,192,104497,1,0,0:0:0:0:
329,192,104553,128,0,104883:0:0:0:0:
36,192,104557,1,0,0:0:0:0:
402,192,104617,1,0,0:0:0:0:
182,192,104673,1,0,0:0:0:0:
475,192,104677,128,0,104737:0:0:0:0:
109,192,104677,1,0,0:0:0:0:
109,192,104737,128,0,105037:0:0:0:0:
36,192,104737,1,0,0:0:0:0:
256,192,104797,1,0,0:0:0:0:
475,192,104797,1,0,0:0:0:0:
402,192,104857,128,0,105067:0:0:0:0:
182,192,104857,1,0,0:0:0:0:
329,192,104914,1,0,0:0:0:0:
256,192,104974,128,0,105423:0:0:0:0:
475,192,105034,1,0,0:0:0:0:
182,192,105034,128,0,105064:0:0:0:0:
36,192,105034,1,0,0:0:0:0:
329,192,105037,1,0,0:0:0:0:
402,192,105097,1,0,0:0:0:0:
109,192,105097,128,0,105308:0:0:0:0:
36,192,105158,1,0,0:0:0:0:
329,192,105158,128,0,105188:0:0:0:0:
402,192,105218,128,0,105548:0:0:0:0:
36,192,105278,128,0,105488:0:0:0:0:
475,192,105278,128,0,105338:0:0:0:0:
182,192,105278,128,0,105338:0:0:0:0:
109,192,105338,128,0,105398:0:0:0:0:
182,192,105398,128,0,105728:0:0:0:0:
329,192,105398,128,0,105458:0:0:0:0:
256,192,105458,128,0,105518:0:0:0:0:
329,192,105518,128,0,105758:0:0:0:0:
36,192,105518,128,0,105578:0:0:0:0:
475,192,105518,128,0,105578:0:0:0:0:
402,192,105578,128,0,105638:0:0:0:0:
256,192,105578,128,0,105638:0:0:0:0:
475,192,105638,128,0,105998:0:0:0:0:
109,192,105638,128,0,105698:0:0:0:0:
256,192,105698,128,0,105758:0:0:0:0:
36,192,105758,128,0,105998:0:0:0:0:
182,192,105758,128,0,105818:0:0:0:0:
109,192,105818,128,0,105878:0:0:0:0:
402,192,105818,128,0,105878:0:0:0:0:
182,192,105878,128,0,105938:0:0:0:0:
329,192,105878,128,0,105938:0:0:0:0:
256,192,105938,128,0,105998:0:0:0:0:
329,192,105998,1,0,0:0:0:0:
182,192,105998,1,0,0:0:0:0:
182,192,106239,1,0,0:0:0:0:
109,192,106239,1,0,0:0:0:0:
36,192,106239,1,0,0:0:0:0:
329,192,106239,1,0,0:0:0:0:
402,192,106299,1,0,0:0:0:0:
256,192,106299,1,0,0:0:0:0:
475,192,106299,1,0,0:0:0:0:
36,192,106359,1,0,0:0:0:0:
182,192,106359,1,0,0:0:0:0:
329,192,106359,1,0,0:0:0:0:
109,192,106419,1,0,0:0:0:0:
256,192,106419,1,0,0:0:0:0:
402,192,106419,1,0,0:0:0:0:
182,192,106479,1,0,0:0:0:0:
329,192,106479,1,0,0:0:0:0:
475,192,106479,1,0,0:0:0:0:
109,192,106539,1,0,0:0:0:0:
36,192,106539,1,0,0:0:0:0:
256,192,106539,1,0,0:0:0:0:
329,192,106599,1,0,0:0:0:0:
402,192,106599,1,0,0:0:0:0:
475,192,106599,1,0,0:0:0:0:
182,192,106659,1,0,0:0:0:0:
109,192,106659,1,0,0:0:0:0:
36,192,106659,1,0,0:0:0:0:
329,192,106719,1,0,0:0:0:0:
402,192,106719,1,0,0:0:0:0:
475,192,106719,1,0,0:0:0:0:
182,192,106959,128,0,107019:0:0:0:0:
329,192,106959,128,0,107019:0:0:0:0:
329,192,107200,1,0,0:0:0:0:
402,192,107200,1,0,0:0:0:0:
475,192,107200,1,0,0:0:0:0:
182,192,107200,1,0,0:0:0:0:
109,192,107260,1,0,0:0:0:0:
256,192,107260,1,0,0:0:0:0:
36,192,107260,1,0,0:0:0:0:
475,192,107320,1,0,0:0:0:0:
329,192,107320,1,0,0:0:0:0:
182,192,107320,1,0,0:0:0:0:
402,192,107380,1,0,0:0:0:0:
256,192,107380,1,0,0:0:0:0:
109,192,107380,1,0,0:0:0:0:
329,192,107440,1,0,0:0:0:0:
182,192,107440,1,0,0:0:0:0:
36,192,107440,1,0,0:0:0:0:
402,192,107500,1,0,0:0:0:0:
475,192,107500,1,0,0:0:0:0:
256,192,107500,1,0,0:0:0:0:
182,192,107560,1,0,0:0:0:0:
109,192,107560,1,0,0:0:0:0:
36,192,107560,1,0,0:0:0:0:
329,192,107620,1,0,0:0:0:0:
402,192,107620,1,0,0:0:0:0:
475,192,107620,1,0,0:0:0:0:
182,192,107680,1,0,0:0:0:0:
109,192,107680,1,0,0:0:0:0:
36,192,107680,1,0,0:0:0:0:
109,192,107920,128,0,107980:0:0:0:0:
402,192,107920,128,0,107980:0:0:0:0:
36,192,108161,1,0,0:0:0:0:
256,192,108161,1,0,0:0:0:0:
182,192,108191,1,0,0:0:0:0:
402,192,108191,1,0,0:0:0:0:
329,192,108221,1,0,0:0:0:0:
475,192,108251,1,0,0:0:0:0:
182,192,108281,1,0,0:0:0:0:
109,192,108281,1,0,0:0:0:0:
36,192,108281,1,0,0:0:0:0:
402,192,108281,1,0,0:0:0:0:
256,192,108341,1,0,0:0:0:0:
182,192,108341,1,0,0:0:0:0:
329,192,108401,1,0,0:0:0:0:
402,192,108401,1,0,0:0:0:0:
475,192,108401,1,0,0:0:0:0:
109,192,108401,1,0,0:0:0:0:
36,192,108401,1,0,0:0:0:0:
182,192,108431,1,0,0:0:0:0:
329,192,108461,1,0,0:0:0:0:
402,192,108461,1,0,0:0:0:0:
36,192,108491,1,0,0:0:0:0:
475,192,108521,1,0,0:0:0:0:
256,192,108521,1,0,0:0:0:0:
109,192,108551,1,0,0:0:0:0:
329,192,108551,1,0,0:0:0:0:
182,192,108581,1,0,0:0:0:0:
36,192,108611,1,0,0:0:0:0:
329,192,108641,1,0,0:0:0:0:
109,192,108641,1,0,0:0:0:0:
402,192,108641,1,0,0:0:0:0:
475,192,108641,1,0,0:0:0:0:
256,192,108701,1,0,0:0:0:0:
329,192,108701,1,0,0:0:0:0:
109,192,108761,1,0,0:0:0:0:
402,192,108761,1,0,0:0:0:0:
182,192,108761,1,0,0:0:0:0:
475,192,108761,1,0,0:0:0:0:
36,192,108761,1,0,0:0:0:0:
329,192,108791,1,0,0:0:0:0:
109,192,108821,1,0,0:0:0:0:
182,192,108821,1,0,0:0:0:0:
475,192,108851,1,0,0:0:0:0:
109,192,108881,1,0,0:0:0:0:
36,192,108881,1,0,0:0:0:0:
402,192,108881,1,0,0:0:0:0:
182,192,108901,1,0,0:0:0:0:
256,192,108921,1,0,0:0:0:0:
329,192,108941,1,0,0:0:0:0:
475,192,108941,1,0,0:0:0:0:
36,192,108941,1,0,0:0:0:0:
182,192,108961,1,0,0:0:0:0:
256,192,108981,1,0,0:0:0:0:
329,192,109001,1,0,0:0:0:0:
475,192,109001,1,0,0:0:0:0:
402,192,109001,1,0,0:0:0:0:
256,192,109021,1,0,0:0:0:0:
182,192,109041,1,0,0:0:0:0:
329,192,109061,1,0,0:0:0:0:
36,192,109061,1,0,0:0:0:0:
475,192,109061,1,0,0:0:0:0:
256,192,109081,1,0,0:0:0:0:
182,192,109101,1,0,0:0:0:0:
402,192,109121,1,0,0:0:0:0:
109,192,109121,1,0,0:0:0:0:
109,192,109182,1,0,0:0:0:0:
36,192,109182,1,0,0:0:0:0:
329,192,109242,1,0,0:0:0:0:
402,192,109242,1,0,0:0:0:0:
182,192,109302,1,0,0:0:0:0:
109,192,109302,1,0,0:0:0:0:
402,192,109362,1,0,0:0:0:0:
475,192,109362,1,0,0:0:0:0:
256,192,109422,1,0,0:0:0:0:
182,192,109422,1,0,0:0:0:0:
402,192,109482,1,0,0:0:0:0:
329,192,109482,1,0,0:0:0:0:
182,192,109542,1,0,0:0:0:0:
109,192,109542,1,0,0:0:0:0:
475,192,109602,1,0,0:0:0:0:
36,192,109602,1,0,0:0:0:0:
256,192,109602,1,0,0:0:0:0:
402,192,109647,1,0,0:0:0:0:
329,192,109692,1,0,0:0:0:0:
256,192,109737,1,0,0:0:0:0:
182,192,109782,1,0,0:0:0:0:
109,192,109812,1,0,0:0:0:0:
36,192,109842,1,0,0:0:0:0:
109,192,109882,1,0,0:0:0:0:
182,192,109927,1,0,0:0:0:0:
256,192,109972,1,0,0:0:0:0:
329,192,110017,1,0,0:0:0:0:
402,192,110047,1,0,0:0:0:0:
475,192,110077,1,0,0:0:0:0:
402,192,110122,1,0,0:0:0:0:
329,192,110168,1,0,0:0:0:0:
256,192,110213,1,0,0:0:0:0:
182,192,110258,1,0,0:0:0:0:
109,192,110288,1,0,0:0:0:0:
36,192,110318,1,0,0:0:0:0:
109,192,110356,1,0,0:0:0:0:
182,192,110402,1,0,0:0:0:0:
256,192,110447,1,0,0:0:0:0:
329,192,110492,1,0,0:0:0:0:
402,192,110522,1,0,0:0:0:0:
475,192,110563,1,0,0:0:0:0:
402,192,110603,1,0,0:0:0:0:
329,192,110648,1,0,0:0:0:0:
256,192,110693,1,0,0:0:0:0:
182,192,110738,1,0,0:0:0:0:
109,192,110768,1,0,0:0:0:0:
36,192,110798,1,0,0:0:0:0:
109,192,110838,1,0,0:0:0:0:
182,192,110883,1,0,0:0:0:0:
256,192,110928,1,0,0:0:0:0:
329,192,110973,1,0,0:0:0:0:
402,192,111003,1,0,0:0:0:0:
475,192,111033,1,0,0:0:0:0:
36,192,111043,1,0,0:0:0:0:
109,192,111083,1,0,0:0:0:0:
182,192,111123,1,0,0:0:0:0:
256,192,111164,1,0,0:0:0:0:
329,192,111184,1,0,0:0:0:0:
402,192,111224,1,0,0:0:0:0:
475,192,111264,1,0,0:0:0:0:
36,192,111284,1,0,0:0:0:0:
109,192,111314,1,0,0:0:0:0:
182,192,111344,1,0,0:0:0:0:
256,192,111374,1,0,0:0:0:0:
329,192,111404,1,0,0:0:0:0:
402,192,111434,1,0,0:0:0:0:
475,192,111464,1,0,0:0:0:0:
256,192,111494,1,0,0:0:0:0:
36,192,111524,1,0,0:0:0:0:
109,192,111554,1,0,0:0:0:0:
182,192,111584,1,0,0:0:0:0:
256,192,111614,1,0,0:0:0:0:
329,192,111644,1,0,0:0:0:0:
402,192,111674,1,0,0:0:0:0:
475,192,111704,1,0,0:0:0:0:
36,192,111704,1,0,0:0:0:0:
109,192,111824,1,0,0:0:0:0:
402,192,111824,1,0,0:0:0:0:
256,192,112004,1,0,0:0:0:0:
329,192,112012,1,0,0:0:0:0:
182,192,112012,1,0,0:0:0:0:
256,192,112260,1,0,0:0:0:0:
182,192,112485,5,0,0:0:0:0:
256,192,112848,1,0,0:0:0:0:
329,192,113212,1,0,0:0:0:0:
329,192,113575,1,0,0:0:0:0:
109,192,113848,1,0,0:0:0:0:
329,192,113848,1,0,0:0:0:0:
256,192,113916,1,0,0:0:0:0:
256,192,114257,1,0,0:0:0:0:
36,192,114257,1,0,0:0:0:0:
182,192,114303,1,0,0:0:0:0:
256,192,114575,1,0,0:0:0:0:
182,192,114598,1,0,0:0:0:0:
109,192,114666,1,0,0:0:0:0:
256,192,115041,1,0,0:0:0:0:
109,192,115134,1,0,0:0:0:0:
182,192,115166,1,0,0:0:0:0:
182,192,115666,1,0,0:0:0:0:
256,192,115749,1,0,0:0:0:0:
329,192,115791,1,0,0:0:0:0:
329,192,116416,1,0,0:0:0:0:
402,192,116541,1,0,0:0:0:0:
