osu file format v14

[General]
AudioFilename: audio.mp3
AudioLeadIn: 0
PreviewTime: 58761
Countdown: 0
SampleSet: Normal
StackLeniency: 0.7
Mode: 1
LetterboxInBreaks: 0
WidescreenStoryboard: 1

[Editor]
DistanceSpacing: 0.8
BeatDivisor: 4
GridSize: 32
TimelineZoom: 4

[Metadata]
Title:Cho*Cho*Kou*Soku*De*Mae*Sai*Soku!!! Speed*Star*Kanade
TitleUnicode:超☆超☆光☆速☆出☆前☆最☆速!!! スピード★スター★かなで
Artist:Camellia feat. Nanahira
ArtistUnicode:かめりあ feat. ななひら
Creator:Surono
Version:Special*Star!!!
Source:SOUND VOLTEX IV HEAVENLY HAVEN
Tags:SDVX speedcore The 6th KAC Original Song Contest オリジナル楽曲コンテスト
BeatmapID:1288999
BeatmapSetID:610480

[Difficulty]
HPDrainRate:6
CircleSize:4
OverallDifficulty:7
ApproachRate:5
SliderMultiplier:1.4
SliderTickRate:3

[Events]
//Background and Video events
0,0,"thumb.jpg",0,50
//Break Periods
//Storyboard Layer 0 (Background)
//Storyboard Layer 1 (Fail)
//Storyboard Layer 2 (Pass)
//Storyboard Layer 3 (Foreground)
//Storyboard Sound Samples

[TimingPoints]
644.446793547667,461.538461538462,4,1,0,69,1,0
11567,-105.263157894737,4,1,0,69,0,0
11721,500,4,1,0,69,1,0
12554,-105.263157894737,4,1,0,69,0,0
12721,545.454545454546,4,1,0,69,1,0
13811,545.454545454546,4,1,0,40,1,0
14311,545.454545454546,4,1,0,40,1,0
14894,545.454545454546,4,1,0,40,1,0
15561,240,4,1,0,90,1,0
15561,-117.647058823529,4,1,0,90,0,0
15981,-111.111111111111,4,1,0,90,0,0
16341,-105.263157894737,4,1,0,90,0,0
16701,-100,4,1,0,90,0,0
17121,-111.111111111111,4,1,0,90,0,0
17421,-100,4,1,0,90,0,0
18081,-111.111111111111,4,1,0,90,0,0
18381,-100,4,1,0,90,0,0
19041,-111.111111111111,4,1,0,90,0,0
19341,-100,4,1,0,90,0,0
21321,-100,4,1,0,90,0,1
29121,-111.111111111111,4,1,0,90,0,1
29961,-100,4,1,0,90,0,0
37341,-111.111111111111,4,1,0,90,0,0
37581,-125,4,1,0,90,0,0
42621,-111.111111111111,4,1,0,90,0,0
43341,-100,4,1,0,90,0,0
43761,-90.9090909090909,4,1,0,90,0,0
44301,-83.3333333333333,4,1,0,90,0,0
44781,-76.9230769230769,4,1,0,90,0,0
45261,-100,4,1,0,90,0,0
51021,-90.9090909090909,4,1,0,90,0,0
52461,-76.9230769230769,4,1,0,90,0,0
52641,-83.3333333333333,4,1,0,90,0,0
52761,-90.9090909090909,4,1,0,90,0,0
52881,-100,4,1,0,90,0,0
58941,-117.647058823529,4,1,0,90,0,0
60681,-100,4,1,0,90,0,1
62421,-111.111111111111,4,1,0,90,0,1
62601,-100,4,1,0,90,0,1
64341,-83.3333333333333,4,1,0,90,0,1
64521,-100,4,1,0,90,0,1
65301,-83.3333333333333,4,1,0,90,0,1
65481,-100,4,1,0,90,0,1
66261,-83.3333333333333,4,1,0,90,0,1
66441,-100,4,1,0,90,0,1
70101,-111.111111111111,4,1,0,90,0,1
70281,-100,4,1,0,90,0,1
72021,-83.3333333333333,4,1,0,90,0,1
72201,-100,4,1,0,90,0,1
72981,-83.3333333333333,4,1,0,90,0,1
73161,-100,4,1,0,90,0,1
73941,-83.3333333333333,4,1,0,90,0,1
74121,-100,4,1,0,90,0,1
75321,-105.263157894737,4,1,0,90,0,1
75441,-111.111111111111,4,1,0,90,0,1
75681,-117.647058823529,4,1,0,90,0,1
75801,-125,4,1,0,90,0,1
76041,-100,4,1,0,90,0,1
77481,-111.111111111111,4,1,0,90,0,1
77721,-125,4,1,0,90,0,1
77961,-100,4,1,0,90,0,1
79341,-105.263157894737,4,1,0,90,0,1
79461,-111.111111111111,4,1,0,90,0,1
79701,-117.647058823529,4,1,0,90,0,1
79881,-100,4,1,0,90,0,1
81381,-90.9090909090909,4,1,0,90,0,1
81621,-83.3333333333333,4,1,0,90,0,1
81801,-100,4,1,0,90,0,1
83901,-111.111111111111,4,1,0,90,0,1
84681,-100,4,1,0,90,0,0
85341,-111.111111111111,4,1,0,90,0,0
85521,-100,4,1,0,90,0,0
86301,-111.111111111111,4,1,0,90,0,0
86481,-100,4,1,0,90,0,0
89481,214.285714285714,4,1,0,90,1,0
89481,-200,4,1,0,90,0,0
90338,193.548387096774,4,1,0,90,1,0
90338,-200,4,1,0,90,0,0
91112,176.470588235294,4,1,0,90,1,0
91112,-200,4,1,0,90,0,0
91817,162.162162162162,4,1,0,90,1,0
91817,-200,4,1,0,90,0,0
92465,150,4,1,0,90,1,0
92465,-200,4,1,0,90,0,0
93065,139.53488372093,4,1,0,90,1,0
93065,-200,4,1,0,90,0,0
93623,130.434782608696,4,1,0,90,1,0
93623,-200,4,1,0,90,0,0
94144,125,4,1,0,90,1,0
96624,240.24024024024,4,1,0,90,1,1
104371,-111.111111111111,4,1,0,90,0,1
104972,-105.263157894737,4,1,0,90,0,1
105212,-100,4,1,0,90,0,1
105933,-111.111111111111,4,1,0,90,0,1
106233,-100,4,1,0,90,0,0
106894,-111.111111111111,4,1,0,90,0,0
107074,-100,4,1,0,90,0,0
107855,-111.111111111111,4,1,0,90,0,0
108035,-100,4,1,0,90,0,0
111980,500,4,1,0,69,1,0
113313,-105.263157894737,4,1,0,69,0,0
113480,545.454545454546,4,1,0,69,1,0
114570,545.454545454546,4,1,0,40,1,0
115070,545.454545454546,4,1,0,40,1,0
115653,545.454545454546,4,1,0,40,1,0

[HitObjects]
256,192,644,5,0,0:0:0:0:
256,192,952,1,8,0:0:0:0:
256,192,1259,1,0,0:0:0:0:
256,192,1413,1,8,0:0:0:0:
256,192,1567,1,8,0:0:0:0:
256,192,1875,1,8,0:0:0:0:
256,192,2182,1,0,0:0:0:0:
256,192,2336,1,0,0:0:0:0:
256,192,2490,1,8,0:0:0:0:
256,192,2798,1,8,0:0:0:0:
256,192,3105,1,8,0:0:0:0:
256,192,3259,1,8,0:0:0:0:
256,192,3413,1,0,0:0:0:0:
256,192,3721,1,8,0:0:0:0:
256,192,4029,1,8,0:0:0:0:
256,192,4182,1,0,0:0:0:0:
256,192,4336,1,0,0:0:0:0:
256,192,4644,1,8,0:0:0:0:
256,192,4952,1,8,0:0:0:0:
256,192,5105,1,0,0:0:0:0:
256,192,5259,1,8,0:0:0:0:
256,192,5567,1,8,0:0:0:0:
256,192,5875,1,0,0:0:0:0:
256,192,6029,1,8,0:0:0:0:
256,192,6182,1,0,0:0:0:0:
256,192,6490,1,8,0:0:0:0:
256,192,6798,1,8,0:0:0:0:
256,192,6952,1,8,0:0:0:0:
256,192,7105,1,8,0:0:0:0:
256,192,7413,1,0,0:0:0:0:
256,192,7721,1,0,0:0:0:0:
256,192,7875,1,0,0:0:0:0:
256,192,8029,5,0,0:0:0:0:
256,192,8337,1,8,0:0:0:0:
256,192,8644,1,8,0:0:0:0:
256,192,8798,1,8,0:0:0:0:
256,192,8952,1,0,0:0:0:0:
256,192,9260,1,8,0:0:0:0:
256,192,9567,1,0,0:0:0:0:
256,192,9721,1,0,0:0:0:0:
256,192,9875,1,8,0:0:0:0:
256,192,10183,1,0,0:0:0:0:
256,192,10490,1,8,0:0:0:0:
256,192,10644,1,8,0:0:0:0:
256,192,10798,1,0,0:0:0:0:
256,192,11106,1,8,0:0:0:0:
256,192,11414,1,0,0:0:0:0:
256,192,11567,1,0,0:0:0:0:
256,192,11721,1,8,0:0:0:0:
256,192,12054,1,8,0:0:0:0:
256,192,12387,1,8,0:0:0:0:
256,192,12554,1,0,0:0:0:0:
256,192,12721,1,8,0:0:0:0:
256,192,13084,1,8,0:0:0:0:
256,192,13448,1,8,0:0:0:0:
256,192,13630,1,8,0:0:0:0:
256,192,13811,1,12,0:0:0:0:
256,192,14311,1,4,0:0:0:0:
256,192,14894,1,12,0:0:0:0:
256,192,15561,1,0,0:0:0:0:
256,192,15681,1,8,0:0:0:0:
256,192,15741,1,0,0:0:0:0:
256,192,15801,1,0,0:0:0:0:
256,192,15861,1,0,0:0:0:0:
256,192,15921,1,0,0:0:0:0:
256,192,16041,1,8,0:0:0:0:
256,192,16101,1,8,0:0:0:0:
256,192,16161,1,0,0:0:0:0:
256,192,16221,1,0,0:0:0:0:
256,192,16281,1,0,0:0:0:0:
256,192,16401,1,8,0:0:0:0:
256,192,16461,1,8,0:0:0:0:
256,192,16521,1,8,0:0:0:0:
256,192,16581,1,0,0:0:0:0:
256,192,16641,1,0,0:0:0:0:
256,192,16761,1,8,0:0:0:0:
256,192,16821,1,8,0:0:0:0:
256,192,16881,1,8,0:0:0:0:
256,192,16941,1,8,0:0:0:0:
256,192,17001,1,0,0:0:0:0:
256,192,17241,1,8,0:0:0:0:
256,192,17481,1,0,0:0:0:0:
256,192,17541,1,0,0:0:0:0:
256,192,17601,1,0,0:0:0:0:
256,192,17661,1,0,0:0:0:0:
256,192,17721,1,8,0:0:0:0:
256,192,17781,1,8,0:0:0:0:
256,192,17841,1,0,0:0:0:0:
256,192,17901,1,0,0:0:0:0:
256,192,17961,1,8,0:0:0:0:
256,192,18201,1,8,0:0:0:0:
256,192,18441,1,0,0:0:0:0:
256,192,18501,1,0,0:0:0:0:
256,192,18561,1,0,0:0:0:0:
256,192,18621,1,0,0:0:0:0:
256,192,18681,1,8,0:0:0:0:
256,192,18741,1,8,0:0:0:0:
256,192,18801,1,0,0:0:0:0:
256,192,18861,1,0,0:0:0:0:
256,192,18921,1,8,0:0:0:0:
256,192,19161,1,8,0:0:0:0:
256,192,19401,1,8,0:0:0:0:
256,192,19461,1,8,0:0:0:0:
256,192,19521,1,8,0:0:0:0:
256,192,19581,1,8,0:0:0:0:
256,192,19641,1,0,0:0:0:0:
256,192,19701,1,0,0:0:0:0:
256,192,19761,1,8,0:0:0:0:
256,192,19821,1,8,0:0:0:0:
256,192,19881,1,8,0:0:0:0:
256,192,19941,1,8,0:0:0:0:
256,192,20001,1,0,0:0:0:0:
256,192,20061,1,0,0:0:0:0:
256,192,20121,1,8,0:0:0:0:
256,192,20181,1,8,0:0:0:0:
256,192,20241,1,0,0:0:0:0:
256,192,20301,1,0,0:0:0:0:
256,192,20361,1,8,0:0:0:0:
256,192,20481,1,8,0:0:0:0:
256,192,20601,1,0,0:0:0:0:
256,192,20721,1,0,0:0:0:0:
256,192,20841,2,0,L|128:128,1,140
256,192,21321,1,0,0:0:0:0:
256,192,21381,1,0,0:0:0:0:
256,192,21441,1,0,0:0:0:0:
256,192,21501,1,0,0:0:0:0:
256,192,21561,1,8,0:0:0:0:
256,192,21681,1,0,0:0:0:0:
256,192,21801,1,8,0:0:0:0:
256,192,21861,1,8,0:0:0:0:
256,192,21921,1,0,0:0:0:0:
256,192,21981,1,0,0:0:0:0:
256,192,22041,1,8,0:0:0:0:
256,192,22161,1,0,0:0:0:0:
256,192,22281,1,8,0:0:0:0:
256,192,22341,1,8,0:0:0:0:
256,192,22401,1,8,0:0:0:0:
256,192,22461,1,8,0:0:0:0:
256,192,22521,1,0,0:0:0:0:
256,192,22641,1,8,0:0:0:0:
256,192,22761,1,0,0:0:0:0:
256,192,22821,1,8,0:0:0:0:
256,192,22881,1,0,0:0:0:0:
256,192,22941,1,0,0:0:0:0:
256,192,23001,1,8,0:0:0:0:
256,192,23121,1,8,0:0:0:0:
256,192,23241,1,0,0:0:0:0:
256,192,23301,1,0,0:0:0:0:
256,192,23361,1,0,0:0:0:0:
256,192,23421,1,0,0:0:0:0:
256,192,23481,1,8,0:0:0:0:
256,192,23601,1,0,0:0:0:0:
256,192,23721,1,8,0:0:0:0:
256,192,23781,1,8,0:0:0:0:
256,192,23841,1,0,0:0:0:0:
256,192,23901,1,0,0:0:0:0:
256,192,23961,1,8,0:0:0:0:
256,192,24081,1,8,0:0:0:0:
256,192,24201,1,4,0:0:0:0:
256,192,24381,1,8,0:0:0:0:
256,192,24441,1,0,0:0:0:0:
256,192,24561,1,8,0:0:0:0:
256,192,24681,1,4,0:0:0:0:
256,192,24861,1,8,0:0:0:0:
256,192,24921,1,0,0:0:0:0:
256,192,25041,1,8,0:0:0:0:
256,192,25161,1,0,0:0:0:0:
256,192,25221,1,0,0:0:0:0:
256,192,25281,1,0,0:0:0:0:
256,192,25341,1,0,0:0:0:0:
256,192,25401,1,8,0:0:0:0:
256,192,25521,1,0,0:0:0:0:
256,192,25641,1,8,0:0:0:0:
256,192,25701,1,8,0:0:0:0:
256,192,25761,1,0,0:0:0:0:
256,192,25821,1,0,0:0:0:0:
256,192,25881,1,8,0:0:0:0:
256,192,26001,1,0,0:0:0:0:
256,192,26121,1,8,0:0:0:0:
256,192,26181,1,8,0:0:0:0:
256,192,26241,1,8,0:0:0:0:
256,192,26301,1,8,0:0:0:0:
256,192,26361,1,0,0:0:0:0:
256,192,26481,1,8,0:0:0:0:
256,192,26601,1,8,0:0:0:0:
256,192,26681,1,0,0:0:0:0:
256,192,26761,1,8,0:0:0:0:
256,192,26841,1,0,0:0:0:0:
256,192,26921,1,0,0:0:0:0:
256,192,27001,1,8,0:0:0:0:
256,192,27201,1,0,0:0:0:0:
256,192,27261,1,0,0:0:0:0:
256,192,27321,1,8,0:0:0:0:
256,192,27381,1,0,0:0:0:0:
256,192,27441,1,8,0:0:0:0:
256,192,27501,1,8,0:0:0:0:
256,192,27561,1,0,0:0:0:0:
256,192,27621,1,8,0:0:0:0:
256,192,27681,1,0,0:0:0:0:
256,192,27741,1,0,0:0:0:0:
256,192,27801,1,8,0:0:0:0:
256,192,27861,1,8,0:0:0:0:
256,192,27921,1,8,0:0:0:0:
256,192,27981,1,8,0:0:0:0:
256,192,28041,1,0,0:0:0:0:
256,192,28221,1,8,0:0:0:0:
256,192,28281,1,0,0:0:0:0:
256,192,28401,1,8,0:0:0:0:
256,192,28521,1,8,0:0:0:0:
256,192,28701,1,8,0:0:0:0:
256,192,28761,1,0,0:0:0:0:
256,192,28881,1,8,0:0:0:0:
256,192,29001,1,0,0:0:0:0:
256,192,29181,1,8,0:0:0:0:
256,192,29361,1,0,0:0:0:0:
256,192,29481,1,8,0:0:0:0:
256,192,29721,1,0,0:0:0:0:
256,192,29841,1,8,0:0:0:0:
256,192,29961,1,4,0:0:0:0:
256,192,31641,1,0,0:0:0:0:
256,192,31881,1,0,0:0:0:0:
256,192,32001,1,0,0:0:0:0:
256,192,32121,1,8,0:0:0:0:
256,192,32241,1,8,0:0:0:0:
256,192,32361,1,0,0:0:0:0:
256,192,32421,1,0,0:0:0:0:
256,192,32481,1,0,0:0:0:0:
256,192,32601,1,0,0:0:0:0:
256,192,32721,1,0,0:0:0:0:
256,192,32781,5,0,0:0:0:0:
256,192,32841,1,8,0:0:0:0:
256,192,32901,1,8,0:0:0:0:
256,192,32961,1,0,0:0:0:0:
256,192,33021,1,0,0:0:0:0:
256,192,33081,1,8,0:0:0:0:
256,192,33141,1,0,0:0:0:0:
256,192,33201,1,8,0:0:0:0:
256,192,33261,1,8,0:0:0:0:
256,192,33321,1,0,0:0:0:0:
256,192,33501,1,0,0:0:0:0:
256,192,33681,1,0,0:0:0:0:
256,192,33801,1,4,0:0:0:0:
256,192,35241,1,0,0:0:0:0:
256,192,35481,1,0,0:0:0:0:
256,192,35721,1,8,0:0:0:0:
256,192,35841,1,0,0:0:0:0:
256,192,35961,1,8,0:0:0:0:
256,192,36081,1,8,0:0:0:0:
256,192,36201,1,0,0:0:0:0:
256,192,36261,1,0,0:0:0:0:
256,192,36321,1,0,0:0:0:0:
256,192,36441,1,8,0:0:0:0:
256,192,36561,1,0,0:0:0:0:
256,192,36621,1,0,0:0:0:0:
256,192,36681,1,8,0:0:0:0:
256,192,36741,1,0,0:0:0:0:
256,192,36801,1,0,0:0:0:0:
256,192,36861,1,8,0:0:0:0:
256,192,36921,1,0,0:0:0:0:
256,192,36981,1,0,0:0:0:0:
256,192,37041,1,8,0:0:0:0:
256,192,37101,1,8,0:0:0:0:
256,192,37161,1,0,0:0:0:0:
256,192,37401,1,4,0:0:0:0:
256,192,37641,1,12,0:0:0:0:
256,192,37881,1,0,0:0:0:0:
256,192,38121,1,8,0:0:0:0:
256,192,38361,1,0,0:0:0:0:
256,192,38481,1,8,0:0:0:0:
256,192,38601,1,0,0:0:0:0:
256,192,38841,1,8,0:0:0:0:
256,192,39081,1,8,0:0:0:0:
256,192,39321,1,0,0:0:0:0:
256,192,39561,1,0,0:0:0:0:
256,192,39801,1,8,0:0:0:0:
256,192,39921,1,0,0:0:0:0:
256,192,40041,1,8,0:0:0:0:
256,192,40281,1,8,0:0:0:0:
256,192,40521,1,0,0:0:0:0:
256,192,40761,1,8,0:0:0:0:
256,192,41001,1,8,0:0:0:0:
256,192,41121,1,8,0:0:0:0:
256,192,41241,1,0,0:0:0:0:
256,192,41481,1,0,0:0:0:0:
256,192,41721,1,8,0:0:0:0:
256,192,41961,1,8,0:0:0:0:
256,192,42201,1,0,0:0:0:0:
256,192,42321,1,0,0:0:0:0:
256,192,42441,1,8,0:0:0:0:
256,192,42681,1,0,0:0:0:0:
256,192,42801,1,0,0:0:0:0:
256,192,42861,1,0,0:0:0:0:
256,192,42921,1,8,0:0:0:0:
256,192,43041,1,0,0:0:0:0:
256,192,43161,1,0,0:0:0:0:
256,192,43281,1,8,0:0:0:0:
256,192,43401,1,0,0:0:0:0:
256,192,43461,1,0,0:0:0:0:
256,192,43521,1,0,0:0:0:0:
256,192,43581,1,0,0:0:0:0:
256,192,43881,1,0,0:0:0:0:
256,192,43941,1,0,0:0:0:0:
256,192,44001,1,0,0:0:0:0:
256,192,44061,1,0,0:0:0:0:
256,192,44361,1,8,0:0:0:0:
256,192,44421,1,8,0:0:0:0:
256,192,44481,1,8,0:0:0:0:
256,192,44541,1,8,0:0:0:0:
256,192,44841,1,8,0:0:0:0:
256,192,44901,1,8,0:0:0:0:
256,192,44961,1,8,0:0:0:0:
256,192,45021,1,8,0:0:0:0:
256,192,45321,1,8,0:0:0:0:
256,192,45441,1,0,0:0:0:0:
256,192,45561,1,8,0:0:0:0:
256,192,45681,1,8,0:0:0:0:
256,192,45801,1,0,0:0:0:0:
256,192,45921,1,8,0:0:0:0:
256,192,46041,1,0,0:0:0:0:
256,192,46161,1,8,0:0:0:0:
256,192,46281,1,0,0:0:0:0:
256,192,46401,1,0,0:0:0:0:
256,192,46521,1,8,0:0:0:0:
256,192,46641,1,0,0:0:0:0:
256,192,46761,1,8,0:0:0:0:
256,192,46881,1,0,0:0:0:0:
256,192,46941,1,0,0:0:0:0:
256,192,47001,1,8,0:0:0:0:
256,192,47121,1,8,0:0:0:0:
256,192,47181,1,8,0:0:0:0:
256,192,47241,1,0,0:0:0:0:
256,192,47361,1,0,0:0:0:0:
256,192,47481,1,8,0:0:0:0:
256,192,47601,1,0,0:0:0:0:
256,192,47721,1,0,0:0:0:0:
256,192,47841,1,8,0:0:0:0:
256,192,47961,1,0,0:0:0:0:
256,192,48081,1,8,0:0:0:0:
256,192,48201,1,0,0:0:0:0:
256,192,48321,1,0,0:0:0:0:
256,192,48441,1,8,0:0:0:0:
256,192,48561,1,0,0:0:0:0:
256,192,48681,1,8,0:0:0:0:
256,192,48861,1,0,0:0:0:0:
256,192,49041,1,0,0:0:0:0:
256,192,49161,1,12,0:0:0:0:
256,192,50841,1,4,0:0:0:0:
256,192,51081,1,4,0:0:0:0:
256,192,52521,1,4,0:0:0:0:
256,192,52681,1,4,0:0:0:0:
256,192,52841,1,4,0:0:0:0:
256,192,53001,1,4,0:0:0:0:
256,192,53961,1,4,0:0:0:0:
256,192,54201,1,8,0:0:0:0:
256,192,54321,1,4,0:0:0:0:
256,192,54561,1,8,0:0:0:0:
256,192,54681,1,4,0:0:0:0:
256,192,54921,1,8,0:0:0:0:
256,192,54981,1,8,0:0:0:0:
256,192,55041,1,8,0:0:0:0:
256,192,55161,1,0,0:0:0:0:
256,192,55281,1,8,0:0:0:0:
256,192,55341,1,8,0:0:0:0:
256,192,55401,1,8,0:0:0:0:
256,192,55521,1,0,0:0:0:0:
256,192,55641,1,8,0:0:0:0:
256,192,55701,1,8,0:0:0:0:
256,192,55761,1,8,0:0:0:0:
256,192,55881,1,0,0:0:0:0:
256,192,56001,1,8,0:0:0:0:
256,192,56061,1,8,0:0:0:0:
256,192,56121,1,8,0:0:0:0:
256,192,56241,1,0,0:0:0:0:
256,192,56361,1,8,0:0:0:0:
256,192,56421,1,8,0:0:0:0:
256,192,56481,1,0,0:0:0:0:
256,192,56601,1,8,0:0:0:0:
256,192,56661,1,8,0:0:0:0:
256,192,56721,1,0,0:0:0:0:
256,192,56841,1,8,0:0:0:0:
256,192,56901,1,8,0:0:0:0:
256,192,56961,1,8,0:0:0:0:
256,192,57081,1,0,0:0:0:0:
256,192,57201,1,8,0:0:0:0:
256,192,57261,1,8,0:0:0:0:
256,192,57321,1,8,0:0:0:0:
256,192,57441,1,0,0:0:0:0:
256,192,57561,1,8,0:0:0:0:
256,192,57621,1,8,0:0:0:0:
256,192,57681,1,8,0:0:0:0:
256,192,57801,1,0,0:0:0:0:
256,192,57921,1,8,0:0:0:0:
256,192,57981,1,8,0:0:0:0:
256,192,58041,1,8,0:0:0:0:
256,192,58161,1,0,0:0:0:0:
256,192,58281,1,8,0:0:0:0:
256,192,58341,1,8,0:0:0:0:
256,192,58401,1,0,0:0:0:0:
256,192,58521,1,8,0:0:0:0:
256,192,58581,1,8,0:0:0:0:
256,192,58641,1,0,0:0:0:0:
256,192,58761,1,4,0:0:0:0:
256,192,59001,1,0,0:0:0:0:
256,192,59241,1,8,0:0:0:0:
256,192,59481,1,0,0:0:0:0:
256,192,59721,1,0,0:0:0:0:
256,192,59841,1,0,0:0:0:0:
256,192,59961,1,0,0:0:0:0:
256,192,60201,1,8,0:0:0:0:
256,192,60441,1,8,0:0:0:0:
256,192,60681,1,0,0:0:0:0:
256,192,60801,1,0,0:0:0:0:
256,192,60921,1,0,0:0:0:0:
256,192,61041,1,0,0:0:0:0:
256,192,61161,1,8,0:0:0:0:
256,192,61281,1,8,0:0:0:0:
256,192,61401,1,8,0:0:0:0:
256,192,61521,1,8,0:0:0:0:
256,192,61641,1,0,0:0:0:0:
256,192,61761,1,0,0:0:0:0:
256,192,61881,1,8,0:0:0:0:
256,192,62001,1,0,0:0:0:0:
256,192,62121,1,8,0:0:0:0:
256,192,62241,1,8,0:0:0:0:
256,192,62481,1,4,0:0:0:0:
256,192,62721,1,0,0:0:0:0:
256,192,62841,1,0,0:0:0:0:
256,192,62961,1,0,0:0:0:0:
256,192,63081,1,8,0:0:0:0:
256,192,63201,1,8,0:0:0:0:
256,192,63321,1,8,0:0:0:0:
256,192,63441,1,0,0:0:0:0:
256,192,63561,1,0,0:0:0:0:
256,192,63681,1,0,0:0:0:0:
256,192,63801,1,8,0:0:0:0:
256,192,63921,1,8,0:0:0:0:
256,192,64041,1,0,0:0:0:0:
256,192,64161,1,8,0:0:0:0:
256,192,64401,1,4,0:0:0:0:
256,192,64641,1,0,0:0:0:0:
256,192,64761,1,0,0:0:0:0:
256,192,65001,1,8,0:0:0:0:
256,192,65121,1,8,0:0:0:0:
256,192,65361,1,4,0:0:0:0:
256,192,65601,1,0,0:0:0:0:
256,192,65721,1,0,0:0:0:0:
256,192,65961,1,8,0:0:0:0:
256,192,66081,1,8,0:0:0:0:
256,192,66321,1,4,0:0:0:0:
256,192,66561,1,8,0:0:0:0:
256,192,66621,1,8,0:0:0:0:
256,192,66681,1,0,0:0:0:0:
256,192,66801,1,0,0:0:0:0:
256,192,66861,1,0,0:0:0:0:
256,192,66921,1,8,0:0:0:0:
256,192,67041,1,0,0:0:0:0:
256,192,67101,1,0,0:0:0:0:
256,192,67161,1,8,0:0:0:0:
256,192,67281,1,8,0:0:0:0:
256,192,67401,1,4,0:0:0:0:
256,192,67521,1,4,0:0:0:0:
256,192,67761,1,12,0:0:0:0:
256,192,67881,1,0,0:0:0:0:
256,192,67941,1,0,0:0:0:0:
256,192,68001,1,8,0:0:0:0:
256,192,68061,1,0,0:0:0:0:
256,192,68121,1,8,0:0:0:0:
256,192,68181,1,8,0:0:0:0:
256,192,68241,1,8,0:0:0:0:
256,192,68301,1,8,0:0:0:0:
256,192,68361,1,0,0:0:0:0:
256,192,68481,1,8,0:0:0:0:
256,192,68601,1,0,0:0:0:0:
256,192,68661,1,0,0:0:0:0:
256,192,68721,1,0,0:0:0:0:
256,192,68841,1,8,0:0:0:0:
256,192,68901,1,8,0:0:0:0:
256,192,68961,1,8,0:0:0:0:
256,192,69081,1,0,0:0:0:0:
256,192,69201,1,8,0:0:0:0:
256,192,69321,1,0,0:0:0:0:
256,192,69381,1,0,0:0:0:0:
256,192,69441,1,0,0:0:0:0:
256,192,69501,1,0,0:0:0:0:
256,192,69561,1,8,0:0:0:0:
256,192,69621,1,8,0:0:0:0:
256,192,69681,1,0,0:0:0:0:
256,192,69741,1,0,0:0:0:0:
256,192,69801,1,8,0:0:0:0:
256,192,69861,1,0,0:0:0:0:
256,192,69921,1,8,0:0:0:0:
256,192,70161,1,4,0:0:0:0:
256,192,70401,1,8,0:0:0:0:
256,192,70521,1,0,0:0:0:0:
256,192,70581,1,0,0:0:0:0:
256,192,70641,1,0,0:0:0:0:
256,192,70761,1,8,0:0:0:0:
256,192,70821,1,8,0:0:0:0:
256,192,70881,1,8,0:0:0:0:
256,192,71001,1,0,0:0:0:0:
256,192,71121,1,8,0:0:0:0:
256,192,71241,1,0,0:0:0:0:
256,192,71301,1,0,0:0:0:0:
256,192,71361,1,0,0:0:0:0:
256,192,71421,1,0,0:0:0:0:
256,192,71481,1,8,0:0:0:0:
256,192,71541,1,0,0:0:0:0:
256,192,71601,1,8,0:0:0:0:
256,192,71661,1,8,0:0:0:0:
256,192,71721,1,0,0:0:0:0:
256,192,71781,1,0,0:0:0:0:
256,192,71841,1,8,0:0:0:0:
256,192,72081,1,4,0:0:0:0:
256,192,72321,1,0,0:0:0:0:
256,192,72441,1,0,0:0:0:0:
256,192,72681,1,8,0:0:0:0:
256,192,72801,1,8,0:0:0:0:
256,192,73041,1,4,0:0:0:0:
256,192,73281,1,0,0:0:0:0:
256,192,73401,1,0,0:0:0:0:
256,192,73641,1,8,0:0:0:0:
256,192,73761,1,8,0:0:0:0:
256,192,74001,1,4,0:0:0:0:
256,192,74241,1,8,0:0:0:0:
256,192,74301,1,8,0:0:0:0:
256,192,74361,1,0,0:0:0:0:
256,192,74481,1,0,0:0:0:0:
256,192,74541,1,0,0:0:0:0:
256,192,74601,1,8,0:0:0:0:
256,192,74721,1,0,0:0:0:0:
256,192,74781,1,0,0:0:0:0:
256,192,74841,1,8,0:0:0:0:
256,192,74961,1,8,0:0:0:0:
256,192,75081,1,4,0:0:0:0:
256,192,75201,1,4,0:0:0:0:
256,192,75381,1,12,0:0:0:0:
256,192,75561,1,12,0:0:0:0:
256,192,75741,1,12,0:0:0:0:
256,192,75921,1,12,0:0:0:0:
256,192,76281,5,0,0:0:0:0:
256,192,76401,1,8,0:0:0:0:
256,192,76521,1,0,0:0:0:0:
256,192,76641,1,0,0:0:0:0:
256,192,76761,1,8,0:0:0:0:
256,192,76881,1,0,0:0:0:0:
256,192,77001,1,8,0:0:0:0:
256,192,77121,1,0,0:0:0:0:
256,192,77241,1,0,0:0:0:0:
256,192,77361,1,8,0:0:0:0:
256,192,77601,1,8,0:0:0:0:
256,192,77841,1,4,0:0:0:0:
256,192,78081,1,0,0:0:0:0:
256,192,78201,1,8,0:0:0:0:
256,192,78441,1,8,0:0:0:0:
256,192,78681,1,8,0:0:0:0:
256,192,78801,1,4,0:0:0:0:
256,192,79041,1,0,0:0:0:0:
256,192,79161,1,8,0:0:0:0:
256,192,79401,1,12,0:0:0:0:
256,192,79581,1,12,0:0:0:0:
256,192,79761,1,4,0:0:0:0:
256,192,80121,1,0,0:0:0:0:
256,192,80241,1,8,0:0:0:0:
256,192,80361,1,0,0:0:0:0:
256,192,80481,1,0,0:0:0:0:
256,192,80601,1,8,0:0:0:0:
256,192,80721,1,8,0:0:0:0:
256,192,80841,1,0,0:0:0:0:
256,192,80961,1,0,0:0:0:0:
256,192,81081,1,8,0:0:0:0:
256,192,81201,1,0,0:0:0:0:
256,192,81441,1,0,0:0:0:0:
256,192,81681,1,12,0:0:0:0:
256,192,81921,1,8,0:0:0:0:
256,192,82041,1,8,0:0:0:0:
256,192,82161,1,0,0:0:0:0:
256,192,82221,1,0,0:0:0:0:
256,192,82281,1,8,0:0:0:0:
256,192,82401,1,0,0:0:0:0:
256,192,82461,1,8,0:0:0:0:
256,192,82521,1,0,0:0:0:0:
256,192,82641,1,12,0:0:0:0:
256,192,82761,1,0,0:0:0:0:
256,192,82881,1,0,0:0:0:0:
256,192,82941,1,0,0:0:0:0:
256,192,83001,1,8,0:0:0:0:
256,192,83121,1,8,0:0:0:0:
256,192,83181,1,8,0:0:0:0:
256,192,83241,1,0,0:0:0:0:
256,192,83361,1,8,0:0:0:0:
256,192,83421,1,8,0:0:0:0:
256,192,83481,1,0,0:0:0:0:
256,192,83601,1,0,0:0:0:0:
256,192,83721,1,8,0:0:0:0:
256,192,83841,1,0,0:0:0:0:
256,192,83961,1,8,0:0:0:0:
256,192,84081,1,8,0:0:0:0:
256,192,84141,1,0,0:0:0:0:
256,192,84201,1,8,0:0:0:0:
256,192,84321,1,0,0:0:0:0:
256,192,84441,1,8,0:0:0:0:
256,192,84561,1,0,0:0:0:0:
256,192,84681,1,0,0:0:0:0:
256,192,84741,1,0,0:0:0:0:
256,192,84801,1,0,0:0:0:0:
256,192,84861,1,0,0:0:0:0:
256,192,84921,1,8,0:0:0:0:
256,192,84981,1,8,0:0:0:0:
256,192,85041,1,0,0:0:0:0:
256,192,85101,1,0,0:0:0:0:
256,192,85161,1,8,0:0:0:0:
256,192,85401,1,8,0:0:0:0:
256,192,85641,1,0,0:0:0:0:
256,192,85701,1,0,0:0:0:0:
256,192,85761,1,0,0:0:0:0:
256,192,85821,1,0,0:0:0:0:
256,192,85881,1,8,0:0:0:0:
256,192,85941,1,8,0:0:0:0:
256,192,86001,1,0,0:0:0:0:
256,192,86061,1,0,0:0:0:0:
256,192,86121,1,8,0:0:0:0:
256,192,86361,1,8,0:0:0:0:
256,192,86601,1,8,0:0:0:0:
256,192,86661,1,8,0:0:0:0:
256,192,86721,1,8,0:0:0:0:
256,192,86781,1,8,0:0:0:0:
256,192,86841,1,0,0:0:0:0:
256,192,86901,1,0,0:0:0:0:
256,192,86961,1,8,0:0:0:0:
256,192,87021,1,8,0:0:0:0:
256,192,87081,1,8,0:0:0:0:
256,192,87141,1,8,0:0:0:0:
256,192,87201,1,0,0:0:0:0:
256,192,87261,1,0,0:0:0:0:
256,192,87321,1,8,0:0:0:0:
256,192,87381,1,8,0:0:0:0:
256,192,87441,1,0,0:0:0:0:
256,192,87501,1,0,0:0:0:0:
256,192,87561,1,8,0:0:0:0:
256,192,87881,1,8,0:0:0:0:
256,192,87961,1,8,0:0:0:0:
256,192,88041,1,0,0:0:0:0:
256,192,88121,1,8,0:0:0:0:
256,192,88201,1,8,0:0:0:0:
256,192,88281,1,8,0:0:0:0:
256,192,88361,1,0,0:0:0:0:
256,192,88441,1,0,0:0:0:0:
256,192,88521,1,8,0:0:0:0:
256,192,89481,1,8,0:0:0:0:
256,192,90338,1,8,0:0:0:0:
256,192,90725,1,8,0:0:0:0:
256,192,91112,1,8,0:0:0:0:
256,192,91464,1,8,0:0:0:0:
256,192,91817,1,8,0:0:0:0:
256,192,91898,1,8,0:0:0:0:
256,192,92060,1,8,0:0:0:0:
256,192,92141,1,8,0:0:0:0:
256,192,92222,1,8,0:0:0:0:
256,192,92384,1,8,0:0:0:0:
256,192,92465,1,8,0:0:0:0:
256,192,92615,1,8,0:0:0:0:
256,192,92765,1,8,0:0:0:0:
256,192,92915,1,8,0:0:0:0:
256,192,93065,1,0,0:0:0:0:
256,192,93134,1,0,0:0:0:0:
256,192,93204,1,0,0:0:0:0:
256,192,93274,1,0,0:0:0:0:
256,192,93344,1,0,0:0:0:0:
256,192,93413,1,0,0:0:0:0:
256,192,93483,1,0,0:0:0:0:
256,192,93553,1,0,0:0:0:0:
256,192,93623,1,8,0:0:0:0:
256,192,93688,1,8,0:0:0:0:
256,192,93753,1,8,0:0:0:0:
256,192,93818,1,8,0:0:0:0:
256,192,93883,1,8,0:0:0:0:
256,192,93949,1,8,0:0:0:0:
256,192,94014,1,8,0:0:0:0:
256,192,94079,1,8,0:0:0:0:
256,192,94144,12,8,96144,0:0:0:0:
256,192,96624,5,0,0:0:0:0:
256,192,96684,1,0,0:0:0:0:
256,192,96744,1,0,0:0:0:0:
256,192,96804,1,0,0:0:0:0:
256,192,96864,1,8,0:0:0:0:
256,192,96984,1,0,0:0:0:0:
256,192,97044,1,0,0:0:0:0:
256,192,97104,1,8,0:0:0:0:
256,192,97164,1,8,0:0:0:0:
256,192,97224,1,0,0:0:0:0:
256,192,97284,1,0,0:0:0:0:
256,192,97344,1,8,0:0:0:0:
256,192,97464,1,0,0:0:0:0:
256,192,97524,1,0,0:0:0:0:
256,192,97584,1,8,0:0:0:0:
256,192,97645,1,8,0:0:0:0:
256,192,97705,1,8,0:0:0:0:
256,192,97765,1,8,0:0:0:0:
256,192,97825,1,0,0:0:0:0:
256,192,97945,1,8,0:0:0:0:
256,192,98065,1,0,0:0:0:0:
256,192,98125,1,8,0:0:0:0:
256,192,98185,1,0,0:0:0:0:
256,192,98245,1,0,0:0:0:0:
256,192,98305,1,8,0:0:0:0:
256,192,98425,1,8,0:0:0:0:
256,192,98485,1,8,0:0:0:0:
256,192,98545,1,0,0:0:0:0:
256,192,98605,1,0,0:0:0:0:
256,192,98666,1,0,0:0:0:0:
256,192,98726,1,0,0:0:0:0:
256,192,98786,1,8,0:0:0:0:
256,192,98906,1,0,0:0:0:0:
256,192,98966,1,0,0:0:0:0:
256,192,99026,1,8,0:0:0:0:
256,192,99086,1,8,0:0:0:0:
256,192,99146,1,0,0:0:0:0:
256,192,99206,1,0,0:0:0:0:
256,192,99266,1,8,0:0:0:0:
256,192,99386,1,8,0:0:0:0:
256,192,99506,1,4,0:0:0:0:
256,192,99687,1,8,0:0:0:0:
256,192,99747,1,0,0:0:0:0:
256,192,99867,1,8,0:0:0:0:
256,192,99987,1,4,0:0:0:0:
256,192,100167,1,8,0:0:0:0:
256,192,100227,1,0,0:0:0:0:
256,192,100347,1,8,0:0:0:0:
256,192,100468,1,0,0:0:0:0:
256,192,100528,1,0,0:0:0:0:
256,192,100588,1,0,0:0:0:0:
256,192,100648,1,0,0:0:0:0:
256,192,100708,1,8,0:0:0:0:
256,192,100828,1,0,0:0:0:0:
256,192,100888,1,0,0:0:0:0:
256,192,100948,1,8,0:0:0:0:
256,192,101008,1,8,0:0:0:0:
256,192,101068,1,0,0:0:0:0:
256,192,101128,1,0,0:0:0:0:
256,192,101188,1,8,0:0:0:0:
256,192,101309,1,0,0:0:0:0:
256,192,101368,1,0,0:0:0:0:
256,192,101429,1,8,0:0:0:0:
256,192,101489,1,0,0:0:0:0:
256,192,101549,1,8,0:0:0:0:
256,192,101609,1,8,0:0:0:0:
256,192,101669,1,0,0:0:0:0:
256,192,101789,1,8,0:0:0:0:
256,192,101909,1,8,0:0:0:0:
256,192,101989,1,0,0:0:0:0:
256,192,102069,1,8,0:0:0:0:
256,192,102149,1,0,0:0:0:0:
256,192,102229,1,0,0:0:0:0:
256,192,102309,1,8,0:0:0:0:
256,192,102510,1,0,0:0:0:0:
256,192,102570,1,0,0:0:0:0:
256,192,102630,1,8,0:0:0:0:
256,192,102690,1,0,0:0:0:0:
256,192,102750,1,8,0:0:0:0:
256,192,102810,1,8,0:0:0:0:
256,192,102870,1,0,0:0:0:0:
256,192,102930,1,8,0:0:0:0:
256,192,102990,1,0,0:0:0:0:
256,192,103050,1,0,0:0:0:0:
256,192,103110,1,8,0:0:0:0:
256,192,103170,1,0,0:0:0:0:
256,192,103230,1,8,0:0:0:0:
256,192,103290,1,8,0:0:0:0:
256,192,103350,1,0,0:0:0:0:
256,192,103531,1,8,0:0:0:0:
256,192,103591,1,0,0:0:0:0:
256,192,103711,1,8,0:0:0:0:
256,192,103831,1,8,0:0:0:0:
256,192,104011,1,8,0:0:0:0:
256,192,104071,1,0,0:0:0:0:
256,192,104191,1,8,0:0:0:0:
256,192,104312,1,0,0:0:0:0:
256,192,104492,1,8,0:0:0:0:
256,192,104672,1,0,0:0:0:0:
256,192,104792,1,8,0:0:0:0:
256,192,105033,1,8,0:0:0:0:
256,192,105153,1,0,0:0:0:0:
256,192,105273,1,8,0:0:0:0:
256,192,105333,1,8,0:0:0:0:
256,192,105393,1,8,0:0:0:0:
256,192,105453,1,8,0:0:0:0:
256,192,105513,1,0,0:0:0:0:
256,192,105573,1,0,0:0:0:0:
256,192,105633,1,0,0:0:0:0:
256,192,105693,1,0,0:0:0:0:
256,192,105753,1,8,0:0:0:0:
256,192,105994,1,8,0:0:0:0:
256,192,106233,1,0,0:0:0:0:
256,192,106293,1,0,0:0:0:0:
256,192,106354,1,0,0:0:0:0:
256,192,106414,1,0,0:0:0:0:
256,192,106474,1,8,0:0:0:0:
256,192,106534,1,8,0:0:0:0:
256,192,106594,1,0,0:0:0:0:
256,192,106654,1,0,0:0:0:0:
256,192,106714,1,8,0:0:0:0:
256,192,106955,1,8,0:0:0:0:
256,192,107195,1,0,0:0:0:0:
256,192,107255,1,0,0:0:0:0:
256,192,107315,1,0,0:0:0:0:
256,192,107375,1,0,0:0:0:0:
256,192,107435,1,8,0:0:0:0:
256,192,107495,1,8,0:0:0:0:
256,192,107555,1,0,0:0:0:0:
256,192,107615,1,0,0:0:0:0:
256,192,107675,1,8,0:0:0:0:
256,192,107915,1,8,0:0:0:0:
256,192,108155,1,8,0:0:0:0:
256,192,108215,1,8,0:0:0:0:
256,192,108275,1,8,0:0:0:0:
256,192,108335,1,8,0:0:0:0:
256,192,108395,1,0,0:0:0:0:
256,192,108455,1,0,0:0:0:0:
256,192,108515,1,8,0:0:0:0:
256,192,108575,1,8,0:0:0:0:
256,192,108637,1,8,0:0:0:0:
256,192,108697,1,8,0:0:0:0:
256,192,108757,1,0,0:0:0:0:
256,192,108817,1,0,0:0:0:0:
256,192,108877,1,8,0:0:0:0:
256,192,108937,1,8,0:0:0:0:
256,192,108997,1,8,0:0:0:0:
256,192,109057,1,8,0:0:0:0:
256,192,109116,1,0,0:0:0:0:
256,192,109197,1,0,0:0:0:0:
256,192,109277,1,0,0:0:0:0:
256,192,109357,1,0,0:0:0:0:
256,192,109437,1,0,0:0:0:0:
256,192,109517,1,0,0:0:0:0:
256,192,109597,1,12,0:0:0:0:
256,192,109717,12,0,110557,0:0:0:0:
256,192,112480,5,8,0:0:0:0:
256,192,112813,1,8,0:0:0:0:
256,192,113146,1,8,0:0:0:0:
256,192,113313,1,0,0:0:0:0:
256,192,113480,1,8,0:0:0:0:
256,192,113843,1,8,0:0:0:0:
256,192,114207,1,8,0:0:0:0:
256,192,114389,1,8,0:0:0:0:
256,192,114570,1,4,0:0:0:0:
256,192,115070,1,4,0:0:0:0:
256,192,115653,1,12,0:0:0:0:
256,192,116380,2,0,L|224:128,11,46.6666666666667
