osu file format v14

[General]
AudioFilename: audio.mp3
AudioLeadIn: 0
PreviewTime: 58761
Countdown: 0
SampleSet: Normal
StackLeniency: 0.7
Mode: 1
LetterboxInBreaks: 0
WidescreenStoryboard: 1

[Editor]
DistanceSpacing: 0.8
BeatDivisor: 2
GridSize: 32
TimelineZoom: 4

[Metadata]
Title:Cho*Cho*Kou*Soku*De*Mae*Sai*Soku!!! Speed*Star*Kanade
TitleUnicode:超☆超☆光☆速☆出☆前☆最☆速!!! スピード★スター★かなで
Artist:Camellia feat. Nanahira
ArtistUnicode:かめりあ feat. ななひら
Creator:Surono
Version:Muzukashii!!!
Source:SOUND VOLTEX IV HEAVENLY HAVEN
Tags:SDVX speedcore The 6th KAC Original Song Contest オリジナル楽曲コンテスト
BeatmapID:1288997
BeatmapSetID:610480

[Difficulty]
HPDrainRate:7
CircleSize:4
OverallDifficulty:5.5
ApproachRate:5
SliderMultiplier:1.2
SliderTickRate:3

[Events]
//Background and Video events
0,0,"thumb.jpg",0,50
//Break Periods
//Storyboard Layer 0 (Background)
//Storyboard Layer 1 (Fail)
//Storyboard Layer 2 (Pass)
//Storyboard Layer 3 (Foreground)
//Storyboard Sound Samples

[TimingPoints]
644.446793547667,461.538461538462,4,1,0,69,1,0
11567,-105.263157894737,4,1,0,69,0,0
11721,500,4,1,0,69,1,0
12554,-105.263157894737,4,1,0,69,0,0
12721,545.454545454546,4,1,0,69,1,0
13811,545.454545454546,4,1,0,40,1,0
14311,545.454545454546,4,1,0,40,1,0
14894,545.454545454546,4,1,0,40,1,0
15561,240,4,1,0,90,1,0
21321,-100,4,1,0,90,0,1
29961,-100,4,1,0,90,0,0
60681,-100,4,1,0,90,0,1
84681,-100,4,1,0,90,0,0
89481,214.285714285714,4,1,0,90,1,0
89481,-200,4,1,0,90,0,0
90338,193.548387096774,4,1,0,90,1,0
90338,-200,4,1,0,90,0,0
91112,176.470588235294,4,1,0,90,1,0
91112,-200,4,1,0,90,0,0
91817,162.162162162162,4,1,0,90,1,0
91817,-200,4,1,0,90,0,0
92465,150,4,1,0,90,1,0
92465,-200,4,1,0,90,0,0
93065,139.53488372093,4,1,0,90,1,0
93065,-200,4,1,0,90,0,0
93623,130.434782608696,4,1,0,90,1,0
93623,-200,4,1,0,90,0,0
94144,125,4,1,0,90,1,0
96624,240.24024024024,4,1,0,90,1,1
106233,-100,4,1,0,90,0,0
111980,500,4,1,0,69,1,0
113313,-105.263157894737,4,1,0,69,0,0
113480,545.454545454546,4,1,0,69,1,0
114570,545.454545454546,4,1,0,40,1,0
115070,545.454545454546,4,1,0,40,1,0
115653,545.454545454546,4,1,0,40,1,0

[HitObjects]
256,192,644,5,0,0:0:0:0:
256,192,952,1,8,0:0:0:0:
256,192,1259,1,0,0:0:0:0:
256,192,1567,1,0,0:0:0:0:
256,192,1875,1,8,0:0:0:0:
256,192,2182,1,8,0:0:0:0:
256,192,2490,1,0,0:0:0:0:
256,192,2798,1,8,0:0:0:0:
256,192,3105,1,8,0:0:0:0:
256,192,3413,1,0,0:0:0:0:
256,192,3721,1,8,0:0:0:0:
256,192,4029,1,0,0:0:0:0:
256,192,4336,1,0,0:0:0:0:
256,192,4644,1,8,0:0:0:0:
256,192,4952,1,0,0:0:0:0:
256,192,5259,1,0,0:0:0:0:
256,192,5567,1,8,0:0:0:0:
256,192,5875,1,8,0:0:0:0:
256,192,6182,1,0,0:0:0:0:
256,192,6490,1,8,0:0:0:0:
256,192,6798,1,8,0:0:0:0:
256,192,7105,1,8,0:0:0:0:
256,192,7413,1,0,0:0:0:0:
256,192,7721,1,0,0:0:0:0:
256,192,8029,5,0,0:0:0:0:
256,192,8337,1,8,0:0:0:0:
256,192,8644,1,8,0:0:0:0:
256,192,8952,1,0,0:0:0:0:
256,192,9260,1,8,0:0:0:0:
256,192,9567,1,0,0:0:0:0:
256,192,9875,1,8,0:0:0:0:
256,192,10183,1,0,0:0:0:0:
256,192,10490,1,8,0:0:0:0:
256,192,10798,1,0,0:0:0:0:
256,192,11106,1,8,0:0:0:0:
256,192,11414,1,0,0:0:0:0:
256,192,11721,1,8,0:0:0:0:
256,192,12054,1,8,0:0:0:0:
256,192,12387,1,8,0:0:0:0:
256,192,12721,1,8,0:0:0:0:
256,192,13084,1,8,0:0:0:0:
256,192,13448,1,8,0:0:0:0:
256,192,13630,1,8,0:0:0:0:
256,192,13811,1,12,0:0:0:0:
256,192,14311,1,4,0:0:0:0:
256,192,14894,1,12,0:0:0:0:
256,192,15561,1,8,0:0:0:0:
256,192,15681,1,8,0:0:0:0:
256,192,15801,1,0,0:0:0:0:
256,192,16041,1,8,0:0:0:0:
256,192,16281,1,0,0:0:0:0:
256,192,16401,1,0,0:0:0:0:
256,192,16521,1,8,0:0:0:0:
256,192,16761,1,0,0:0:0:0:
256,192,17001,1,0,0:0:0:0:
256,192,17481,1,0,0:0:0:0:
256,192,17601,1,0,0:0:0:0:
256,192,17721,1,8,0:0:0:0:
256,192,17841,1,0,0:0:0:0:
256,192,17961,1,8,0:0:0:0:
256,192,18441,1,0,0:0:0:0:
256,192,18561,1,0,0:0:0:0:
256,192,18681,1,8,0:0:0:0:
256,192,18801,1,0,0:0:0:0:
256,192,18921,1,8,0:0:0:0:
256,192,19401,1,8,0:0:0:0:
256,192,19521,1,8,0:0:0:0:
256,192,19761,1,8,0:0:0:0:
256,192,19881,1,8,0:0:0:0:
256,192,20121,1,8,0:0:0:0:
256,192,20241,1,0,0:0:0:0:
256,192,20361,1,8,0:0:0:0:
256,192,20841,2,0,L|128:128,1,120
256,192,21321,1,0,0:0:0:0:
256,192,21561,1,8,0:0:0:0:
256,192,21681,1,0,0:0:0:0:
256,192,21801,1,8,0:0:0:0:
256,192,22041,1,0,0:0:0:0:
256,192,22281,1,8,0:0:0:0:
256,192,22521,1,0,0:0:0:0:
256,192,22641,1,0,0:0:0:0:
256,192,22761,1,0,0:0:0:0:
256,192,23001,1,8,0:0:0:0:
256,192,23241,1,0,0:0:0:0:
256,192,23481,1,8,0:0:0:0:
256,192,23601,1,0,0:0:0:0:
256,192,23721,1,8,0:0:0:0:
256,192,23961,1,0,0:0:0:0:
256,192,24201,1,4,0:0:0:0:
256,192,24441,1,8,0:0:0:0:
256,192,24681,1,4,0:0:0:0:
256,192,24921,1,8,0:0:0:0:
256,192,25161,1,0,0:0:0:0:
256,192,25401,1,8,0:0:0:0:
256,192,25521,1,0,0:0:0:0:
256,192,25641,1,8,0:0:0:0:
256,192,25881,1,0,0:0:0:0:
256,192,26121,1,8,0:0:0:0:
256,192,26361,1,0,0:0:0:0:
256,192,26481,1,0,0:0:0:0:
256,192,26601,1,0,0:0:0:0:
256,192,26721,1,0,0:0:0:0:
256,192,27001,1,8,0:0:0:0:
256,192,27321,1,8,0:0:0:0:
256,192,27441,1,8,0:0:0:0:
256,192,27561,1,0,0:0:0:0:
256,192,27801,1,8,0:0:0:0:
256,192,28041,1,0,0:0:0:0:
256,192,28281,1,8,0:0:0:0:
256,192,28521,1,8,0:0:0:0:
256,192,28761,1,8,0:0:0:0:
256,192,29001,1,0,0:0:0:0:
256,192,29361,1,8,0:0:0:0:
256,192,29481,1,8,0:0:0:0:
256,192,29721,1,0,0:0:0:0:
256,192,29961,1,4,0:0:0:0:
256,192,31641,1,0,0:0:0:0:
256,192,31881,1,0,0:0:0:0:
256,192,32121,1,8,0:0:0:0:
256,192,32241,1,8,0:0:0:0:
256,192,32481,1,0,0:0:0:0:
256,192,32601,1,0,0:0:0:0:
256,192,32841,1,8,0:0:0:0:
256,192,33081,1,8,0:0:0:0:
256,192,33201,1,8,0:0:0:0:
256,192,33321,1,0,0:0:0:0:
256,192,33501,1,0,0:0:0:0:
256,192,33801,1,4,0:0:0:0:
256,192,35241,1,0,0:0:0:0:
256,192,35481,1,0,0:0:0:0:
256,192,35721,1,8,0:0:0:0:
256,192,35961,1,8,0:0:0:0:
256,192,36081,1,8,0:0:0:0:
256,192,36321,1,0,0:0:0:0:
256,192,36441,1,8,0:0:0:0:
256,192,36681,1,8,0:0:0:0:
256,192,36921,1,0,0:0:0:0:
256,192,37041,1,0,0:0:0:0:
256,192,37161,1,8,0:0:0:0:
256,192,37401,1,4,0:0:0:0:
256,192,37641,1,12,0:0:0:0:
256,192,38121,1,8,0:0:0:0:
256,192,38361,1,0,0:0:0:0:
256,192,38601,1,0,0:0:0:0:
256,192,38841,1,8,0:0:0:0:
256,192,39081,1,8,0:0:0:0:
256,192,39321,1,0,0:0:0:0:
256,192,39561,1,0,0:0:0:0:
256,192,40041,1,8,0:0:0:0:
256,192,40281,1,8,0:0:0:0:
256,192,40521,1,0,0:0:0:0:
256,192,40761,1,8,0:0:0:0:
256,192,41001,1,8,0:0:0:0:
256,192,41241,1,0,0:0:0:0:
256,192,41481,1,0,0:0:0:0:
256,192,41961,1,8,0:0:0:0:
256,192,42201,1,0,0:0:0:0:
256,192,42441,1,8,0:0:0:0:
256,192,42681,1,0,0:0:0:0:
256,192,42801,1,0,0:0:0:0:
256,192,42921,1,8,0:0:0:0:
256,192,43161,1,0,0:0:0:0:
256,192,43401,1,0,0:0:0:0:
256,192,43641,1,12,0:0:0:0:
256,192,43881,1,0,0:0:0:0:
256,192,44121,1,12,0:0:0:0:
256,192,44361,1,8,0:0:0:0:
256,192,44601,1,4,0:0:0:0:
256,192,44841,1,8,0:0:0:0:
256,192,45081,1,4,0:0:0:0:
256,192,45321,1,8,0:0:0:0:
256,192,45561,1,8,0:0:0:0:
256,192,45681,1,8,0:0:0:0:
256,192,45921,1,8,0:0:0:0:
256,192,46161,1,8,0:0:0:0:
256,192,46281,1,0,0:0:0:0:
256,192,46521,1,8,0:0:0:0:
256,192,46761,1,8,0:0:0:0:
256,192,46881,1,0,0:0:0:0:
256,192,47001,1,8,0:0:0:0:
256,192,47121,1,8,0:0:0:0:
256,192,47241,1,0,0:0:0:0:
256,192,47481,1,8,0:0:0:0:
256,192,47721,1,0,0:0:0:0:
256,192,47841,1,8,0:0:0:0:
256,192,48081,1,8,0:0:0:0:
256,192,48321,1,0,0:0:0:0:
256,192,48441,1,8,0:0:0:0:
256,192,48681,1,8,0:0:0:0:
256,192,48861,1,0,0:0:0:0:
256,192,49161,1,12,0:0:0:0:
256,192,50841,1,4,0:0:0:0:
256,192,51081,1,4,0:0:0:0:
256,192,52521,1,4,0:0:0:0:
256,192,52841,1,4,0:0:0:0:
256,192,53001,1,4,0:0:0:0:
256,192,53961,1,4,0:0:0:0:
256,192,54321,1,4,0:0:0:0:
256,192,54681,1,4,0:0:0:0:
256,192,54921,1,8,0:0:0:0:
256,192,55281,1,8,0:0:0:0:
256,192,55641,1,8,0:0:0:0:
256,192,55761,1,8,0:0:0:0:
256,192,56001,1,8,0:0:0:0:
256,192,56121,1,8,0:0:0:0:
256,192,56361,1,8,0:0:0:0:
256,192,56601,1,8,0:0:0:0:
256,192,56721,1,0,0:0:0:0:
256,192,56841,1,8,0:0:0:0:
256,192,57201,1,8,0:0:0:0:
256,192,57561,1,8,0:0:0:0:
256,192,57681,1,8,0:0:0:0:
256,192,57921,1,8,0:0:0:0:
256,192,58041,1,8,0:0:0:0:
256,192,58281,1,8,0:0:0:0:
256,192,58521,1,8,0:0:0:0:
256,192,58641,1,8,0:0:0:0:
256,192,58761,1,4,0:0:0:0:
256,192,59241,1,8,0:0:0:0:
256,192,59721,1,0,0:0:0:0:
256,192,59961,1,0,0:0:0:0:
256,192,60201,1,8,0:0:0:0:
256,192,60681,1,0,0:0:0:0:
256,192,60921,1,0,0:0:0:0:
256,192,61161,1,8,0:0:0:0:
256,192,61281,1,8,0:0:0:0:
256,192,61401,1,8,0:0:0:0:
256,192,61641,1,0,0:0:0:0:
256,192,61881,1,8,0:0:0:0:
256,192,62121,1,8,0:0:0:0:
256,192,62241,1,8,0:0:0:0:
256,192,62481,1,4,0:0:0:0:
256,192,62841,1,0,0:0:0:0:
256,192,63081,1,8,0:0:0:0:
256,192,63201,1,8,0:0:0:0:
256,192,63321,1,8,0:0:0:0:
256,192,63561,1,0,0:0:0:0:
256,192,63801,1,8,0:0:0:0:
256,192,63921,1,8,0:0:0:0:
256,192,64161,1,8,0:0:0:0:
256,192,64401,1,4,0:0:0:0:
256,192,64641,1,0,0:0:0:0:
256,192,64761,1,0,0:0:0:0:
256,192,65001,1,8,0:0:0:0:
256,192,65361,1,4,0:0:0:0:
256,192,65601,1,0,0:0:0:0:
256,192,65721,1,0,0:0:0:0:
256,192,65961,1,8,0:0:0:0:
256,192,66321,1,4,0:0:0:0:
256,192,66561,1,8,0:0:0:0:
256,192,66681,1,0,0:0:0:0:
256,192,66921,1,8,0:0:0:0:
256,192,67041,1,0,0:0:0:0:
256,192,67161,1,8,0:0:0:0:
256,192,67401,1,4,0:0:0:0:
256,192,67761,1,12,0:0:0:0:
256,192,68121,1,8,0:0:0:0:
256,192,68241,1,8,0:0:0:0:
256,192,68361,1,0,0:0:0:0:
256,192,68601,1,0,0:0:0:0:
256,192,68841,1,8,0:0:0:0:
256,192,68961,1,8,0:0:0:0:
256,192,69081,1,8,0:0:0:0:
256,192,69321,1,8,0:0:0:0:
256,192,69561,1,8,0:0:0:0:
256,192,69681,1,0,0:0:0:0:
256,192,69801,1,8,0:0:0:0:
256,192,69921,1,8,0:0:0:0:
256,192,70161,1,4,0:0:0:0:
256,192,70521,1,0,0:0:0:0:
256,192,70761,1,8,0:0:0:0:
256,192,70881,1,8,0:0:0:0:
256,192,71001,1,8,0:0:0:0:
256,192,71241,1,8,0:0:0:0:
256,192,71481,1,8,0:0:0:0:
256,192,71601,1,8,0:0:0:0:
256,192,71721,1,0,0:0:0:0:
256,192,71841,1,8,0:0:0:0:
256,192,72081,1,4,0:0:0:0:
256,192,72321,1,0,0:0:0:0:
256,192,72441,1,0,0:0:0:0:
256,192,72681,1,8,0:0:0:0:
256,192,73041,1,4,0:0:0:0:
256,192,73281,1,0,0:0:0:0:
256,192,73401,1,0,0:0:0:0:
256,192,73641,1,8,0:0:0:0:
256,192,74001,1,4,0:0:0:0:
256,192,74241,1,8,0:0:0:0:
256,192,74361,1,0,0:0:0:0:
256,192,74601,1,8,0:0:0:0:
256,192,74721,1,0,0:0:0:0:
256,192,74841,1,8,0:0:0:0:
256,192,75081,1,4,0:0:0:0:
256,192,75561,1,12,0:0:0:0:
256,192,75741,1,12,0:0:0:0:
256,192,75921,1,12,0:0:0:0:
256,192,76281,5,0,0:0:0:0:
256,192,76521,1,0,0:0:0:0:
256,192,76641,1,0,0:0:0:0:
256,192,76761,1,8,0:0:0:0:
256,192,77001,1,8,0:0:0:0:
256,192,77241,1,0,0:0:0:0:
256,192,77361,1,8,0:0:0:0:
256,192,77601,1,8,0:0:0:0:
256,192,77841,1,4,0:0:0:0:
256,192,78201,1,8,0:0:0:0:
256,192,78441,1,8,0:0:0:0:
256,192,78681,1,8,0:0:0:0:
256,192,78801,1,4,0:0:0:0:
256,192,79161,1,8,0:0:0:0:
256,192,79401,1,12,0:0:0:0:
256,192,79761,1,4,0:0:0:0:
256,192,80121,1,0,0:0:0:0:
256,192,80361,1,0,0:0:0:0:
256,192,80481,1,0,0:0:0:0:
256,192,80601,1,8,0:0:0:0:
256,192,80841,1,0,0:0:0:0:
256,192,81081,1,8,0:0:0:0:
256,192,81201,1,0,0:0:0:0:
256,192,81441,1,0,0:0:0:0:
256,192,81681,1,12,0:0:0:0:
256,192,81921,1,8,0:0:0:0:
256,192,82041,1,8,0:0:0:0:
256,192,82281,1,8,0:0:0:0:
256,192,82641,1,12,0:0:0:0:
256,192,82881,1,0,0:0:0:0:
256,192,83001,1,8,0:0:0:0:
256,192,83241,1,0,0:0:0:0:
256,192,83361,1,8,0:0:0:0:
256,192,83481,1,0,0:0:0:0:
256,192,83961,1,0,0:0:0:0:
256,192,84081,1,8,0:0:0:0:
256,192,84201,1,8,0:0:0:0:
256,192,84681,1,0,0:0:0:0:
256,192,84801,1,0,0:0:0:0:
256,192,84921,1,8,0:0:0:0:
256,192,85041,1,0,0:0:0:0:
256,192,85161,1,8,0:0:0:0:
256,192,85641,1,0,0:0:0:0:
256,192,85761,1,0,0:0:0:0:
256,192,85881,1,8,0:0:0:0:
256,192,86001,1,0,0:0:0:0:
256,192,86121,1,8,0:0:0:0:
256,192,86601,1,8,0:0:0:0:
256,192,86721,1,8,0:0:0:0:
256,192,86961,1,8,0:0:0:0:
256,192,87081,1,8,0:0:0:0:
256,192,87321,1,8,0:0:0:0:
256,192,87441,1,0,0:0:0:0:
256,192,87561,1,8,0:0:0:0:
256,192,87881,1,8,0:0:0:0:
256,192,88041,1,8,0:0:0:0:
256,192,88201,1,0,0:0:0:0:
256,192,88361,1,0,0:0:0:0:
256,192,88521,1,8,0:0:0:0:
256,192,89481,1,8,0:0:0:0:
256,192,90338,1,8,0:0:0:0:
256,192,90725,1,8,0:0:0:0:
256,192,91112,1,8,0:0:0:0:
256,192,91464,1,8,0:0:0:0:
256,192,91817,1,8,0:0:0:0:
256,192,92060,1,8,0:0:0:0:
256,192,92384,1,8,0:0:0:0:
256,192,92615,1,8,0:0:0:0:
256,192,92765,1,8,0:0:0:0:
256,192,93065,1,0,0:0:0:0:
256,192,93204,1,0,0:0:0:0:
256,192,93623,2,0,L|128:64,1,180
256,192,94144,12,8,96144,0:0:0:0:
256,192,96624,5,0,0:0:0:0:
256,192,96864,1,8,0:0:0:0:
256,192,96984,1,0,0:0:0:0:
256,192,97104,1,8,0:0:0:0:
256,192,97345,1,0,0:0:0:0:
256,192,97465,1,0,0:0:0:0:
256,192,97585,1,8,0:0:0:0:
256,192,97705,1,8,0:0:0:0:
256,192,97825,1,0,0:0:0:0:
256,192,98066,1,0,0:0:0:0:
256,192,98306,1,8,0:0:0:0:
256,192,98546,1,0,0:0:0:0:
256,192,98786,1,8,0:0:0:0:
256,192,98906,1,0,0:0:0:0:
256,192,99026,1,8,0:0:0:0:
256,192,99267,1,8,0:0:0:0:
256,192,99387,1,8,0:0:0:0:
256,192,99507,1,4,0:0:0:0:
256,192,99747,1,8,0:0:0:0:
256,192,99988,1,4,0:0:0:0:
256,192,100227,1,8,0:0:0:0:
256,192,100468,1,0,0:0:0:0:
256,192,100708,1,8,0:0:0:0:
256,192,100828,1,0,0:0:0:0:
256,192,100948,1,8,0:0:0:0:
256,192,101189,1,0,0:0:0:0:
256,192,101308,1,0,0:0:0:0:
256,192,101429,1,8,0:0:0:0:
256,192,101549,5,8,0:0:0:0:
256,192,101669,1,0,0:0:0:0:
256,192,101910,1,0,0:0:0:0:
256,192,102030,1,0,0:0:0:0:
256,192,102309,1,8,0:0:0:0:
256,192,102510,1,0,0:0:0:0:
256,192,102630,1,8,0:0:0:0:
256,192,102750,1,8,0:0:0:0:
256,192,102990,1,0,0:0:0:0:
256,192,103110,1,8,0:0:0:0:
256,192,103230,1,8,0:0:0:0:
256,192,103350,1,0,0:0:0:0:
256,192,103590,1,8,0:0:0:0:
256,192,103831,1,8,0:0:0:0:
256,192,104071,1,8,0:0:0:0:
256,192,104311,1,0,0:0:0:0:
256,192,104672,1,8,0:0:0:0:
256,192,104792,1,8,0:0:0:0:
256,192,105032,1,0,0:0:0:0:
256,192,105273,1,8,0:0:0:0:
256,192,105393,1,8,0:0:0:0:
256,192,105513,1,0,0:0:0:0:
256,192,105753,1,8,0:0:0:0:
256,192,106234,1,0,0:0:0:0:
256,192,106354,1,0,0:0:0:0:
256,192,106474,1,8,0:0:0:0:
256,192,106594,1,0,0:0:0:0:
256,192,106714,1,8,0:0:0:0:
256,192,107195,1,0,0:0:0:0:
256,192,107315,1,0,0:0:0:0:
256,192,107435,1,8,0:0:0:0:
256,192,107555,1,0,0:0:0:0:
256,192,107675,1,8,0:0:0:0:
256,192,108156,1,8,0:0:0:0:
256,192,108276,1,8,0:0:0:0:
256,192,108516,1,8,0:0:0:0:
256,192,108636,1,8,0:0:0:0:
256,192,108877,1,8,0:0:0:0:
256,192,108997,1,0,0:0:0:0:
256,192,109117,1,8,0:0:0:0:
256,192,109357,1,0,0:0:0:0:
256,192,109597,1,12,0:0:0:0:
256,192,109717,12,0,110557,0:0:0:0:
256,192,112480,5,8,0:0:0:0:
256,192,112813,1,8,0:0:0:0:
256,192,113146,1,8,0:0:0:0:
256,192,113480,1,8,0:0:0:0:
256,192,113843,1,8,0:0:0:0:
256,192,114207,1,8,0:0:0:0:
256,192,114389,1,8,0:0:0:0:
256,192,114570,1,4,0:0:0:0:
256,192,115070,1,4,0:0:0:0:
256,192,115653,1,12,0:0:0:0:
256,192,116380,12,0,118380,0:0:0:0:
