osu file format v14

[General]
AudioFilename: audio.mp3
AudioLeadIn: 0
PreviewTime: 58761
Countdown: 0
SampleSet: Normal
StackLeniency: 0.7
Mode: 1
LetterboxInBreaks: 0
WidescreenStoryboard: 1

[Editor]
DistanceSpacing: 0.8
BeatDivisor: 2
GridSize: 32
TimelineZoom: 4

[Metadata]
Title:Cho*Cho*Kou*Soku*De*Mae*Sai*Soku!!! Speed*Star*Kanade
TitleUnicode:超☆超☆光☆速☆出☆前☆最☆速!!! スピード★スター★かなで
Artist:Camellia feat. Nanahira
ArtistUnicode:かめりあ feat. ななひら
Creator:Surono
Version:Futsuu!!!
Source:SOUND VOLTEX IV HEAVENLY HAVEN
Tags:SDVX speedcore The 6th KAC Original Song Contest オリジナル楽曲コンテスト
BeatmapID:1288994
BeatmapSetID:610480

[Difficulty]
HPDrainRate:8
CircleSize:4
OverallDifficulty:5
ApproachRate:5
SliderMultiplier:1.1
SliderTickRate:3

[Events]
//Background and Video events
0,0,"thumb.jpg",0,50
//Break Periods
//Storyboard Layer 0 (Background)
//Storyboard Layer 1 (Fail)
//Storyboard Layer 2 (Pass)
//Storyboard Layer 3 (Foreground)
//Storyboard Sound Samples

[TimingPoints]
644.446793547667,461.538461538462,4,1,0,69,1,0
11567,-105.263157894737,4,1,0,69,0,0
11721,500,4,1,0,69,1,0
12554,-105.263157894737,4,1,0,69,0,0
12721,545.454545454546,4,1,0,69,1,0
13811,545.454545454546,4,1,0,40,1,0
14311,545.454545454546,4,1,0,40,1,0
14894,545.454545454546,4,1,0,40,1,0
15561,240,4,1,0,90,1,0
21321,-100,4,1,0,90,0,1
29961,-100,4,1,0,90,0,0
60681,-100,4,1,0,90,0,1
84681,-100,4,1,0,90,0,0
89481,214.285714285714,4,1,0,90,1,0
89481,-200,4,1,0,90,0,0
90338,193.548387096774,4,1,0,90,1,0
90338,-200,4,1,0,90,0,0
91112,176.470588235294,4,1,0,90,1,0
91112,-200,4,1,0,90,0,0
91817,162.162162162162,4,1,0,90,1,0
91817,-200,4,1,0,90,0,0
92465,150,4,1,0,90,1,0
92465,-200,4,1,0,90,0,0
93065,139.53488372093,4,1,0,90,1,0
93065,-200,4,1,0,90,0,0
93623,130.434782608696,4,1,0,90,1,0
93623,-200,4,1,0,90,0,0
94144,125,4,1,0,90,1,0
96624,240.24024024024,4,1,0,90,1,1
106233,-100,4,1,0,90,0,0
111980,500,4,1,0,69,1,0
113313,-105.263157894737,4,1,0,69,0,0
113480,545.454545454546,4,1,0,69,1,0
114570,545.454545454546,4,1,0,40,1,0
115070,545.454545454546,4,1,0,40,1,0
115653,545.454545454546,4,1,0,40,1,0

[HitObjects]
256,192,644,5,0,0:0:0:0:
256,192,1259,1,0,0:0:0:0:
256,192,1567,1,8,0:0:0:0:
256,192,1875,1,0,0:0:0:0:
256,192,2490,1,8,0:0:0:0:
256,192,3105,1,8,0:0:0:0:
256,192,3413,1,0,0:0:0:0:
256,192,3721,1,8,0:0:0:0:
256,192,4336,1,0,0:0:0:0:
256,192,4952,1,8,0:0:0:0:
256,192,5259,1,8,0:0:0:0:
256,192,5567,1,0,0:0:0:0:
256,192,6182,1,8,0:0:0:0:
256,192,6490,1,8,0:0:0:0:
256,192,7105,1,0,0:0:0:0:
256,192,7413,1,0,0:0:0:0:
256,192,8029,5,0,0:0:0:0:
256,192,8644,1,8,0:0:0:0:
256,192,8952,1,0,0:0:0:0:
256,192,9260,1,8,0:0:0:0:
256,192,9875,1,0,0:0:0:0:
256,192,10490,1,8,0:0:0:0:
256,192,10798,1,0,0:0:0:0:
256,192,11106,1,8,0:0:0:0:
256,192,11721,1,8,0:0:0:0:
256,192,12054,1,0,0:0:0:0:
256,192,12387,1,8,0:0:0:0:
256,192,12721,1,0,0:0:0:0:
256,192,13084,1,8,0:0:0:0:
256,192,13448,1,8,0:0:0:0:
256,192,13811,1,12,0:0:0:0:
256,192,14311,1,4,0:0:0:0:
256,192,14894,1,12,0:0:0:0:
256,192,15561,1,0,0:0:0:0:
256,192,16041,1,8,0:0:0:0:
256,192,16281,1,8,0:0:0:0:
256,192,16521,1,0,0:0:0:0:
256,192,17001,1,0,0:0:0:0:
256,192,17481,1,0,0:0:0:0:
256,192,17721,1,8,0:0:0:0:
256,192,17961,1,8,0:0:0:0:
256,192,18441,1,0,0:0:0:0:
256,192,18681,1,8,0:0:0:0:
256,192,18921,1,8,0:0:0:0:
256,192,19401,1,8,0:0:0:0:
256,192,19761,1,8,0:0:0:0:
256,192,20121,1,8,0:0:0:0:
256,192,20361,1,8,0:0:0:0:
256,192,20841,2,0,L|160:128,1,110
256,192,21321,1,0,0:0:0:0:
256,192,21801,1,8,0:0:0:0:
256,192,22041,1,0,0:0:0:0:
256,192,22521,1,0,0:0:0:0:
256,192,22761,1,0,0:0:0:0:
256,192,23241,1,0,0:0:0:0:
256,192,23721,1,8,0:0:0:0:
256,192,23961,1,8,0:0:0:0:
256,192,24201,1,4,0:0:0:0:
256,192,24681,1,4,0:0:0:0:
256,192,25161,1,0,0:0:0:0:
256,192,25641,1,8,0:0:0:0:
256,192,25881,1,0,0:0:0:0:
256,192,26361,1,0,0:0:0:0:
256,192,26601,1,0,0:0:0:0:
256,192,27001,1,8,0:0:0:0:
256,192,27321,1,8,0:0:0:0:
256,192,27801,1,8,0:0:0:0:
256,192,28041,1,0,0:0:0:0:
256,192,28521,1,0,0:0:0:0:
256,192,29001,1,8,0:0:0:0:
256,192,29481,1,8,0:0:0:0:
256,192,29961,1,4,0:0:0:0:
256,192,31881,1,0,0:0:0:0:
256,192,32121,1,0,0:0:0:0:
256,192,32361,1,8,0:0:0:0:
256,192,32841,1,8,0:0:0:0:
256,192,33081,1,8,0:0:0:0:
256,192,33321,1,0,0:0:0:0:
256,192,33801,1,4,0:0:0:0:
256,192,35721,1,0,0:0:0:0:
256,192,35961,1,0,0:0:0:0:
256,192,36441,1,8,0:0:0:0:
256,192,36681,1,8,0:0:0:0:
256,192,37161,1,0,0:0:0:0:
256,192,37641,1,12,0:0:0:0:
256,192,38121,1,8,0:0:0:0:
256,192,38601,1,0,0:0:0:0:
256,192,38841,1,0,0:0:0:0:
256,192,39081,1,8,0:0:0:0:
256,192,39561,1,0,0:0:0:0:
256,192,40041,1,8,0:0:0:0:
256,192,40521,1,0,0:0:0:0:
256,192,41001,1,8,0:0:0:0:
256,192,41241,1,8,0:0:0:0:
256,192,41481,1,0,0:0:0:0:
256,192,41961,1,8,0:0:0:0:
256,192,42441,1,8,0:0:0:0:
256,192,42681,1,0,0:0:0:0:
256,192,42921,1,8,0:0:0:0:
256,192,43401,1,4,0:0:0:0:
256,192,43881,1,4,0:0:0:0:
256,192,44361,1,12,0:0:0:0:
256,192,44841,1,12,0:0:0:0:
256,192,45321,1,8,0:0:0:0:
256,192,45561,1,8,0:0:0:0:
256,192,46041,1,0,0:0:0:0:
256,192,46521,1,8,0:0:0:0:
256,192,46761,1,0,0:0:0:0:
256,192,47241,1,0,0:0:0:0:
256,192,47481,1,8,0:0:0:0:
256,192,47961,1,8,0:0:0:0:
256,192,48441,1,0,0:0:0:0:
256,192,48681,1,0,0:0:0:0:
256,192,49161,1,12,0:0:0:0:
256,192,50841,1,4,0:0:0:0:
256,192,51081,1,4,0:0:0:0:
256,192,52521,1,4,0:0:0:0:
256,192,53001,1,4,0:0:0:0:
256,192,53961,1,4,0:0:0:0:
256,192,54321,1,4,0:0:0:0:
256,192,54921,1,8,0:0:0:0:
256,192,55641,1,8,0:0:0:0:
256,192,56001,1,8,0:0:0:0:
256,192,56361,1,8,0:0:0:0:
256,192,56601,1,8,0:0:0:0:
256,192,56841,1,8,0:0:0:0:
256,192,57561,1,8,0:0:0:0:
256,192,57921,1,8,0:0:0:0:
256,192,58281,1,8,0:0:0:0:
256,192,58521,1,8,0:0:0:0:
256,192,58761,1,4,0:0:0:0:
256,192,59721,1,8,0:0:0:0:
256,192,60201,1,8,0:0:0:0:
256,192,60681,1,0,0:0:0:0:
256,192,61161,1,8,0:0:0:0:
256,192,61401,1,8,0:0:0:0:
256,192,61641,1,0,0:0:0:0:
256,192,62121,1,8,0:0:0:0:
256,192,62481,1,4,0:0:0:0:
256,192,63081,1,8,0:0:0:0:
256,192,63321,1,8,0:0:0:0:
256,192,63561,1,0,0:0:0:0:
256,192,64041,1,8,0:0:0:0:
256,192,64401,1,4,0:0:0:0:
256,192,65001,1,8,0:0:0:0:
256,192,65361,1,4,0:0:0:0:
256,192,65961,1,8,0:0:0:0:
256,192,66321,1,4,0:0:0:0:
256,192,66921,1,8,0:0:0:0:
256,192,67161,1,8,0:0:0:0:
256,192,67401,1,4,0:0:0:0:
256,192,67761,1,12,0:0:0:0:
256,192,68121,1,8,0:0:0:0:
256,192,68361,1,0,0:0:0:0:
256,192,68841,1,8,0:0:0:0:
256,192,69081,1,8,0:0:0:0:
256,192,69321,1,0,0:0:0:0:
256,192,69801,1,8,0:0:0:0:
256,192,70161,1,4,0:0:0:0:
256,192,70761,1,8,0:0:0:0:
256,192,71001,1,8,0:0:0:0:
256,192,71241,1,0,0:0:0:0:
256,192,71721,1,8,0:0:0:0:
256,192,72081,1,4,0:0:0:0:
256,192,72681,1,8,0:0:0:0:
256,192,73041,1,4,0:0:0:0:
256,192,73641,1,8,0:0:0:0:
256,192,74001,1,4,0:0:0:0:
256,192,74601,1,8,0:0:0:0:
256,192,74841,1,8,0:0:0:0:
256,192,75081,1,4,0:0:0:0:
256,192,75561,1,12,0:0:0:0:
256,192,75921,1,12,0:0:0:0:
256,192,76281,5,0,0:0:0:0:
256,192,77001,1,0,0:0:0:0:
256,192,77361,1,8,0:0:0:0:
256,192,77601,1,8,0:0:0:0:
256,192,77841,1,4,0:0:0:0:
256,192,78201,1,8,0:0:0:0:
256,192,78441,1,8,0:0:0:0:
256,192,78801,1,4,0:0:0:0:
256,192,79161,1,8,0:0:0:0:
256,192,79401,1,12,0:0:0:0:
256,192,80121,1,0,0:0:0:0:
256,192,80841,1,8,0:0:0:0:
256,192,81201,1,0,0:0:0:0:
256,192,81441,1,0,0:0:0:0:
256,192,81681,1,12,0:0:0:0:
256,192,82041,1,0,0:0:0:0:
256,192,82281,1,0,0:0:0:0:
256,192,82641,1,12,0:0:0:0:
256,192,83001,1,0,0:0:0:0:
256,192,83241,1,0,0:0:0:0:
256,192,83481,1,0,0:0:0:0:
256,192,84201,1,8,0:0:0:0:
256,192,84681,1,0,0:0:0:0:
256,192,84921,1,8,0:0:0:0:
256,192,85161,1,8,0:0:0:0:
256,192,85641,1,0,0:0:0:0:
256,192,85881,1,8,0:0:0:0:
256,192,86121,1,8,0:0:0:0:
256,192,86601,1,8,0:0:0:0:
256,192,86961,1,8,0:0:0:0:
256,192,87321,1,8,0:0:0:0:
256,192,87561,1,8,0:0:0:0:
256,192,88041,1,8,0:0:0:0:
256,192,88281,1,0,0:0:0:0:
256,192,88521,1,8,0:0:0:0:
256,192,89481,1,8,0:0:0:0:
256,192,90338,1,8,0:0:0:0:
256,192,90725,1,8,0:0:0:0:
256,192,91112,1,8,0:0:0:0:
256,192,91464,1,8,0:0:0:0:
256,192,91817,1,8,0:0:0:0:
256,192,92060,1,8,0:0:0:0:
256,192,92384,1,8,0:0:0:0:
256,192,92615,1,8,0:0:0:0:
256,192,92915,1,8,0:0:0:0:
256,192,93204,1,0,0:0:0:0:
256,192,93483,1,0,0:0:0:0:
256,192,93753,1,0,0:0:0:0:
256,192,94014,1,0,0:0:0:0:
256,192,94144,12,8,96144,0:0:0:0:
256,192,96624,5,0,0:0:0:0:
256,192,96864,1,8,0:0:0:0:
256,192,97104,1,8,0:0:0:0:
256,192,97344,1,0,0:0:0:0:
256,192,97825,1,0,0:0:0:0:
256,192,98065,1,0,0:0:0:0:
256,192,98546,1,0,0:0:0:0:
256,192,99026,1,8,0:0:0:0:
256,192,99266,1,8,0:0:0:0:
256,192,99506,1,4,0:0:0:0:
256,192,99988,1,4,0:0:0:0:
256,192,100468,1,0,0:0:0:0:
256,192,100708,1,8,0:0:0:0:
256,192,100948,1,8,0:0:0:0:
256,192,101189,1,0,0:0:0:0:
256,192,101669,1,0,0:0:0:0:
256,192,101909,1,0,0:0:0:0:
256,192,102309,1,8,0:0:0:0:
256,192,102630,1,0,0:0:0:0:
256,192,102870,1,0,0:0:0:0:
256,192,103110,1,0,0:0:0:0:
256,192,103350,1,8,0:0:0:0:
256,192,103831,1,8,0:0:0:0:
256,192,104311,1,0,0:0:0:0:
256,192,104793,1,8,0:0:0:0:
256,192,105033,1,8,0:0:0:0:
256,192,105273,1,0,0:0:0:0:
256,192,105513,1,0,0:0:0:0:
256,192,105753,1,8,0:0:0:0:
256,192,106234,1,0,0:0:0:0:
256,192,106474,1,8,0:0:0:0:
256,192,106714,1,8,0:0:0:0:
256,192,107195,1,0,0:0:0:0:
256,192,107435,1,8,0:0:0:0:
256,192,107675,1,8,0:0:0:0:
256,192,108156,1,8,0:0:0:0:
256,192,108516,1,8,0:0:0:0:
256,192,108876,1,8,0:0:0:0:
256,192,109116,1,8,0:0:0:0:
256,192,109356,1,0,0:0:0:0:
256,192,109596,1,12,0:0:0:0:
256,192,109717,12,0,110557,0:0:0:0:
256,192,112480,5,8,0:0:0:0:
256,192,112813,1,0,0:0:0:0:
256,192,113146,1,8,0:0:0:0:
256,192,113480,1,0,0:0:0:0:
256,192,113843,1,8,0:0:0:0:
256,192,114207,1,8,0:0:0:0:
256,192,114570,1,4,0:0:0:0:
256,192,115070,1,4,0:0:0:0:
256,192,115653,1,12,0:0:0:0:
256,192,116380,12,0,118380,0:0:0:0:
