osu file format v14

[General]
AudioFilename: audio.mp3
AudioLeadIn: 0
PreviewTime: 17033
Countdown: 0
SampleSet: None
StackLeniency: 0.3
Mode: 0
LetterboxInBreaks: 0
WidescreenStoryboard: 1

[Editor]
DistanceSpacing: 1.3
BeatDivisor: 4
GridSize: 8
TimelineZoom: 2.699999

[Metadata]
Title:Cho*Cho*Kou*So*ku*De*Mae*Sai*Soku!!! Speed*Star*Kanade
TitleUnicode:超☆超☆光☆速☆出☆前☆最☆速!!! スピード★スター★かなで
Artist:Camellia feat. Nanahira
ArtistUnicode:かめりあ feat. ななひら
Creator:My Angel RangE
Version:NOVICE
Source:SOUND VOLTEX IV HEAVENLY HAVEN
Tags:the 6th kac original song contest sdvx 4 speedcore
BeatmapID:1803005
BeatmapSetID:584801

[Difficulty]
HPDrainRate:2
CircleSize:2.5
OverallDifficulty:2
ApproachRate:2.5
SliderMultiplier:0.70000000596046
SliderTickRate:1

[Events]
//Background and Video events
0,0,"ewr.png",0,0
//Break Periods
//Storyboard Layer 0 (Background)
//Storyboard Layer 1 (Fail)
//Storyboard Layer 2 (Pass)
//Storyboard Layer 3 (Foreground)
//Storyboard Sound Samples

[TimingPoints]
606,923.076923076923,4,2,2,60,1,0
606,-26,4,2,2,60,0,0
11682,1000,4,2,2,60,1,0
11682,-24,4,2,2,60,0,0
12682,1090.90909090909,4,2,2,60,1,0
12682,-22,4,2,2,60,0,0
13772,1200,4,2,2,60,1,0
13772,-20,4,2,2,60,0,0
14297,1333.33333333333,4,2,2,60,1,0
14297,-18,4,2,2,60,0,0
14880,1500,4,2,2,60,1,0
14880,-16,4,2,2,60,0,0
15536,120,4,2,2,60,1,0
15536,-200,4,2,2,60,0,0
60656,-200,4,2,2,60,0,1
83696,-200,4,2,2,60,0,0
89456,107.142857142857,4,2,2,60,1,0
89456,-224,4,2,2,60,0,0
90313,96.7741935483871,4,2,2,60,1,0
90313,-248,4,2,2,60,0,0
91087,88.2352941176471,4,2,2,60,1,0
91087,-272,4,2,2,60,0,0
91792,81.0810810810811,4,2,2,60,1,0
91792,-296,4,2,2,60,0,0
92440,75,4,2,2,60,1,0
92440,-320,4,2,2,60,0,0
93040,69.7674418604651,4,2,2,20,1,0
93040,-344,4,2,2,20,0,0
93598,65.2173913043478,4,2,2,20,1,0
93598,-368,4,2,2,20,0,0
94380,62.5,4,2,2,20,1,0
94380,-384,4,2,2,20,0,0
96130,60.0600600600601,4,2,2,60,1,0
96130,-399.6,4,2,2,60,0,0
96610,-399.6,4,2,2,60,0,1
104298,-399.6,4,2,2,60,0,0
112466,1000,4,2,2,60,1,0
112466,-24,4,2,2,60,0,0
113466,1090.90909090909,4,2,2,60,1,0
113466,-22,4,2,2,60,0,0
114556,1200,4,2,2,60,1,0
114556,-20,4,2,2,60,0,0
115081,1333.33333333333,4,2,2,60,1,0
115081,-18,4,2,2,60,0,0
115664,1500,4,2,2,60,1,0
115664,-16,4,2,2,60,0,0
116320,2000,4,2,2,60,1,0
116320,-12,4,2,2,60,0,0

[Colours]
Combo1 : 255,160,66
Combo2 : 168,81,255
Combo3 : 255,128,255
Combo4 : 0,140,140

[HitObjects]
21,102,606,6,0,B|107:85|107:85|202:103|202:103|310:78,1,269.230771523254
394,12,1875,1,0,0:0:0:0:
452,129,2221,1,0,0:0:0:0:
452,129,2452,2,0,L|458:301,1,168.269232202034
348,369,3375,2,0,L|243:379,1,100.96153932122
130,319,4067,1,0,0:0:0:0:
130,319,4298,6,0,B|119:267|119:267|123:198|123:198|104:130,1,185.096155422237
21,67,5221,1,0,0:0:0:0:
21,67,5509,2,0,P|43:43|135:34,1,100.96153932122
200,84,6144,2,0,P|290:107|377:59,1,185.096155422237
497,38,7125,1,0,0:0:0:0:
456,139,7413,2,0,L|458:232,1,84.1346161010168
500,324,7990,6,0,L|290:317,1,201.92307864244
244,221,8971,2,0,L|238:124,2,84.1346161010168
220,328,9836,2,0,L|8:346,1,201.92307864244
37,259,10759,2,0,L|149:250,1,100.96153932122
196,158,11394,1,0,0:0:0:0:
111,89,11682,6,0,P|110:51|176:7,2,109.375000931322
184,149,12682,2,0,L|311:143,1,119.318182834169
416,81,13432,1,0,0:0:0:0:
466,199,13772,6,0,L|456:363,1,153.125001303851
263,244,14880,1,0,0:0:0:0:
47,364,15536,6,0,B|29:326|29:326|37:228,1,140.000001192092
113,178,16256,1,0,0:0:0:0:
113,178,16496,2,0,L|257:170,1,140.000001192092
384,296,17456,6,0,L|456:289,2,70.000000596046
205,332,18416,2,0,L|133:325,2,70.000000596046
316,187,19376,2,0,B|333:157|333:157|328:47,1,140.000001192092
146,39,20336,2,0,L|154:186,1,140.000001192092
96,250,21056,1,0,0:0:0:0:
96,250,21296,6,0,L|26:250,2,70.000000596046
167,306,22016,1,0,0:0:0:0:
167,306,22256,2,0,L|315:293,1,140.000001192092
384,341,22976,1,0,0:0:0:0:
384,341,23216,6,0,P|424:336|457:326,1,70.000000596046
451,236,23696,2,0,P|417:226|382:222,1,70.000000596046
300,181,24176,2,0,P|293:146|302:92,1,87.5000007450575
357,23,24716,2,0,L|234:33,1,122.50000104308
146,53,25376,5,0,0:0:0:0:
146,53,25616,2,0,L|138:125,1,70.000000596046
158,211,26096,1,0,0:0:0:0:
158,211,26336,1,0,0:0:0:0:
69,233,26576,2,0,B|56:268|56:268|69:347,1,105.000000894069
200,367,27296,6,0,L|346:343,1,140.000001192092
427,362,28016,2,0,L|413:285,1,70.000000596046
465,217,28496,2,0,P|424:200|338:239,1,140.000001192092
289,310,29216,5,0,0:0:0:0:
289,310,29456,2,0,P|244:319|207:307,1,70.000000596046
155,250,29936,1,0,0:0:0:0:
155,250,31616,5,0,0:0:0:0:
93,183,31856,2,0,P|85:142|98:107,1,70.000000596046
174,74,32336,2,0,L|251:73,1,70.000000596046
305,140,32816,2,0,L|456:147,1,140.000001192092
287,238,33776,1,0,0:0:0:0:
287,238,35216,6,0,L|207:241,1,70.000000596046
148,301,35696,2,0,P|123:244|159:170,1,140.000001192092
223,120,36416,1,0,0:0:0:0:
223,120,36656,2,0,P|230:74|220:43,1,70.000000596046
138,83,37136,2,0,L|56:95,1,70.000000596046
17,168,37616,6,0,L|37:313,1,140.000001192092
114,353,38336,1,0,0:0:0:0:
114,353,38576,2,0,L|261:334,1,140.000001192092
342,354,39296,1,0,0:0:0:0:
342,354,39536,6,0,B|342:307|342:307|327:264|327:264|331:211,1,140.000001192092
393,150,40256,1,0,0:0:0:0:
393,150,40496,2,0,P|353:126|317:125,1,70.000000596046
248,162,40976,2,0,P|212:179|177:179,1,70.000000596046
114,241,41456,6,0,P|89:177|118:116,1,140.000001192092
73,36,42176,1,0,0:0:0:0:
73,36,42416,2,0,P|95:24|145:30,1,70.000000596046
209,83,42896,2,0,P|243:87|274:73,1,70.000000596046
346,17,43376,5,0,0:0:0:0:
366,197,43856,1,0,0:0:0:0:
184,186,44336,1,0,0:0:0:0:
219,364,44816,1,0,0:0:0:0:
384,289,45296,6,0,P|390:237|375:209,1,70.000000596046
309,169,45776,2,0,P|303:117|318:89,1,70.000000596046
392,64,46256,2,0,P|357:25|268:20,1,140.000001192092
207,79,46976,1,0,0:0:0:0:
132,26,47216,6,0,P|114:65|125:104,1,70.000000596046
173,162,47696,2,0,P|189:192|187:226,1,70.000000596046
123,291,48176,2,0,P|72:323|47:254,2,140.000001192092
421,91,50816,5,0,0:0:0:0:
421,91,51056,1,0,0:0:0:0:
421,91,52496,6,0,L|364:90,1,52.5000004470345
254,94,52976,1,0,0:0:0:0:
254,94,53936,2,0,L|263:204,2,105.000000894069
175,47,54896,2,0,P|124:34|76:53,1,105.000000894069
11,173,55616,2,0,P|61:185|109:166,1,105.000000894069
240,126,56336,2,0,L|247:196,1,70.000000596046
328,236,56816,6,0,P|302:274|235:288,1,105.000000894069
120,339,57536,2,0,P|109:261|126:232,1,105.000000894069
224,152,58256,2,0,P|231:114|216:77,2,70.000000596046
81,265,60416,1,0,0:0:0:0:
81,265,60656,6,0,L|161:259,1,70.000000596046
226,311,61136,2,0,L|295:316,1,70.000000596046
376,358,61616,2,0,B|387:325|387:325|372:217,1,140.000001192092
431,97,62456,6,0,P|380:126|355:129,1,70.000000596046
293,77,62936,2,0,P|264:56|231:46,1,70.000000596046
162,105,63416,2,0,P|92:117|48:31,1,175.000001490115
53,173,64376,6,0,L|55:285,1,105.000000894069
120,340,64976,2,0,L|165:338,1,35.000000298023
242,364,65336,2,0,L|233:243,1,105.000000894069
282,182,65936,2,0,L|330:176,1,35.000000298023
397,219,66296,6,0,P|403:164|378:107,1,105.000000894069
310,66,66896,2,0,L|230:67,1,70.000000596046
163,115,67376,2,0,L|172:159,1,35.000000298023
228,219,67736,1,0,0:0:0:0:
215,354,68096,1,0,0:0:0:0:
215,354,68336,6,0,L|117:350,1,70.000000596046
67,303,68816,2,0,L|90:229,1,70.000000596046
42,157,69296,2,0,L|29:81,1,70.000000596046
101,31,69776,2,0,L|155:44,1,35.000000298023
193,109,70136,6,0,L|323:102,1,105.000000894069
367,44,70736,1,0,0:0:0:0:
412,122,70976,2,0,L|410:218,1,70.000000596046
471,260,71456,1,0,0:0:0:0:
409,326,71696,2,0,L|363:323,1,35.000000298023
288,354,72056,6,0,P|279:314|298:248,1,105.000000894069
361,191,72656,2,0,P|363:147|356:126,1,35.000000298023
307,85,73016,2,0,P|254:84|194:131,1,105.000000894069
151,179,73616,2,0,P|125:180|97:168,1,35.000000298023
78,94,73976,6,0,P|38:127|53:244,1,175.000001490115
126,287,74816,1,0,0:0:0:0:
126,287,75056,2,0,L|226:282,1,87.5000007450575
272,317,75536,2,0,L|333:323,2,52.5000004470345
369,220,76256,5,0,0:0:0:0:
303,157,76496,2,0,P|295:138|309:89,1,70.000000596046
372,28,76976,1,0,0:0:0:0:
466,126,77336,2,0,P|474:145|460:194,1,70.000000596046
392,249,77816,6,0,L|213:244,1,175.000001490115
140,130,78776,2,0,L|319:135,1,175.000001490115
435,199,79736,1,0,0:0:0:0:
345,301,80096,6,0,P|343:280|337:224,2,70.000000596046
268,351,80816,2,0,L|163:348,1,105.000000894069
76,375,81416,1,0,0:0:0:0:
27,298,81656,2,0,B|10:260|10:260|10:123,1,175.000001490115
106,30,82616,2,0,L|106:211,1,175.000001490115
177,261,83456,1,0,0:0:0:0:
154,349,83696,6,0,L|301:337,1,140.000001192092
378,371,84416,1,0,0:0:0:0:
382,281,84656,2,0,L|390:202,2,70.000000596046
266,140,85616,2,0,L|273:209,2,70.000000596046
426,52,86576,6,0,P|387:61|297:27,1,140.000001192092
149,134,87536,6,0,P|110:139|196:198,1,280.000002384184
194,205,89456,5,0,0:0:0:0:
194,205,90313,6,0,P|178:266|205:311,2,112.903226767816
317,154,91439,1,0,0:0:0:0:
220,60,91792,6,0,L|117:73,2,94.5945954000621
332,41,92740,1,0,0:0:0:0:
413,120,93040,2,0,B|439:162|439:162|424:280,1,162.790699060572
138,352,94380,6,0,P|95:250|325:298,1,510.416671012835
326,293,96610,6,0,P|273:272|198:308,1,140.140139192916
132,364,97331,1,0,0:0:0:0:
54,316,97571,2,0,P|52:267|58:237,1,70.070069596458
128,192,98051,2,0,P|130:157|126:122,1,70.070069596458
54,66,98532,6,0,P|80:43|187:52,1,140.140139192916
242,112,99253,1,0,0:0:0:0:
325,76,99493,2,0,P|335:121|324:151,1,70.070069596458
260,203,99973,2,0,P|249:236|256:270,1,70.070069596458
337,311,100454,6,0,P|306:347|205:345,1,140.140139192916
144,299,101175,1,0,0:0:0:0:
75,358,101415,2,0,P|54:316|91:222,1,140.140139192916
209,186,102256,1,0,0:0:0:0:
271,64,102616,6,0,P|201:44|94:133,1,210.210208789374
235,239,103817,1,0,0:0:0:0:
235,239,104298,6,0,L|386:235,1,140.140139192916
428,308,105018,1,0,0:0:0:0:
505,259,105259,2,0,L|486:119,1,140.140139192916
320,44,106220,6,0,L|316:187,1,140.140139192916
312,275,106940,1,0,0:0:0:0:
312,275,107181,2,0,L|161:269,1,140.140139192916
104,330,107901,1,0,0:0:0:0:
104,330,108142,2,0,P|80:277|114:198,2,140.140139192916
284,356,109583,5,0,0:0:0:0:
256,192,109643,12,0,111685,0:0:0:0:
325,289,112466,6,0,L|445:284,2,109.375000931322
252,350,113466,2,0,L|137:340,1,99.4318190284744
53,258,114147,2,0,L|122:246,1,59.6590914170847
173,200,114556,6,0,P|188:147|154:50,1,153.125001303851
27,234,115664,1,0,0:0:0:0:
269,291,116320,1,0,0:0:0:0:
256,192,116445,12,0,118320,0:0:0:0:
