osu file format v14

[General]
AudioFilename: audio.mp3
AudioLeadIn: 0
PreviewTime: 17033
Countdown: 0
SampleSet: Soft
StackLeniency: 0.3
Mode: 0
LetterboxInBreaks: 0
WidescreenStoryboard: 0

[Editor]
DistanceSpacing: 1
BeatDivisor: 4
GridSize: 8
TimelineZoom: 2.399999

[Metadata]
Title:Cho*Cho*Kou*So*ku*De*Mae*Sai*Soku!!! Speed*Star*Kanade
TitleUnicode:超☆超☆光☆速☆出☆前☆最☆速!!! スピード★スター★かなで
Artist:Camellia feat. Nanahira
ArtistUnicode:かめりあ feat. ななひら
Creator:My Angel RangE
Version:HEAVENLY
Source:SOUND VOLTEX IV HEAVENLY HAVEN
Tags:the 6th kac original song contest sdvx 4 speedcore
BeatmapID:1369794
BeatmapSetID:584801

[Difficulty]
HPDrainRate:2
CircleSize:4
OverallDifficulty:7.7
ApproachRate:9.6
SliderMultiplier:1.35000000596046
SliderTickRate:1

[Events]
//Background and Video events
0,0,"ewr.png",0,0
//Break Periods
2,30136,31066
2,33976,34666
2,49587,50307
2,58936,59907
//Storyboard Layer 0 (Background)
//Storyboard Layer 1 (Fail)
//Storyboard Layer 2 (Pass)
//Storyboard Layer 3 (Foreground)
//Storyboard Sound Samples

[TimingPoints]
606,923.076923076923,4,2,2,60,1,0
606,-66.6666666666667,4,2,2,60,0,0
11682,1000,4,2,2,60,1,0
11682,-66.6666666666667,4,2,2,60,0,0
12682,1090.90909090909,4,2,2,60,1,0
13772,1200,4,2,2,60,1,0
14297,1333.33333333333,4,2,2,60,1,0
14880,1500,4,2,2,60,1,0
14880,-66.6666666666667,4,2,2,60,0,0
15536,120,4,2,2,60,1,0
15536,-142.857142857143,4,2,2,60,0,0
16966,-125,4,2,2,60,0,0
17446,-166.666666666667,4,2,2,60,0,0
18166,-125,4,2,2,60,0,0
18406,-142.857142857143,4,2,2,60,0,0
19126,-125,4,2,2,60,0,0
19366,-142.857142857143,4,2,2,60,0,0
20326,-200,4,2,2,60,0,0
21286,-111.111111111111,4,2,2,60,0,0
28966,-166.666666666667,4,2,2,60,0,0
31606,-111.111111111111,4,2,2,60,0,0
31846,-142.857142857143,4,2,2,60,0,0
37606,-200,4,2,2,60,0,0
43366,-142.857142857143,4,2,2,60,0,0
43846,-125,4,2,2,60,0,0
43966,-200,4,2,2,60,0,0
44326,-111.111111111111,4,2,2,60,0,0
44446,-200,4,2,2,60,0,0
44806,-100,4,2,2,60,0,0
44926,-200,4,2,2,60,0,0
45286,-142.857142857143,4,2,2,60,0,0
49126,-200,4,2,2,60,0,0
51046,-125,4,2,2,60,0,0
51286,-200,4,2,2,60,0,0
60406,-90.9090909090909,4,2,2,60,0,0
60646,-142.857142857143,4,2,2,60,0,1
64366,-111.111111111111,4,2,2,60,0,1
75046,-142.857142857143,4,2,2,60,0,1
76006,-200,4,2,2,60,0,1
76246,-142.857142857143,4,2,2,60,0,1
84406,-125,4,2,2,60,0,0
84646,-142.857142857143,4,2,2,60,0,0
85366,-125,4,2,2,60,0,0
85606,-142.857142857143,4,2,2,60,0,0
86326,-200,4,2,2,60,0,0
86566,-142.857142857143,4,2,2,60,0,0
87526,-200,4,2,2,60,0,0
88486,-111.111111111111,4,2,2,60,0,0
89456,107.142857142857,4,2,2,60,1,0
90313,96.7741935483871,4,2,2,60,1,0
90313,-200,4,2,2,60,0,0
91087,88.2352941176471,4,2,2,60,1,0
91792,81.0810810810811,4,2,2,60,1,0
92440,75,4,2,2,60,1,0
93040,69.7674418604651,4,2,2,20,1,0
93598,65.2173913043478,4,2,2,20,1,0
93598,-200,4,2,2,20,0,0
94380,62.5,4,2,2,20,1,0
94380,-200,4,2,2,20,0,0
96130,60.0600600600601,4,2,2,60,1,0
96130,-333.333333333333,4,2,2,60,0,0
96600,-250,4,2,2,60,0,1
102606,-250,4,2,2,20,0,1
103086,-250,4,2,2,50,0,1
104288,-333.333333333333,4,2,2,60,0,0
106210,-200,4,2,2,60,0,0
109092,-200,4,2,2,60,0,0
112466,1000,4,2,2,60,1,0
112466,-45.4545454545455,4,2,2,60,0,0
113466,1090.90909090909,4,2,2,60,1,0
113466,-43.4782608695652,4,2,2,60,0,0
114556,1200,4,2,2,60,1,0
115081,1333.33333333333,4,2,2,60,1,0
115664,1500,4,2,2,60,1,0
116320,2000,4,2,2,60,1,0
116320,-333.333333333333,4,2,2,60,0,0

[Colours]
Combo1 : 255,160,66
Combo2 : 168,81,255
Combo3 : 255,128,255
Combo4 : 0,140,140

[HitObjects]
58,104,606,6,0,L|198:93,1,135.000005745888
293,44,1375,1,0,0:0:0:0:
293,44,1529,2,0,L|290:121,1,67.5000028729438
287,310,2163,1,0,0:0:0:0:
287,310,2336,1,0,0:0:0:0:
455,195,2509,6,0,P|404:190|356:203,1,101.250004309416
211,299,3086,1,0,0:0:0:0:
211,299,3375,2,0,L|286:309,1,75.9375032320617
124,199,3990,2,0,L|79:205,1,33.7500014364719
254,354,4298,6,0,L|239:231,1,118.125005027652
208,147,4913,2,0,L|212:99,1,33.7500014364719
296,81,5221,2,0,L|369:70,2,67.5000028729438
226,27,5990,1,0,0:0:0:0:
135,121,6144,2,0,L|66:111,2,63.2812526933848
187,131,6836,1,0,0:0:0:0:
300,176,7067,2,0,L|368:166,2,63.2812526933848
214,111,7817,1,0,0:0:0:0:
178,241,7990,6,0,L|189:347,1,101.250004309416
267,198,8625,2,0,L|271:152,1,37.9687516160309
188,104,8913,2,0,L|182:41,2,63.2812526933848
272,114,9663,1,0,0:0:0:0:
196,194,9836,6,0,P|133:178|108:147,1,101.250004309416
146,33,10471,2,0,L|192:37,1,37.9687516160309
271,99,10759,2,0,L|337:93,2,63.2812526933848
271,99,11509,1,0,0:0:0:0:
178,208,11682,6,0,L|170:272,2,63.2812526933848
271,151,12432,1,0,0:0:0:0:
271,151,12557,1,0,0:0:0:0:
333,229,12682,2,0,L|287:238,1,42.1875001862644
87,322,13227,1,0,0:0:0:0:
87,322,13432,2,0,L|120:325,1,25.3125010773539
281,361,13772,6,0,L|276:317,1,42.1875001862644
445,178,14297,6,0,L|436:224,1,42.1875001862644
187,151,14880,6,0,L|175:79,1,63.2812526933848
200,329,15536,5,0,0:0:0:0:
350,196,15656,5,0,0:0:0:0:
378,179,15716,1,0,0:0:0:0:
410,171,15776,1,0,0:0:0:0:
443,171,15836,1,0,0:0:0:0:
475,180,15896,1,0,0:0:0:0:
227,349,16016,5,0,0:0:0:0:
224,316,16076,1,0,0:0:0:0:
221,283,16136,1,0,0:0:0:0:
218,250,16196,1,0,0:0:0:0:
215,217,16256,1,0,0:0:0:0:
83,59,16376,6,0,L|59:47,1,23.6249993833303
98,54,16436,2,0,L|90:24,1,23.6249993833303
113,53,16496,2,0,L|125:23,1,23.6249993833303
126,60,16556,2,0,L|149:34,1,23.6249993833303
133,75,16616,2,0,L|160:77,1,23.6249993833303
133,95,16676,2,0,L|153:107,1,23.6249993833303
119,116,16736,5,0,0:0:0:0:
95,145,16796,1,0,0:0:0:0:
81,180,16856,1,0,0:0:0:0:
77,217,16916,1,0,0:0:0:0:
83,255,16976,6,0,B|139:238|139:238|202:266|202:266|266:248,1,189.000000834464
261,249,17216,6,0,P|286:284|201:348,1,162.000000715255
231,154,17456,5,0,0:0:0:0:
258,158,17516,1,0,0:0:0:0:
286,163,17576,1,0,0:0:0:0:
314,168,17636,1,0,0:0:0:0:
342,173,17696,2,0,L|346:230,1,40.4999989428519
427,136,17816,2,0,L|437:93,1,40.4999989428519
456,222,17936,6,0,L|420:351,1,121.499996828556
424,340,18176,6,0,B|381:322|344:336|344:336|307:352|249:334,1,162.000000715255
123,151,18416,5,0,0:0:0:0:
140,179,18476,1,0,0:0:0:0:
150,210,18536,1,0,0:0:0:0:
152,243,18596,1,0,0:0:0:0:
143,275,18656,2,0,L|86:264,1,47.2499987666606
219,347,18776,2,0,L|276:336,1,47.2499987666606
280,200,18896,6,0,L|128:177,1,141.749996299982
140,179,19136,6,0,P|224:185|317:147,1,162.000000715255
441,75,19376,5,0,0:0:0:0:
416,97,19436,1,0,0:0:0:0:
400,125,19496,1,0,0:0:0:0:
394,158,19556,1,0,0:0:0:0:
399,190,19616,1,0,0:0:0:0:
412,226,19676,1,0,0:0:0:0:
440,252,19736,5,0,0:0:0:0:
465,300,19796,1,0,0:0:0:0:
441,349,19856,1,0,0:0:0:0:
388,361,19916,1,0,0:0:0:0:
347,325,19976,1,0,0:0:0:0:
356,271,20036,1,0,0:0:0:0:
305,291,20096,5,0,0:0:0:0:
243,296,20156,1,0,0:0:0:0:
182,302,20216,1,0,0:0:0:0:
121,307,20276,1,0,0:0:0:0:
60,313,20336,6,0,L|68:231,1,67.500000298023
182,53,20576,1,0,0:0:0:0:
185,69,20636,1,0,0:0:0:0:
188,86,20696,1,0,0:0:0:0:
191,102,20756,1,0,0:0:0:0:
194,119,20816,6,0,L|115:115,1,67.500000298023
289,187,21056,2,0,L|368:183,1,67.500000298023
487,93,21296,6,0,L|487:51,1,30.3749992071389
425,277,21416,2,0,L|419:323,1,30.3749992071389
321,88,21536,2,0,L|312:40,1,30.3749992071389
261,270,21656,1,0,0:0:0:0:
265,293,21716,1,0,0:0:0:0:
269,312,21776,6,0,L|209:302,1,60.7499984142779
365,190,21896,2,0,L|425:180,1,60.7499984142779
265,31,22016,1,0,0:0:0:0:
246,54,22076,1,0,0:0:0:0:
237,83,22136,1,0,0:0:0:0:
239,113,22196,1,0,0:0:0:0:
254,137,22256,6,0,L|210:149,1,30.3749992071389
56,74,22376,2,0,L|43:24,1,30.3749992071389
84,274,22496,2,0,L|73:318,1,30.3749992071389
53,171,22616,1,0,0:0:0:0:
88,163,22676,1,0,0:0:0:0:
124,170,22736,1,0,0:0:0:0:
154,189,22796,1,0,0:0:0:0:
176,218,22856,6,0,L|182:263,1,30.3749992071389
278,147,22976,2,0,L|287:101,1,30.3749992071389
310,287,23096,2,0,L|329:327,1,30.3749992071389
372,89,23216,5,0,0:0:0:0:
357,62,23276,1,0,0:0:0:0:
335,41,23336,1,0,0:0:0:0:
307,29,23396,1,0,0:0:0:0:
277,27,23456,2,0,L|232:35,1,30.3749992071389
76,123,23576,2,0,L|121:131,1,30.3749992071389
297,255,23696,5,0,0:0:0:0:
291,218,23756,1,0,0:0:0:0:
286,182,23816,1,0,0:0:0:0:
278,147,23876,1,0,0:0:0:0:
269,106,23936,2,0,L|256:54,1,30.3749992071389
85,250,24056,2,0,L|94:198,1,30.3749992071389
301,335,24176,6,0,B|395:352|395:352|492:314,2,182.249995242834
173,169,24616,1,0,0:0:0:0:
173,169,24696,2,0,B|94:140|94:140|-16:182,2,182.249995242834
261,76,25136,6,0,L|262:42,1,30.3749992071389
94,251,25256,2,0,L|85:279,1,30.3749992071389
328,188,25376,2,0,L|361:179,1,30.3749992071389
113,61,25496,1,0,0:0:0:0:
131,36,25556,1,0,0:0:0:0:
152,14,25616,6,0,L|158:77,1,60.7499984142779
323,248,25736,2,0,L|328:187,1,60.7499984142779
453,48,25856,2,0,L|399:30,1,30.3749992071389
187,252,25976,2,0,L|236:249,1,30.3749992071389
462,333,26096,5,0,0:0:0:0:
456,297,26156,1,0,0:0:0:0:
450,261,26216,1,0,0:0:0:0:
444,225,26276,1,0,0:0:0:0:
438,189,26336,2,0,L|431:145,1,30.3749992071389
157,74,26456,2,0,L|151:103,1,30.3749992071389
238,318,26576,5,0,0:0:0:0:
219,280,26636,1,0,0:0:0:0:
187,252,26696,1,0,0:0:0:0:
147,238,26756,1,0,0:0:0:0:
105,241,26816,1,0,0:0:0:0:
69,262,26876,1,0,0:0:0:0:
49,298,26936,6,0,B|59:237|59:237|36:177|36:177|56:102|56:102|46:53,1,242.999993657112
269,38,27296,2,0,L|314:25,2,30.3749992071389
167,179,27416,2,0,L|122:166,2,30.3749992071389
351,269,27536,5,0,0:0:0:0:
329,240,27596,1,0,0:0:0:0:
316,205,27656,1,0,0:0:0:0:
316,169,27716,1,0,0:0:0:0:
326,134,27776,2,0,L|334:98,4,30.3749992071389
201,306,28016,6,0,B|154:343|154:343|19:323,2,182.249995242834
316,205,28496,2,0,B|370:185|370:185|506:230,2,182.249995242834
192,173,28976,5,0,0:0:0:0:
315,326,29156,2,0,L|316:192,1,121.499996828556
350,63,29456,2,0,P|281:126|209:122,1,161.999995771408
243,6,29816,1,0,0:0:0:0:
481,180,29936,5,0,0:0:0:0:
481,180,31616,6,0,B|445:154|445:154|421:169|421:169|401:156|401:156|368:176|301:165,1,182.249995242834
234,84,31856,5,0,0:0:0:0:
127,271,31976,1,0,0:0:0:0:
119,112,32096,5,0,0:0:0:0:
348,53,32216,1,0,0:0:0:0:
305,274,32336,1,0,0:0:0:0:
305,274,32396,1,0,0:0:0:0:
305,274,32456,1,0,0:0:0:0:
155,30,32576,5,0,0:0:0:0:
416,165,32696,1,0,0:0:0:0:
416,165,32756,1,0,0:0:0:0:
416,165,32816,5,0,0:0:0:0:
372,148,32876,1,0,0:0:0:0:
325,148,32936,1,0,0:0:0:0:
281,165,32996,1,0,0:0:0:0:
247,197,33056,5,0,0:0:0:0:
218,213,33116,1,0,0:0:0:0:
185,217,33176,1,0,0:0:0:0:
153,211,33236,1,0,0:0:0:0:
125,193,33296,6,0,P|116:142|136:100,1,94.4999975333211
309,249,33476,2,0,P|269:284|210:292,1,94.4999975333211
213,68,33656,2,0,P|240:77|258:99,1,47.2499987666606
42,221,33776,5,0,0:0:0:0:
88,167,35216,6,0,P|36:154|55:223,1,141.749996299982
229,293,35456,2,0,L|325:285,1,94.4999975333211
228,138,35696,5,0,0:0:0:0:
157,356,35816,1,0,0:0:0:0:
88,167,35936,5,0,0:0:0:0:
323,285,36056,1,0,0:0:0:0:
37,302,36176,5,0,0:0:0:0:
37,302,36236,1,0,0:0:0:0:
37,302,36296,1,0,0:0:0:0:
151,74,36416,1,0,0:0:0:0:
323,285,36536,5,0,0:0:0:0:
323,285,36596,1,0,0:0:0:0:
323,285,36656,5,0,0:0:0:0:
332,238,36716,1,0,0:0:0:0:
297,205,36776,5,0,0:0:0:0:
282,160,36836,1,0,0:0:0:0:
318,130,36896,5,0,0:0:0:0:
301,95,36956,1,0,0:0:0:0:
316,60,37016,5,0,0:0:0:0:
335,27,37076,1,0,0:0:0:0:
302,7,37136,6,0,B|289:67|289:67|329:192|329:192|319:296,1,283.499992599963
112,139,37616,6,0,P|170:143|221:200,1,135.000000596046
67,269,37976,1,0,0:0:0:0:
67,269,38096,2,0,P|49:239|47:204,1,67.500000298023
201,281,38336,2,0,P|174:305|135:310,1,67.500000298023
219,196,38576,6,0,L|357:203,1,135.000000596046
449,325,38936,1,0,0:0:0:0:
449,325,39056,2,0,P|431:294|431:252,1,67.500000298023
480,106,39296,2,0,P|446:136|412:143,1,67.500000298023
236,44,39536,6,0,P|277:101|286:172,1,135.000000596046
132,193,39896,1,0,0:0:0:0:
132,193,40016,2,0,P|157:156|181:138,1,67.500000298023
284,295,40256,2,0,P|253:281|229:257,1,67.500000298023
377,94,40496,6,0,L|363:234,1,135.000000596046
155,339,40856,1,0,0:0:0:0:
155,339,40976,2,0,L|143:268,1,67.500000298023
274,96,41216,2,0,L|266:164,1,67.500000298023
353,306,41456,6,0,B|287:286|287:286|237:337,1,135.000000596046
80,256,41816,1,0,0:0:0:0:
80,256,41936,2,0,P|121:273|150:271,1,67.500000298023
266,163,42176,2,0,P|231:172|204:206,1,67.500000298023
280,327,42416,6,0,P|288:295|283:262,1,67.500000298023
128,125,42656,2,0,P|122:158|130:190,1,67.500000298023
282,261,42896,2,0,L|360:245,1,67.500000298023
135,326,43136,2,0,L|57:310,1,67.500000298023
224,92,43376,5,0,0:0:0:0:
220,120,43436,1,0,0:0:0:0:
217,148,43496,1,0,0:0:0:0:
213,176,43556,1,0,0:0:0:0:
224,92,43856,5,0,0:0:0:0:
228,134,43916,1,0,0:0:0:0:
232,177,43976,1,0,0:0:0:0:
237,220,44036,1,0,0:0:0:0:
224,92,44336,5,0,0:0:0:0:
222,146,44396,1,0,0:0:0:0:
220,201,44456,1,0,0:0:0:0:
218,255,44516,1,0,0:0:0:0:
224,92,44816,5,0,0:0:0:0:
224,159,44876,1,0,0:0:0:0:
225,226,44936,1,0,0:0:0:0:
226,294,44996,1,0,0:0:0:0:
226,294,45296,5,0,0:0:0:0:
226,294,45416,1,0,0:0:0:0:
443,211,45536,1,0,0:0:0:0:
443,211,45656,1,0,0:0:0:0:
145,177,45776,5,0,0:0:0:0:
367,332,45896,1,0,0:0:0:0:
287,106,46016,1,0,0:0:0:0:
120,301,46136,1,0,0:0:0:0:
393,218,46256,6,0,L|288:243,1,94.4999975333211
155,72,46496,2,0,L|260:97,1,94.4999975333211
460,144,46736,1,0,0:0:0:0:
215,297,46856,1,0,0:0:0:0:
210,264,46916,1,0,0:0:0:0:
206,231,46976,1,0,0:0:0:0:
375,22,47096,1,0,0:0:0:0:
370,54,47156,1,0,0:0:0:0:
366,87,47216,5,0,0:0:0:0:
317,299,47336,1,0,0:0:0:0:
108,146,47456,1,0,0:0:0:0:
264,29,47576,1,0,0:0:0:0:
375,205,47696,5,0,0:0:0:0:
166,57,47816,1,0,0:0:0:0:
461,139,47936,1,0,0:0:0:0:
166,243,48056,1,0,0:0:0:0:
435,363,48176,2,0,L|443:266,1,94.4999975333211
152,96,48416,2,0,L|159:190,1,94.4999975333211
410,108,48656,6,0,P|377:80|309:64,1,94.4999975333211
244,102,48836,2,0,P|283:93|337:55,1,94.4999975333211
317,18,49016,2,0,P|325:39|327:63,1,47.2499987666606
329,183,49136,6,0,L|320:324,1,141.749996299982
79,256,50816,6,0,L|86:147,1,101.250000447034
79,256,51056,6,0,L|90:79,1,162.000000715255
407,69,52496,6,0,L|435:67,1,16.8750000745057
209,120,52656,2,0,L|185:115,1,16.8750000745057
459,153,52816,2,0,L|484:148,1,16.8750000745057
165,206,52976,2,0,L|86:194,1,67.500000298023
361,337,53936,6,0,L|363:192,1,135.000000596046
336,69,54296,2,0,L|365:215,1,135.000000596046
428,214,54656,2,0,L|350:198,1,67.500000298023
178,124,54896,5,0,0:0:0:0:
179,144,54956,1,0,0:0:0:0:
181,164,55016,1,0,0:0:0:0:
183,184,55076,1,0,0:0:0:0:
185,200,55136,1,0,0:0:0:0:
267,339,55256,5,0,0:0:0:0:
269,323,55316,1,0,0:0:0:0:
270,303,55376,1,0,0:0:0:0:
272,283,55436,1,0,0:0:0:0:
274,263,55496,1,0,0:0:0:0:
301,86,55616,5,0,0:0:0:0:
283,101,55676,1,0,0:0:0:0:
263,113,55736,1,0,0:0:0:0:
241,122,55796,1,0,0:0:0:0:
217,126,55856,1,0,0:0:0:0:
44,24,55976,5,0,0:0:0:0:
68,28,56036,1,0,0:0:0:0:
90,37,56096,1,0,0:0:0:0:
110,49,56156,1,0,0:0:0:0:
128,65,56216,1,0,0:0:0:0:
42,144,56336,2,0,L|36:132,8,8.43750003725287
283,101,56576,2,0,L|289:89,8,8.43750003725287
131,266,56816,5,0,0:0:0:0:
107,268,56876,1,0,0:0:0:0:
84,271,56936,1,0,0:0:0:0:
60,274,56996,1,0,0:0:0:0:
37,277,57056,1,0,0:0:0:0:
301,305,57176,5,0,0:0:0:0:
324,307,57236,1,0,0:0:0:0:
347,310,57296,1,0,0:0:0:0:
371,313,57356,1,0,0:0:0:0:
394,316,57416,1,0,0:0:0:0:
211,131,57536,5,0,0:0:0:0:
214,154,57596,1,0,0:0:0:0:
217,177,57656,1,0,0:0:0:0:
220,201,57716,1,0,0:0:0:0:
223,224,57776,1,0,0:0:0:0:
388,363,57896,5,0,0:0:0:0:
391,339,57956,1,0,0:0:0:0:
394,316,58016,1,0,0:0:0:0:
397,292,58076,1,0,0:0:0:0:
400,269,58136,1,0,0:0:0:0:
300,163,58256,2,0,L|312:155,8,8.43750003725287
497,86,58496,2,0,L|485:78,8,8.43750003725287
225,42,58736,5,0,0:0:0:0:
226,55,60416,6,0,B|214:101|214:101|228:152|228:152|199:202|211:264|226:288,1,222.750007781267
322,332,60656,5,0,0:0:0:0:
105,290,60776,1,0,0:0:0:0:
388,217,60896,5,0,0:0:0:0:
48,207,61016,1,0,0:0:0:0:
365,38,61136,5,0,0:0:0:0:
337,299,61256,1,0,0:0:0:0:
226,55,61376,5,0,0:0:0:0:
495,177,61496,1,0,0:0:0:0:
243,283,61616,2,0,L|353:301,1,94.4999975333211
162,103,61856,5,0,0:0:0:0:
169,355,61976,1,0,0:0:0:0:
46,218,62096,5,0,0:0:0:0:
420,186,62216,1,0,0:0:0:0:
162,103,62456,6,0,L|166:308,1,188.999995066642
56,188,62816,5,0,0:0:0:0:
305,137,62936,1,0,0:0:0:0:
226,18,63056,5,0,0:0:0:0:
167,327,63176,1,0,0:0:0:0:
40,196,63296,5,0,0:0:0:0:
340,260,63416,1,0,0:0:0:0:
172,367,63536,5,0,0:0:0:0:
106,49,63656,1,0,0:0:0:0:
399,153,63776,5,0,0:0:0:0:
24,202,63896,1,0,0:0:0:0:
396,323,64016,2,0,L|408:217,1,94.4999975333211
396,323,64376,6,0,L|366:73,1,242.999993657112
148,199,64736,2,0,L|270:245,1,121.499996828556
487,319,64976,1,0,0:0:0:0:
126,370,65096,1,0,0:0:0:0:
126,370,65336,6,0,L|394:333,1,242.999993657112
201,118,65696,2,0,L|174:236,1,121.499996828556
136,378,65936,1,0,0:0:0:0:
80,66,66056,1,0,0:0:0:0:
277,296,66296,6,0,P|269:230|273:168,1,121.499996828556
452,336,66536,1,0,0:0:0:0:
423,341,66596,1,0,0:0:0:0:
393,346,66656,1,0,0:0:0:0:
218,286,66776,1,0,0:0:0:0:
247,291,66836,1,0,0:0:0:0:
277,296,66896,5,0,0:0:0:0:
363,116,67016,1,0,0:0:0:0:
367,146,67076,1,0,0:0:0:0:
371,176,67136,1,0,0:0:0:0:
393,346,67256,1,0,0:0:0:0:
155,345,67376,5,0,0:0:0:0:
208,26,67496,1,0,0:0:0:0:
155,345,67736,2,0,B|131:367|131:367|118:320|146:265,2,121.499996828556
309,149,68096,2,0,L|305:134,8,15.1874996035695
410,314,68336,5,0,0:0:0:0:
155,345,68456,1,0,0:0:0:0:
493,235,68576,5,0,0:0:0:0:
121,218,68696,1,0,0:0:0:0:
208,26,68816,5,0,0:0:0:0:
244,288,68936,1,0,0:0:0:0:
348,10,69056,5,0,0:0:0:0:
314,360,69176,1,0,0:0:0:0:
459,89,69296,5,0,0:0:0:0:
74,189,69416,1,0,0:0:0:0:
74,189,69476,1,0,0:0:0:0:
74,189,69536,1,0,0:0:0:0:
314,360,69656,1,0,0:0:0:0:
314,360,69716,1,0,0:0:0:0:
314,360,69776,5,0,0:0:0:0:
280,35,69896,1,0,0:0:0:0:
295,271,70136,6,0,B|276:207|276:207|297:114|297:114|278:27,1,242.999993657112
423,211,70496,5,0,0:0:0:0:
134,105,70616,1,0,0:0:0:0:
443,92,70736,5,0,0:0:0:0:
82,230,70856,1,0,0:0:0:0:
212,353,70976,5,0,0:0:0:0:
279,34,71096,1,0,0:0:0:0:
423,211,71216,1,0,0:0:0:0:
423,211,71276,1,0,0:0:0:0:
423,211,71336,1,0,0:0:0:0:
183,259,71456,1,0,0:0:0:0:
183,259,71516,1,0,0:0:0:0:
183,259,71576,1,0,0:0:0:0:
378,303,71696,5,0,0:0:0:0:
17,268,71816,1,0,0:0:0:0:
17,268,72056,6,0,L|278:255,1,242.999993657112
504,238,72416,1,0,0:0:0:0:
504,238,72656,1,0,0:0:0:0:
176,145,72776,1,0,0:0:0:0:
176,145,73016,6,0,L|431:110,1,242.999993657112
225,25,73376,1,0,0:0:0:0:
225,25,73616,1,0,0:0:0:0:
122,308,73736,1,0,0:0:0:0:
457,164,73976,6,0,L|325:150,1,121.499996828556
141,60,74216,1,0,0:0:0:0:
143,92,74276,1,0,0:0:0:0:
146,124,74336,1,0,0:0:0:0:
267,307,74456,1,0,0:0:0:0:
273,273,74516,1,0,0:0:0:0:
279,238,74576,1,0,0:0:0:0:
375,53,74696,5,0,0:0:0:0:
340,61,74756,1,0,0:0:0:0:
304,68,74816,1,0,0:0:0:0:
50,117,74936,1,0,0:0:0:0:
267,307,75056,6,0,L|249:159,2,141.749996299982
83,221,75536,2,0,L|62:368,2,141.749996299982
184,95,76016,6,0,P|127:135|96:125,1,101.250000447034
37,56,76256,5,0,0:0:0:0:
172,346,76376,1,0,0:0:0:0:
276,38,76496,5,0,0:0:0:0:
265,276,76616,1,0,0:0:0:0:
363,84,76736,5,0,0:0:0:0:
374,243,76856,1,0,0:0:0:0:
463,158,76976,5,0,0:0:0:0:
184,95,77096,1,0,0:0:0:0:
448,41,77216,1,0,0:0:0:0:
448,41,77336,5,0,0:0:0:0:
46,79,77576,1,0,0:0:0:0:
59,261,77816,6,0,B|68:213|68:213|28:143|47:71,1,188.999995066642
264,114,78176,2,0,P|233:162|190:181,1,94.4999975333211
141,16,78416,2,0,L|202:29,1,47.2499987666606
140,16,78776,6,0,L|347:59,1,188.999995066642
505,183,79136,2,0,L|400:197,1,94.4999975333211
219,251,79376,6,0,B|210:225|210:225|240:153,1,94.4999975333211
197,88,79576,2,0,B|221:94|221:94|236:168,1,94.4999975333211
311,303,79776,2,0,L|100:278,1,212.624994449973
14,180,80126,5,0,0:0:0:0:
301,104,80246,1,0,0:0:0:0:
301,104,80336,1,0,0:0:0:0:
165,31,80486,1,0,0:0:0:0:
203,245,80606,1,0,0:0:0:0:
203,245,80696,1,0,0:0:0:0:
55,70,80816,5,0,0:0:0:0:
272,20,80936,1,0,0:0:0:0:
38,165,81056,5,0,0:0:0:0:
318,170,81176,1,0,0:0:0:0:
75,275,81416,5,0,0:0:0:0:
506,187,81656,2,0,L|312:169,1,188.999995066642
125,90,82016,2,0,P|145:128|150:185,1,94.4999975333211
249,345,82256,2,0,P|237:306|244:252,1,94.4999975333211
294,39,82616,6,0,P|239:84|124:89,1,188.999995066642
66,257,82976,2,0,P|44:208|52:157,1,94.4999975333211
243,253,83216,2,0,P|203:300|159:309,1,94.4999975333211
140,110,83456,2,0,P|183:115|228:165,1,94.4999975333211
316,306,83696,6,0,L|469:299,1,141.749996299982
457,299,83936,2,0,P|421:311|477:334,1,141.749996299982
475,341,84176,2,0,L|464:190,1,141.749996299982
488,57,84416,6,0,B|446:78|446:78|323:68,1,162.000000715255
202,21,84656,5,0,0:0:0:0:
205,49,84716,1,0,0:0:0:0:
225,69,84776,5,0,0:0:0:0:
221,97,84836,1,0,0:0:0:0:
201,117,84896,5,0,0:0:0:0:
205,144,84956,1,0,0:0:0:0:
228,160,85016,5,0,0:0:0:0:
224,188,85076,1,0,0:0:0:0:
214,214,85136,6,0,L|229:368,1,141.749996299982
227,355,85376,6,0,B|190:319|222:286|222:286|254:245|207:207,1,162.000000715255
130,261,85616,5,0,0:0:0:0:
106,265,85676,1,0,0:0:0:0:
83,269,85736,1,0,0:0:0:0:
60,274,85796,1,0,0:0:0:0:
37,278,85856,2,0,L|55:226,1,47.2499987666606
167,124,85976,2,0,L|178:169,1,47.2499987666606
57,130,86096,6,0,B|24:82|56:17|56:17|68:44,1,141.749996299982
65,37,86336,6,0,L|172:43,1,101.250000447034
388,20,86576,5,0,0:0:0:0:
371,48,86636,1,0,0:0:0:0:
362,80,86696,1,0,0:0:0:0:
360,113,86756,1,0,0:0:0:0:
365,145,86816,1,0,0:0:0:0:
378,176,86876,1,0,0:0:0:0:
397,203,86936,5,0,0:0:0:0:
420,248,86996,1,0,0:0:0:0:
411,298,87056,1,0,0:0:0:0:
373,333,87116,1,0,0:0:0:0:
322,338,87176,1,0,0:0:0:0:
279,311,87236,1,0,0:0:0:0:
260,263,87296,5,0,0:0:0:0:
308,221,87356,1,0,0:0:0:0:
368,240,87416,1,0,0:0:0:0:
382,301,87476,1,0,0:0:0:0:
336,345,87536,5,0,0:0:0:0:
294,323,87616,1,0,0:0:0:0:
248,313,87696,1,0,0:0:0:0:
201,316,87776,1,0,0:0:0:0:
156,331,87856,1,0,0:0:0:0:
117,358,87936,1,0,0:0:0:0:
70,363,88016,6,0,L|65:301,2,45.000000198682
123,246,88256,2,0,L|128:184,2,45.000000198682
38,77,88496,6,0,L|48:137,1,60.7499984142779
38,77,89456,6,0,L|51:160,1,67.500000298023
203,166,90313,6,0,B|263:187|263:187|480:149,2,270.000001192092
38,77,91439,1,0,0:0:0:0:
38,77,91792,5,0,0:0:0:0:
38,77,91873,1,0,0:0:0:0:
297,147,92035,1,0,0:0:0:0:
297,147,92116,1,0,0:0:0:0:
80,186,92359,1,0,0:0:0:0:
80,186,92440,5,0,0:0:0:0:
268,37,92590,1,0,0:0:0:0:
212,261,92740,1,0,0:0:0:0:
114,37,92890,1,0,0:0:0:0:
303,182,93040,5,0,0:0:0:0:
342,175,93109,1,0,0:0:0:0:
382,169,93179,1,0,0:0:0:0:
422,162,93249,1,0,0:0:0:0:
462,156,93319,5,0,0:0:0:0:
401,133,93388,1,0,0:0:0:0:
339,156,93458,1,0,0:0:0:0:
308,214,93528,1,0,0:0:0:0:
324,278,93598,6,0,L|380:267,15,33.7500001490115
273,336,94119,6,0,L|213:326,7,33.7500001490115
183,278,94380,6,0,L|120:290,9,33.7500001490115
91,236,94692,6,0,L|57:229,44,33.7500001490115
164,182,96130,5,0,0:0:0:0:
164,182,96610,6,0,L|156:134,1,27.0000001192092
274,303,96730,2,0,L|260:348,1,27.0000001192092
336,135,96850,1,0,0:0:0:0:
368,130,96910,1,0,0:0:0:0:
397,142,96970,1,0,0:0:0:0:
417,167,97030,1,0,0:0:0:0:
426,197,97090,6,0,L|355:204,1,54.0000002384184
117,280,97211,2,0,L|188:287,1,54.0000002384184
389,339,97331,2,0,L|371:302,1,27.0000001192092
257,67,97451,1,0,0:0:0:0:
238,70,97481,1,0,0:0:0:0:
219,73,97511,1,0,0:0:0:0:
201,76,97541,1,0,0:0:0:0:
182,79,97571,6,0,L|238:91,1,54.0000002384184
397,142,97691,2,0,L|337:154,1,54.0000002384184
136,242,97811,2,0,L|200:250,1,54.0000002384184
377,314,97931,2,0,L|314:323,1,54.0000002384184
59,286,98051,5,0,0:0:0:0:
48,261,98111,1,0,0:0:0:0:
46,234,98171,1,0,0:0:0:0:
53,208,98231,1,0,0:0:0:0:
67,185,98292,2,0,L|72:154,3,27.0000001192092
15,96,98412,2,0,L|10:64,3,27.0000001192092
84,21,98532,6,0,L|159:6,1,54.0000002384184
254,84,98652,2,0,L|200:75,1,54.0000002384184
324,15,98772,5,0,0:0:0:0:
341,35,98832,1,0,0:0:0:0:
351,60,98892,1,0,0:0:0:0:
354,87,98952,1,0,0:0:0:0:
348,113,99012,2,0,L|355:157,7,27.0000001192092
384,217,99253,2,0,L|333:235,1,54.0000002384184
172,161,99373,2,0,L|232:172,1,54.0000002384184
346,340,99493,6,0,P|332:283|334:224,1,108.000000476837
448,305,99673,2,0,L|337:342,1,108.000000476837
192,254,99853,2,0,L|254:268,1,54.0000002384184
137,322,99973,6,0,P|105:272|113:219,1,108.000000476837
149,129,100154,2,0,P|132:199|107:228,1,108.000000476837
24,85,100334,2,0,P|58:73|85:76,1,54.0000002384184
304,119,100454,6,0,L|230:129,1,54.0000002384184
57,210,100574,2,0,L|121:229,1,54.0000002384184
235,346,100694,1,0,0:0:0:0:
236,313,100754,1,0,0:0:0:0:
248,283,100814,1,0,0:0:0:0:
270,260,100874,1,0,0:0:0:0:
299,245,100934,6,0,L|291:315,1,54.0000002384184
404,178,101054,2,0,L|387:114,1,54.0000002384184
471,279,101175,2,0,L|468:294,8,13.5000000596046
354,46,101355,5,0,0:0:0:0:
386,39,101415,1,0,0:0:0:0:
417,44,101475,1,0,0:0:0:0:
446,60,101535,1,0,0:0:0:0:
467,84,101595,1,0,0:0:0:0:
478,115,101655,6,0,L|406:124,1,54.0000002384184
252,202,101775,2,0,L|324:211,1,54.0000002384184
471,279,101895,2,0,L|463:242,1,27.0000001192092
284,90,102015,2,0,L|278:116,1,27.0000001192092
224,301,102136,1,0,0:0:0:0:
89,150,102256,6,0,P|152:193|282:73,1,270.000001192092
104,66,102616,6,0,L|91:69,12,13.5000000596046
188,34,102856,2,0,L|201:38,12,13.5000000596046
283,89,103096,6,0,L|348:77,1,54.0000002384184
479,167,103217,2,0,L|408:161,1,54.0000002384184
223,185,103337,2,0,P|215:243|243:303,1,108.000000476837
413,346,103517,2,0,P|421:293|404:242,1,108.000000476837
277,354,103697,2,0,L|347:327,1,54.0000002384184
223,185,103817,6,0,L|106:182,1,108.000000476837
320,91,103997,2,0,L|427:88,1,108.000000476837
209,24,104178,2,0,P|211:52|221:78,1,54.0000002384184
330,192,104298,5,0,0:0:0:0:
330,192,104418,2,0,L|318:280,1,80.9999978857038
167,141,104658,1,0,0:0:0:0:
167,141,104778,2,0,L|177:236,1,80.9999978857038
269,86,105018,2,0,L|252:-2,1,80.9999978857038
434,81,105259,5,0,0:0:0:0:
426,120,105319,1,0,0:0:0:0:
446,154,105379,5,0,0:0:0:0:
460,191,105439,1,0,0:0:0:0:
444,228,105499,5,0,0:0:0:0:
430,266,105559,1,0,0:0:0:0:
440,304,105619,5,0,0:0:0:0:
451,342,105679,1,0,0:0:0:0:
423,371,105739,6,0,B|399:349|399:349|431:260,1,121.499996828556
444,228,105979,6,0,P|405:251|313:246,1,121.499996828556
199,161,106220,5,0,0:0:0:0:
235,190,106280,1,0,0:0:0:0:
256,232,106340,1,0,0:0:0:0:
258,279,106400,1,0,0:0:0:0:
240,322,106460,2,0,L|170:312,1,67.500000298023
46,208,106580,2,0,L|132:194,1,67.500000298023
320,153,106700,1,0,0:0:0:0:
320,153,107181,5,0,0:0:0:0:
318,119,107241,1,0,0:0:0:0:
316,85,107301,1,0,0:0:0:0:
314,51,107361,1,0,0:0:0:0:
312,18,107421,2,0,L|236:33,1,67.500000298023
131,117,107541,2,0,L|207:131,1,67.500000298023
438,182,107661,1,0,0:0:0:0:
438,182,108142,6,0,L|445:219,10,33.7500001490115
341,317,108502,2,0,L|348:284,8,33.7500001490115
288,147,108802,2,0,L|295:179,8,33.7500001490115
156,344,109102,6,0,P|76:332|208:298,1,472.500002086161
128,260,109583,1,0,0:0:0:0:
256,192,109613,12,0,111625,0:0:0:0:
126,192,112466,5,0,0:0:0:0:
251,104,112841,6,0,L|350:93,1,92.8125032421944
155,71,113466,2,0,L|49:62,1,97.0312522791323
285,182,114147,2,0,L|342:175,1,58.2187513674794
155,293,114556,6,0,L|147:246,1,42.1875001862644
259,325,115081,6,0,L|268:279,1,42.1875001862644
136,343,115664,6,0,L|129:295,1,42.1875001862644
284,366,116320,6,0,L|290:325,1,40.4999989428519
